  0
SECTION
  2
HEADER
  9
$ACADVER
  1
AC1015
  9
$ACADMAINTVER
 70
     6
  9
$DWGCODEPAGE
  3
ANSI_932
  9
$INSBASE
 10
0.0
 20
0.0
 30
0.0
  9
$EXTMIN
 10
0.0
 20
0.0
 30
0.0
  9
$EXTMAX
 10
210.0
 20
297.0
 30
0.0
  9
$LIMMIN
 10
0.0
 20
0.0
  9
$LIMMAX
 10
12.0
 20
9.0
  9
$ORTHOMODE
 70
     0
  9
$REGENMODE
 70
     1
  9
$FILLMODE
 70
     1
  9
$QTEXTMODE
 70
     0
  9
$MIRRTEXT
 70
     1
  9
$LTSCALE
 40
1.0
  9
$ATTMODE
 70
     1
  9
$TEXTSIZE
 40
0.2
  9
$TRACEWID
 40
0.05
  9
$TEXTSTYLE
  7
Standard
  9
$CLAYER
  8
0
  9
$CELTYPE
  6
ByLayer
  9
$CECOLOR
 62
   256
  9
$CELTSCALE
 40
1.0
  9
$DISPSILH
 70
     0
  9
$DIMSCALE
 40
1.0
  9
$DIMASZ
 40
0.18
  9
$DIMEXO
 40
0.0625
  9
$DIMDLI
 40
0.38
  9
$DIMRND
 40
0.0
  9
$DIMDLE
 40
0.0
  9
$DIMEXE
 40
0.18
  9
$DIMTP
 40
0.0
  9
$DIMTM
 40
0.0
  9
$DIMTXT
 40
0.18
  9
$DIMCEN
 40
0.09
  9
$DIMTSZ
 40
0.0
  9
$DIMTOL
 70
     0
  9
$DIMLIM
 70
     0
  9
$DIMTIH
 70
     1
  9
$DIMTOH
 70
     1
  9
$DIMSE1
 70
     0
  9
$DIMSE2
 70
     0
  9
$DIMTAD
 70
     0
  9
$DIMZIN
 70
     0
  9
$DIMBLK
  1

  9
$DIMASO
 70
     1
  9
$DIMSHO
 70
     1
  9
$DIMPOST
  1

  9
$DIMAPOST
  1

  9
$DIMALT
 70
     0
  9
$DIMALTD
 70
     2
  9
$DIMALTF
 40
25.4
  9
$DIMLFAC
 40
1.0
  9
$DIMTOFL
 70
     0
  9
$DIMTVP
 40
0.0
  9
$DIMTIX
 70
     0
  9
$DIMSOXD
 70
     0
  9
$DIMSAH
 70
     0
  9
$DIMBLK1
  1

  9
$DIMBLK2
  1

  9
$DIMSTYLE
  2
Standard
  9
$DIMCLRD
 70
     0
  9
$DIMCLRE
 70
     0
  9
$DIMCLRT
 70
     0
  9
$DIMTFAC
 40
1.0
  9
$DIMGAP
 40
0.09
  9
$DIMJUST
 70
     0
  9
$DIMSD1
 70
     0
  9
$DIMSD2
 70
     0
  9
$DIMTOLJ
 70
     1
  9
$DIMTZIN
 70
     0
  9
$DIMALTZ
 70
     0
  9
$DIMALTTZ
 70
     0
  9
$DIMUPT
 70
     0
  9
$DIMDEC
 70
     4
  9
$DIMTDEC
 70
     4
  9
$DIMALTU
 70
     2
  9
$DIMALTTD
 70
     2
  9
$DIMTXSTY
  7
Standard
  9
$DIMAUNIT
 70
     0
  9
$DIMADEC
 70
     0
  9
$DIMALTRND
 40
0.0
  9
$DIMAZIN
 70
     0
  9
$DIMDSEP
 70
    46
  9
$DIMATFIT
 70
     3
  9
$DIMFRAC
 70
     0
  9
$DIMLDRBLK
  1

  9
$DIMLUNIT
 70
     2
  9
$DIMLWD
 70
    -2
  9
$DIMLWE
 70
    -2
  9
$DIMTMOVE
 70
     0
  9
$LUNITS
 70
     2
  9
$LUPREC
 70
     4
  9
$SKETCHINC
 40
0.1
  9
$FILLETRAD
 40
0.5
  9
$AUNITS
 70
     0
  9
$AUPREC
 70
     0
  9
$MENU
  1
.
  9
$ELEVATION
 40
0.0
  9
$PELEVATION
 40
0.0
  9
$THICKNESS
 40
0.0
  9
$LIMCHECK
 70
     0
  9
$CHAMFERA
 40
0.5
  9
$CHAMFERB
 40
0.5
  9
$CHAMFERC
 40
1.0
  9
$CHAMFERD
 40
0.0
  9
$SKPOLY
 70
     0
  9
$TDCREATE
 40
2457529.433916042
  9
$TDUCREATE
 40
2457529.058916042
  9
$TDUPDATE
 40
2457529.433917118
  9
$TDUUPDATE
 40
2457529.058917118
  9
$TDINDWG
 40
0.0000000116
  9
$TDUSRTIMER
 40
0.0000000116
  9
$USRTIMER
 70
     1
  9
$ANGBASE
 50
0.0
  9
$ANGDIR
 70
     0
  9
$PDMODE
 70
     0
  9
$PDSIZE
 40
0.0
  9
$PLINEWID
 40
0.0
  9
$SPLFRAME
 70
     0
  9
$SPLINETYPE
 70
     6
  9
$SPLINESEGS
 70
     8
  9
$HANDSEED
  5
1FE
  9
$SURFTAB1
 70
     6
  9
$SURFTAB2
 70
     6
  9
$SURFTYPE
 70
     6
  9
$SURFU
 70
     6
  9
$SURFV
 70
     6
  9
$UCSBASE
  2

  9
$UCSNAME
  2

  9
$UCSORG
 10
0.0
 20
0.0
 30
0.0
  9
$UCSXDIR
 10
1.0
 20
0.0
 30
0.0
  9
$UCSYDIR
 10
0.0
 20
1.0
 30
0.0
  9
$UCSORTHOREF
  2

  9
$UCSORTHOVIEW
 70
     0
  9
$UCSORGTOP
 10
0.0
 20
0.0
 30
0.0
  9
$UCSORGBOTTOM
 10
0.0
 20
0.0
 30
0.0
  9
$UCSORGLEFT
 10
0.0
 20
0.0
 30
0.0
  9
$UCSORGRIGHT
 10
0.0
 20
0.0
 30
0.0
  9
$UCSORGFRONT
 10
0.0
 20
0.0
 30
0.0
  9
$UCSORGBACK
 10
0.0
 20
0.0
 30
0.0
  9
$PUCSBASE
  2

  9
$PUCSNAME
  2

  9
$PUCSORG
 10
0.0
 20
0.0
 30
0.0
  9
$PUCSXDIR
 10
1.0
 20
0.0
 30
0.0
  9
$PUCSYDIR
 10
0.0
 20
1.0
 30
0.0
  9
$PUCSORTHOREF
  2

  9
$PUCSORTHOVIEW
 70
     0
  9
$PUCSORGTOP
 10
0.0
 20
0.0
 30
0.0
  9
$PUCSORGBOTTOM
 10
0.0
 20
0.0
 30
0.0
  9
$PUCSORGLEFT
 10
0.0
 20
0.0
 30
0.0
  9
$PUCSORGRIGHT
 10
0.0
 20
0.0
 30
0.0
  9
$PUCSORGFRONT
 10
0.0
 20
0.0
 30
0.0
  9
$PUCSORGBACK
 10
0.0
 20
0.0
 30
0.0
  9
$USERI1
 70
     0
  9
$USERI2
 70
     0
  9
$USERI3
 70
     0
  9
$USERI4
 70
     0
  9
$USERI5
 70
     0
  9
$USERR1
 40
18.1
  9
$USERR2
 40
0.0
  9
$USERR3
 40
0.0
  9
$USERR4
 40
0.0
  9
$USERR5
 40
0.0
  9
$WORLDVIEW
 70
     1
  9
$SHADEDGE
 70
     3
  9
$SHADEDIF
 70
    70
  9
$TILEMODE
 70
     1
  9
$MAXACTVP
 70
    64
  9
$PINSBASE
 10
0.0
 20
0.0
 30
0.0
  9
$PLIMCHECK
 70
     0
  9
$PEXTMIN
 10
1.00000000000000E+20
 20
1.00000000000000E+20
 30
1.00000000000000E+20
  9
$PEXTMAX
 10
-1.00000000000000E+20
 20
-1.00000000000000E+20
 30
-1.00000000000000E+20
  9
$PLIMMIN
 10
0.0
 20
0.0
  9
$PLIMMAX
 10
12.0
 20
9.0
  9
$UNITMODE
 70
     0
  9
$VISRETAIN
 70
     1
  9
$PLINEGEN
 70
     0
  9
$PSLTSCALE
 70
     1
  9
$TREEDEPTH
 70
  3020
  9
$CMLSTYLE
  2
Standard
  9
$CMLJUST
 70
     0
  9
$CMLSCALE
 40
1.0
  9
$PROXYGRAPHICS
 70
     1
  9
$MEASUREMENT
 70
     1
  9
$CELWEIGHT
370
    -1
  9
$ENDCAPS
280
     0
  9
$JOINSTYLE
280
     0
  9
$LWDISPLAY
290
     0
  9
$INSUNITS
 70
     4
  9
$HYPERLINKBASE
  1

  9
$STYLESHEET
  1

  9
$XEDIT
290
     1
  9
$CEPSNTYPE
380
     0
  9
$PSTYLEMODE
290
     1
  9
$FINGERPRINTGUID
  2
{D6276077-B9C1-43C7-B2A8-A4985D459332}
  9
$VERSIONGUID
  2
{FAEB1C32-E019-11D5-929B-00C0DF256EC4}
  9
$EXTNAMES
290
     1
  9
$PSVPSCALE
 40
0.0
  9
$OLESTARTUP
290
     0
  0
ENDSEC
  0
SECTION
  2
CLASSES
  0
CLASS
  1
ACDBDICTIONARYWDFLT
  2
AcDbDictionaryWithDefault
  3
ObjectDBX Classes
 90
        0
280
     0
281
     0
  0
CLASS
  1
VISUALSTYLE
  2
AcDbVisualStyle
  3
ObjectDBX Classes
 90
     4095
280
     0
281
     0
  0
CLASS
  1
MATERIAL
  2
AcDbMaterial
  3
ObjectDBX Classes
 90
     1153
280
     0
281
     0
  0
CLASS
  1
DICTIONARYVAR
  2
AcDbDictionaryVar
  3
ObjectDBX Classes
 90
        0
280
     0
281
     0
  0
CLASS
  1
ACDBPLACEHOLDER
  2
AcDbPlaceHolder
  3
ObjectDBX Classes
 90
        0
280
     0
281
     0
  0
CLASS
  1
LAYOUT
  2
AcDbLayout
  3
ObjectDBX Classes
 90
        0
280
     0
281
     0
  0
ENDSEC
  0
SECTION
  2
TABLES
  0
TABLE
  2
VPORT
  5
8
330
0
100
AcDbSymbolTable
 70
     1
  0
VPORT
  5
29
330
8
100
AcDbSymbolTableRecord
100
AcDbViewportTableRecord
  2
*Active
 70
     0
 10
0.0
 20
0.0
 11
1.0
 21
1.0
 12
105.0
 22
148.5
 13
0.0
 23
0.0
 14
0.5
 24
0.5
 15
0.5
 25
0.5
 16
0.0
 26
0.0
 36
1.0
 17
0.0
 27
0.0
 37
0.0
 40
326.7
 41
1.60267857142857
 42
50.0
 43
0.0
 44
0.0
 50
0.0
 51
0.0
 71
     0
 72
   100
 73
     1
 74
     3
 75
     0
 76
     0
 77
     0
 78
     0
281
     0
 65
     1
110
0.0
120
0.0
130
0.0
111
1.0
121
0.0
131
0.0
112
0.0
122
1.0
132
0.0
 79
     0
146
0.0
  0
ENDTAB
  0
TABLE
  2
LTYPE
  5
5
330
0
100
AcDbSymbolTable
 70
     8
  0
LTYPE
  5
14
330
5
100
AcDbSymbolTableRecord
100
AcDbLinetypeTableRecord
  2
ByBlock
 70
     0
  3

 72
    65
 73
     0
 40
0.0
  0
LTYPE
  5
15
330
5
100
AcDbSymbolTableRecord
100
AcDbLinetypeTableRecord
  2
ByLayer
 70
     0
  3

 72
    65
 73
     0
 40
0.0
  0
LTYPE
  5
16
330
5
100
AcDbSymbolTableRecord
100
AcDbLinetypeTableRecord
  2
Continuous
 70
     0
  3
Solid line
 72
    65
 73
     0
 40
0.0
  0
LTYPE
  5
3F
330
5
100
AcDbSymbolTableRecord
100
AcDbLinetypeTableRecord
  2
DASHED
 70
     0
  3
Dashed
 72
    65
 73
     2
 40
15.0
 49
7.0
 74
     0
 49
-8.0
 74
     0
  0
LTYPE
  5
40
330
5
100
AcDbSymbolTableRecord
100
AcDbLinetypeTableRecord
  2
DOTTED
 70
     0
  3
Dotted
 72
    65
 73
     2
 40
1.0
 49
0.0
 74
     0
 49
-1.0
 74
     0
  0
LTYPE
  5
41
330
5
100
AcDbSymbolTableRecord
100
AcDbLinetypeTableRecord
  2
DOT_CENTER
 70
     0
  3
Dot_Center
 72
    65
 73
     4
 40
14.0
 49
12.0
 74
     0
 49
-1.0
 74
     0
 49
0.0
 74
     0
 49
-1.0
 74
     0
  0
LTYPE
  5
42
330
5
100
AcDbSymbolTableRecord
100
AcDbLinetypeTableRecord
  2
LONG_DASHED
 70
     0
  3
Long_Dashed
 72
    65
 73
     2
 40
15.0
 49
10.0
 74
     0
 49
-5.0
 74
     0
  0
LTYPE
  5
43
330
5
100
AcDbSymbolTableRecord
100
AcDbLinetypeTableRecord
  2
DASH_CENTER
 70
     0
  3
Dash_Center
 72
    65
 73
     4
 40
14.0
 49
11.0
 74
     0
 49
-1.0
 74
     0
 49
1.0
 74
     0
 49
-1.0
 74
     0
  0
LTYPE
  5
44
330
5
100
AcDbSymbolTableRecord
100
AcDbLinetypeTableRecord
  2
PHANTOM
 70
     0
  3
Phantom
 72
    65
 73
     6
 40
13.0
 49
10.0
 74
     0
 49
-1.0
 74
     0
 49
0.0
 74
     0
 49
-1.0
 74
     0
 49
0.0
 74
     0
 49
-1.0
 74
     0
  0
LTYPE
  5
45
330
5
100
AcDbSymbolTableRecord
100
AcDbLinetypeTableRecord
  2
CENTER_DASH_DASH
 70
     0
  3
Center_Dash_Dash
 72
    65
 73
     6
 40
14.0
 49
9.0
 74
     0
 49
-1.0
 74
     0
 49
1.0
 74
     0
 49
-1.0
 74
     0
 49
1.0
 74
     0
 49
-1.0
 74
     0
  0
ENDTAB
  0
TABLE
  2
LAYER
  5
2
330
0
100
AcDbSymbolTable
 70
     3
  0
LAYER
  5
10
330
2
100
AcDbSymbolTableRecord
100
AcDbLayerTableRecord
  2
0
 70
     0
 62
     7
  6
Continuous
370
    -3
390
F
  0
LAYER
  5
46
330
2
100
AcDbSymbolTableRecord
100
AcDbLayerTableRecord
  2
1
 70
     0
 62
     7
  6
Continuous
370
    -3
390
F
  0
LAYER
  5
47
330
2
100
AcDbSymbolTableRecord
100
AcDbLayerTableRecord
  2
レイヤ0
 70
     0
 62
     7
  6
Continuous
370
    -3
390
F
  0
ENDTAB
  0
TABLE
  2
STYLE
  5
3
330
0
100
AcDbSymbolTable
 70
     3
  0
STYLE
  5
11
330
3
100
AcDbSymbolTableRecord
100
AcDbTextStyleTableRecord
  2
Standard
 70
     0
 40
0.0
 41
1.0
 50
0.0
 71
     0
 42
0.2
  3
txt
  4

  0
STYLE
  5
97
330
3
100
AcDbSymbolTableRecord
100
AcDbTextStyleTableRecord
  2
CONVERTER_11
 70
     0
 40
0.0
 41
0.89
 50
0.0
 71
     0
 42
0.2
  3
MS Mincho.ttf
  4

1001
ACAD
1000
MS Mincho
1071
    32785
  0
STYLE
  5
17F
330
3
100
AcDbSymbolTableRecord
100
AcDbTextStyleTableRecord
  2
CONVERTER_12
 70
     0
 40
0.0
 41
0.9
 50
0.0
 71
     0
 42
0.2
  3
txt.shx
  4

  0
ENDTAB
  0
TABLE
  2
VIEW
  5
6
330
0
100
AcDbSymbolTable
 70
     0
  0
ENDTAB
  0
TABLE
  2
UCS
  5
7
330
0
100
AcDbSymbolTable
 70
     0
  0
ENDTAB
  0
TABLE
  2
APPID
  5
9
330
0
100
AcDbSymbolTable
 70
     1
  0
APPID
  5
12
330
9
100
AcDbSymbolTableRecord
100
AcDbRegAppTableRecord
  2
ACAD
 70
     0
  0
ENDTAB
  0
TABLE
  2
DIMSTYLE
  5
A
330
0
100
AcDbSymbolTable
 70
     8
100
AcDbDimStyleTable
  0
DIMSTYLE
105
27
330
A
100
AcDbSymbolTableRecord
100
AcDbDimStyleTableRecord
  2
Standard
 70
     0
178
     0
340
11
  0
DIMSTYLE
105
18F
102
{ACAD_REACTORS
330
190
102
}
330
A
100
AcDbSymbolTableRecord
100
AcDbDimStyleTableRecord
  2
ME10_DIM_10
 70
     0
  3
{\Fgdt;n}<>
 41
3.5
 42
0.0
 44
1.0
 73
     0
 74
     0
 77
     1
 78
     8
140
3.5
147
1.0
172
     1
173
     1
174
     1
175
     1
176
     2
177
     2
271
     2
178
     7
271
     2
340
17F
  0
DIMSTYLE
105
19A
102
{ACAD_REACTORS
330
19B
102
}
330
A
100
AcDbSymbolTableRecord
100
AcDbDimStyleTableRecord
  2
ME10_DIM_11
 70
     0
 41
3.5
 42
0.0
 44
1.0
 73
     0
 74
     0
 77
     1
 78
     8
140
3.5
147
1.0
172
     1
173
     1
174
     1
175
     1
176
     2
177
     2
271
     2
178
     7
271
     2
340
17F
  0
DIMSTYLE
105
1A5
102
{ACAD_REACTORS
330
1A6
102
}
330
A
100
AcDbSymbolTableRecord
100
AcDbDimStyleTableRecord
  2
ME10_DIM_12
 70
     0
 41
3.5
 42
0.0
 44
1.0
 73
     0
 74
     0
 77
     1
 78
     8
140
3.5
147
1.0
172
     1
173
     1
174
     1
175
     1
176
     2
177
     2
271
     2
178
     7
271
     2
340
97
  0
DIMSTYLE
105
1B0
102
{ACAD_REACTORS
330
1B1
102
}
330
A
100
AcDbSymbolTableRecord
100
AcDbDimStyleTableRecord
  2
ME10_DIM_13
 70
     0
 41
3.5
 42
0.0
 44
1.0
 73
     0
 74
     0
 77
     1
 78
     8
140
3.5
147
1.0
172
     1
173
     1
174
     1
175
     1
176
     2
177
     2
271
     2
178
     7
271
     2
340
17F
  0
DIMSTYLE
105
1BB
102
{ACAD_REACTORS
330
1BC
102
}
330
A
100
AcDbSymbolTableRecord
100
AcDbDimStyleTableRecord
  2
ME10_DIM_14
 70
     0
  3
{\Fgdt;n}<>
 41
3.5
 42
0.0
 44
1.0
 73
     0
 74
     0
 77
     1
 78
     8
140
3.5
147
1.0
172
     1
173
     1
174
     1
175
     1
176
     2
177
     2
271
     2
178
     7
271
     2
340
17F
  0
DIMSTYLE
105
1C6
102
{ACAD_REACTORS
330
1C7
102
}
330
A
100
AcDbSymbolTableRecord
100
AcDbDimStyleTableRecord
  2
ME10_DIM_15
 70
     0
 41
3.5
 42
0.0
 44
1.0
 73
     0
 74
     0
 77
     1
 78
     8
140
3.5
147
1.0
172
     1
173
     1
174
     1
175
     1
176
     2
177
     2
271
     2
178
     7
271
     2
340
17F
  0
DIMSTYLE
105
1D1
102
{ACAD_REACTORS
330
1D2
102
}
330
A
100
AcDbSymbolTableRecord
100
AcDbDimStyleTableRecord
  2
ME10_DIM_16
 70
     0
 41
3.5
 42
0.0
 44
1.0
 73
     0
 74
     0
 77
     1
 78
     8
140
3.5
147
1.0
172
     1
173
     1
174
     1
175
     1
176
     2
177
     2
271
     2
178
     7
271
     2
340
17F
  0
ENDTAB
  0
TABLE
  2
BLOCK_RECORD
  5
1
330
0
100
AcDbSymbolTable
 70
     9
  0
BLOCK_RECORD
  5
1F
330
1
100
AcDbSymbolTableRecord
100
AcDbBlockTableRecord
  2
*Model_Space
340
22
  0
BLOCK_RECORD
  5
1B
330
1
100
AcDbSymbolTableRecord
100
AcDbBlockTableRecord
  2
*Paper_Space
340
1E
  0
BLOCK_RECORD
  5
23
330
1
100
AcDbSymbolTableRecord
100
AcDbBlockTableRecord
  2
*Paper_Space0
340
26
  0
BLOCK_RECORD
  5
48
330
1
100
AcDbSymbolTableRecord
100
AcDbBlockTableRecord
  2
開示A4
340
0
102
{BLKREFS
331
4B
102
}
  0
BLOCK_RECORD
  5
186
330
1
100
AcDbSymbolTableRecord
100
AcDbBlockTableRecord
  2
*D2
340
0
  0
BLOCK_RECORD
  5
191
330
1
100
AcDbSymbolTableRecord
100
AcDbBlockTableRecord
  2
*D3
340
0
  0
BLOCK_RECORD
  5
19C
330
1
100
AcDbSymbolTableRecord
100
AcDbBlockTableRecord
  2
*D4
340
0
  0
BLOCK_RECORD
  5
1A7
330
1
100
AcDbSymbolTableRecord
100
AcDbBlockTableRecord
  2
*D5
340
0
  0
BLOCK_RECORD
  5
1B2
330
1
100
AcDbSymbolTableRecord
100
AcDbBlockTableRecord
  2
*D6
340
0
  0
BLOCK_RECORD
  5
1BD
330
1
100
AcDbSymbolTableRecord
100
AcDbBlockTableRecord
  2
*D7
340
0
  0
BLOCK_RECORD
  5
1C8
330
1
100
AcDbSymbolTableRecord
100
AcDbBlockTableRecord
  2
*D8
340
0
  0
ENDTAB
  0
ENDSEC
  0
SECTION
  2
BLOCKS
  0
BLOCK
  5
20
330
1F
100
AcDbEntity
  8
0
100
AcDbBlockBegin
  2
*Model_Space
 70
     0
 10
0.0
 20
0.0
 30
0.0
  3
*Model_Space
  1

  0
ENDBLK
  5
21
330
1F
100
AcDbEntity
  8
0
100
AcDbBlockEnd
  0
BLOCK
  5
1C
330
1B
100
AcDbEntity
 67
     1
  8
0
100
AcDbBlockBegin
  2
*Paper_Space
 70
     0
 10
0.0
 20
0.0
 30
0.0
  3
*Paper_Space
  1

  0
ENDBLK
  5
1D
330
1B
100
AcDbEntity
 67
     1
  8
0
100
AcDbBlockEnd
  0
BLOCK
  5
24
330
23
100
AcDbEntity
  8
0
100
AcDbBlockBegin
  2
*Paper_Space0
 70
     0
 10
0.0
 20
0.0
 30
0.0
  3
*Paper_Space0
  1

  0
ENDBLK
  5
25
330
23
100
AcDbEntity
  8
0
100
AcDbBlockEnd
  0
BLOCK
  5
49
330
48
100
AcDbEntity
  8
0
100
AcDbBlockBegin
  2
開示A4
 70
     0
 10
0.0
 20
0.0
 30
0.0
  3
開示A4
  1

  0
POINT
  5
4C
330
48
100
AcDbEntity
  8
1
 62
     4
100
AcDbPoint
 10
93.75
 20
17.0
 30
0.0
  0
POINT
  5
4D
330
48
100
AcDbEntity
  8
1
 62
     4
100
AcDbPoint
 10
85.25
 20
17.0
 30
0.0
  0
POINT
  5
4E
330
48
100
AcDbEntity
  8
1
 62
     4
100
AcDbPoint
 10
106.5
 20
19.00000000000001
 30
0.0
  0
POINT
  5
4F
330
48
100
AcDbEntity
  8
1
 62
     4
100
AcDbPoint
 10
106.5
 20
12.5
 30
0.0
  0
POINT
  5
50
330
48
100
AcDbEntity
  8
1
 62
     4
100
AcDbPoint
 10
112.25
 20
12.5
 30
0.0
  0
POINT
  5
51
330
48
100
AcDbEntity
  8
1
 62
     4
100
AcDbPoint
 10
100.75
 20
12.5
 30
0.0
  0
POINT
  5
52
330
48
100
AcDbEntity
  8
1
 62
     4
100
AcDbPoint
 10
123.5
 20
19.00000000000001
 30
0.0
  0
POINT
  5
53
330
48
100
AcDbEntity
  8
1
 62
     4
100
AcDbPoint
 10
123.5
 20
12.5
 30
0.0
  0
POINT
  5
54
330
48
100
AcDbEntity
  8
1
 62
     4
100
AcDbPoint
 10
129.25
 20
12.5
 30
0.0
  0
POINT
  5
55
330
48
100
AcDbEntity
  8
1
 62
     4
100
AcDbPoint
 10
117.75
 20
12.5
 30
0.0
  0
POINT
  5
56
330
48
100
AcDbEntity
  8
1
 62
     4
100
AcDbPoint
 10
140.5
 20
19.00000000000001
 30
0.0
  0
POINT
  5
57
330
48
100
AcDbEntity
  8
1
 62
     4
100
AcDbPoint
 10
140.5
 20
12.5
 30
0.0
  0
POINT
  5
58
330
48
100
AcDbEntity
  8
1
 62
     4
100
AcDbPoint
 10
146.25
 20
12.5
 30
0.0
  0
POINT
  5
59
330
48
100
AcDbEntity
  8
1
 62
     4
100
AcDbPoint
 10
134.75
 20
12.5
 30
0.0
  0
POINT
  5
5A
330
48
100
AcDbEntity
  8
1
 62
     4
100
AcDbPoint
 10
151.75
 20
12.5
 30
0.0
  0
POINT
  5
5B
330
48
100
AcDbEntity
  8
1
 62
     4
100
AcDbPoint
 10
163.25
 20
12.5
 30
0.0
  0
POINT
  5
5C
330
48
100
AcDbEntity
  8
1
 62
     4
100
AcDbPoint
 10
157.5
 20
12.5
 30
0.0
  0
POINT
  5
5D
330
48
100
AcDbEntity
  8
1
 62
     4
100
AcDbPoint
 10
57.0
 20
14.25
 30
0.0
  0
POINT
  5
5E
330
48
100
AcDbEntity
  8
1
 62
     4
100
AcDbPoint
 10
57.0
 20
22.75000000000001
 30
0.0
  0
POINT
  5
5F
330
48
100
AcDbEntity
  8
1
 62
     4
100
AcDbPoint
 10
47.5
 20
282.0000000000003
 30
0.0
  0
POINT
  5
60
330
48
100
AcDbEntity
  8
1
 62
     4
100
AcDbPoint
 10
157.5
 20
19.00000000000001
 30
0.0
  0
POINT
  5
61
330
48
100
AcDbEntity
  8
1
 62
     4
100
AcDbPoint
 10
57.0
 20
16.25
 30
0.0
  0
POINT
  5
62
330
48
100
AcDbEntity
  8
1
 62
     4
100
AcDbPoint
 10
57.0
 20
24.75000000000001
 30
0.0
  0
POINT
  5
63
330
48
100
AcDbEntity
  8
1
 62
     4
100
AcDbPoint
 10
57.0
 20
20.75000000000001
 30
0.0
  0
POINT
  5
64
330
48
100
AcDbEntity
  8
1
 62
     4
100
AcDbPoint
 10
57.0
 20
12.25
 30
0.0
  0
POINT
  5
65
330
48
100
AcDbEntity
  8
1
 62
     4
100
AcDbPoint
 10
34.0
 20
34.00000000000001
 30
0.0
  0
LINE
  5
66
330
48
100
AcDbEntity
  8
1
  6
Continuous
 62
     7
100
AcDbLine
 10
105.0
 20
10.0
 30
0.0
 11
200.0
 21
10.0
 31
0.0
  0
LINE
  5
67
330
48
100
AcDbEntity
  8
1
  6
Continuous
 62
     2
100
AcDbLine
 10
105.0
 20
10.0
 30
0.0
 11
105.0
 21
5.0
 31
0.0
  0
LINE
  5
68
330
48
100
AcDbEntity
  8
1
  6
Continuous
 62
     7
100
AcDbLine
 10
200.0
 20
148.5
 30
0.0
 11
200.0
 21
287.0000000000003
 31
0.0
  0
LINE
  5
69
330
48
100
AcDbEntity
  8
1
  6
Continuous
 62
     2
100
AcDbLine
 10
200.0
 20
148.5
 30
0.0
 11
205.0
 21
148.5
 31
0.0
  0
LINE
  5
6A
330
48
100
AcDbEntity
  8
1
  6
Continuous
 62
     7
100
AcDbLine
 10
25.0
 20
148.5
 30
0.0
 11
25.0
 21
287.0000000000003
 31
0.0
  0
LINE
  5
6B
330
48
100
AcDbEntity
  8
1
  6
Continuous
 62
     2
100
AcDbLine
 10
25.0
 20
148.5
 30
0.0
 11
20.0
 21
148.5
 31
0.0
  0
LINE
  5
6C
330
48
100
AcDbEntity
  8
1
  6
Continuous
 62
     7
100
AcDbLine
 10
105.0
 20
287.0000000000003
 30
0.0
 11
25.0
 21
287.0000000000003
 31
0.0
  0
LINE
  5
6D
330
48
100
AcDbEntity
  8
1
  6
Continuous
 62
     2
100
AcDbLine
 10
105.0
 20
287.0000000000003
 30
0.0
 11
105.0
 21
292.0000000000003
 31
0.0
  0
LINE
  5
6E
330
48
100
AcDbEntity
  8
1
  6
Continuous
 62
     2
100
AcDbLine
 10
166.0
 20
20.00000000000001
 30
0.0
 11
200.0
 21
20.00000000000001
 31
0.0
  0
LINE
  5
6F
330
48
100
AcDbEntity
  8
1
  6
Continuous
 62
     2
100
AcDbLine
 10
98.0
 20
27.00000000000001
 30
0.0
 11
98.0
 21
9.99999999999999
 31
0.0
  0
LINE
  5
70
330
48
100
AcDbEntity
  8
1
  6
Continuous
 62
     2
100
AcDbLine
 10
115.0
 20
27.00000000000001
 30
0.0
 11
115.0
 21
9.99999999999999
 31
0.0
  0
LINE
  5
71
330
48
100
AcDbEntity
  8
1
  6
Continuous
 62
     2
100
AcDbLine
 10
149.0
 20
27.00000000000001
 30
0.0
 11
149.0
 21
10.0
 31
0.0
  0
LINE
  5
72
330
48
100
AcDbEntity
  8
1
  6
Continuous
 62
     2
100
AcDbLine
 10
132.0
 20
27.00000000000001
 30
0.0
 11
132.0
 21
9.99999999999999
 31
0.0
  0
LINE
  5
73
330
48
100
AcDbEntity
  8
1
  6
Continuous
 62
     2
100
AcDbLine
 10
166.0
 20
27.00000000000001
 30
0.0
 11
166.0
 21
10.0
 31
0.0
  0
LINE
  5
74
330
48
100
AcDbEntity
  8
1
  6
Continuous
 62
     2
100
AcDbLine
 10
55.0
 20
277.0000000000003
 30
0.0
 11
25.0
 21
277.0000000000003
 31
0.0
  0
LINE
  5
75
330
48
100
AcDbEntity
  8
1
  6
Continuous
 62
     7
100
AcDbLine
 10
25.0
 20
10.0
 30
0.0
 11
25.0
 21
148.5
 31
0.0
  0
LINE
  5
76
330
48
100
AcDbEntity
  8
1
  6
Continuous
 62
     2
100
AcDbLine
 10
40.0
 20
287.0000000000003
 30
0.0
 11
40.0
 21
277.0000000000003
 31
0.0
  0
LINE
  5
77
330
48
100
AcDbEntity
  8
1
  6
Continuous
 62
     2
100
AcDbLine
 10
55.0
 20
287.0000000000003
 30
0.0
 11
55.0
 21
277.0000000000003
 31
0.0
  0
LINE
  5
78
330
48
100
AcDbEntity
  8
1
  6
Continuous
 62
     2
100
AcDbLine
 10
33.0
 20
41.00000000000001
 30
0.0
 11
33.0
 21
27.0
 31
0.0
  0
LINE
  5
79
330
48
100
AcDbEntity
  8
1
  6
Continuous
 62
     7
100
AcDbLine
 10
200.0
 20
27.00000000000001
 30
0.0
 11
25.0
 21
27.00000000000001
 31
0.0
  0
LINE
  5
7A
330
48
100
AcDbEntity
  8
1
  6
Continuous
 62
     7
100
AcDbLine
 10
25.0
 20
41.0
 30
0.0
 11
200.0
 21
41.0
 31
0.0
  0
LINE
  5
7B
330
48
100
AcDbEntity
  8
1
  6
PHANTOM
 62
     4
100
AcDbLine
 10
0.0
 20
0.0
 30
0.0
 11
210.0
 21
0.0
 31
0.0
  0
LINE
  5
7C
330
48
100
AcDbEntity
  8
1
  6
PHANTOM
 62
     4
100
AcDbLine
 10
210.0
 20
0.0
 30
0.0
 11
210.0
 21
297.0
 31
0.0
  0
LINE
  5
7D
330
48
100
AcDbEntity
  8
1
  6
PHANTOM
 62
     4
100
AcDbLine
 10
210.0
 20
297.0
 30
0.0
 11
0.0
 21
297.0
 31
0.0
  0
LINE
  5
7E
330
48
100
AcDbEntity
  8
1
  6
PHANTOM
 62
     4
100
AcDbLine
 10
0.0
 20
297.0
 30
0.0
 11
0.0
 21
0.0
 31
0.0
  0
LINE
  5
7F
330
48
100
AcDbEntity
  8
1
  6
Continuous
 62
     7
100
AcDbLine
 10
25.0
 20
10.0
 30
0.0
 11
105.0
 21
10.0
 31
0.0
  0
LINE
  5
80
330
48
100
AcDbEntity
  8
1
  6
Continuous
 62
     7
100
AcDbLine
 10
200.0
 20
10.0
 30
0.0
 11
200.0
 21
148.5
 31
0.0
  0
LINE
  5
81
330
48
100
AcDbEntity
  8
1
  6
Continuous
 62
     7
100
AcDbLine
 10
200.0
 20
287.0000000000003
 30
0.0
 11
105.0
 21
287.0000000000003
 31
0.0
  0
LINE
  5
82
330
48
100
AcDbEntity
  8
1
  6
Continuous
 62
     2
100
AcDbLine
 10
25.0
 20
18.50000000000001
 30
0.0
 11
81.0
 21
18.50000000000001
 31
0.0
  0
LINE
  5
83
330
48
100
AcDbEntity
  8
1
  6
Continuous
 62
     2
100
AcDbLine
 10
33.0
 20
27.0
 30
0.0
 11
33.0
 21
10.0
 31
0.0
  0
LINE
  5
84
330
48
100
AcDbEntity
  8
1
  6
Continuous
 62
     7
100
AcDbLine
 10
191.0
 20
24.70000000000001
 30
0.0
 11
191.0
 21
22.30000000000001
 31
0.0
  0
LINE
  5
85
330
48
100
AcDbEntity
  8
1
  6
Continuous
 62
     7
100
AcDbLine
 10
191.0
 20
24.70000000000001
 30
0.0
 11
196.0
 21
25.50000000000001
 31
0.0
  0
LINE
  5
86
330
48
100
AcDbEntity
  8
1
  6
Continuous
 62
     7
100
AcDbLine
 10
196.0
 20
25.50000000000001
 30
0.0
 11
196.0
 21
21.50000000000001
 31
0.0
  0
LINE
  5
87
330
48
100
AcDbEntity
  8
1
  6
Continuous
 62
     7
100
AcDbLine
 10
196.0
 20
21.50000000000001
 30
0.0
 11
191.0
 21
22.30000000000001
 31
0.0
  0
LINE
  5
88
330
48
100
AcDbEntity
  8
1
  6
DOT_CENTER
 62
     2
100
AcDbLine
 10
184.0
 20
23.50000000000001
 30
0.0
 11
197.0
 21
23.50000000000001
 31
0.0
  0
LINE
  5
89
330
48
100
AcDbEntity
  8
1
  6
DOT_CENTER
 62
     2
100
AcDbLine
 10
187.0
 20
26.50000000000001
 30
0.0
 11
187.0
 21
20.50000000000001
 31
0.0
  0
LINE
  5
8A
330
48
100
AcDbEntity
  8
1
  6
Continuous
 62
     2
100
AcDbLine
 10
81.0
 20
27.00000000000001
 30
0.0
 11
81.0
 21
10.0
 31
0.0
  0
CIRCLE
  5
8B
330
48
100
AcDbEntity
  8
1
  6
Continuous
 62
     7
100
AcDbCircle
 10
103.5
 20
12.5
 30
0.0
 40
0.2999999999999972
  0
CIRCLE
  5
8C
330
48
100
AcDbEntity
  8
1
  6
Continuous
 62
     7
100
AcDbCircle
 10
109.5
 20
12.5
 30
0.0
 40
0.2999999999999972
  0
CIRCLE
  5
8D
330
48
100
AcDbEntity
  8
1
  6
Continuous
 62
     7
100
AcDbCircle
 10
120.5
 20
12.5
 30
0.0
 40
0.2999999999999972
  0
CIRCLE
  5
8E
330
48
100
AcDbEntity
  8
1
  6
Continuous
 62
     7
100
AcDbCircle
 10
126.5
 20
12.5
 30
0.0
 40
0.2999999999999972
  0
CIRCLE
  5
8F
330
48
100
AcDbEntity
  8
1
  6
Continuous
 62
     7
100
AcDbCircle
 10
137.5
 20
12.5
 30
0.0
 40
0.3000000000000114
  0
CIRCLE
  5
90
330
48
100
AcDbEntity
  8
1
  6
Continuous
 62
     7
100
AcDbCircle
 10
143.5
 20
12.5
 30
0.0
 40
0.3000000000000114
  0
CIRCLE
  5
91
330
48
100
AcDbEntity
  8
1
  6
Continuous
 62
     7
100
AcDbCircle
 10
160.5
 20
12.5
 30
0.0
 40
0.3000000000000114
  0
CIRCLE
  5
92
330
48
100
AcDbEntity
  8
1
  6
Continuous
 62
     7
100
AcDbCircle
 10
154.5
 20
12.5
 30
0.0
 40
0.3000000000000114
  0
CIRCLE
  5
93
330
48
100
AcDbEntity
  8
1
  6
Continuous
 62
     7
100
AcDbCircle
 10
187.0
 20
23.50000000000001
 30
0.0
 40
1.200000000000102
  0
CIRCLE
  5
94
330
48
100
AcDbEntity
  8
1
  6
Continuous
 62
     7
100
AcDbCircle
 10
187.0
 20
23.50000000000001
 30
0.0
 40
2.0
  0
CIRCLE
  5
95
330
48
100
AcDbEntity
  8
1
  6
DOT_CENTER
 62
     7
100
AcDbCircle
 10
89.5
 20
16.0
 30
0.0
 40
0.1000000000000227
  0
CIRCLE
  5
96
330
48
100
AcDbEntity
  8
1
  6
DOT_CENTER
 62
     7
100
AcDbCircle
 10
89.5
 20
18.0
 30
0.0
 40
0.1000000000000227
  0
MTEXT
  5
98
330
48
100
AcDbEntity
  8
1
 62
     7
100
AcDbMText
 10
188.5
 20
15.0
 30
0.0
 40
3.0
 41
0.0
 71
     5
 72
     1
  1
三栄水栓製作所
  7
CONVERTER_11
 73
     1
 44
1.0
  0
MTEXT
  5
99
330
48
100
AcDbEntity
  8
1
 62
     7
100
AcDbMText
 10
171.5
 20
15.0
 30
0.0
 40
2.5
 41
0.0
 71
     5
 72
     1
  1
株式会社
  7
CONVERTER_11
 73
     1
 44
1.0
  0
MTEXT
  5
9A
330
48
100
AcDbEntity
  8
1
 62
     2
100
AcDbMText
 10
32.5
 20
282.0000000000003
 30
0.0
 40
5.0
 41
0.0
 71
     5
 72
     1
  1
図番
  7
CONVERTER_11
 73
     1
 44
0.45454545454545
  0
MTEXT
  5
9B
330
48
100
AcDbEntity
  8
1
 62
     2
100
AcDbMText
 10
29.0
 20
34.00000000000001
 30
0.0
 40
3.5
 41
0.0
 71
     5
 72
     1
  1
備考
  7
CONVERTER_11
 73
     1
 44
0.45454545454545
  0
MTEXT
  5
9C
330
48
100
AcDbEntity
  8
1
 62
     2
100
AcDbMText
 10
29.0
 20
22.75
 30
0.0
 40
3.5
 41
0.0
 71
     5
 72
     1
  1
品名
  7
CONVERTER_11
 73
     1
 44
0.72727272727273
  0
MTEXT
  5
9D
330
48
100
AcDbEntity
  8
1
 62
     2
100
AcDbMText
 10
29.0
 20
14.25
 30
0.0
 40
3.5
 41
0.0
 71
     5
 72
     1
  1
品番
  7
CONVERTER_11
 73
     1
 44
0.72727272727273
  0
MTEXT
  5
9E
330
48
100
AcDbEntity
  8
1
 62
     2
100
AcDbMText
 10
101.5
 20
25.00000000000001
 30
0.0
 40
3.0
 41
0.0
 71
     5
 72
     1
  1
承認
  7
CONVERTER_11
 73
     1
 44
0.59090909090909
  0
MTEXT
  5
9F
330
48
100
AcDbEntity
  8
1
 62
     2
100
AcDbMText
 10
175.0
 20
23.50000000000001
 30
0.0
 40
3.5
 41
0.0
 71
     5
 72
     1
  1
第三角法
  7
CONVERTER_11
 73
     1
 44
0.54545454545455
  0
MTEXT
  5
A0
330
48
100
AcDbEntity
  8
1
 62
     2
100
AcDbMText
 10
118.5
 20
25.00000000000001
 30
0.0
 40
3.0
 41
0.0
 71
     5
 72
     1
  1
検図
  7
CONVERTER_11
 73
     1
 44
0.59090909090909
  0
MTEXT
  5
A1
330
48
100
AcDbEntity
  8
1
 62
     2
100
AcDbMText
 10
152.5
 20
25.00000000000001
 30
0.0
 40
3.0
 41
0.0
 71
     5
 72
     1
  1
担当
  7
CONVERTER_11
 73
     1
 44
0.59090909090909
  0
MTEXT
  5
A2
330
48
100
AcDbEntity
  8
1
 62
     2
100
AcDbMText
 10
135.5
 20
25.00000000000001
 30
0.0
 40
3.0
 41
0.0
 71
     5
 72
     1
  1
製図
  7
CONVERTER_11
 73
     1
 44
0.59090909090909
  0
MTEXT
  5
A3
330
48
100
AcDbEntity
  8
1
 62
     2
100
AcDbMText
 10
89.5
 20
24.00000000000001
 30
0.0
 40
3.5
 41
0.0
 71
     5
 72
     1
  1
尺度
  7
CONVERTER_11
 73
     1
 44
0.54545454545455
  0
MTEXT
  5
A4
330
48
100
AcDbEntity
  8
1
 62
   250
100
AcDbMText
 10
25.0
 20
5.0
 30
0.0
 40
3.5
 41
0.0
 71
     4
 72
     1
  1
備考欄の文字列 原点位置=4
  7
CONVERTER_11
 73
     1
 44
0.54545454545455
  0
ENDBLK
  5
4A
330
48
100
AcDbEntity
  8
0
100
AcDbBlockEnd
  0
BLOCK
  5
18D
330
186
100
AcDbEntity
  8
0
100
AcDbBlockBegin
  2
*D2
 70
     1
 10
0.0
 20
0.0
 30
0.0
  3
*D2
  1

  0
LINE
  5
187
330
186
100
AcDbEntity
  8
1
  6
Continuous
 62
     2
100
AcDbLine
 10
56.32928139405609
 20
70.34448869142217
 30
0.0
 11
80.23795414825776
 21
68.25275086547853
 31
0.0
  0
LINE
  5
188
330
186
100
AcDbEntity
  8
1
  6
Continuous
 62
     2
100
AcDbLine
 10
57.375150882116
 20
82.2988316418099
 30
0.0
 11
56.24212565130844
 21
69.34829399333043
 31
0.0
  0
LINE
  5
189
330
186
100
AcDbEntity
  8
1
  6
Continuous
 62
     2
100
AcDbLine
 10
81.259338657048
 20
79.9272292221821
 30
0.0
 11
80.1507984055101
 21
67.25655616738679
 31
0.0
  0
SOLID
  5
18A
330
186
100
AcDbEntity
  8
1
 62
     2
100
AcDbTrace
 10
59.85612278661855
 20
70.49847391211023
 30
0.0
 11
59.77580288813586
 21
69.58041327150053
 31
0.0
 12
56.32928139405609
 22
70.34448869142217
 32
0.0
 13
56.32928139405609
 23
70.34448869142217
 33
0.0
  0
SOLID
  5
18B
330
186
100
AcDbEntity
  8
1
 62
     2
100
AcDbTrace
 10
76.7111127556953
 20
68.09876564479048
 30
0.0
 11
76.791432654178
 21
69.01682628540017
 31
0.0
 12
80.23795414825776
 22
68.25275086547853
 32
0.0
 13
80.23795414825776
 23
68.25275086547853
 33
0.0
  0
MTEXT
  5
18C
330
186
100
AcDbEntity
  8
1
 62
     7
100
AcDbMText
 10
64.9886925138833
 20
70.59070822317035
 30
0.0
 40
3.5
 41
0.0
 71
     7
 72
     1
  1
\C7;{\Fgdt;n}\C7;24
  7
CONVERTER_12
 11
0.996194698091746
 21
-0.08715574274765249
 31
0.0
 73
     1
 44
0.60024009603842
  0
ENDBLK
  5
18E
330
186
100
AcDbEntity
  8
0
100
AcDbBlockEnd
  0
BLOCK
  5
198
330
191
100
AcDbEntity
  8
0
100
AcDbBlockBegin
  2
*D3
 70
     1
 10
0.0
 20
0.0
 30
0.0
  3
*D3
  1

  0
LINE
  5
192
330
191
100
AcDbEntity
  8
1
  6
Continuous
 62
     2
100
AcDbLine
 10
81.09875362917865
 20
200.0875814167833
 30
0.0
 11
131.098753629466
 21
200.0875814167833
 31
0.0
  0
LINE
  5
193
330
191
100
AcDbEntity
  8
1
  6
Continuous
 62
     2
100
AcDbLine
 10
81.09875362917865
 20
218.9875814167831
 30
0.0
 11
81.09875362917865
 21
199.0875814167833
 31
0.0
  0
LINE
  5
194
330
191
100
AcDbEntity
  8
1
  6
Continuous
 62
     2
100
AcDbLine
 10
131.098753629466
 20
218.9875814167831
 30
0.0
 11
131.098753629466
 21
199.0875814167833
 31
0.0
  0
SOLID
  5
195
330
191
100
AcDbEntity
  8
1
 62
     2
100
AcDbTrace
 10
84.59875362917865
 20
200.5483651583392
 30
0.0
 11
84.59875362917865
 21
199.6267976752274
 31
0.0
 12
81.09875362917865
 22
200.0875814167833
 32
0.0
 13
81.09875362917865
 23
200.0875814167833
 33
0.0
  0
SOLID
  5
196
330
191
100
AcDbEntity
  8
1
 62
     2
100
AcDbTrace
 10
127.598753629466
 20
199.6267976752274
 30
0.0
 11
127.598753629466
 21
200.5483651583392
 31
0.0
 12
131.098753629466
 22
200.0875814167833
 32
0.0
 13
131.098753629466
 23
200.0875814167833
 33
0.0
  0
MTEXT
  5
197
330
191
100
AcDbEntity
  8
1
 62
     7
100
AcDbMText
 10
103.473753629466
 20
201.0875814167833
 30
0.0
 40
3.5
 41
0.0
 71
     7
 72
     1
  1
50
  7
CONVERTER_12
 11
0.9999999999970619
 21
2.424068405545306E-6
 31
0.0
 73
     1
 44
0.60024009603842
  0
ENDBLK
  5
199
330
191
100
AcDbEntity
  8
0
100
AcDbBlockEnd
  0
BLOCK
  5
1A3
330
19C
100
AcDbEntity
  8
0
100
AcDbBlockBegin
  2
*D4
 70
     1
 10
0.0
 20
0.0
 30
0.0
  3
*D4
  1

  0
LINE
  5
19D
330
19C
100
AcDbEntity
  8
1
  6
Continuous
 62
     2
100
AcDbLine
 10
47.37515030702799
 20
124.668870357372
 30
0.0
 11
47.37515030702799
 21
180.1688769557465
 31
0.0
  0
LINE
  5
19E
330
19C
100
AcDbEntity
  8
1
  6
Continuous
 62
     2
100
AcDbLine
 10
65.2459722730828
 20
124.668870357372
 30
0.0
 11
46.37515030702799
 21
124.668870357372
 31
0.0
  0
LINE
  5
19F
330
19C
100
AcDbEntity
  8
1
  6
Continuous
 62
     2
100
AcDbLine
 10
106.098753629468
 20
180.1688769557465
 30
0.0
 11
46.37515030702799
 21
180.1688769557465
 31
0.0
  0
SOLID
  5
1A0
330
19C
100
AcDbEntity
  8
1
 62
     2
100
AcDbTrace
 10
46.9143665654721
 20
128.168870357372
 30
0.0
 11
47.83593404858387
 21
128.168870357372
 31
0.0
 12
47.37515030702799
 22
124.668870357372
 32
0.0
 13
47.37515030702799
 23
124.668870357372
 33
0.0
  0
SOLID
  5
1A1
330
19C
100
AcDbEntity
  8
1
 62
     2
100
AcDbTrace
 10
47.83593404858387
 20
176.6688769557465
 30
0.0
 11
46.9143665654721
 21
176.6688769557465
 31
0.0
 12
47.37515030702799
 22
180.1688769557465
 32
0.0
 13
47.37515030702799
 23
180.1688769557465
 33
0.0
  0
MTEXT
  5
1A2
330
19C
100
AcDbEntity
  8
1
 62
     7
100
AcDbMText
 10
46.37515030702799
 20
142.9688736565592
 30
0.0
 40
3.5
 41
0.0
 71
     7
 72
     1
  1
56リフト7
  7
CONVERTER_11
 11
0.0
 21
1.0
 31
0.0
 73
     1
 44
0.45454545454545
  0
ENDBLK
  5
1A4
330
19C
100
AcDbEntity
  8
0
100
AcDbBlockEnd
  0
BLOCK
  5
1AE
330
1A7
100
AcDbEntity
  8
0
100
AcDbBlockBegin
  2
*D5
 70
     1
 10
0.0
 20
0.0
 30
0.0
  3
*D5
  1

  0
LINE
  5
1A8
330
1A7
100
AcDbEntity
  8
1
  6
Continuous
 62
     2
100
AcDbLine
 10
47.37515030702798
 20
124.668870357372
 30
0.0
 11
47.37515030702798
 21
78.32440764369825
 31
0.0
  0
LINE
  5
1A9
330
1A7
100
AcDbEntity
  8
1
  6
Continuous
 62
     2
100
AcDbLine
 10
65.2459722730828
 20
124.668870357372
 30
0.0
 11
46.37515030702798
 21
124.668870357372
 31
0.0
  0
LINE
  5
1AA
330
1A7
100
AcDbEntity
  8
1
  6
Continuous
 62
     2
100
AcDbLine
 10
79.85552285444501
 20
78.32440764369825
 30
0.0
 11
46.37515030702798
 21
78.32440764369825
 31
0.0
  0
SOLID
  5
1AB
330
1A7
100
AcDbEntity
  8
1
 62
     2
100
AcDbTrace
 10
47.83593404858387
 20
121.168870357372
 30
0.0
 11
46.91436656547209
 21
121.168870357372
 31
0.0
 12
47.37515030702798
 22
124.668870357372
 32
0.0
 13
47.37515030702798
 23
124.668870357372
 33
0.0
  0
SOLID
  5
1AC
330
1A7
100
AcDbEntity
  8
1
 62
     2
100
AcDbTrace
 10
46.91436656547209
 20
81.82440764369825
 30
0.0
 11
47.83593404858387
 21
81.82440764369825
 31
0.0
 12
47.37515030702798
 22
78.32440764369825
 32
0.0
 13
47.37515030702798
 23
78.32440764369825
 33
0.0
  0
MTEXT
  5
1AD
330
1A7
100
AcDbEntity
  8
1
 62
     7
100
AcDbMText
 10
46.37515030702798
 20
98.8716390005351
 30
0.0
 40
3.5
 41
0.0
 71
     7
 72
     1
  1
46
  7
CONVERTER_12
 11
0.0
 21
1.0
 31
0.0
 73
     1
 44
0.60024009603842
  0
ENDBLK
  5
1AF
330
1A7
100
AcDbEntity
  8
0
100
AcDbBlockEnd
  0
BLOCK
  5
1B9
330
1B2
100
AcDbEntity
  8
0
100
AcDbBlockBegin
  2
*D6
 70
     1
 10
0.0
 20
0.0
 30
0.0
  3
*D6
  1

  0
LINE
  5
1B3
330
1B2
100
AcDbEntity
  8
1
  6
Continuous
 62
     2
100
AcDbLine
 10
175.098762702262
 20
147.668867850754
 30
0.0
 11
175.098762702262
 21
101.668860491998
 31
0.0
  0
LINE
  5
1B4
330
1B2
100
AcDbEntity
  8
1
  6
Continuous
 62
     2
100
AcDbLine
 10
149.848761877462
 20
147.668867850754
 30
0.0
 11
176.098762702262
 21
147.668867850754
 31
0.0
  0
LINE
  5
1B5
330
1B2
100
AcDbEntity
  8
1
  6
Continuous
 62
     2
100
AcDbLine
 10
149.848761877462
 20
101.668860491998
 30
0.0
 11
176.098762702262
 21
101.668860491998
 31
0.0
  0
SOLID
  5
1B6
330
1B2
100
AcDbEntity
  8
1
 62
     2
100
AcDbTrace
 10
175.5595464438179
 20
144.168867850754
 30
0.0
 11
174.6379789607061
 21
144.168867850754
 31
0.0
 12
175.098762702262
 22
147.668867850754
 32
0.0
 13
175.098762702262
 23
147.668867850754
 33
0.0
  0
SOLID
  5
1B7
330
1B2
100
AcDbEntity
  8
1
 62
     2
100
AcDbTrace
 10
174.6379789607061
 20
105.168860491998
 30
0.0
 11
175.5595464438179
 21
105.168860491998
 31
0.0
 12
175.098762702262
 22
101.668860491998
 32
0.0
 13
175.098762702262
 23
101.668860491998
 33
0.0
  0
MTEXT
  5
1B8
330
1B2
100
AcDbEntity
  8
1
 62
     7
100
AcDbMText
 10
174.098762702262
 20
121.273870357372
 30
0.0
 40
3.5
 41
0.0
 71
     7
 72
     1
  1
\C7;{\Fgdt;n}\C7;46
  7
CONVERTER_12
 11
0.0
 21
1.0
 31
0.0
 73
     1
 44
0.60024009603842
  0
ENDBLK
  5
1BA
330
1B2
100
AcDbEntity
  8
0
100
AcDbBlockEnd
  0
BLOCK
  5
1C4
330
1BD
100
AcDbEntity
  8
0
100
AcDbBlockBegin
  2
*D7
 70
     1
 10
0.0
 20
0.0
 30
0.0
  3
*D7
  1

  0
LINE
  5
1BE
330
1BD
100
AcDbEntity
  8
1
  6
Continuous
 62
     2
100
AcDbLine
 10
151.098761845243
 20
60.32440764369829
 30
0.0
 11
57.37515030702799
 21
60.32440764369829
 31
0.0
  0
LINE
  5
1BF
330
1BD
100
AcDbEntity
  8
1
  6
Continuous
 62
     2
100
AcDbLine
 10
57.37515030702799
 20
82.2988250685233
 30
0.0
 11
57.37515030702799
 21
59.32440764369829
 31
0.0
  0
LINE
  5
1C0
330
1BD
100
AcDbEntity
  8
1
  6
Continuous
 62
     2
100
AcDbLine
 10
151.098761845243
 20
102.918860459779
 30
0.0
 11
151.098761845243
 21
59.32440764369829
 31
0.0
  0
SOLID
  5
1C1
330
1BD
100
AcDbEntity
  8
1
 62
     2
100
AcDbTrace
 10
147.598761845243
 20
59.8636239021424
 30
0.0
 11
147.598761845243
 21
60.78519138525417
 31
0.0
 12
151.098761845243
 22
60.32440764369829
 32
0.0
 13
151.098761845243
 23
60.32440764369829
 33
0.0
  0
SOLID
  5
1C2
330
1BD
100
AcDbEntity
  8
1
 62
     2
100
AcDbTrace
 10
60.87515030702799
 20
60.78519138525417
 30
0.0
 11
60.87515030702799
 21
59.8636239021424
 31
0.0
 12
57.37515030702799
 22
60.32440764369829
 32
0.0
 13
57.37515030702799
 23
60.32440764369829
 33
0.0
  0
MTEXT
  5
1C3
330
1BD
100
AcDbEntity
  8
1
 62
     7
100
AcDbMText
 10
101.611952255792
 20
61.32440764369829
 30
0.0
 40
3.5
 41
0.0
 71
     7
 72
     1
  1
94
  7
CONVERTER_12
 11
0.9999999999970619
 21
2.424068405545306E-6
 31
0.0
 73
     1
 44
0.60024009603842
  0
ENDBLK
  5
1C5
330
1BD
100
AcDbEntity
  8
0
100
AcDbBlockEnd
  0
BLOCK
  5
1CF
330
1C8
100
AcDbEntity
  8
0
100
AcDbBlockBegin
  2
*D8
 70
     1
 10
0.0
 20
0.0
 30
0.0
  3
*D8
  1

  0
LINE
  5
1C9
330
1C8
100
AcDbEntity
  8
1
  6
Continuous
 62
     2
100
AcDbLine
 10
151.098761845243
 20
60.32440764369829
 30
0.0
 11
165.098762702262
 21
60.32440764369829
 31
0.0
  0
LINE
  5
1CA
330
1C8
100
AcDbEntity
  8
1
  6
Continuous
 62
     2
100
AcDbLine
 10
151.098761845243
 20
102.918860459779
 30
0.0
 11
151.098761845243
 21
59.32440764369829
 31
0.0
  0
LINE
  5
1CB
330
1C8
100
AcDbEntity
  8
1
  6
Continuous
 62
     2
100
AcDbLine
 10
165.098762702262
 20
115.348851485961
 30
0.0
 11
165.098762702262
 21
59.32440764369829
 31
0.0
  0
SOLID
  5
1CC
330
1C8
100
AcDbEntity
  8
1
 62
     2
100
AcDbTrace
 10
154.598761845243
 20
60.78519138525417
 30
0.0
 11
154.598761845243
 21
59.8636239021424
 31
0.0
 12
151.098761845243
 22
60.32440764369829
 32
0.0
 13
151.098761845243
 23
60.32440764369829
 33
0.0
  0
SOLID
  5
1CD
330
1C8
100
AcDbEntity
  8
1
 62
     2
100
AcDbTrace
 10
161.598762702262
 20
59.8636239021424
 30
0.0
 11
161.598762702262
 21
60.78519138525417
 31
0.0
 12
165.098762702262
 22
60.32440764369829
 32
0.0
 13
165.098762702262
 23
60.32440764369829
 33
0.0
  0
MTEXT
  5
1CE
330
1C8
100
AcDbEntity
  8
1
 62
     7
100
AcDbMText
 10
155.998758165865
 20
61.32440764369829
 30
0.0
 40
3.5
 41
0.0
 71
     7
 72
     1
  1
14
  7
CONVERTER_12
 11
0.9999999999970619
 21
2.424068405545306E-6
 31
0.0
 73
     1
 44
0.60024009603842
  0
ENDBLK
  5
1D0
330
1C8
100
AcDbEntity
  8
0
100
AcDbBlockEnd
  0
ENDSEC
  0
SECTION
  2
ENTITIES
  0
INSERT
  5
4B
330
1F
100
AcDbEntity
  8
1
100
AcDbBlockReference
  2
開示A4
 10
0.0
 20
0.0
 30
0.0
  0
LINE
  5
A5
330
1F
100
AcDbEntity
  8
1
  6
DASH_CENTER
 62
     2
100
AcDbLine
 10
81.09875362917865
 20
218.987581416783
 30
0.0
 11
78.09875362917865
 21
218.987581416783
 31
0.0
  0
LINE
  5
A6
330
1F
100
AcDbEntity
  8
1
  6
DASH_CENTER
 62
     2
100
AcDbLine
 10
131.098753629466
 20
218.987581416783
 30
0.0
 11
81.09875362917865
 21
218.987581416783
 31
0.0
  0
LINE
  5
A7
330
1F
100
AcDbEntity
  8
1
  6
DASH_CENTER
 62
     2
100
AcDbLine
 10
106.098753629468
 20
180.1688769557465
 30
0.0
 11
106.098753629468
 21
108.668883157808
 31
0.0
  0
LINE
  5
A8
330
1F
100
AcDbEntity
  8
レイヤ0
  6
Continuous
 62
     7
100
AcDbLine
 10
163.938764813748
 20
135.148874745305
 30
0.0
 11
165.098762702262
 21
133.988852112809
 31
0.0
  0
LINE
  5
A9
330
1F
100
AcDbEntity
  8
レイヤ0
  6
Continuous
 62
     7
100
AcDbLine
 10
152.598758578264
 20
133.988852112809
 30
0.0
 11
151.098753629468
 21
135.148874745305
 31
0.0
  0
LINE
  5
AA
330
1F
100
AcDbEntity
  8
レイヤ0
  6
Continuous
 62
     7
100
AcDbLine
 10
165.098762702262
 20
115.348851485961
 30
0.0
 11
163.938764813748
 21
114.188853597448
 31
0.0
  0
LINE
  5
AB
330
1F
100
AcDbEntity
  8
レイヤ0
  6
Continuous
 62
     7
100
AcDbLine
 10
152.598758578264
 20
115.348851485961
 30
0.0
 11
151.098753629468
 21
114.188853597448
 31
0.0
  0
LINE
  5
AC
330
1F
100
AcDbEntity
  8
レイヤ0
  6
Continuous
 62
     7
100
AcDbLine
 10
163.938764813748
 20
135.148874745305
 30
0.0
 11
151.098753629468
 21
135.148874745305
 31
0.0
  0
LINE
  5
AD
330
1F
100
AcDbEntity
  8
レイヤ0
  6
Continuous
 62
     7
100
AcDbLine
 10
163.938764813748
 20
114.188853597448
 30
0.0
 11
151.098753629468
 21
114.188853597448
 31
0.0
  0
LINE
  5
AE
330
1F
100
AcDbEntity
  8
レイヤ0
  6
Continuous
 62
     7
100
AcDbLine
 10
165.098762702262
 20
115.348851485961
 30
0.0
 11
165.098762702262
 21
133.988852112809
 31
0.0
  0
LINE
  5
AF
330
1F
100
AcDbEntity
  8
レイヤ0
  6
Continuous
 62
     7
100
AcDbLine
 10
152.598758578264
 20
114.188853597448
 30
0.0
 11
152.598758578264
 21
135.148874745305
 31
0.0
  0
LINE
  5
B0
330
1F
100
AcDbEntity
  8
レイヤ0
  6
Continuous
 62
     7
100
AcDbLine
 10
151.098753629468
 20
102.918860459779
 30
0.0
 11
151.098753629468
 21
146.418867882973
 31
0.0
  0
LINE
  5
B1
330
1F
100
AcDbEntity
  8
レイヤ0
  6
Continuous
 62
     7
100
AcDbLine
 10
148.598757753465
 20
136.268849242507
 30
0.0
 11
148.598757753465
 21
102.918860459779
 31
0.0
  0
LINE
  5
B2
330
1F
100
AcDbEntity
  8
レイヤ0
  6
Continuous
 62
     7
100
AcDbLine
 10
76.620505239476
 20
131.293044733163
 30
0.0
 11
88.772720320769
 21
132.666781140469
 31
0.0
  0
LINE
  5
B3
330
1F
100
AcDbEntity
  8
レイヤ0
  6
Continuous
 62
     7
100
AcDbLine
 10
68.712625435845
 20
125.650340413854
 30
0.0
 11
61.530202076206
 21
110.544188729943
 31
0.0
  0
LINE
  5
B4
330
1F
100
AcDbEntity
  8
レイヤ0
  6
Continuous
 62
     7
100
AcDbLine
 10
82.410423881263
 20
108.717414751375
 30
0.0
 11
81.124107963294
 21
107.324217202019
 31
0.0
  0
LINE
  5
B5
330
1F
100
AcDbEntity
  8
レイヤ0
  6
Continuous
 62
     7
100
AcDbLine
 10
61.530202076206
 20
110.544188729943
 30
0.0
 11
62.555035961605
 21
108.948795729521
 31
0.0
  0
LINE
  5
B6
330
1F
100
AcDbEntity
  8
レイヤ0
  6
Continuous
 62
     7
100
AcDbLine
 10
82.27967667898201
 20
107.223125662481
 30
0.0
 11
81.124107963294
 21
107.324217202019
 31
0.0
  0
LINE
  5
B7
330
1F
100
AcDbEntity
  8
レイヤ0
  6
Continuous
 62
     7
100
AcDbLine
 10
81.12411320193263
 20
107.3241356664769
 30
0.0
 11
61.399467245917
 21
109.04989964105
 31
0.0
  0
LINE
  5
B8
330
1F
100
AcDbEntity
  8
レイヤ0
  6
Continuous
 62
     7
100
AcDbLine
 10
82.410423881263
 20
108.717414751375
 30
0.0
 11
81.043219885275
 21
112.207367869777
 31
0.0
  0
LINE
  5
B9
330
1F
100
AcDbEntity
  8
レイヤ0
  6
Continuous
 62
     7
100
AcDbLine
 10
94.09875115507
 20
138.628818922881
 30
0.0
 11
94.09875115507
 21
149.168852211783
 31
0.0
  0
LINE
  5
BA
330
1F
100
AcDbEntity
  8
レイヤ0
  6
Continuous
 62
     7
100
AcDbLine
 10
148.598757753465
 20
136.268849242507
 30
0.0
 11
148.598757753465
 21
146.418867882973
 31
0.0
  0
LINE
  5
BB
330
1F
100
AcDbEntity
  8
レイヤ0
  6
Continuous
 62
     7
100
AcDbLine
 10
145.598747855872
 20
116.068864253856
 30
0.0
 11
131.745080880181
 21
116.068864253856
 31
0.0
  0
LINE
  5
BC
330
1F
100
AcDbEntity
  8
レイヤ0
  6
Continuous
 62
     7
100
AcDbLine
 10
124.098757341065
 20
133.268864088896
 30
0.0
 11
145.598747855872
 21
133.268864088896
 31
0.0
  0
LINE
  5
BD
330
1F
100
AcDbEntity
  8
レイヤ0
  6
Continuous
 62
     7
100
AcDbLine
 10
94.91076204902001
 20
148.668862934177
 30
0.0
 11
94.09875115507
 21
147.168857985381
 31
0.0
  0
LINE
  5
BE
330
1F
100
AcDbEntity
  8
レイヤ0
  6
Continuous
 62
     7
100
AcDbLine
 10
118.098756103866
 20
148.668862934177
 30
0.0
 11
94.09875115507
 21
148.668862934177
 31
0.0
  0
LINE
  5
BF
330
1F
100
AcDbEntity
  8
レイヤ0
  6
Continuous
 62
     7
100
AcDbLine
 10
117.348753629468
 20
148.668862934177
 30
0.0
 11
118.098756103866
 21
147.168857985381
 31
0.0
  0
LINE
  5
C0
330
1F
100
AcDbEntity
  8
レイヤ0
  6
Continuous
 62
     7
100
AcDbLine
 10
94.91076204902001
 20
149.168852211783
 30
0.0
 11
94.91076204902001
 21
148.668862934177
 31
0.0
  0
LINE
  5
C1
330
1F
100
AcDbEntity
  8
レイヤ0
  6
Continuous
 62
     2
100
AcDbLine
 10
165.098762702262
 20
133.988852112809
 30
0.0
 11
152.598758578264
 21
133.988852112809
 31
0.0
  0
LINE
  5
C2
330
1F
100
AcDbEntity
  8
レイヤ0
  6
Continuous
 62
     7
100
AcDbLine
 10
112.098799804423
 20
163.168836540594
 30
0.0
 11
106.098753629467
 21
163.168836540595
 31
0.0
  0
LINE
  5
C3
330
1F
100
AcDbEntity
  8
レイヤ0
  6
Continuous
 62
     7
100
AcDbLine
 10
101.348756516265
 20
163.168836540595
 30
0.0
 11
101.3487536294662
 21
163.168836540595
 31
0.0
  0
LINE
  5
C4
330
1F
100
AcDbEntity
  8
レイヤ0
  6
Continuous
 62
     7
100
AcDbLine
 10
119.098753629468
 20
149.168852211783
 30
0.0
 11
94.91076204902001
 21
149.168852211783
 31
0.0
  0
LINE
  5
C5
330
1F
100
AcDbEntity
  8
レイヤ0
  6
Continuous
 62
     7
100
AcDbLine
 10
117.348753629468
 20
148.668862934177
 30
0.0
 11
117.34875362947
 21
149.168852211783
 31
0.0
  0
LINE
  5
C6
330
1F
100
AcDbEntity
  8
レイヤ0
  6
Continuous
 62
     7
100
AcDbLine
 10
118.098756103866
 20
139.268871512091
 30
0.0
 11
118.098756103866
 21
149.168852211783
 31
0.0
  0
LINE
  5
C7
330
1F
100
AcDbEntity
  8
レイヤ0
  6
Continuous
 62
     7
100
AcDbLine
 10
81.12411320193263
 20
107.3241356664769
 30
0.0
 11
81.124120335285
 21
107.324217202019
 31
0.0
  0
LINE
  5
C8
330
1F
100
AcDbEntity
  8
レイヤ0
  6
Continuous
 62
     7
100
AcDbLine
 10
82.23611051463968
 20
106.724997752939
 30
0.0
 11
82.410423881263
 21
108.717414751375
 31
0.0
  0
LINE
  5
C9
330
1F
100
AcDbEntity
  8
レイヤ0
  6
Continuous
 62
     7
100
AcDbLine
 10
110.848756928666
 20
163.168824168603
 30
0.0
 11
110.848756928666
 21
166.173347026726
 31
0.0
  0
LINE
  5
CA
330
1F
100
AcDbEntity
  8
レイヤ0
  6
Continuous
 62
     7
100
AcDbLine
 10
110.848756928666
 20
163.668824168603
 30
0.0
 11
110.848756928666
 21
166.673347026726
 31
0.0
  0
LINE
  5
CB
330
1F
100
AcDbEntity
  8
レイヤ0
  6
Continuous
 62
     7
100
AcDbLine
 10
114.898753629466
 20
167.368876955746
 30
0.0
 11
114.698753629466
 21
167.168876955746
 31
0.0
  0
LINE
  5
CC
330
1F
100
AcDbEntity
  8
レイヤ0
  6
Continuous
 62
     7
100
AcDbLine
 10
113.461497683145
 20
167.168876955746
 30
0.0
 11
114.698753629466
 21
167.168876955746
 31
0.0
  0
LINE
  5
CD
330
1F
100
AcDbEntity
  8
レイヤ0
  6
Continuous
 62
     7
100
AcDbLine
 10
114.898753629466
 20
176.968876955744
 30
0.0
 11
114.698753629465
 21
177.168876955745
 31
0.0
  0
LINE
  5
CE
330
1F
100
AcDbEntity
  8
レイヤ0
  6
Continuous
 62
     7
100
AcDbLine
 10
113.461497683145
 20
177.168876955747
 30
0.0
 11
114.698753629465
 21
177.168876955745
 31
0.0
  0
LINE
  5
CF
330
1F
100
AcDbEntity
  8
レイヤ0
  6
Continuous
 62
     7
100
AcDbLine
 10
97.298753629466
 20
167.368876955746
 30
0.0
 11
97.498753629466
 21
167.168876955746
 31
0.0
  0
LINE
  5
D0
330
1F
100
AcDbEntity
  8
レイヤ0
  6
Continuous
 62
     7
100
AcDbLine
 10
98.736009575787
 20
167.168876955746
 30
0.0
 11
97.498753629466
 21
167.168876955746
 31
0.0
  0
LINE
  5
D1
330
1F
100
AcDbEntity
  8
レイヤ0
  6
Continuous
 62
     7
100
AcDbLine
 10
97.298753629466
 20
176.968876955744
 30
0.0
 11
97.49875362946699
 21
177.168876955745
 31
0.0
  0
LINE
  5
D2
330
1F
100
AcDbEntity
  8
レイヤ0
  6
Continuous
 62
     7
100
AcDbLine
 10
98.736009575787
 20
177.168876955747
 30
0.0
 11
97.49875362946699
 21
177.168876955745
 31
0.0
  0
LINE
  5
D3
330
1F
100
AcDbEntity
  8
レイヤ0
  6
Continuous
 62
     7
100
AcDbLine
 10
99.10161135565201
 20
177.668876955746
 30
0.0
 11
113.09589590328
 21
177.668876955746
 31
0.0
  0
LINE
  5
D4
330
1F
100
AcDbEntity
  8
レイヤ0
  6
Continuous
 62
     7
100
AcDbLine
 10
97.298753629466
 20
167.368876955746
 30
0.0
 11
97.298753629466
 21
167.768876955746
 31
0.0
  0
LINE
  5
D5
330
1F
100
AcDbEntity
  8
レイヤ0
  6
Continuous
 62
     7
100
AcDbLine
 10
97.298753629466
 20
176.568876955746
 30
0.0
 11
97.298753629466
 21
176.968876955744
 31
0.0
  0
LINE
  5
D6
330
1F
100
AcDbEntity
  8
レイヤ0
  6
Continuous
 62
     7
100
AcDbLine
 10
114.898753629466
 20
167.368876955746
 30
0.0
 11
114.898753629466
 21
167.768876955746
 31
0.0
  0
LINE
  5
D7
330
1F
100
AcDbEntity
  8
レイヤ0
  6
Continuous
 62
     7
100
AcDbLine
 10
106.098753629466
 20
166.668876955746
 30
0.0
 11
113.09589590328
 21
166.668876955746
 31
0.0
  0
LINE
  5
D8
330
1F
100
AcDbEntity
  8
レイヤ0
  6
Continuous
 62
     7
100
AcDbLine
 10
99.348753629356
 20
179.704120626333
 30
0.0
 11
99.348753629356
 21
177.668876955746
 31
0.0
  0
LINE
  5
D9
330
1F
100
AcDbEntity
  8
レイヤ0
  6
Continuous
 62
     7
100
AcDbLine
 10
100.048753629356
 20
179.795865406332
 30
0.0
 11
100.048753629355
 21
177.668876955746
 31
0.0
  0
LINE
  5
DA
330
1F
100
AcDbEntity
  8
レイヤ0
  6
Continuous
 62
     7
100
AcDbLine
 10
100.848753629356
 20
179.888255142516
 30
0.0
 11
100.848753629356
 21
177.668876955746
 31
0.0
  0
LINE
  5
DB
330
1F
100
AcDbEntity
  8
レイヤ0
  6
Continuous
 62
     7
100
AcDbLine
 10
101.748753629356
 20
179.976394218639
 30
0.0
 11
101.748753629356
 21
177.668876955746
 31
0.0
  0
LINE
  5
DC
330
1F
100
AcDbEntity
  8
レイヤ0
  6
Continuous
 62
     7
100
AcDbLine
 10
102.748753629355
 20
180.054810853447
 30
0.0
 11
102.748753629356
 21
177.668876955746
 31
0.0
  0
LINE
  5
DD
330
1F
100
AcDbEntity
  8
レイヤ0
  6
Continuous
 62
     7
100
AcDbLine
 10
103.848753629355
 20
180.117454170941
 30
0.0
 11
103.848753629355
 21
177.668876955746
 31
0.0
  0
LINE
  5
DE
330
1F
100
AcDbEntity
  8
レイヤ0
  6
Continuous
 62
     7
100
AcDbLine
 10
105.048753629355
 20
180.157682790167
 30
0.0
 11
105.048753629355
 21
177.668876955746
 31
0.0
  0
LINE
  5
DF
330
1F
100
AcDbEntity
  8
レイヤ0
  6
Continuous
 62
     7
100
AcDbLine
 10
112.848753629581
 20
179.704120626333
 30
0.0
 11
112.848753629581
 21
177.668876955746
 31
0.0
  0
LINE
  5
E0
330
1F
100
AcDbEntity
  8
レイヤ0
  6
Continuous
 62
     7
100
AcDbLine
 10
112.14875362958
 20
179.795865406332
 30
0.0
 11
112.148753629581
 21
177.668876955746
 31
0.0
  0
LINE
  5
E1
330
1F
100
AcDbEntity
  8
レイヤ0
  6
Continuous
 62
     7
100
AcDbLine
 10
111.34875362958
 20
179.888255142516
 30
0.0
 11
111.34875362958
 21
177.668876955746
 31
0.0
  0
LINE
  5
E2
330
1F
100
AcDbEntity
  8
レイヤ0
  6
Continuous
 62
     7
100
AcDbLine
 10
110.44875362958
 20
179.976394218639
 30
0.0
 11
110.44875362958
 21
177.668876955746
 31
0.0
  0
LINE
  5
E3
330
1F
100
AcDbEntity
  8
レイヤ0
  6
Continuous
 62
     7
100
AcDbLine
 10
109.448753629581
 20
180.054810853447
 30
0.0
 11
109.44875362958
 21
177.668876955746
 31
0.0
  0
LINE
  5
E4
330
1F
100
AcDbEntity
  8
レイヤ0
  6
Continuous
 62
     7
100
AcDbLine
 10
107.148753629581
 20
180.157682790167
 30
0.0
 11
107.148753629581
 21
177.668876955746
 31
0.0
  0
LINE
  5
E5
330
1F
100
AcDbEntity
  8
レイヤ0
  6
Continuous
 62
     7
100
AcDbLine
 10
108.348753629581
 20
180.117454170941
 30
0.0
 11
108.348753629581
 21
177.668876955746
 31
0.0
  0
LINE
  5
E6
330
1F
100
AcDbEntity
  8
レイヤ0
  6
Continuous
 62
     7
100
AcDbLine
 10
114.898753629466
 20
167.768876955746
 30
0.0
 11
114.898753629466
 21
176.968876955744
 31
0.0
  0
LINE
  5
E7
330
1F
100
AcDbEntity
  8
レイヤ0
  6
Continuous
 62
     7
100
AcDbLine
 10
113.461497683145
 20
177.168876955747
 30
0.0
 11
113.461497683145
 21
167.168876955746
 31
0.0
  0
LINE
  5
E8
330
1F
100
AcDbEntity
  8
レイヤ0
  6
Continuous
 62
     7
100
AcDbLine
 10
114.698753629466
 20
167.168876955746
 30
0.0
 11
114.698753629465
 21
177.168876955745
 31
0.0
  0
LINE
  5
E9
330
1F
100
AcDbEntity
  8
レイヤ0
  6
Continuous
 62
     7
100
AcDbLine
 10
99.10161135565099
 20
166.668876955747
 30
0.0
 11
101.348753629466
 21
166.668876955747
 31
0.0
  0
LINE
  5
EA
330
1F
100
AcDbEntity
  8
レイヤ0
  6
Continuous
 62
     7
100
AcDbLine
 10
83.00731266910401
 20
167.17525523443
 30
0.0
 11
97.298753629466
 21
167.768876955746
 31
0.0
  0
LINE
  5
EB
330
1F
100
AcDbEntity
  8
レイヤ0
  6
Continuous
 62
     7
100
AcDbLine
 10
129.190194589828
 20
177.162498677063
 30
0.0
 11
114.898753629467
 21
176.568876955746
 31
0.0
  0
LINE
  5
EC
330
1F
100
AcDbEntity
  8
レイヤ0
  6
Continuous
 62
     7
100
AcDbLine
 10
129.190194589828
 20
167.17525523443
 30
0.0
 11
114.898753629466
 21
167.768876955746
 31
0.0
  0
LINE
  5
ED
330
1F
100
AcDbEntity
  8
レイヤ0
  6
Continuous
 62
     7
100
AcDbLine
 10
83.007312669105
 20
177.162498677063
 30
0.0
 11
97.298753629466
 21
176.568876955746
 31
0.0
  0
LINE
  5
EE
330
1F
100
AcDbEntity
  8
レイヤ0
  6
Continuous
 62
     7
100
AcDbLine
 10
129.343751627959
 20
177.127500214043
 30
0.0
 11
129.343751627959
 21
167.210253697472
 31
0.0
  0
LINE
  5
EF
330
1F
100
AcDbEntity
  8
レイヤ0
  6
Continuous
 62
     7
100
AcDbLine
 10
114.898753629466
 20
223.78758141678
 30
0.0
 11
114.898753629466
 21
214.187581416782
 31
0.0
  0
LINE
  5
F0
330
1F
100
AcDbEntity
  8
レイヤ0
  6
Continuous
 62
     7
100
AcDbLine
 10
114.898753629466
 20
214.187581416782
 30
0.0
 11
114.698753629466
 21
213.987581416782
 31
0.0
  0
LINE
  5
F1
330
1F
100
AcDbEntity
  8
レイヤ0
  6
Continuous
 62
     7
100
AcDbLine
 10
114.698753629453
 20
223.98758141678
 30
0.0
 11
114.698753629466
 21
213.987581416782
 31
0.0
  0
LINE
  5
F2
330
1F
100
AcDbEntity
  8
レイヤ0
  6
Continuous
 62
     7
100
AcDbLine
 10
113.461497683145
 20
213.987581416782
 30
0.0
 11
114.698753629466
 21
213.987581416782
 31
0.0
  0
LINE
  5
F3
330
1F
100
AcDbEntity
  8
レイヤ0
  6
Continuous
 62
     7
100
AcDbLine
 10
113.461497683145
 20
213.987581416782
 30
0.0
 11
113.461497683145
 21
223.987581416783
 31
0.0
  0
LINE
  5
F4
330
1F
100
AcDbEntity
  8
レイヤ0
  6
Continuous
 62
     7
100
AcDbLine
 10
114.898753629466
 20
223.78758141678
 30
0.0
 11
114.698753629453
 21
223.98758141678
 31
0.0
  0
LINE
  5
F5
330
1F
100
AcDbEntity
  8
レイヤ0
  6
Continuous
 62
     7
100
AcDbLine
 10
113.461497683145
 20
223.987581416783
 30
0.0
 11
114.698753629453
 21
223.98758141678
 31
0.0
  0
LINE
  5
F6
330
1F
100
AcDbEntity
  8
レイヤ0
  6
Continuous
 62
     7
100
AcDbLine
 10
97.298753629466
 20
223.78758141678
 30
0.0
 11
97.298753629466
 21
214.187581416782
 31
0.0
  0
LINE
  5
F7
330
1F
100
AcDbEntity
  8
レイヤ0
  6
Continuous
 62
     7
100
AcDbLine
 10
97.298753629466
 20
214.187581416782
 30
0.0
 11
97.498753629466
 21
213.987581416782
 31
0.0
  0
LINE
  5
F8
330
1F
100
AcDbEntity
  8
レイヤ0
  6
Continuous
 62
     7
100
AcDbLine
 10
97.49875362947901
 20
223.98758141678
 30
0.0
 11
97.498753629466
 21
213.987581416782
 31
0.0
  0
LINE
  5
F9
330
1F
100
AcDbEntity
  8
レイヤ0
  6
Continuous
 62
     7
100
AcDbLine
 10
98.736009575787
 20
213.987581416782
 30
0.0
 11
97.498753629466
 21
213.987581416782
 31
0.0
  0
LINE
  5
FA
330
1F
100
AcDbEntity
  8
レイヤ0
  6
Continuous
 62
     7
100
AcDbLine
 10
98.736009575787
 20
213.987581416782
 30
0.0
 11
98.736009575787
 21
223.987581416783
 31
0.0
  0
LINE
  5
FB
330
1F
100
AcDbEntity
  8
レイヤ0
  6
Continuous
 62
     7
100
AcDbLine
 10
97.298753629466
 20
223.78758141678
 30
0.0
 11
97.49875362947901
 21
223.98758141678
 31
0.0
  0
LINE
  5
FC
330
1F
100
AcDbEntity
  8
レイヤ0
  6
Continuous
 62
     7
100
AcDbLine
 10
98.736009575787
 20
223.987581416783
 30
0.0
 11
97.49875362947901
 21
223.98758141678
 31
0.0
  0
LINE
  5
FD
330
1F
100
AcDbEntity
  8
レイヤ0
  6
Continuous
 62
     7
100
AcDbLine
 10
83.00731266910401
 20
213.993959695467
 30
0.0
 11
97.298753629466
 21
214.587581416783
 31
0.0
  0
LINE
  5
FE
330
1F
100
AcDbEntity
  8
レイヤ0
  6
Continuous
 62
     7
100
AcDbLine
 10
129.190194589828
 20
223.981203138099
 30
0.0
 11
114.898753629466
 21
223.387581416783
 31
0.0
  0
LINE
  5
FF
330
1F
100
AcDbEntity
  8
レイヤ0
  6
Continuous
 62
     7
100
AcDbLine
 10
129.190194589828
 20
213.993959695467
 30
0.0
 11
114.898753629466
 21
214.587581416783
 31
0.0
  0
LINE
  5
100
330
1F
100
AcDbEntity
  8
レイヤ0
  6
Continuous
 62
     7
100
AcDbLine
 10
83.007312669105
 20
223.981203138099
 30
0.0
 11
97.298753629466
 21
223.387581416783
 31
0.0
  0
LINE
  5
101
330
1F
100
AcDbEntity
  8
レイヤ0
  6
Continuous
 62
     7
100
AcDbLine
 10
82.853755630974
 20
223.946204675079
 30
0.0
 11
82.853755630974
 21
214.028958158509
 31
0.0
  0
LINE
  5
102
330
1F
100
AcDbEntity
  8
レイヤ0
  6
Continuous
 62
     7
100
AcDbLine
 10
129.343751627958
 20
223.946204675079
 30
0.0
 11
129.343751627958
 21
214.028958158509
 31
0.0
  0
LINE
  5
103
330
1F
100
AcDbEntity
  8
レイヤ0
  6
Continuous
 62
     7
100
AcDbLine
 10
58.881725315976
 20
97.224313569689
 30
0.0
 11
58.665055227808
 21
97.04250577862
 31
0.0
  0
LINE
  5
104
330
1F
100
AcDbEntity
  8
レイヤ0
  6
Continuous
 62
     7
100
AcDbLine
 10
69.329487259217
 20
81.2529627288378
 30
0.0
 11
57.375150882116
 21
82.2988316418099
 31
0.0
  0
LINE
  5
105
330
1F
100
AcDbEntity
  8
レイヤ0
  6
Continuous
 62
     7
100
AcDbLine
 10
77.622833419057
 20
78.5197426584687
 30
0.0
 11
60.68751697821
 21
80.0013908602669
 31
0.0
  0
LINE
  5
106
330
1F
100
AcDbEntity
  8
レイヤ0
  6
Continuous
 62
     7
100
AcDbLine
 10
58.665055227808
 20
97.04250577862
 30
0.0
 11
57.375150882116
 21
82.2988316418099
 31
0.0
  0
LINE
  5
107
330
1F
100
AcDbEntity
  8
レイヤ0
  6
Continuous
 62
     7
100
AcDbLine
 10
82.57372798200899
 20
94.950767952677
 30
0.0
 11
81.259338657048
 21
79.9272292221821
 31
0.0
  0
LINE
  5
108
330
1F
100
AcDbEntity
  8
レイヤ0
  6
Continuous
 62
     7
100
AcDbLine
 10
58.881725315976
 20
97.224313569689
 30
0.0
 11
59.678681074449
 21
97.154588975491
 31
0.0
  0
LINE
  5
109
330
1F
100
AcDbEntity
  8
レイヤ0
  6
Continuous
 62
     7
100
AcDbLine
 10
58.708633099182
 20
97.540603127667
 30
0.0
 11
58.981344785785
 21
97.215597995415
 31
0.0
  0
LINE
  5
10A
330
1F
100
AcDbEntity
  8
レイヤ0
  6
Continuous
 62
     7
100
AcDbLine
 10
59.678681074449
 20
97.154588975491
 30
0.0
 11
58.981344785785
 21
97.215597995415
 31
0.0
  0
LINE
  5
10B
330
1F
100
AcDbEntity
  8
レイヤ0
  6
Continuous
 62
     7
100
AcDbLine
 10
58.708633099182
 20
97.540603127667
 30
0.0
 11
70.662969476282
 21
96.494734214696
 31
0.0
  0
LINE
  5
10C
330
1F
100
AcDbEntity
  8
レイヤ0
  6
Continuous
 62
     7
100
AcDbLine
 10
83.095352823111
 20
106.649823791726
 30
0.0
 11
83.549872300783
 21
106.108148571306
 31
0.0
  0
LINE
  5
10D
330
1F
100
AcDbEntity
  8
レイヤ0
  6
Continuous
 62
     7
100
AcDbLine
 10
60.18287476700201
 20
108.654405874922
 30
0.0
 11
59.641199546582
 21
108.19988639725
 31
0.0
  0
LINE
  5
10E
330
1F
100
AcDbEntity
  8
レイヤ0
  6
Continuous
 62
     7
100
AcDbLine
 10
59.641199546582
 20
108.19988639725
 30
0.0
 11
71.595535923682
 21
107.154017484278
 31
0.0
  0
LINE
  5
10F
330
1F
100
AcDbEntity
  8
レイヤ0
  6
Continuous
 62
     7
100
AcDbLine
 10
59.641199546582
 20
108.19988639725
 30
0.0
 11
58.708633099182
 21
97.540603127667
 31
0.0
  0
LINE
  5
110
330
1F
100
AcDbEntity
  8
レイヤ0
  6
Continuous
 62
     7
100
AcDbLine
 10
70.400102285973
 20
107.258604375575
 30
0.0
 11
69.467535838572
 21
96.599321105993
 31
0.0
  0
LINE
  5
111
330
1F
100
AcDbEntity
  8
レイヤ0
  6
Continuous
 62
     7
100
AcDbLine
 10
69.204668648263
 20
107.363191266873
 30
0.0
 11
68.272102200862
 21
96.70390799729
 31
0.0
  0
LINE
  5
112
330
1F
100
AcDbEntity
  8
レイヤ0
  6
Continuous
 62
     7
100
AcDbLine
 10
68.108854480361
 20
107.459062583895
 30
0.0
 11
67.176288032961
 21
96.799779314312
 31
0.0
  0
LINE
  5
113
330
1F
100
AcDbEntity
  8
レイヤ0
  6
Continuous
 62
     7
100
AcDbLine
 10
67.013040312461
 20
107.554933900918
 30
0.0
 11
66.08047386506
 21
96.895650631335
 31
0.0
  0
LINE
  5
114
330
1F
100
AcDbEntity
  8
レイヤ0
  6
Continuous
 62
     7
100
AcDbLine
 10
66.016845614368
 20
107.642089643665
 30
0.0
 11
65.084279166968
 21
96.982806374083
 31
0.0
  0
LINE
  5
115
330
1F
100
AcDbEntity
  8
レイヤ0
  6
Continuous
 62
     7
100
AcDbLine
 10
65.020650916277
 20
107.729245386413
 30
0.0
 11
64.088084468876
 21
97.06996211683
 31
0.0
  0
LINE
  5
116
330
1F
100
AcDbEntity
  8
レイヤ0
  6
Continuous
 62
     7
100
AcDbLine
 10
61.733208412574
 20
108.01685933748
 30
0.0
 11
60.800641965174
 21
97.357576067897
 31
0.0
  0
LINE
  5
117
330
1F
100
AcDbEntity
  8
レイヤ0
  6
Continuous
 62
     7
100
AcDbLine
 10
60.637394244674
 20
108.112730654502
 30
0.0
 11
59.704827797273
 21
97.45344738492
 31
0.0
  0
LINE
  5
118
330
1F
100
AcDbEntity
  8
レイヤ0
  6
Continuous
 62
     7
100
AcDbLine
 10
62.43054470123801
 20
107.955850317557
 30
0.0
 11
61.497978253838
 21
97.296567047974
 31
0.0
  0
LINE
  5
119
330
1F
100
AcDbEntity
  8
レイヤ0
  6
Continuous
 62
     7
100
AcDbLine
 10
63.227500459712
 20
107.886125723359
 30
0.0
 11
62.294934012311
 21
97.226842453776
 31
0.0
  0
LINE
  5
11A
330
1F
100
AcDbEntity
  8
レイヤ0
  6
Continuous
 62
     7
100
AcDbLine
 10
61.135491593719
 20
108.069152783129
 30
0.0
 11
60.202925146319
 21
97.409869513546
 31
0.0
  0
LINE
  5
11B
330
1F
100
AcDbEntity
  8
レイヤ0
  6
Continuous
 62
     7
100
AcDbLine
 10
60.23891636543701
 20
108.147592951602
 30
0.0
 11
59.306349918037
 21
97.488309682019
 31
0.0
  0
LINE
  5
11C
330
1F
100
AcDbEntity
  8
レイヤ0
  6
Continuous
 62
     7
100
AcDbLine
 10
59.740819016391
 20
108.191170822975
 30
0.0
 11
58.808252568992
 21
97.531887553393
 31
0.0
  0
LINE
  5
11D
330
1F
100
AcDbEntity
  8
レイヤ0
  6
Continuous
 62
     7
100
AcDbLine
 10
59.940057956009
 20
108.173739674426
 30
0.0
 11
59.00749150861
 21
97.514456404843
 31
0.0
  0
LINE
  5
11E
330
1F
100
AcDbEntity
  8
レイヤ0
  6
Continuous
 62
     7
100
AcDbLine
 10
83.549872300783
 20
106.108148571306
 30
0.0
 11
82.61730585338199
 21
95.448865301724
 31
0.0
  0
LINE
  5
11F
330
1F
100
AcDbEntity
  8
レイヤ0
  6
Continuous
 62
     7
100
AcDbLine
 10
58.981344785785
 20
97.215597995415
 30
0.0
 11
70.636822753458
 21
96.195875805267
 31
0.0
  0
LINE
  5
120
330
1F
100
AcDbEntity
  8
レイヤ0
  6
Continuous
 62
     7
100
AcDbLine
 10
58.981344785785
 20
97.215597995415
 30
0.0
 11
70.636822753458
 21
96.195875805267
 31
0.0
  0
LINE
  5
121
330
1F
100
AcDbEntity
  8
レイヤ0
  6
Continuous
 62
     7
100
AcDbLine
 10
83.095352823111
 20
106.649823791726
 30
0.0
 11
82.23611051463968
 21
106.724997752939
 31
0.0
  0
LINE
  5
122
330
1F
100
AcDbEntity
  8
レイヤ0
  6
Continuous
 62
     7
100
AcDbLine
 10
62.511468936103
 20
108.450680283172
 30
0.0
 11
62.55504833359601
 21
108.948795729521
 31
0.0
  0
LINE
  5
123
330
1F
100
AcDbEntity
  8
レイヤ0
  6
Continuous
 62
     7
100
AcDbLine
 10
71.639113795056
 20
107.652114833323
 30
0.0
 11
60.18287476700201
 21
108.654405874922
 31
0.0
  0
LINE
  5
124
330
1F
100
AcDbEntity
  8
レイヤ0
  6
Continuous
 62
     2
100
AcDbLine
 10
165.098762702262
 20
115.348851485961
 30
0.0
 11
152.598758578264
 21
115.348851485961
 31
0.0
  0
LINE
  5
125
330
1F
100
AcDbEntity
  8
レイヤ0
  6
Continuous
 62
     7
100
AcDbLine
 10
79.855522854445
 20
78.3244076436983
 30
0.0
 11
58.44833617889501
 21
80.197293795792
 31
0.0
  0
LINE
  5
126
330
1F
100
AcDbEntity
  8
レイヤ0
  6
Continuous
 62
     7
100
AcDbLine
 10
82.23611051463968
 20
106.724997752939
 30
0.0
 11
81.08054097199599
 21
106.826096987836
 31
0.0
  0
LINE
  5
127
330
1F
100
AcDbEntity
  8
レイヤ0
  6
Continuous
 62
     7
100
AcDbLine
 10
81.28382363631829
 20
80.20709381586649
 30
0.0
 11
69.329487259217
 21
81.2529627288378
 31
0.0
  0
LINE
  5
128
330
1F
100
AcDbEntity
  8
レイヤ0
  6
Continuous
 62
     7
100
AcDbLine
 10
70.636822753458
 20
96.195875805267
 30
0.0
 11
82.29230072113052
 21
95.17615361512031
 31
0.0
  0
LINE
  5
129
330
1F
100
AcDbEntity
  8
レイヤ0
  6
Continuous
 62
     7
100
AcDbLine
 10
70.662969476282
 20
96.494734214696
 30
0.0
 11
82.61730585338199
 21
95.448865301724
 31
0.0
  0
LINE
  5
12A
330
1F
100
AcDbEntity
  8
レイヤ0
  6
Continuous
 62
     7
100
AcDbLine
 10
82.57372798200899
 20
94.950767952677
 30
0.0
 11
82.39192019093937
 21
95.16743804084484
 31
0.0
  0
LINE
  5
12B
330
1F
100
AcDbEntity
  8
レイヤ0
  6
Continuous
 62
     7
100
AcDbLine
 10
71.595535923682
 20
107.154017484278
 30
0.0
 11
83.54987230078186
 21
106.1081485713068
 31
0.0
  0
LINE
  5
12C
330
1F
100
AcDbEntity
  8
レイヤ0
  6
Continuous
 62
     7
100
AcDbLine
 10
83.0953528231095
 20
106.6498237917265
 30
0.0
 11
71.639113795056
 21
107.652114833323
 31
0.0
  0
LINE
  5
12D
330
1F
100
AcDbEntity
  8
レイヤ0
  6
Continuous
 62
     7
100
AcDbLine
 10
71.8584031139922
 20
96.39014732339865
 30
0.0
 11
72.79096956139078
 21
107.0494305929809
 31
0.0
  0
LINE
  5
12E
330
1F
100
AcDbEntity
  8
レイヤ0
  6
Continuous
 62
     7
100
AcDbLine
 10
73.05383675170218
 20
96.28556043210136
 30
0.0
 11
73.98640319910093
 21
106.9448437016845
 31
0.0
  0
LINE
  5
12F
330
1F
100
AcDbEntity
  8
レイヤ0
  6
Continuous
 62
     7
100
AcDbLine
 10
74.14965091960312
 20
96.18968911507855
 30
0.0
 11
75.08221736700284
 21
106.8489723846616
 31
0.0
  0
LINE
  5
130
330
1F
100
AcDbEntity
  8
レイヤ0
  6
Continuous
 62
     7
100
AcDbLine
 10
75.24546508750421
 20
96.0938177980567
 30
0.0
 11
76.17803153490297
 21
106.7531010676399
 31
0.0
  0
LINE
  5
131
330
1F
100
AcDbEntity
  8
レイヤ0
  6
Continuous
 62
     7
100
AcDbLine
 10
76.24165978559627
 20
96.00666205530936
 30
0.0
 11
77.17422623299584
 21
106.6659453248914
 31
0.0
  0
LINE
  5
132
330
1F
100
AcDbEntity
  8
レイヤ0
  6
Continuous
 62
     7
100
AcDbLine
 10
77.23785448368814
 20
95.91950631256105
 30
0.0
 11
78.17042093108691
 21
106.5787895821443
 31
0.0
  0
LINE
  5
133
330
1F
100
AcDbEntity
  8
レイヤ0
  6
Continuous
 62
     7
100
AcDbLine
 10
78.13442971197017
 20
95.8410661440884
 30
0.0
 11
79.06699615936994
 21
106.5003494136714
 31
0.0
  0
LINE
  5
134
330
1F
100
AcDbEntity
  8
レイヤ0
  6
Continuous
 62
     7
100
AcDbLine
 10
79.0310049402532
 20
95.76262597561556
 30
0.0
 11
79.96357138765195
 21
106.4219092451988
 31
0.0
  0
LINE
  5
135
330
1F
100
AcDbEntity
  8
レイヤ0
  6
Continuous
 62
     7
100
AcDbLine
 10
79.82796069872617
 20
95.6929013814174
 30
0.0
 11
80.76052714612592
 21
106.3521846510004
 31
0.0
  0
LINE
  5
136
330
1F
100
AcDbEntity
  8
レイヤ0
  6
Continuous
 62
     7
100
AcDbLine
 10
80.5252969873901
 20
95.63189236149375
 30
0.0
 11
81.45786343478986
 21
106.2911756310768
 31
0.0
  0
LINE
  5
137
330
1F
100
AcDbEntity
  8
レイヤ0
  6
Continuous
 62
     7
100
AcDbLine
 10
81.12301380624518
 20
95.5795989158456
 30
0.0
 11
82.05558025364496
 21
106.2388821854286
 31
0.0
  0
LINE
  5
138
330
1F
100
AcDbEntity
  8
レイヤ0
  6
Continuous
 62
     7
100
AcDbLine
 10
81.62111115529123
 20
95.53602104447191
 30
0.0
 11
82.55367760268982
 21
106.1953043140541
 31
0.0
  0
LINE
  5
139
330
1F
100
AcDbEntity
  8
レイヤ0
  6
Continuous
 62
     7
100
AcDbLine
 10
82.01958903452723
 20
95.50115874737293
 30
0.0
 11
82.95215548192698
 21
106.160442016956
 31
0.0
  0
LINE
  5
13A
330
1F
100
AcDbEntity
  8
レイヤ0
  6
Continuous
 62
     7
100
AcDbLine
 10
82.3184474439542
 20
95.47501202454845
 30
0.0
 11
83.25101389135492
 21
106.1342952941313
 31
0.0
  0
LINE
  5
13B
330
1F
100
AcDbEntity
  8
レイヤ0
  6
Continuous
 62
     7
100
AcDbLine
 10
82.51768638357225
 20
95.45758087599944
 30
0.0
 11
83.45025283097283
 21
106.1168641455813
 31
0.0
  0
LINE
  5
13C
330
1F
100
AcDbEntity
  8
レイヤ0
  6
Continuous
 62
     7
100
AcDbLine
 10
64.124075687994
 20
107.807685554886
 30
0.0
 11
63.191509240594
 21
97.148402285303
 31
0.0
  0
LINE
  5
13D
330
1F
100
AcDbEntity
  8
レイヤ0
  6
Continuous
 62
     7
100
AcDbLine
 10
61.355889404423
 20
108.551780391997
 30
0.0
 11
61.530202076206
 21
110.544188729943
 31
0.0
  0
LINE
  5
13E
330
1F
100
AcDbEntity
  8
1
  6
Continuous
 62
     7
100
AcDbLine
 10
163.938764813748
 20
135.148874745305
 30
0.0
 11
163.938764813748
 21
114.188853597448
 31
0.0
  0
LINE
  5
13F
330
1F
100
AcDbEntity
  8
レイヤ0
  6
Continuous
 62
     7
100
AcDbLine
 10
94.09875115507
 20
149.168852211783
 30
0.0
 11
93.09875362946701
 21
149.168852211783
 31
0.0
  0
LINE
  5
140
330
1F
100
AcDbEntity
  8
レイヤ0
  6
Continuous
 62
     7
100
AcDbLine
 10
94.91076204902001
 20
149.168852211783
 30
0.0
 11
94.09875115507
 21
149.168852211783
 31
0.0
  0
LINE
  5
141
330
1F
100
AcDbEntity
  8
レイヤ0
  6
Continuous
 62
     7
100
AcDbLine
 10
101.348753629466
 20
166.668876955747
 30
0.0
 11
101.3487536294662
 21
163.168836540595
 31
0.0
  0
LINE
  5
142
330
1F
100
AcDbEntity
  8
レイヤ0
  6
Continuous
 62
     7
100
AcDbLine
 10
101.3487536294662
 20
163.168836540595
 30
0.0
 11
100.098707454511
 21
163.168836540594
 31
0.0
  0
LINE
  5
143
330
1F
100
AcDbEntity
  8
1
  6
Continuous
 62
     7
100
AcDbLine
 10
101.3487536294662
 20
163.168836540595
 30
0.0
 11
106.098753629467
 21
163.168836540595
 31
0.0
  0
LINE
  5
144
330
1F
100
AcDbEntity
  8
レイヤ0
  6
Continuous
 62
     7
100
AcDbLine
 10
101.348753629466
 20
166.668876955747
 30
0.0
 11
106.098753629468
 21
166.668876955747
 31
0.0
  0
LINE
  5
145
330
1F
100
AcDbEntity
  8
レイヤ0
  6
Continuous
 62
     7
100
AcDbLine
 10
98.736009575791
 20
167.168876955746
 30
0.0
 11
98.736009575791
 21
177.168876955747
 31
0.0
  0
LINE
  5
146
330
1F
100
AcDbEntity
  8
レイヤ0
  6
Continuous
 62
     7
100
AcDbLine
 10
97.49875362947103
 20
177.168876955745
 30
0.0
 11
97.49875362947
 21
167.168876955746
 31
0.0
  0
LINE
  5
147
330
1F
100
AcDbEntity
  8
レイヤ0
  6
Continuous
 62
     7
100
AcDbLine
 10
97.29875362947001
 20
176.968876955744
 30
0.0
 11
97.29875362947001
 21
167.768876955746
 31
0.0
  0
LINE
  5
148
330
1F
100
AcDbEntity
  8
1
  6
DASH_CENTER
 62
     2
100
AcDbLine
 10
65.2459722730828
 20
124.668870357372
 30
0.0
 11
168.098762702262
 21
124.668870357372
 31
0.0
  0
LINE
  5
149
330
1F
100
AcDbEntity
  8
1
  6
DASH_CENTER
 62
     2
100
AcDbLine
 10
106.098753629468
 20
183.1688769557465
 30
0.0
 11
106.098753629468
 21
180.1688769557465
 31
0.0
  0
LINE
  5
14A
330
1F
100
AcDbEntity
  8
1
  6
DASH_CENTER
 62
     2
100
AcDbLine
 10
134.0987536294659
 20
172.168876955746
 30
0.0
 11
78.09875362917944
 21
172.168876955746
 31
0.0
  0
LINE
  5
14B
330
1F
100
AcDbEntity
  8
1
  6
DASH_CENTER
 62
     2
100
AcDbLine
 10
71.90058102329898
 20
110.6406989275982
 30
0.0
 11
68.89370797039066
 21
76.27198266509255
 31
0.0
  0
LINE
  5
14C
330
1F
100
AcDbEntity
  8
1
  6
DASH_CENTER
 62
     2
100
AcDbLine
 10
106.098753629466
 20
230.8875814167822
 30
0.0
 11
106.098753629466
 21
207.0875814167833
 31
0.0
  0
LINE
  5
14D
330
1F
100
AcDbEntity
  8
1
  6
DASH_CENTER
 62
     2
100
AcDbLine
 10
134.0987536294659
 20
218.987581416783
 30
0.0
 11
131.098753629466
 21
218.987581416783
 31
0.0
  0
ARC
  5
14E
330
1F
100
AcDbEntity
  8
レイヤ0
  6
Continuous
 62
     7
100
AcDbCircle
 10
149.848761877462
 20
102.918860459779
 30
0.0
 40
1.249999967781008
100
AcDbArc
 50
180.0
 51
270.0
  0
ARC
  5
14F
330
1F
100
AcDbEntity
  8
レイヤ0
  6
Continuous
 62
     7
100
AcDbCircle
 10
149.848761877462
 20
146.418867882973
 30
0.0
 40
1.24999996778098
100
AcDbArc
 50
0.0
 51
90.0
  0
ARC
  5
150
330
1F
100
AcDbEntity
  8
レイヤ0
  6
Continuous
 62
     7
100
AcDbCircle
 10
149.848761877462
 20
146.418867882973
 30
0.0
 40
1.249999967781008
100
AcDbArc
 50
90.0
 51
180.0
  0
ARC
  5
151
330
1F
100
AcDbEntity
  8
レイヤ0
  6
Continuous
 62
     7
100
AcDbCircle
 10
149.848761877462
 20
102.918860459779
 30
0.0
 40
1.249999967780994
100
AcDbArc
 50
270.0
 51
0.0
  0
ARC
  5
152
330
1F
100
AcDbEntity
  8
レイヤ0
  6
Continuous
 62
     7
100
AcDbCircle
 10
145.598747855872
 20
136.268849242507
 30
0.0
 40
2.999999845350004
100
AcDbArc
 50
270.0
 51
0.0
  0
ARC
  5
153
330
1F
100
AcDbEntity
  8
レイヤ0
  6
Continuous
 62
     7
100
AcDbCircle
 10
145.598747855872
 20
113.068854356263
 30
0.0
 40
2.999999845350004
100
AcDbArc
 50
0.0
 51
90.0
  0
ARC
  5
154
330
1F
100
AcDbEntity
  8
レイヤ0
  6
Continuous
 62
     7
100
AcDbCircle
 10
124.098757341065
 20
139.268871512091
 30
0.0
 40
5.999999690699994
100
AcDbArc
 50
180.0
 51
270.0
  0
ARC
  5
155
330
1F
100
AcDbEntity
  8
レイヤ0
  6
Continuous
 62
     7
100
AcDbCircle
 10
88.098743731875
 20
138.628818922881
 30
0.0
 40
5.999999690700935
100
AcDbArc
 50
276.4495544433602
 51
0.0
  0
ARC
  5
156
330
1F
100
AcDbEntity
  8
レイヤ0
  6
Continuous
 62
     7
100
AcDbCircle
 10
77.743783058311
 20
121.356343963791
 30
0.0
 40
9.999999742250095
100
AcDbArc
 50
96.44949340820493
 51
154.5706481933619
  0
ARC
  5
157
330
1F
100
AcDbEntity
  8
レイヤ0
  6
Continuous
 62
     7
100
AcDbCircle
 10
106.099842364688
 20
148.605048203919
 30
0.0
 40
36.93616506215657
100
AcDbArc
 50
238.5933227539055
 51
289.4710998535152
  0
ARC
  5
158
330
1F
100
AcDbEntity
  8
レイヤ0
  6
Continuous
 62
     7
100
AcDbCircle
 10
117.116309792416
 20
154.374591342598
 30
0.0
 40
3.000000000000794
100
AcDbArc
 50
36.67199658919439
 51
57.05850559493391
  0
ARC
  5
159
330
1F
100
AcDbEntity
  8
レイヤ0
  6
Continuous
 62
     7
100
AcDbCircle
 10
132.507823717526
 20
178.128511083372
 30
0.0
 40
25.30454740775758
100
AcDbArc
 50
216.2411605173572
 51
237.0585055949246
  0
ARC
  5
15A
330
1F
100
AcDbEntity
  8
レイヤ0
  6
Continuous
 62
     7
100
AcDbCircle
 10
115.1612924979
 20
152.918852211783
 30
0.0
 40
5.437471853960143
100
AcDbArc
 50
316.3968985688088
 51
36.67199658919147
  0
ARC
  5
15B
330
1F
100
AcDbEntity
  8
レイヤ0
  6
Continuous
 62
     7
100
AcDbCircle
 10
79.689683541409
 20
178.128511083372
 30
0.0
 40
25.30454740775686
100
AcDbArc
 50
302.9414944050735
 51
323.7588394826414
  0
ARC
  5
15C
330
1F
100
AcDbEntity
  8
レイヤ0
  6
Continuous
 62
     7
100
AcDbCircle
 10
97.03621476103399
 20
152.918852211784
 30
0.0
 40
5.437471853958456
100
AcDbArc
 50
143.3280034108109
 51
223.6031014312064
  0
ARC
  5
15D
330
1F
100
AcDbEntity
  8
レイヤ0
  6
Continuous
 62
     7
100
AcDbCircle
 10
106.098753629466
 20
172.168876955746
 30
0.0
 40
8.899999999999709
100
AcDbArc
 50
321.8314071863701
 51
325.8197842754178
  0
ARC
  5
15E
330
1F
100
AcDbEntity
  8
レイヤ0
  6
Continuous
 62
     7
100
AcDbCircle
 10
106.098753629466
 20
172.168876955746
 30
0.0
 40
8.899999999999755
100
AcDbArc
 50
34.18021572458766
 51
38.16859281362983
  0
ARC
  5
15F
330
1F
100
AcDbEntity
  8
レイヤ0
  6
Continuous
 62
     7
100
AcDbCircle
 10
106.098753629466
 20
172.168876955746
 30
0.0
 40
8.899999999999709
100
AcDbArc
 50
141.8314071863702
 51
145.8197842754124
  0
ARC
  5
160
330
1F
100
AcDbEntity
  8
レイヤ0
  6
Continuous
 62
     7
100
AcDbCircle
 10
106.098753629466
 20
172.168876955746
 30
0.0
 40
8.89999999999919
100
AcDbArc
 50
214.1802157245822
 51
218.1685928136206
  0
ARC
  5
161
330
1F
100
AcDbEntity
  8
レイヤ0
  6
Continuous
 62
     7
100
AcDbCircle
 10
101.294240970665
 20
178.686498791047
 30
0.0
 40
2.195558060003069
100
AcDbArc
 50
152.3873814012501
 51
207.6126185990969
  0
ARC
  5
162
330
1F
100
AcDbEntity
  8
レイヤ0
  6
Continuous
 62
     7
100
AcDbCircle
 10
110.903266288272
 20
178.686498791047
 30
0.0
 40
2.195558060010025
100
AcDbArc
 50
332.3873814009031
 51
27.61261859874993
  0
ARC
  5
163
330
1F
100
AcDbEntity
  8
レイヤ0
  6
Continuous
 62
     7
100
AcDbCircle
 10
106.098753629467
 20
130.918876955749
 30
0.0
 40
49.24999999999793
100
AcDbArc
 50
82.12248413560239
 51
97.87751586439414
  0
ARC
  5
164
330
1F
100
AcDbEntity
  8
レイヤ0
  6
Continuous
 62
     7
100
AcDbCircle
 10
82.994862343904
 20
167.474996772096
 30
0.0
 40
0.299999999999445
100
AcDbArc
 50
217.560212228592
 51
272.3785200619342
  0
ARC
  5
165
330
1F
100
AcDbEntity
  8
レイヤ0
  6
Continuous
 62
     7
100
AcDbCircle
 10
123.098753629466
 20
172.168876955746
 30
0.0
 40
7.999999999999927
100
AcDbArc
 50
322.4397877715351
 51
37.56021222846505
  0
ARC
  5
166
330
1F
100
AcDbEntity
  8
レイヤ0
  6
Continuous
 62
     7
100
AcDbCircle
 10
129.2026449147444
 20
176.8627571395284
 30
0.0
 40
0.2999999998568904
100
AcDbArc
 50
37.56021217545873
 51
92.37852000886028
  0
ARC
  5
167
330
1F
100
AcDbEntity
  8
レイヤ0
  6
Continuous
 62
     7
100
AcDbCircle
 10
129.2026449147454
 20
167.474996771964
 30
0.0
 40
0.2999999998563581
100
AcDbArc
 50
267.6214799909454
 51
322.4397878243566
  0
ARC
  5
168
330
1F
100
AcDbEntity
  8
レイヤ0
  6
Continuous
 62
     7
100
AcDbCircle
 10
82.994862343904
 20
176.862757139396
 30
0.0
 40
0.3000000000009981
100
AcDbArc
 50
87.62147993788406
 51
142.439787771408
  0
ARC
  5
169
330
1F
100
AcDbEntity
  8
レイヤ0
  6
Continuous
 62
     7
100
AcDbCircle
 10
89.09875362946599
 20
172.168876955746
 30
0.0
 40
8.000000000286574
100
AcDbArc
 50
142.4397877715323
 51
217.5602122284675
  0
ARC
  5
16A
330
1F
100
AcDbEntity
  8
レイヤ0
  6
Continuous
 62
     7
100
AcDbCircle
 10
106.098753629466
 20
218.987581416783
 30
0.0
 40
8.89999999999918
100
AcDbArc
 50
34.18021572458222
 51
145.8197842754178
  0
ARC
  5
16B
330
1F
100
AcDbEntity
  8
レイヤ0
  6
Continuous
 62
     7
100
AcDbCircle
 10
106.098753629466
 20
218.987581416783
 30
0.0
 40
8.89999999999975
100
AcDbArc
 50
214.1802157245874
 51
325.8197842754125
  0
ARC
  5
16C
330
1F
100
AcDbEntity
  8
レイヤ0
  6
Continuous
 62
     7
100
AcDbCircle
 10
82.994862343904
 20
214.293701233133
 30
0.0
 40
0.3000000000002163
100
AcDbArc
 50
217.5602122284719
 51
272.3785200619342
  0
ARC
  5
16D
330
1F
100
AcDbEntity
  8
レイヤ0
  6
Continuous
 62
     7
100
AcDbCircle
 10
123.098753629466
 20
218.987581416783
 30
0.0
 40
7.999999999999945
100
AcDbArc
 50
322.439787771535
 51
37.56021222846505
  0
ARC
  5
16E
330
1F
100
AcDbEntity
  8
レイヤ0
  6
Continuous
 62
     7
100
AcDbCircle
 10
129.2026449147454
 20
223.681461600565
 30
0.0
 40
0.2999999998563791
100
AcDbArc
 50
37.56021217564339
 51
92.37852000905461
  0
ARC
  5
16F
330
1F
100
AcDbEntity
  8
レイヤ0
  6
Continuous
 62
     7
100
AcDbCircle
 10
129.2026449147454
 20
214.293701233001
 30
0.0
 40
0.2999999998563581
100
AcDbArc
 50
267.6214799909454
 51
322.4397878243566
  0
ARC
  5
170
330
1F
100
AcDbEntity
  8
レイヤ0
  6
Continuous
 62
     7
100
AcDbCircle
 10
82.994862343904
 20
223.681461600433
 30
0.0
 40
0.2999999999999757
100
AcDbArc
 50
87.62147993787596
 51
142.4397877715281
  0
ARC
  5
171
330
1F
100
AcDbEntity
  8
レイヤ0
  6
Continuous
 62
     7
100
AcDbCircle
 10
89.09875362946599
 20
218.987581416783
 30
0.0
 40
8.000000000287345
100
AcDbArc
 50
142.4397877715368
 51
217.5602122284632
  0
ARC
  5
172
330
1F
100
AcDbEntity
  8
レイヤ0
  6
Continuous
 62
     7
100
AcDbCircle
 10
59.34997995748699
 20
81.9825216514272
 30
0.0
 40
1.99999999999967
100
AcDbArc
 50
170.9003689707903
 51
243.2035722501132
  0
ARC
  5
173
330
1F
100
AcDbEntity
  8
レイヤ0
  6
Continuous
 62
     7
100
AcDbCircle
 10
79.284111786323
 20
80.2410425570927
 30
0.0
 40
2.000000000003676
100
AcDbArc
 50
286.6010263553851
 51
350.9726065097789
  0
ARC
  5
174
330
1F
100
AcDbEntity
  8
レイヤ0
  6
Continuous
 62
     7
100
AcDbCircle
 10
131.745080880181
 20
76.0688560058619
 30
0.0
 40
39.9999989690011
100
AcDbArc
 50
90.0
 51
109.4710998535166
  0
ARC
  5
175
330
1F
100
AcDbEntity
  8
レイヤ0
  6
Continuous
 62
     7
100
AcDbCircle
 10
84.76763460761401
 20
113.666409155936
 30
0.0
 40
3.999999664925647
100
AcDbArc
 50
58.59342956542492
 51
201.392868042003
  0
ARC
  5
176
330
1F
100
AcDbEntity
  8
レイヤ0
  6
Continuous
 62
     7
100
AcDbCircle
 10
95.081197466518
 20
154.374591342599
 30
0.0
 40
2.999999999999191
100
AcDbArc
 50
122.9414944050767
 51
143.3280034108097
  0
CIRCLE
  5
177
330
1F
100
AcDbEntity
  8
レイヤ0
  6
Continuous
 62
     7
100
AcDbCircle
 10
106.098753629466
 20
218.987581416783
 30
0.0
 40
6.997142273839003
  0
CIRCLE
  5
178
330
1F
100
AcDbEntity
  8
レイヤ0
  6
Continuous
 62
     7
100
AcDbCircle
 10
106.098753629466
 20
218.987581416783
 30
0.0
 40
6.899999999999991
  0
SPLINE
  5
179
330
1F
100
AcDbEntity
  8
レイヤ0
  6
Continuous
 62
     7
100
AcDbSpline
210
0.0
220
0.0
230
1.0
 70
    11
 71
     3
 72
    79
 73
    75
 74
    73
 42
0.000000001
 43
0.0000000001
 44
0.00000001
 40
0.0
 40
0.0
 40
0.0
 40
0.0
 40
0.2848368347743011
 40
0.5696831992597724
 40
0.8598909331028628
 40
1.150111184600634
 40
1.447404804889886
 40
1.744711147538999
 40
2.049865078954066
 40
2.355030177982135
 40
2.667848788662424
 40
2.980676222294844
 40
3.300084364095109
 40
3.619498763575005
 40
3.943712127752927
 40
4.267929201079735
 40
4.594671310950144
 40
4.921414647270677
 40
5.24815798358252
 40
5.574900093426832
 40
5.899117166709728
 40
6.223330530824573
 40
6.542744930221892
 40
6.862153071917433
 40
7.174980505423317
 40
7.487799115949605
 40
7.792964214796208
 40
8.098118145992759
 40
8.395424488383673
 40
8.692718108352283
 40
8.982938359436965
 40
9.273146092638576
 40
9.55799245564704
 40
9.84282929914217
 40
10.12477276723678
 40
10.40671263092128
 40
10.68865249460329
 40
10.97059596269089
 40
11.25543280617462
 40
11.54027916916771
 40
11.83048690234997
 40
12.12070715341206
 40
12.41800077335464
 40
12.71530711571705
 40
13.02046104688233
 40
13.32562614569594
 40
13.63844475618705
 40
13.95127218965685
 40
14.2706803313147
 40
14.59009473067365
 40
14.91430809474891
 40
15.23852516799171
 40
15.56526727779518
 40
15.89201061406582
 40
16.21875395034455
 40
16.54549606017262
 40
16.86971313345671
 40
17.19392649759112
 40
17.51334089702689
 40
17.83274903878149
 40
18.14557647236711
 40
18.45839508299715
 40
18.76356018197101
 40
19.06871411332361
 40
19.36602045589762
 40
19.66331407608309
 40
19.95353432741567
 40
20.24374206090624
 40
20.52858842424559
 40
20.81342526813356
 40
21.09536873671325
 40
21.37730860110279
 40
21.65924846633323
 40
21.94119192576015
 40
21.94119192576015
 40
21.94119192576015
 40
21.94119192576015
 10
116.8119998887564
 20
156.6118812855789
 30
0.0
 10
116.7195094811035
 20
156.590083140499
 30
0.0
 10
116.5345255700262
 20
156.5464861265863
 30
0.0
 10
116.2653395542847
 20
156.4459824013627
 30
0.0
 10
116.0050765715431
 20
156.3208743293963
 30
0.0
 10
115.7545153537281
 20
156.1689125218593
 30
0.0
 10
115.5173028977143
 20
155.9929495386693
 30
0.0
 10
115.2933341398307
 20
155.7928788255382
 30
0.0
 10
115.0861746477702
 20
155.571849865129
 30
0.0
 10
114.8956233754172
 20
155.3297715695901
 30
0.0
 10
114.7246757817229
 20
155.0704066870592
 30
0.0
 10
114.5732797403206
 20
154.7937667236086
 30
0.0
 10
114.4436418090138
 20
154.5038782446268
 30
0.0
 10
114.3359186905669
 20
154.201139494377
 30
0.0
 10
114.2514819003051
 20
153.8894381013442
 30
0.0
 10
114.1906130461164
 20
153.569814802235
 30
0.0
 10
114.1539433022916
 20
153.2456718356173
 30
0.0
 10
114.1416919451737
 20
152.9188522215932
 30
0.0
 10
114.1539433020005
 20
152.5920326075914
 30
0.0
 10
114.1906130455148
 20
152.2678896408932
 30
0.0
 10
114.2514818994578
 20
151.94826634204
 30
0.0
 10
114.3359186892101
 20
151.636564947998
 30
0.0
 10
114.4436418080905
 20
151.3338262013738
 30
0.0
 10
114.5732797363048
 20
151.0439377088792
 30
0.0
 10
114.7246757874911
 20
150.7672977947119
 30
0.0
 10
114.8956233435203
 20
150.5079327303633
 30
0.0
 10
115.0861747514727
 20
150.2658550972303
 30
0.0
 10
115.293333742645
 20
150.0448236984375
 30
0.0
 10
115.5173043219387
 20
149.8447618611134
 30
0.0
 10
115.7545100693652
 20
149.6687661967077
 30
0.0
 10
116.0050957518369
 20
149.5169235815647
 30
0.0
 10
116.2652684530814
 20
149.3913756720031
 30
0.0
 10
116.5347854570519
 20
149.2924844794206
 30
0.0
 10
116.8100940360011
 20
149.2213366937117
 30
0.0
 10
117.0902171850365
 20
149.1784654414434
 30
0.0
 10
117.3722757328928
 20
149.1640456425964
 30
0.0
 10
117.6543342807489
 20
149.1784654414008
 30
0.0
 10
117.9344574297839
 20
149.2213366936264
 30
0.0
 10
118.2097660087325
 20
149.2924844792925
 30
0.0
 10
118.4792830127024
 20
149.3913756718319
 30
0.0
 10
118.7394557139461
 20
149.5169235813515
 30
0.0
 10
118.9900413964166
 20
149.6687661964528
 30
0.0
 10
119.2272471438417
 20
149.8447618608174
 30
0.0
 10
119.4512177231337
 20
150.0448236981007
 30
0.0
 10
119.6583767143037
 20
150.2658550968532
 30
0.0
 10
119.8489281222534
 20
150.5079327299463
 30
0.0
 10
120.0198756782796
 20
150.7672977942553
 30
0.0
 10
120.1712717294624
 20
151.0439377083832
 30
0.0
 10
120.300909657673
 20
151.3338262008385
 30
0.0
 10
120.4086327765494
 20
151.6365649474233
 30
0.0
 10
120.4930695662969
 20
151.9482663414257
 30
0.0
 10
120.5539384202346
 20
152.2678896402395
 30
0.0
 10
120.5906081637427
 20
152.5920326068961
 30
0.0
 10
120.6028595205646
 20
152.918852220862
 30
0.0
 10
120.5906081634374
 20
153.2456718348249
 30
0.0
 10
120.5539384196227
 20
153.5698148014713
 30
0.0
 10
120.4930695653742
 20
153.8894381002699
 30
0.0
 10
120.4086327753136
 20
154.2011394942436
 30
0.0
 10
120.3009096561128
 20
154.5038782408155
 30
0.0
 10
120.1712717275896
 20
154.7937667331615
 30
0.0
 10
120.0198756760185
 20
155.0704066474922
 30
0.0
 10
119.8489281198387
 20
155.3297717108078
 30
0.0
 10
119.658376710835
 20
155.5718493472243
 30
0.0
 10
119.4512177218648
 20
155.7928807333851
 30
0.0
 10
119.2272471328501
 20
155.9929426160823
 30
0.0
 10
118.9900414194333
 20
156.1689381127296
 30
0.0
 10
118.739455611091
 20
156.3207813389303
 30
0.0
 10
118.4792833723976
 20
156.4463269927018
 30
0.0
 10
118.2097646706053
 20
156.5452264544413
 30
0.0
 10
117.9344623794953
 20
156.6163436037088
 30
0.0
 10
117.6543159881813
 20
156.6593280866445
 30
0.0
 10
117.372343992689
 20
156.6733262059313
 30
0.0
 10
117.089962395347
 20
156.6604802802428
 30
0.0
 10
116.9046544516597
 20
156.6280810173882
 30
0.0
 10
116.8119998887564
 20
156.6118812855789
 30
0.0
 11
116.8119998887564
 21
156.6118812855789
 31
0.0
 11
116.5361902182902
 21
156.5407402060745
 31
0.0
 11
116.2687477415585
 21
156.4426995397302
 31
0.0
 11
116.0073031163121
 21
156.3167343205784
 31
0.0
 11
115.7590257339987
 21
156.166447475975
 31
0.0
 11
115.5201556382147
 21
155.9894599795213
 31
0.0
 11
115.2983215113449
 21
155.7915188734792
 31
0.0
 11
115.0895073416593
 21
155.5689979433652
 31
0.0
 11
114.9006333382752
 21
155.3293057481074
 31
0.0
 11
114.7283461103299
 21
155.0682069272715
 31
0.0
 11
114.5780447686883
 21
154.7938522117833
 31
0.0
 11
114.4475340564872
 21
154.5023243142614
 31
0.0
 11
114.3403574930332
 21
154.2014277492542
 31
0.0
 11
114.2555062578682
 21
153.8885147047819
 31
0.0
 11
114.1947935189051
 21
153.5700328780339
 31
0.0
 11
114.1580288511127
 21
153.2453657168131
 31
0.0
 11
114.1457757339988
 21
152.918852211783
 31
0.0
 11
114.1580288511127
 21
152.5923387067529
 31
0.0
 11
114.1947935189051
 21
152.2676715455321
 31
0.0
 11
114.2555062578682
 21
151.9491897187841
 31
0.0
 11
114.3403574930332
 21
151.6362766743119
 31
0.0
 11
114.4475340564872
 21
151.335380109305
 31
0.0
 11
114.5780447686883
 21
151.0438522117833
 31
0.0
 11
114.7283461103299
 21
150.7694974962949
 31
0.0
 11
114.9006333382751
 21
150.5083986754587
 31
0.0
 11
115.0895073416593
 21
150.2687064802008
 31
0.0
 11
115.2983215113449
 21
150.0461855500869
 31
0.0
 11
115.5201556382147
 21
149.8482444440452
 31
0.0
 11
115.7590257339987
 21
149.6712569475917
 31
0.0
 11
116.0073031163121
 21
149.5209701029881
 31
0.0
 11
116.2687477415585
 21
149.395004883836
 31
0.0
 11
116.5361902182902
 21
149.2969642174915
 31
0.0
 11
116.8119998887564
 21
149.2258231379871
 31
0.0
 11
117.0907003090249
 21
149.1831828395768
 31
0.0
 11
117.3722757339988
 21
149.1688522117833
 31
0.0
 11
117.6538511589725
 21
149.1831828395772
 31
0.0
 11
117.9325515792408
 21
149.2258231379878
 31
0.0
 11
118.2083612497068
 21
149.296964217492
 31
0.0
 11
118.4758037264385
 21
149.3950048838361
 31
0.0
 11
118.7372483516849
 21
149.5209701029881
 31
0.0
 11
118.9855257339983
 21
149.6712569475917
 31
0.0
 11
119.2243958297823
 21
149.8482444440452
 31
0.0
 11
119.4462299566521
 21
150.0461855500869
 31
0.0
 11
119.6550441263377
 21
150.2687064802008
 31
0.0
 11
119.8439181297219
 21
150.5083986754587
 31
0.0
 11
120.0162053576671
 21
150.7694974962949
 31
0.0
 11
120.1665066993089
 21
151.0438522117833
 31
0.0
 11
120.2970174115103
 21
151.335380109305
 31
0.0
 11
120.4041939749647
 21
151.6362766743119
 31
0.0
 11
120.4890452101298
 21
151.9491897187841
 31
0.0
 11
120.5497579490928
 21
152.2676715455321
 31
0.0
 11
120.5865226168849
 21
152.5923387067529
 31
0.0
 11
120.5987757339985
 21
152.918852211783
 31
0.0
 11
120.5865226168848
 21
153.2453657168131
 31
0.0
 11
120.5497579490926
 21
153.5700328780339
 31
0.0
 11
120.4890452101293
 21
153.8885147047818
 31
0.0
 11
120.404193974964
 21
154.2014277492542
 31
0.0
 11
120.2970174115098
 21
154.5023243142615
 31
0.0
 11
120.1665066993087
 21
154.7938522117835
 31
0.0
 11
120.0162053576671
 21
155.0682069272721
 31
0.0
 11
119.8439181297219
 21
155.3293057481081
 31
0.0
 11
119.6550441263377
 21
155.5689979433657
 31
0.0
 11
119.4462299566521
 21
155.7915188734794
 31
0.0
 11
119.2243958297823
 21
155.9894599795213
 31
0.0
 11
118.9855257339983
 21
156.166447475975
 31
0.0
 11
118.7372483516849
 21
156.3167343205784
 31
0.0
 11
118.4758037264386
 21
156.4426995397302
 31
0.0
 11
118.2083612497068
 21
156.5407402060745
 31
0.0
 11
117.9325515792407
 21
156.6118812855789
 31
0.0
 11
117.6538511589725
 21
156.6545215839893
 31
0.0
 11
117.3722757339989
 21
156.6688522117829
 31
0.0
 11
117.0907003090249
 21
156.6545215839893
 31
0.0
 11
116.8119998887564
 21
156.6118812855789
 31
0.0
  0
SPLINE
  5
17A
330
1F
100
AcDbEntity
  8
レイヤ0
  6
Continuous
 62
     7
100
AcDbSpline
210
0.0
220
0.0
230
1.0
 70
     8
 71
     3
 72
    39
 73
    35
 74
    33
 42
0.000000001
 43
0.0000000001
 44
0.00000001
 40
0.0
 40
0.0
 40
0.0
 40
0.0
 40
1.10570964434846
 40
2.21140156440748
 40
2.737443312888458
 40
3.26347806086228
 40
3.759151889256735
 40
4.254807163814057
 40
4.713520143145851
 40
5.172203339003355
 40
5.590728364497901
 40
6.009203355669432
 40
6.388929058773716
 40
6.768565979955386
 40
7.116754113179428
 40
7.464795627858657
 40
7.794947920954995
 40
8.125007899468779
 40
8.455067877982621
 40
8.785220171078898
 40
9.1332616857581
 40
9.481449818982199
 40
9.861086740163891
 40
10.24081244326817
 40
10.65928743443965
 40
11.07781245993423
 40
11.53649565579175
 40
11.99520863512358
 40
12.49086390968105
 40
12.98653773807562
 40
13.51257248604935
 40
14.03861423453024
 40
15.14430615458926
 40
16.25001579893772
 40
16.25001579893772
 40
16.25001579893772
 40
16.25001579893772
 10
106.098753629467
 20
149.168852211783
 30
0.0
 10
106.4674654272523
 20
149.1794717701557
 30
0.0
 10
107.2048831118542
 20
149.2007107277691
 30
0.0
 10
108.108620785694
 20
149.3457581950554
 30
0.0
 10
108.8082063386343
 20
149.513465175024
 30
0.0
 10
109.3023002505315
 20
149.6631760537668
 30
0.0
 10
109.7769517050253
 20
149.838768186336
 30
0.0
 10
110.2187286313267
 20
150.0358246041831
 30
0.0
 10
110.6349350867533
 20
150.2571701024912
 30
0.0
 10
111.0114805128876
 20
150.4958168416606
 30
0.0
 10
111.3564664190965
 20
150.7564912431787
 30
0.0
 10
111.656863573803
 20
151.0299725289207
 30
0.0
 10
111.9197667769629
 20
151.3224689147654
 30
0.0
 10
112.1351461329219
 20
151.623424263327
 30
0.0
 10
112.3070794028909
 20
151.9391694633654
 30
0.0
 10
112.4302772978394
 20
152.2595794516114
 30
0.0
 10
112.5047240395272
 20
152.5884852885304
 30
0.0
 10
112.5302672188516
 20
152.918852211783
 30
0.0
 10
112.5047240395271
 20
153.2492191350356
 30
0.0
 10
112.4302772978394
 20
153.5781249719546
 30
0.0
 10
112.3070794028909
 20
153.8985349602006
 30
0.0
 10
112.1351461329219
 20
154.214280160239
 30
0.0
 10
111.9197667769629
 20
154.5152355088007
 30
0.0
 10
111.656863573803
 20
154.8077318946453
 30
0.0
 10
111.3564664190964
 20
155.0812131803873
 30
0.0
 10
111.0114805128876
 20
155.3418875819054
 30
0.0
 10
110.6349350867533
 20
155.5805343210749
 30
0.0
 10
110.2187286313267
 20
155.8018798193831
 30
0.0
 10
109.7769517050253
 20
155.9989362372304
 30
0.0
 10
109.3023002505315
 20
156.1745283698
 30
0.0
 10
108.8082063386344
 20
156.3242392485425
 30
0.0
 10
108.1086207856939
 20
156.4919462285108
 30
0.0
 10
107.2048831118542
 20
156.6369936957969
 30
0.0
 10
106.4674654272522
 20
156.6582326534103
 30
0.0
 10
106.098753629467
 20
156.668852211783
 30
0.0
 11
106.098753629467
 21
149.168852211783
 31
0.0
 11
107.2030522310834
 21
149.2246951287375
 31
0.0
 11
108.2955490100479
 21
149.3950048838362
 31
0.0
 11
108.8068978278807
 21
149.5184646263591
 31
0.0
 11
109.3102536294674
 21
149.6712569475918
 31
0.0
 11
109.7749380285259
 21
149.8437705810321
 31
0.0
 11
110.2273784464837
 21
150.0461855500867
 31
0.0
 11
110.6320349738306
 21
150.2622195579557
 31
0.0
 11
111.0190570876201
 21
150.5083986754585
 31
0.0
 11
111.3524264861426
 21
150.7614363038103
 31
0.0
 11
111.6612347979743
 21
151.0438522117831
 31
0.0
 11
111.9143285830597
 21
151.3269337297595
 31
0.0
 11
112.1343993327749
 21
151.6362766743117
 31
0.0
 11
112.3001762953589
 21
151.9424677503939
 31
0.0
 11
112.4241738270647
 21
152.2676715455321
 31
0.0
 11
112.4967989694528
 21
152.5897369513393
 31
0.0
 11
112.5217536294673
 21
152.918852211783
 31
0.0
 11
112.4967989694528
 21
153.2479674722267
 31
0.0
 11
112.4241738270647
 21
153.5700328780339
 31
0.0
 11
112.3001762953589
 21
153.895236673172
 31
0.0
 11
112.1343993327749
 21
154.2014277492543
 31
0.0
 11
111.9143285830597
 21
154.5107706938065
 31
0.0
 11
111.6612347979743
 21
154.7938522117829
 31
0.0
 11
111.3524264861426
 21
155.0762681197556
 31
0.0
 11
111.0190570876201
 21
155.3293057481075
 31
0.0
 11
110.6320349738306
 21
155.5754848656104
 31
0.0
 11
110.2273784464837
 21
155.7915188734794
 31
0.0
 11
109.7749380285259
 21
155.9939338425344
 31
0.0
 11
109.3102536294674
 21
156.166447475975
 31
0.0
 11
108.8068978278808
 21
156.3192397972075
 31
0.0
 11
108.295549010048
 21
156.4426995397301
 31
0.0
 11
107.2030522310834
 21
156.6130092948285
 31
0.0
 11
106.098753629467
 21
156.668852211783
 31
0.0
  0
SPLINE
  5
17B
330
1F
100
AcDbEntity
  8
レイヤ0
  6
Continuous
 62
     7
100
AcDbSpline
210
0.0
220
0.0
230
1.0
 70
     8
 71
     3
 72
    39
 73
    35
 74
    33
 42
0.000000001
 43
0.0000000001
 44
0.00000001
 40
0.0
 40
0.0
 40
0.0
 40
0.0
 40
1.105709644348035
 40
2.211401564406984
 40
2.737443312887976
 40
3.263478060861784
 40
3.759151889256172
 40
4.254807163813469
 40
4.713520143145238
 40
5.172203339002766
 40
5.590728364497357
 40
6.009203355668899
 40
6.388929058773192
 40
6.768565979954853
 40
7.116754113178915
 40
7.464795627858134
 40
7.794947920954465
 40
8.125007899468251
 40
8.455067877982096
 40
8.785220171078372
 40
9.133261685757564
 40
9.481449818981663
 40
9.861086740163348
 40
10.24081244326766
 40
10.65928743443913
 40
11.07781245993377
 40
11.53649565579129
 40
11.99520863512311
 40
12.49086390968055
 40
12.98653773807509
 40
13.51257248604876
 40
14.03861423452967
 40
15.14430615458859
 40
16.25001579893666
 40
16.25001579893666
 40
16.25001579893666
 40
16.25001579893666
 10
106.098753629467
 20
149.168852211783
 30
0.0
 10
105.7300418316819
 20
149.1794717701556
 30
0.0
 10
104.9926241470801
 20
149.2007107277691
 30
0.0
 10
104.0888864732405
 20
149.3457581950553
 30
0.0
 10
103.3893009203001
 20
149.5134651750241
 30
0.0
 10
102.895207008403
 20
149.6631760537667
 30
0.0
 10
102.4205555539093
 20
149.838768186336
 30
0.0
 10
101.9787786276079
 20
150.0358246041831
 30
0.0
 10
101.5625721721813
 20
150.2571701024911
 30
0.0
 10
101.186026746047
 20
150.4958168416607
 30
0.0
 10
100.8410408398381
 20
150.7564912431786
 30
0.0
 10
100.5406436851316
 20
151.0299725289208
 30
0.0
 10
100.2777404819716
 20
151.3224689147653
 30
0.0
 10
100.0623611260126
 20
151.623424263327
 30
0.0
 10
99.89042785604357
 20
151.9391694633654
 30
0.0
 10
99.7672299610951
 20
152.2595794516113
 30
0.0
 10
99.69278321940739
 20
152.5884852885305
 30
0.0
 10
99.66724004008287
 20
152.918852211783
 30
0.0
 10
99.69278321940737
 20
153.2492191350355
 30
0.0
 10
99.76722996109514
 20
153.5781249719546
 30
0.0
 10
99.89042785604359
 20
153.8985349602005
 30
0.0
 10
100.0623611260126
 20
154.214280160239
 30
0.0
 10
100.2777404819715
 20
154.5152355088007
 30
0.0
 10
100.5406436851316
 20
154.8077318946453
 30
0.0
 10
100.8410408398381
 20
155.0812131803873
 30
0.0
 10
101.186026746047
 20
155.3418875819054
 30
0.0
 10
101.5625721721813
 20
155.5805343210749
 30
0.0
 10
101.9787786276079
 20
155.801879819383
 30
0.0
 10
102.4205555539093
 20
155.9989362372305
 30
0.0
 10
102.895207008403
 20
156.1745283698
 30
0.0
 10
103.3893009203001
 20
156.3242392485426
 30
0.0
 10
104.0888864732405
 20
156.4919462285108
 30
0.0
 10
104.9926241470801
 20
156.6369936957968
 30
0.0
 10
105.7300418316819
 20
156.6582326534103
 30
0.0
 10
106.098753629467
 20
156.668852211783
 30
0.0
 11
106.098753629467
 21
149.168852211783
 31
0.0
 11
104.994455027851
 21
149.2246951287375
 31
0.0
 11
103.9019582488866
 21
149.3950048838362
 31
0.0
 11
103.3906094310537
 21
149.5184646263591
 31
0.0
 11
102.8872536294671
 21
149.6712569475918
 31
0.0
 11
102.4225692304086
 21
149.8437705810321
 31
0.0
 11
101.9701288124509
 21
150.0461855500867
 31
0.0
 11
101.565472285104
 21
150.2622195579557
 31
0.0
 11
101.1784501713145
 21
150.5083986754585
 31
0.0
 11
100.8450807727919
 21
150.7614363038103
 31
0.0
 11
100.5362724609602
 21
151.0438522117831
 31
0.0
 11
100.2831786758749
 21
151.3269337297595
 31
0.0
 11
100.0631079261596
 21
151.6362766743117
 31
0.0
 11
99.89733096357563
 21
151.9424677503939
 31
0.0
 11
99.7733334318698
 21
152.2676715455321
 31
0.0
 11
99.70070828948171
 21
152.5897369513393
 31
0.0
 11
99.67575362946725
 21
152.918852211783
 31
0.0
 11
99.70070828948172
 21
153.2479674722267
 31
0.0
 11
99.77333343186982
 21
153.5700328780339
 31
0.0
 11
99.89733096357564
 21
153.895236673172
 31
0.0
 11
100.0631079261596
 21
154.2014277492543
 31
0.0
 11
100.2831786758748
 21
154.5107706938065
 31
0.0
 11
100.5362724609603
 21
154.7938522117829
 31
0.0
 11
100.8450807727919
 21
155.0762681197556
 31
0.0
 11
101.1784501713145
 21
155.3293057481075
 31
0.0
 11
101.565472285104
 21
155.5754848656104
 31
0.0
 11
101.9701288124509
 21
155.7915188734794
 31
0.0
 11
102.4225692304087
 21
155.9939338425344
 31
0.0
 11
102.8872536294672
 21
156.166447475975
 31
0.0
 11
103.3906094310537
 21
156.3192397972075
 31
0.0
 11
103.9019582488865
 21
156.4426995397301
 31
0.0
 11
104.994455027851
 21
156.6130092948285
 31
0.0
 11
106.098753629467
 21
156.668852211783
 31
0.0
  0
SPLINE
  5
17C
330
1F
100
AcDbEntity
  8
レイヤ0
  6
Continuous
 62
     7
100
AcDbSpline
210
0.0
220
0.0
230
1.0
 70
    11
 71
     3
 72
    79
 73
    75
 74
    73
 42
0.000000001
 43
0.0000000001
 44
0.00000001
 40
0.0
 40
0.0
 40
0.0
 40
0.0
 40
0.2848368347742873
 40
0.569683199259732
 40
0.8598909331028353
 40
1.150111184600607
 40
1.447404804889881
 40
1.744711147538973
 40
2.049865078954079
 40
2.355030177982131
 40
2.667848788662404
 40
2.98067622229483
 40
3.300084364095101
 40
3.619498763574988
 40
3.943712127752917
 40
4.267929201079725
 40
4.594671310950132
 40
4.921414647270665
 40
5.248157983582508
 40
5.574900093426819
 40
5.899117166709718
 40
6.223330530824551
 40
6.542744930221885
 40
6.862153071917414
 40
7.174980505423305
 40
7.487799115949601
 40
7.792964214796186
 40
8.098118145992746
 40
8.39542448838365
 40
8.69271810835227
 40
8.982938359436929
 40
9.273146092638566
 40
9.557992455647003
 40
9.842829299142133
 40
10.12477276723678
 40
10.40671263092126
 40
10.68865249460329
 40
10.97059596269086
 40
11.25543280617462
 40
11.54027916916769
 40
11.83048690234996
 40
12.12070715341205
 40
12.41800077335462
 40
12.71530711571706
 40
13.02046104688231
 40
13.32562614569592
 40
13.63844475618705
 40
13.95127218965684
 40
14.2706803313147
 40
14.59009473067365
 40
14.9143080947489
 40
15.23852516799171
 40
15.56526727779517
 40
15.89201061406581
 40
16.21875395034454
 40
16.5454960601726
 40
16.8697131334567
 40
17.19392649759111
 40
17.51334089702688
 40
17.83274903878147
 40
18.14557647236711
 40
18.45839508299714
 40
18.763560181971
 40
19.06871411332359
 40
19.36602045589762
 40
19.66331407608305
 40
19.95353432741567
 40
20.24374206090623
 40
20.52858842424556
 40
20.81342526813356
 40
21.09536873671323
 40
21.3773086011028
 40
21.65924846633319
 40
21.94119192576015
 40
21.94119192576015
 40
21.94119192576015
 40
21.94119192576015
 10
95.38550737017815
 20
156.6118812855789
 30
0.0
 10
95.47799777783102
 20
156.590083140499
 30
0.0
 10
95.66298168890832
 20
156.5464861265863
 30
0.0
 10
95.93216770464987
 20
156.4459824013627
 30
0.0
 10
96.19243068739146
 20
156.3208743293963
 30
0.0
 10
96.44299190520643
 20
156.1689125218592
 30
0.0
 10
96.68020436122026
 20
155.9929495386693
 30
0.0
 10
96.9041731191038
 20
155.7928788255382
 30
0.0
 10
97.11133261116437
 20
155.571849865129
 30
0.0
 10
97.30188388351736
 20
155.32977156959
 30
0.0
 10
97.47283147721168
 20
155.0704066870592
 30
0.0
 10
97.62422751861395
 20
154.7937667236085
 30
0.0
 10
97.75386544992081
 20
154.5038782446269
 30
0.0
 10
97.86158856836758
 20
154.2011394943769
 30
0.0
 10
97.9460253586295
 20
153.8894381013442
 30
0.0
 10
98.00689421281814
 20
153.569814802235
 30
0.0
 10
98.0435639566429
 20
153.2456718356173
 30
0.0
 10
98.05581531376077
 20
152.9188522215932
 30
0.0
 10
98.04356395693404
 20
152.5920326075914
 30
0.0
 10
98.00689421341976
 20
152.2678896408932
 30
0.0
 10
97.94602535947672
 20
151.94826634204
 30
0.0
 10
97.86158856972452
 20
151.6365649479979
 30
0.0
 10
97.75386545084393
 20
151.3338262013738
 30
0.0
 10
97.62422752262972
 20
151.0439377088793
 30
0.0
 10
97.47283147144341
 20
150.7672977947119
 30
0.0
 10
97.30188391541418
 20
150.5079327303634
 30
0.0
 10
97.11133250746184
 20
150.2658550972303
 30
0.0
 10
96.90417351628956
 20
150.0448236984375
 30
0.0
 10
96.68020293699583
 20
149.8447618611133
 30
0.0
 10
96.44299718956933
 20
149.6687661967077
 30
0.0
 10
96.19241150709769
 20
149.5169235815646
 30
0.0
 10
95.93223880585315
 20
149.3913756720031
 30
0.0
 10
95.66272180188265
 20
149.2924844794206
 30
0.0
 10
95.38741322293346
 20
149.2213366937117
 30
0.0
 10
95.10729007389803
 20
149.1784654414434
 30
0.0
 10
94.8252315260417
 20
149.1640456425964
 30
0.0
 10
94.54317297818562
 20
149.1784654414008
 30
0.0
 10
94.26304982915063
 20
149.2213366936264
 30
0.0
 10
93.98774125020205
 20
149.2924844792925
 30
0.0
 10
93.7182242462321
 20
149.3913756718319
 30
0.0
 10
93.45805154498842
 20
149.5169235813515
 30
0.0
 10
93.20746586251789
 20
149.6687661964528
 30
0.0
 10
92.97026011509281
 20
149.8447618608174
 30
0.0
 10
92.74628953580088
 20
150.0448236981006
 30
0.0
 10
92.5391305446308
 20
150.2658550968532
 30
0.0
 10
92.34857913668117
 20
150.5079327299463
 30
0.0
 10
92.17763158065492
 20
150.7672977942553
 30
0.0
 10
92.02623552947213
 20
151.0439377083832
 30
0.0
 10
91.8965976012615
 20
151.3338262008385
 30
0.0
 10
91.78887448238508
 20
151.6365649474233
 30
0.0
 10
91.70443769263764
 20
151.9482663414258
 30
0.0
 10
91.64356883869996
 20
152.2678896402396
 30
0.0
 10
91.60689909519184
 20
152.5920326068961
 30
0.0
 10
91.59464773836991
 20
152.9188522208621
 30
0.0
 10
91.60689909549711
 20
153.2456718348249
 30
0.0
 10
91.64356883931184
 20
153.5698148014713
 30
0.0
 10
91.70443769356032
 20
153.8894381002698
 30
0.0
 10
91.78887448362102
 20
154.2011394942436
 30
0.0
 10
91.89659760282176
 20
154.5038782408155
 30
0.0
 10
92.02623553134488
 20
154.7937667331616
 30
0.0
 10
92.17763158291608
 20
155.0704066474922
 30
0.0
 10
92.34857913909592
 20
155.3297717108079
 30
0.0
 10
92.53913054809951
 20
155.5718493472243
 30
0.0
 10
92.74628953706976
 20
155.7928807333851
 30
0.0
 10
92.97026012608445
 20
155.9929426160823
 30
0.0
 10
93.20746583950127
 20
156.1689381127296
 30
0.0
 10
93.45805164784355
 20
156.3207813389302
 30
0.0
 10
93.71822388653689
 20
156.4463269927018
 30
0.0
 10
93.98774258832927
 20
156.5452264544413
 30
0.0
 10
94.26304487943925
 20
156.6163436037089
 30
0.0
 10
94.54319127075323
 20
156.6593280866444
 30
0.0
 10
94.82516326624553
 20
156.6733262059313
 30
0.0
 10
95.10754486358749
 20
156.6604802802428
 30
0.0
 10
95.29285280727484
 20
156.6280810173882
 30
0.0
 10
95.38550737017816
 20
156.6118812855789
 30
0.0
 11
95.38550737017815
 21
156.6118812855789
 31
0.0
 11
95.66131704064432
 21
156.5407402060745
 31
0.0
 11
95.92875951737605
 21
156.4426995397302
 31
0.0
 11
96.19020414262245
 21
156.3167343205784
 31
0.0
 11
96.43848152493581
 21
156.166447475975
 31
0.0
 11
96.67735162071986
 21
155.9894599795213
 31
0.0
 11
96.89918574758963
 21
155.7915188734792
 31
0.0
 11
97.10799991727528
 21
155.5689979433652
 31
0.0
 11
97.29687392065941
 21
155.3293057481074
 31
0.0
 11
97.46916114860467
 21
155.0682069272715
 31
0.0
 11
97.61946249024629
 21
154.7938522117833
 31
0.0
 11
97.74997320244734
 21
154.5023243142614
 31
0.0
 11
97.85714976590137
 21
154.2014277492542
 31
0.0
 11
97.94200100106636
 21
153.8885147047819
 31
0.0
 11
98.00271374002946
 21
153.5700328780339
 31
0.0
 11
98.03947840782187
 21
153.2453657168131
 31
0.0
 11
98.0517315249357
 21
152.918852211783
 31
0.0
 11
98.03947840782186
 21
152.5923387067529
 31
0.0
 11
98.00271374002945
 21
152.2676715455321
 31
0.0
 11
97.94200100106634
 21
151.9491897187841
 31
0.0
 11
97.8571497659014
 21
151.6362766743119
 31
0.0
 11
97.74997320244731
 21
151.335380109305
 31
0.0
 11
97.61946249024629
 21
151.0438522117833
 31
0.0
 11
97.46916114860467
 21
150.7694974962949
 31
0.0
 11
97.2968739206594
 21
150.5083986754587
 31
0.0
 11
97.10799991727525
 21
150.2687064802008
 31
0.0
 11
96.89918574758963
 21
150.0461855500869
 31
0.0
 11
96.67735162071986
 21
149.8482444440452
 31
0.0
 11
96.43848152493581
 21
149.6712569475917
 31
0.0
 11
96.19020414262246
 21
149.5209701029881
 31
0.0
 11
95.92875951737605
 21
149.395004883836
 31
0.0
 11
95.66131704064433
 21
149.2969642174915
 31
0.0
 11
95.38550737017817
 21
149.2258231379871
 31
0.0
 11
95.1068069499096
 21
149.1831828395768
 31
0.0
 11
94.8252315249357
 21
149.1688522117833
 31
0.0
 11
94.54365609996199
 21
149.1831828395772
 31
0.0
 11
94.26495567969376
 21
149.2258231379878
 31
0.0
 11
93.98914600922772
 21
149.296964217492
 31
0.0
 11
93.72170353249602
 21
149.3950048838361
 31
0.0
 11
93.46025890724962
 21
149.5209701029881
 31
0.0
 11
93.21198152493625
 21
149.6712569475917
 31
0.0
 11
92.97311142915223
 21
149.8482444440452
 31
0.0
 11
92.75127730228243
 21
150.0461855500869
 31
0.0
 11
92.54246313259682
 21
150.2687064802008
 31
0.0
 11
92.3535891292127
 21
150.5083986754587
 31
0.0
 11
92.18130190126737
 21
150.7694974962949
 31
0.0
 11
92.03100055962562
 21
151.0438522117833
 31
0.0
 11
91.90048984742425
 21
151.335380109305
 31
0.0
 11
91.79331328396987
 21
151.6362766743119
 31
0.0
 11
91.70846204880476
 21
151.9491897187841
 31
0.0
 11
91.6477493098418
 21
152.2676715455321
 31
0.0
 11
91.61098464204969
 21
152.5923387067529
 31
0.0
 11
91.59873152493604
 21
152.918852211783
 31
0.0
 11
91.61098464204971
 21
153.2453657168131
 31
0.0
 11
91.64774930984194
 21
153.5700328780339
 31
0.0
 11
91.70846204880526
 21
153.8885147047818
 31
0.0
 11
91.79331328397055
 21
154.2014277492542
 31
0.0
 11
91.90048984742474
 21
154.5023243142615
 31
0.0
 11
92.0310005596258
 21
154.7938522117835
 31
0.0
 11
92.18130190126742
 21
155.0682069272721
 31
0.0
 11
92.35358912921268
 21
155.3293057481081
 31
0.0
 11
92.54246313259684
 21
155.5689979433657
 31
0.0
 11
92.75127730228247
 21
155.7915188734794
 31
0.0
 11
92.97311142915225
 21
155.9894599795213
 31
0.0
 11
93.21198152493626
 21
156.166447475975
 31
0.0
 11
93.46025890724962
 21
156.3167343205784
 31
0.0
 11
93.72170353249598
 21
156.4426995397302
 31
0.0
 11
93.98914600922772
 21
156.5407402060745
 31
0.0
 11
94.26495567969383
 21
156.6118812855789
 31
0.0
 11
94.54365609996202
 21
156.6545215839893
 31
0.0
 11
94.82523152493569
 21
156.6688522117829
 31
0.0
 11
95.10680694990958
 21
156.6545215839893
 31
0.0
 11
95.38550737017816
 21
156.6118812855789
 31
0.0
  0
SOLID
  5
17D
330
1F
100
AcDbEntity
  8
1
 62
     2
100
AcDbTrace
 10
159.638408231454
 20
138.4025480577962
 30
0.0
 11
160.4338512772971
 21
137.9371912197151
 31
0.0
 12
158.268761696006
 22
135.148874745305
 32
0.0
 13
158.268761696006
 23
135.148874745305
 33
0.0
  0
LEADER
  5
17E
330
1F
100
AcDbEntity
  8
1
  6
Continuous
 62
     2
100
AcDbLeader
  3
Standard
 71
     0
 76
     3
 10
158.268761696006
 20
135.148874745305
 30
0.0
 10
171.0
 20
156.91061572593
 30
0.0
 10
186.0
 20
156.91061572593
 30
0.0
  0
MTEXT
  5
180
330
1F
100
AcDbEntity
  8
1
 62
     7
100
AcDbMText
 10
178.589154066849
 20
159.91061572593
 30
0.0
 40
3.5
 41
0.0
 71
     5
 72
     1
  1
PJ1/2
  7
CONVERTER_12
 73
     1
 44
0.7202881152461
  0
MTEXT
  5
181
330
1F
100
AcDbEntity
  8
1
 62
     7
100
AcDbMText
 10
57.0
 20
16.25
 30
0.0
 40
3.5
 41
0.0
 71
     5
 72
     1
  1
Y1811-13
  7
CONVERTER_12
 73
     1
 44
0.7202881152461
  0
MTEXT
  5
182
330
1F
100
AcDbEntity
  8
1
 62
     7
100
AcDbMText
 10
57.0
 20
12.25
 30
0.0
 40
3.5
 41
0.0
 71
     5
 72
     1
  1
Y1811B-13
  7
CONVERTER_12
 73
     1
 44
0.7202881152461
  0
MTEXT
  5
183
330
1F
100
AcDbEntity
  8
1
 62
     7
100
AcDbMText
 10
57.0
 20
22.75000000000001
 30
0.0
 40
3.0
 41
0.0
 71
     5
 72
     1
  1
ガーデン水栓(一文字ハンドル)
  7
CONVERTER_11
 73
     1
 44
0.54545454545455
  0
MTEXT
  5
184
330
1F
100
AcDbEntity
  8
1
 62
     7
100
AcDbMText
 10
85.25
 20
17.0
 30
0.0
 40
3.5
 41
0.0
 71
     5
 72
     1
  1
1
  7
CONVERTER_12
 73
     1
 44
0.7202881152461
  0
MTEXT
  5
185
330
1F
100
AcDbEntity
  8
1
 62
     7
100
AcDbMText
 10
93.75
 20
17.0
 30
0.0
 40
3.5
 41
0.0
 71
     5
 72
     1
  1
1
  7
CONVERTER_12
 73
     1
 44
0.7202881152461
  0
DIMENSION
  5
190
330
1F
100
AcDbEntity
  8
1
100
AcDbDimension
  2
*D2
 10
56.32928139405609
 20
70.34448869142217
 30
0.0
 11
68.52329606371316
 21
72.03815519820263
 31
0.0
 70
    32
  1
<>
 71
     5
 42
-1.0
 53
-4.99999999999967
  3
ME10_DIM_10
100
AcDbAlignedDimension
 13
81.259338657048
 23
79.9272292221821
 33
0.0
 14
57.375150882116
 24
82.2988316418099
 34
0.0
 50
-4.99999999999967
100
AcDbRotatedDimension
  0
DIMENSION
  5
19B
330
1F
100
AcDbEntity
  8
1
100
AcDbDimension
  2
*D3
 10
81.09875362917865
 20
200.0875814167833
 30
0.0
 11
106.098753629466
 21
202.8375814167833
 31
0.0
 70
    32
  1
<>
 71
     5
 42
-1.0
 53
0.00013888888889
  3
ME10_DIM_11
100
AcDbAlignedDimension
 13
131.098753629466
 23
218.987581416783
 33
0.0
 14
81.09875362917865
 24
218.987581416783
 34
0.0
100
AcDbRotatedDimension
  0
DIMENSION
  5
1A6
330
1F
100
AcDbEntity
  8
1
100
AcDbDimension
  2
*D4
 10
47.37515030702799
 20
124.668870357372
 30
0.0
 11
44.62515030702799
 21
152.4188736565592
 31
0.0
 70
    32
  1
56リフト7
 71
     5
 42
-1.0
 53
90.0
  3
ME10_DIM_12
100
AcDbAlignedDimension
 13
106.098753629468
 23
180.1688769557465
 33
0.0
 14
65.2459722730828
 24
124.668870357372
 34
0.0
 50
90.0
100
AcDbRotatedDimension
  0
DIMENSION
  5
1B1
330
1F
100
AcDbEntity
  8
1
100
AcDbDimension
  2
*D5
 10
47.37515030702798
 20
124.668870357372
 30
0.0
 11
44.62515030702798
 21
101.4966390005351
 31
0.0
 70
    32
  1
46
 71
     5
 42
-1.0
 53
90.0
  3
ME10_DIM_13
100
AcDbAlignedDimension
 13
79.855522854445
 23
78.3244076436983
 33
0.0
 14
65.2459722730828
 24
124.668870357372
 34
0.0
 50
90.0
100
AcDbRotatedDimension
  0
DIMENSION
  5
1BC
330
1F
100
AcDbEntity
  8
1
100
AcDbDimension
  2
*D6
 10
175.098762702262
 20
147.668867850754
 30
0.0
 11
172.348762702262
 21
124.668870357372
 31
0.0
 70
    32
  1
<>
 71
     5
 42
-1.0
 53
90.0
  3
ME10_DIM_14
100
AcDbAlignedDimension
 13
149.848761877462
 23
101.668860491998
 33
0.0
 14
149.848761877462
 24
147.668867850754
 34
0.0
 50
90.0
100
AcDbRotatedDimension
  0
DIMENSION
  5
1C7
330
1F
100
AcDbEntity
  8
1
100
AcDbDimension
  2
*D7
 10
151.098761845243
 20
60.32440764369829
 30
0.0
 11
104.236952255792
 21
63.07440764369829
 31
0.0
 70
    32
  1
94
 71
     5
 42
-1.0
 53
0.00013888888889
  3
ME10_DIM_15
100
AcDbAlignedDimension
 13
57.37515030702799
 23
82.2988250685233
 33
0.0
 14
151.098761845243
 24
102.918860459779
 34
0.0
100
AcDbRotatedDimension
  0
DIMENSION
  5
1D2
330
1F
100
AcDbEntity
  8
1
100
AcDbDimension
  2
*D8
 10
151.098761845243
 20
60.32440764369829
 30
0.0
 11
158.098758165865
 21
63.07440764369829
 31
0.0
 70
    32
  1
<>
 71
     5
 42
-1.0
 53
0.00013888888889
  3
ME10_DIM_16
100
AcDbAlignedDimension
 13
165.098762702262
 23
115.348851485961
 33
0.0
 14
151.098761845243
 24
102.918860459779
 34
0.0
100
AcDbRotatedDimension
  0
ENDSEC
  0
SECTION
  2
OBJECTS
  0
DICTIONARY
  5
C
330
0
100
AcDbDictionary
281
     1
  3
ACAD_GROUP
350
D
  3
ACAD_LAYOUT
350
1A
  3
ACAD_MATERIAL
350
3B
  3
ACAD_MLEADERSTYLE
350
1D5
  3
ACAD_MLINESTYLE
350
17
  3
ACAD_PLOTSETTINGS
350
19
  3
ACAD_PLOTSTYLENAME
350
E
  3
ACAD_VISUALSTYLE
350
2A
  3
AcDbVariableDictionary
350
1D3
  0
DICTIONARY
  5
D
102
{ACAD_REACTORS
330
C
102
}
330
C
100
AcDbDictionary
281
     1
  0
DICTIONARY
  5
1A
102
{ACAD_REACTORS
330
C
102
}
330
C
100
AcDbDictionary
281
     1
  3
Layout1
350
1E
  3
Layout2
350
26
  3
Model
350
22
  0
DICTIONARY
  5
3B
102
{ACAD_REACTORS
330
C
102
}
330
C
100
AcDbDictionary
281
     1
  3
ByBlock
350
3D
  3
ByLayer
350
3C
  3
Global
350
3E
  0
DICTIONARY
  5
1D5
102
{ACAD_REACTORS
330
C
102
}
330
C
100
AcDbDictionary
281
     1
  0
DICTIONARY
  5
17
102
{ACAD_REACTORS
330
C
102
}
330
C
100
AcDbDictionary
281
     1
  3
Standard
350
18
  0
DICTIONARY
  5
19
102
{ACAD_REACTORS
330
C
102
}
330
C
100
AcDbDictionary
281
     1
  0
ACDBDICTIONARYWDFLT
  5
E
102
{ACAD_REACTORS
330
C
102
}
330
C
100
AcDbDictionary
281
     1
  3
Normal
350
F
100
AcDbDictionaryWithDefault
340
F
  0
DICTIONARY
  5
2A
102
{ACAD_REACTORS
330
C
102
}
330
C
100
AcDbDictionary
281
     1
  3
2dWireframe
350
2F
  3
3D Hidden
350
31
  3
3dWireframe
350
30
  3
Basic
350
32
  3
Brighten
350
36
  3
ColorChange
350
3A
  3
Conceptual
350
34
  3
Dim
350
35
  3
Facepattern
350
39
  3
Flat
350
2B
  3
FlatWithEdges
350
2C
  3
Gouraud
350
2D
  3
GouraudWithEdges
350
2E
  3
Linepattern
350
38
  3
Realistic
350
33
  3
Thicken
350
37
  0
DICTIONARY
  5
1D3
102
{ACAD_REACTORS
330
C
102
}
330
C
100
AcDbDictionary
281
     1
  3
DIMASSOC
350
1D6
  3
HIDETEXT
350
1D7
  0
LAYOUT
  5
1E
102
{ACAD_REACTORS
330
1A
102
}
330
1A
100
AcDbPlotSettings
  1

  2
none_device
  4

  6

 40
0.0
 41
0.0
 42
0.0
 43
0.0
 44
0.0
 45
0.0
 46
0.0
 47
0.0
 48
0.0
 49
0.0
140
0.0
141
0.0
142
1.0
143
1.0
 70
   688
 72
     0
 73
     0
 74
     5
  7

 75
    16
147
1.0
148
0.0
149
0.0
100
AcDbLayout
  1
Layout1
 70
     1
 71
     1
 10
0.0
 20
0.0
 11
12.0
 21
9.0
 12
0.0
 22
0.0
 32
0.0
 14
1.00000000000000E+20
 24
1.00000000000000E+20
 34
1.00000000000000E+20
 15
-1.00000000000000E+20
 25
-1.00000000000000E+20
 35
-1.00000000000000E+20
146
0.0
 13
0.0
 23
0.0
 33
0.0
 16
1.0
 26
0.0
 36
0.0
 17
0.0
 27
1.0
 37
0.0
 76
     0
330
1B
  0
LAYOUT
  5
26
102
{ACAD_REACTORS
330
1A
102
}
330
1A
100
AcDbPlotSettings
  1

  2
none_device
  4

  6

 40
0.0
 41
0.0
 42
0.0
 43
0.0
 44
0.0
 45
0.0
 46
0.0
 47
0.0
 48
0.0
 49
0.0
140
0.0
141
0.0
142
1.0
143
1.0
 70
   688
 72
     0
 73
     0
 74
     5
  7

 75
    16
147
1.0
148
0.0
149
0.0
100
AcDbLayout
  1
Layout2
 70
     1
 71
     2
 10
0.0
 20
0.0
 11
0.0
 21
0.0
 12
0.0
 22
0.0
 32
0.0
 14
0.0
 24
0.0
 34
0.0
 15
0.0
 25
0.0
 35
0.0
146
0.0
 13
0.0
 23
0.0
 33
0.0
 16
1.0
 26
0.0
 36
0.0
 17
0.0
 27
1.0
 37
0.0
 76
     0
330
23
  0
LAYOUT
  5
22
102
{ACAD_REACTORS
330
1A
102
}
330
1A
100
AcDbPlotSettings
  1

  2
none_device
  4

  6

 40
0.0
 41
0.0
 42
0.0
 43
0.0
 44
0.0
 45
0.0
 46
0.0
 47
0.0
 48
0.0
 49
0.0
140
0.0
141
0.0
142
1.0
143
1.0
 70
  1712
 72
     0
 73
     0
 74
     0
  7

 75
     0
147
1.0
148
0.0
149
0.0
100
AcDbLayout
  1
Model
 70
     1
 71
     0
 10
0.0
 20
0.0
 11
12.0
 21
9.0
 12
0.0
 22
0.0
 32
0.0
 14
0.0
 24
0.0
 34
0.0
 15
210.0
 25
297.0
 35
0.0
146
0.0
 13
0.0
 23
0.0
 33
0.0
 16
1.0
 26
0.0
 36
0.0
 17
0.0
 27
1.0
 37
0.0
 76
     0
330
1F
331
29
  0
MATERIAL
  5
3D
102
{ACAD_REACTORS
330
3B
102
}
102
{ACAD_XDICTIONARY
360
1FA
102
}
330
3B
100
AcDbMaterial
  1
ByBlock
  0
MATERIAL
  5
3C
102
{ACAD_REACTORS
330
3B
102
}
102
{ACAD_XDICTIONARY
360
1F8
102
}
330
3B
100
AcDbMaterial
  1
ByLayer
  0
MATERIAL
  5
3E
102
{ACAD_REACTORS
330
3B
102
}
102
{ACAD_XDICTIONARY
360
1FC
102
}
330
3B
100
AcDbMaterial
  1
Global
  0
MLINESTYLE
  5
18
102
{ACAD_REACTORS
330
17
102
}
330
17
100
AcDbMlineStyle
  2
Standard
 70
     0
  3

 62
   256
 51
90.0
 52
90.0
 71
     2
 49
0.5
 62
   256
  6
BYLAYER
 49
-0.5
 62
   256
  6
BYLAYER
  0
ACDBPLACEHOLDER
  5
F
102
{ACAD_REACTORS
330
E
102
}
330
E
  0
VISUALSTYLE
  5
2F
102
{ACAD_REACTORS
330
2A
102
}
102
{ACAD_XDICTIONARY
360
1E0
102
}
330
2A
100
AcDbVisualStyle
  2
2dWireframe
 70
     4
 71
     0
 72
     2
 73
     0
 90
        0
 40
-0.6
 41
-30.0
 62
     5
 63
     7
 74
     1
 91
        4
 64
     7
 65
   257
 75
     1
175
     1
 42
1.0
 92
        0
 66
   257
 43
1.0
 76
     1
 77
     6
 78
     2
 67
     7
 79
     5
170
     0
171
     0
290
     0
174
     0
 93
        1
 44
0.0
173
     0
291
     0
 45
0.0
1001
ACAD
1000
AcDbSavedByObjectVersion
1070
     0
  0
VISUALSTYLE
  5
31
102
{ACAD_REACTORS
330
2A
102
}
102
{ACAD_XDICTIONARY
360
1E4
102
}
330
2A
100
AcDbVisualStyle
  2
3D Hidden
 70
     6
 71
     1
 72
     2
 73
     2
 90
        0
 40
-0.6
 41
-30.0
 62
     5
 63
     7
 74
     2
 91
        2
 64
     7
 65
   257
 75
     2
175
     1
 42
40.0
 92
        0
 66
   257
 43
1.0
 76
     1
 77
     6
 78
     2
 67
     7
 79
     3
170
     0
171
     0
290
     0
174
     0
 93
        1
 44
0.0
173
     0
291
     0
 45
0.0
1001
ACAD
1000
AcDbSavedByObjectVersion
1070
     0
  0
VISUALSTYLE
  5
30
102
{ACAD_REACTORS
330
2A
102
}
102
{ACAD_XDICTIONARY
360
1E2
102
}
330
2A
100
AcDbVisualStyle
  2
3dWireframe
 70
     5
 71
     0
 72
     2
 73
     0
 90
        0
 40
-0.6
 41
-30.0
 62
     5
 63
     7
 74
     1
 91
        4
 64
     7
 65
   257
 75
     1
175
     1
 42
1.0
 92
        0
 66
   257
 43
1.0
 76
     1
 77
     6
 78
     2
 67
     7
 79
     5
170
     0
171
     0
290
     0
174
     0
 93
        1
 44
0.0
173
     0
291
     0
 45
0.0
1001
ACAD
1000
AcDbSavedByObjectVersion
1070
     0
  0
VISUALSTYLE
  5
32
102
{ACAD_REACTORS
330
2A
102
}
102
{ACAD_XDICTIONARY
360
1E6
102
}
330
2A
100
AcDbVisualStyle
  2
Basic
 70
     7
 71
     1
 72
     0
 73
     1
 90
        0
 40
-0.6
 41
-30.0
 62
     5
 63
     7
 74
     0
 91
        4
 64
     7
 65
   257
 75
     1
175
     1
 42
1.0
 92
        8
 66
     7
 43
1.0
 76
     1
 77
     6
 78
     2
 67
     7
 79
     5
170
     0
171
     0
290
     0
174
     0
 93
        1
 44
0.0
173
     0
291
     1
 45
0.0
1001
ACAD
1000
AcDbSavedByObjectVersion
1070
     0
  0
VISUALSTYLE
  5
36
102
{ACAD_REACTORS
330
2A
102
}
102
{ACAD_XDICTIONARY
360
1EE
102
}
330
2A
100
AcDbVisualStyle
  2
Brighten
 70
    12
 71
     2
 72
     2
 73
     0
 90
        0
 40
-0.6
 41
-30.0
 62
     5
 63
     7
 74
     1
 91
        4
 64
     7
 65
   257
 75
     1
175
     1
 42
1.0
 92
        8
 66
     7
 43
1.0
 76
     1
 77
     6
 78
     2
 67
     7
 79
     5
170
     0
171
     0
290
     0
174
     0
 93
        1
 44
50.0
173
     0
291
     1
 45
0.0
1001
ACAD
1000
AcDbSavedByObjectVersion
1070
     0
  0
VISUALSTYLE
  5
3A
102
{ACAD_REACTORS
330
2A
102
}
102
{ACAD_XDICTIONARY
360
1F6
102
}
330
2A
100
AcDbVisualStyle
  2
ColorChange
 70
    16
 71
     2
 72
     2
 73
     3
 90
        0
 40
-0.6
 41
-30.0
 62
     5
 63
     8
 74
     1
 91
        4
 64
     7
 65
   257
 75
     1
175
     1
 42
1.0
 92
        8
 66
     8
 43
1.0
 76
     1
 77
     6
 78
     2
 67
     7
 79
     5
170
     0
171
     0
290
     0
174
     0
 93
        1
 44
0.0
173
     0
291
     1
 45
0.0
1001
ACAD
1000
AcDbSavedByObjectVersion
1070
     0
  0
VISUALSTYLE
  5
34
102
{ACAD_REACTORS
330
2A
102
}
102
{ACAD_XDICTIONARY
360
1EA
102
}
330
2A
100
AcDbVisualStyle
  2
Conceptual
 70
     9
 71
     3
 72
     2
 73
     0
 90
        0
 40
-0.6
 41
-30.0
 62
     5
 63
     7
 74
     2
 91
        2
 64
     7
 65
   257
 75
     1
175
     1
 42
40.0
 92
        8
 66
     7
 43
1.0
 76
     1
 77
     6
 78
     2
 67
     7
 79
     3
170
     0
171
     0
290
     0
174
     0
 93
        1
 44
0.0
173
     0
291
     0
 45
0.0
1001
ACAD
1000
AcDbSavedByObjectVersion
1070
     0
  0
VISUALSTYLE
  5
35
102
{ACAD_REACTORS
330
2A
102
}
102
{ACAD_XDICTIONARY
360
1EC
102
}
330
2A
100
AcDbVisualStyle
  2
Dim
 70
    11
 71
     2
 72
     2
 73
     0
 90
        0
 40
-0.6
 41
-30.0
 62
     5
 63
     7
 74
     1
 91
        4
 64
     7
 65
   257
 75
     1
175
     1
 42
1.0
 92
        8
 66
     7
 43
1.0
 76
     1
 77
     6
 78
     2
 67
     7
 79
     5
170
     0
171
     0
290
     0
174
     0
 93
        1
 44
-50.0
173
     0
291
     1
 45
0.0
1001
ACAD
1000
AcDbSavedByObjectVersion
1070
     0
  0
VISUALSTYLE
  5
39
102
{ACAD_REACTORS
330
2A
102
}
102
{ACAD_XDICTIONARY
360
1F4
102
}
330
2A
100
AcDbVisualStyle
  2
Facepattern
 70
    15
 71
     2
 72
     2
 73
     0
 90
        0
 40
-0.6
 41
-30.0
 62
     5
 63
     7
 74
     1
 91
        4
 64
     7
 65
   257
 75
     1
175
     1
 42
1.0
 92
        8
 66
     7
 43
1.0
 76
     1
 77
     6
 78
     2
 67
     7
 79
     5
170
     0
171
     0
290
     0
174
     0
 93
        1
 44
0.0
173
     0
291
     1
 45
0.0
1001
ACAD
1000
AcDbSavedByObjectVersion
1070
     0
  0
VISUALSTYLE
  5
2B
102
{ACAD_REACTORS
330
2A
102
}
102
{ACAD_XDICTIONARY
360
1D8
102
}
330
2A
100
AcDbVisualStyle
  2
Flat
 70
     0
 71
     2
 72
     1
 73
     1
 90
        2
 40
-0.6
 41
30.0
 62
     5
 63
     7
 74
     0
 91
        4
 64
     7
 65
   257
 75
     1
175
     1
 42
1.0
 92
        8
 66
     7
 43
1.0
 76
     1
 77
     6
 78
     2
 67
     7
 79
     5
170
     0
171
     0
290
     0
174
     0
 93
       13
 44
0.0
173
     0
291
     1
 45
0.0
1001
ACAD
1000
AcDbSavedByObjectVersion
1070
     0
  0
VISUALSTYLE
  5
2C
102
{ACAD_REACTORS
330
2A
102
}
102
{ACAD_XDICTIONARY
360
1DA
102
}
330
2A
100
AcDbVisualStyle
  2
FlatWithEdges
 70
     1
 71
     2
 72
     1
 73
     1
 90
        2
 40
-0.6
 41
30.0
 62
     5
 63
     7
 74
     1
 91
        4
 64
     7
 65
   257
 75
     1
175
     1
 42
1.0
 92
        0
 66
   257
 43
1.0
 76
     1
 77
     6
 78
     2
 67
     7
 79
     5
170
     0
171
     0
290
     0
174
     0
 93
       13
 44
0.0
173
     0
291
     1
 45
0.0
1001
ACAD
1000
AcDbSavedByObjectVersion
1070
     0
  0
VISUALSTYLE
  5
2D
102
{ACAD_REACTORS
330
2A
102
}
102
{ACAD_XDICTIONARY
360
1DC
102
}
330
2A
100
AcDbVisualStyle
  2
Gouraud
 70
     2
 71
     2
 72
     2
 73
     1
 90
        2
 40
-0.6
 41
30.0
 62
     5
 63
     7
 74
     0
 91
        4
 64
     7
 65
   257
 75
     1
175
     1
 42
1.0
 92
        0
 66
     7
 43
1.0
 76
     1
 77
     6
 78
     2
 67
     7
 79
     5
170
     0
171
     0
290
     0
174
     0
 93
       13
 44
0.0
173
     0
291
     1
 45
0.0
1001
ACAD
1000
AcDbSavedByObjectVersion
1070
     0
  0
VISUALSTYLE
  5
2E
102
{ACAD_REACTORS
330
2A
102
}
102
{ACAD_XDICTIONARY
360
1DE
102
}
330
2A
100
AcDbVisualStyle
  2
GouraudWithEdges
 70
     3
 71
     2
 72
     2
 73
     1
 90
        2
 40
-0.6
 41
30.0
 62
     5
 63
     7
 74
     1
 91
        4
 64
     7
 65
   257
 75
     1
175
     1
 42
1.0
 92
        0
 66
   257
 43
1.0
 76
     1
 77
     6
 78
     2
 67
     7
 79
     5
170
     0
171
     0
290
     0
174
     0
 93
       13
 44
0.0
173
     0
291
     1
 45
0.0
1001
ACAD
1000
AcDbSavedByObjectVersion
1070
     0
  0
VISUALSTYLE
  5
38
102
{ACAD_REACTORS
330
2A
102
}
102
{ACAD_XDICTIONARY
360
1F2
102
}
330
2A
100
AcDbVisualStyle
  2
Linepattern
 70
    14
 71
     2
 72
     2
 73
     0
 90
        0
 40
-0.6
 41
-30.0
 62
     5
 63
     7
 74
     1
 91
        4
 64
     7
 65
   257
 75
     7
175
     7
 42
1.0
 92
        8
 66
     7
 43
1.0
 76
     1
 77
     6
 78
     2
 67
     7
 79
     5
170
     0
171
     0
290
     0
174
     0
 93
        1
 44
0.0
173
     0
291
     1
 45
0.0
1001
ACAD
1000
AcDbSavedByObjectVersion
1070
     0
  0
VISUALSTYLE
  5
33
102
{ACAD_REACTORS
330
2A
102
}
102
{ACAD_XDICTIONARY
360
1E8
102
}
330
2A
100
AcDbVisualStyle
  2
Realistic
 70
     8
 71
     2
 72
     2
 73
     0
 90
        0
 40
-0.6
 41
-30.0
 62
     5
 63
     7
 74
     1
 91
        0
 64
     7
 65
   257
 75
     1
175
     1
 42
1.0
 92
        8
 66
     8
 43
1.0
 76
     1
 77
     6
 78
     2
 67
     7
 79
     5
170
     0
171
     0
290
     0
174
     0
 93
       13
 44
0.0
173
     0
291
     0
 45
0.0
1001
ACAD
1000
AcDbSavedByObjectVersion
1070
     0
  0
VISUALSTYLE
  5
37
102
{ACAD_REACTORS
330
2A
102
}
102
{ACAD_XDICTIONARY
360
1F0
102
}
330
2A
100
AcDbVisualStyle
  2
Thicken
 70
    13
 71
     2
 72
     2
 73
     0
 90
        0
 40
-0.6
 41
-30.0
 62
     5
 63
     7
 74
     1
 91
        4
 64
     7
 65
   257
 75
     1
175
     1
 42
1.0
 92
       12
 66
     7
 43
1.0
 76
     1
 77
     6
 78
     2
 67
     7
 79
     5
170
     0
171
     0
290
     0
174
     0
 93
        1
 44
0.0
173
     0
291
     1
 45
0.0
1001
ACAD
1000
AcDbSavedByObjectVersion
1070
     0
  0
DICTIONARYVAR
  5
1D6
102
{ACAD_REACTORS
330
1D3
102
}
330
1D3
100
DictionaryVariables
280
     0
  1
2
  0
DICTIONARYVAR
  5
1D7
102
{ACAD_REACTORS
330
1D3
102
}
330
1D3
100
DictionaryVariables
280
     0
  1
1
  0
DICTIONARY
  5
1FA
330
3D
100
AcDbDictionary
280
     1
281
     1
  3
ACAD_XREC_ROUNDTRIP
360
1FB
  0
DICTIONARY
  5
1F8
330
3C
100
AcDbDictionary
280
     1
281
     1
  3
ACAD_XREC_ROUNDTRIP
360
1F9
  0
DICTIONARY
  5
1FC
330
3E
100
AcDbDictionary
280
     1
281
     1
  3
ACAD_XREC_ROUNDTRIP
360
1FD
  0
DICTIONARY
  5
1E0
330
2F
100
AcDbDictionary
280
     1
281
     1
  3
ACAD_XREC_ROUNDTRIP
360
1E1
  0
DICTIONARY
  5
1E4
330
31
100
AcDbDictionary
280
     1
281
     1
  3
ACAD_XREC_ROUNDTRIP
360
1E5
  0
DICTIONARY
  5
1E2
330
30
100
AcDbDictionary
280
     1
281
     1
  3
ACAD_XREC_ROUNDTRIP
360
1E3
  0
DICTIONARY
  5
1E6
330
32
100
AcDbDictionary
280
     1
281
     1
  3
ACAD_XREC_ROUNDTRIP
360
1E7
  0
DICTIONARY
  5
1EE
330
36
100
AcDbDictionary
280
     1
281
     1
  3
ACAD_XREC_ROUNDTRIP
360
1EF
  0
DICTIONARY
  5
1F6
330
3A
100
AcDbDictionary
280
     1
281
     1
  3
ACAD_XREC_ROUNDTRIP
360
1F7
  0
DICTIONARY
  5
1EA
330
34
100
AcDbDictionary
280
     1
281
     1
  3
ACAD_XREC_ROUNDTRIP
360
1EB
  0
DICTIONARY
  5
1EC
330
35
100
AcDbDictionary
280
     1
281
     1
  3
ACAD_XREC_ROUNDTRIP
360
1ED
  0
DICTIONARY
  5
1F4
330
39
100
AcDbDictionary
280
     1
281
     1
  3
ACAD_XREC_ROUNDTRIP
360
1F5
  0
DICTIONARY
  5
1D8
330
2B
100
AcDbDictionary
280
     1
281
     1
  3
ACAD_XREC_ROUNDTRIP
360
1D9
  0
DICTIONARY
  5
1DA
330
2C
100
AcDbDictionary
280
     1
281
     1
  3
ACAD_XREC_ROUNDTRIP
360
1DB
  0
DICTIONARY
  5
1DC
330
2D
100
AcDbDictionary
280
     1
281
     1
  3
ACAD_XREC_ROUNDTRIP
360
1DD
  0
DICTIONARY
  5
1DE
330
2E
100
AcDbDictionary
280
     1
281
     1
  3
ACAD_XREC_ROUNDTRIP
360
1DF
  0
DICTIONARY
  5
1F2
330
38
100
AcDbDictionary
280
     1
281
     1
  3
ACAD_XREC_ROUNDTRIP
360
1F3
  0
DICTIONARY
  5
1E8
330
33
100
AcDbDictionary
280
     1
281
     1
  3
ACAD_XREC_ROUNDTRIP
360
1E9
  0
DICTIONARY
  5
1F0
330
37
100
AcDbDictionary
280
     1
281
     1
  3
ACAD_XREC_ROUNDTRIP
360
1F1
  0
XRECORD
  5
1FB
102
{ACAD_REACTORS
330
1FA
102
}
330
1FA
100
AcDbXrecord
280
     1
102
MATERIAL
148
0.0
149
0.0
149
0.0
 93
        0
 94
      127
282
     0
 72
     1
 77
     1
171
     1
175
     1
179
     1
273
     0
  0
XRECORD
  5
1F9
102
{ACAD_REACTORS
330
1F8
102
}
330
1F8
100
AcDbXrecord
280
     1
102
MATERIAL
148
0.0
149
0.0
149
0.0
 93
        0
 94
      127
282
     0
 72
     1
 77
     1
171
     1
175
     1
179
     1
273
     0
  0
XRECORD
  5
1FD
102
{ACAD_REACTORS
330
1FC
102
}
330
1FC
100
AcDbXrecord
280
     1
102
MATERIAL
148
0.0
149
0.0
149
0.0
 93
        0
 94
      127
282
     0
 72
     1
 77
     1
171
     1
175
     1
179
     1
273
     0
  0
XRECORD
  5
1E1
102
{ACAD_REACTORS
330
1E0
102
}
330
1E0
100
AcDbXrecord
280
     1
102
RTVSPropertyOp0
 70
     1
102
RTVSPropertyOp1
 70
     1
102
RTVSPropertyOp2
 70
     1
102
RTVSPropertyOp3
 70
     1
102
RTVSPropertyOp4
 70
     1
102
RTVSPropertyOp5
 70
     1
102
RTVSPropertyOp6
 70
     1
102
RTVSPropertyOp7
 70
     1
102
RTVSPropertyOp8
 70
     1
102
RTVSPropertyOp9
 70
     1
102
RTVSPropertyOp10
 70
     1
102
RTVSPropertyOp11
 70
     1
102
RTVSPropertyOp12
 70
     1
102
RTVSPropertyOp13
 70
     1
102
RTVSPropertyOp14
 70
     1
102
RTVSPropertyOp15
 70
     1
102
RTVSPropertyOp16
 70
     1
102
RTVSPropertyOp17
 70
     1
102
RTVSPropertyOp18
 70
     1
102
RTVSPropertyOp19
 70
     1
102
RTVSPropertyOp20
 70
     1
102
RTVSPropertyOp21
 70
     1
102
RTVSPropertyOp22
 70
     1
102
RTVSPropertyOp23
 70
     1
102
RTVSPropertyOp24
 70
     1
102
RTVSPropertyOp25
 70
     1
102
RTVSPropertyOp26
 70
     1
102
RTVSPropertyOp27
 70
     1
102
RTVSPropertyOp28
 70
     1
102
RTVSPropertyOp29
 70
     1
102
RTVSPropertyOp30
 70
     1
102
RTVSPropertyOp31
 70
     1
102
RTVSPropertyOp32
 70
     1
  0
XRECORD
  5
1E5
102
{ACAD_REACTORS
330
1E4
102
}
330
1E4
100
AcDbXrecord
280
     1
102
RTVSPropertyOp0
 70
     1
102
RTVSPropertyOp1
 70
     1
102
RTVSPropertyOp2
 70
     1
102
RTVSPropertyOp3
 70
     1
102
RTVSPropertyOp4
 70
     1
102
RTVSPropertyOp5
 70
     1
102
RTVSPropertyOp6
 70
     1
102
RTVSPropertyOp7
 70
     1
102
RTVSPropertyOp8
 70
     1
102
RTVSPropertyOp9
 70
     1
102
RTVSPropertyOp10
 70
     1
102
RTVSPropertyOp11
 70
     1
102
RTVSPropertyOp12
 70
     1
102
RTVSPropertyOp13
 70
     1
102
RTVSPropertyOp14
 70
     1
102
RTVSPropertyOp15
 70
     1
102
RTVSPropertyOp16
 70
     1
102
RTVSPropertyOp17
 70
     1
102
RTVSPropertyOp18
 70
     1
102
RTVSPropertyOp19
 70
     1
102
RTVSPropertyOp20
 70
     1
102
RTVSPropertyOp21
 70
     1
102
RTVSPropertyOp22
 70
     1
102
RTVSPropertyOp23
 70
     1
102
RTVSPropertyOp24
 70
     1
102
RTVSPropertyOp25
 70
     1
102
RTVSPropertyOp26
 70
     1
102
RTVSPropertyOp27
 70
     1
102
RTVSPropertyOp28
 70
     1
102
RTVSPropertyOp29
 70
     1
102
RTVSPropertyOp30
 70
     1
102
RTVSPropertyOp31
 70
     1
102
RTVSPropertyOp32
 70
     1
  0
XRECORD
  5
1E3
102
{ACAD_REACTORS
330
1E2
102
}
330
1E2
100
AcDbXrecord
280
     1
102
RTVSPropertyOp0
 70
     1
102
RTVSPropertyOp1
 70
     1
102
RTVSPropertyOp2
 70
     1
102
RTVSPropertyOp3
 70
     1
102
RTVSPropertyOp4
 70
     1
102
RTVSPropertyOp5
 70
     1
102
RTVSPropertyOp6
 70
     1
102
RTVSPropertyOp7
 70
     1
102
RTVSPropertyOp8
 70
     1
102
RTVSPropertyOp9
 70
     1
102
RTVSPropertyOp10
 70
     1
102
RTVSPropertyOp11
 70
     1
102
RTVSPropertyOp12
 70
     1
102
RTVSPropertyOp13
 70
     1
102
RTVSPropertyOp14
 70
     1
102
RTVSPropertyOp15
 70
     1
102
RTVSPropertyOp16
 70
     1
102
RTVSPropertyOp17
 70
     1
102
RTVSPropertyOp18
 70
     1
102
RTVSPropertyOp19
 70
     1
102
RTVSPropertyOp20
 70
     1
102
RTVSPropertyOp21
 70
     1
102
RTVSPropertyOp22
 70
     1
102
RTVSPropertyOp23
 70
     1
102
RTVSPropertyOp24
 70
     1
102
RTVSPropertyOp25
 70
     1
102
RTVSPropertyOp26
 70
     1
102
RTVSPropertyOp27
 70
     1
102
RTVSPropertyOp28
 70
     1
102
RTVSPropertyOp29
 70
     1
102
RTVSPropertyOp30
 70
     1
102
RTVSPropertyOp31
 70
     1
102
RTVSPropertyOp32
 70
     1
  0
XRECORD
  5
1E7
102
{ACAD_REACTORS
330
1E6
102
}
330
1E6
100
AcDbXrecord
280
     1
102
RTVSPropertyOp0
 70
     1
102
RTVSPropertyOp1
 70
     1
102
RTVSPropertyOp2
 70
     1
102
RTVSPropertyOp3
 70
     1
102
RTVSPropertyOp4
 70
     1
102
RTVSPropertyOp5
 70
     1
102
RTVSPropertyOp6
 70
     1
102
RTVSPropertyOp7
 70
     1
102
RTVSPropertyOp8
 70
     1
102
RTVSPropertyOp9
 70
     1
102
RTVSPropertyOp10
 70
     1
102
RTVSPropertyOp11
 70
     1
102
RTVSPropertyOp12
 70
     1
102
RTVSPropertyOp13
 70
     1
102
RTVSPropertyOp14
 70
     1
102
RTVSPropertyOp15
 70
     1
102
RTVSPropertyOp16
 70
     1
102
RTVSPropertyOp17
 70
     1
102
RTVSPropertyOp18
 70
     1
102
RTVSPropertyOp19
 70
     1
102
RTVSPropertyOp20
 70
     1
102
RTVSPropertyOp21
 70
     1
102
RTVSPropertyOp22
 70
     1
102
RTVSPropertyOp23
 70
     1
102
RTVSPropertyOp24
 70
     1
102
RTVSPropertyOp25
 70
     1
102
RTVSPropertyOp26
 70
     1
102
RTVSPropertyOp27
 70
     1
102
RTVSPropertyOp28
 70
     1
102
RTVSPropertyOp29
 70
     1
102
RTVSPropertyOp30
 70
     1
102
RTVSPropertyOp31
 70
     1
102
RTVSPropertyOp32
 70
     1
  0
XRECORD
  5
1EF
102
{ACAD_REACTORS
330
1EE
102
}
330
1EE
100
AcDbXrecord
280
     1
102
RTVSPropertyOp0
 70
     1
102
RTVSPropertyOp1
 70
     1
102
RTVSPropertyOp2
 70
     1
102
RTVSPropertyOp3
 70
     1
102
RTVSPropertyOp4
 70
     1
102
RTVSPropertyOp5
 70
     1
102
RTVSPropertyOp6
 70
     1
102
RTVSPropertyOp7
 70
     1
102
RTVSPropertyOp8
 70
     1
102
RTVSPropertyOp9
 70
     1
102
RTVSPropertyOp10
 70
     1
102
RTVSPropertyOp11
 70
     1
102
RTVSPropertyOp12
 70
     1
102
RTVSPropertyOp13
 70
     1
102
RTVSPropertyOp14
 70
     1
102
RTVSPropertyOp15
 70
     1
102
RTVSPropertyOp16
 70
     1
102
RTVSPropertyOp17
 70
     1
102
RTVSPropertyOp18
 70
     1
102
RTVSPropertyOp19
 70
     1
102
RTVSPropertyOp20
 70
     1
102
RTVSPropertyOp21
 70
     1
102
RTVSPropertyOp22
 70
     1
102
RTVSPropertyOp23
 70
     1
102
RTVSPropertyOp24
 70
     1
102
RTVSPropertyOp25
 70
     1
102
RTVSPropertyOp26
 70
     1
102
RTVSPropertyOp27
 70
     1
102
RTVSPropertyOp28
 70
     1
102
RTVSPropertyOp29
 70
     1
102
RTVSPropertyOp30
 70
     1
102
RTVSPropertyOp31
 70
     1
102
RTVSPropertyOp32
 70
     1
  0
XRECORD
  5
1F7
102
{ACAD_REACTORS
330
1F6
102
}
330
1F6
100
AcDbXrecord
280
     1
102
RTVSPropertyOp0
 70
     1
102
RTVSPropertyOp1
 70
     1
102
RTVSPropertyOp2
 70
     1
102
RTVSPropertyOp3
 70
     1
102
RTVSPropertyOp4
 70
     1
102
RTVSPropertyOp5
 70
     1
102
RTVSPropertyOp6
 70
     1
102
RTVSPropertyOp7
 70
     1
102
RTVSPropertyOp8
 70
     1
102
RTVSPropertyOp9
 70
     1
102
RTVSPropertyOp10
 70
     1
102
RTVSPropertyOp11
 70
     1
102
RTVSPropertyOp12
 70
     1
102
RTVSPropertyOp13
 70
     1
102
RTVSPropertyOp14
 70
     1
102
RTVSPropertyOp15
 70
     1
102
RTVSPropertyOp16
 70
     1
102
RTVSPropertyOp17
 70
     1
102
RTVSPropertyOp18
 70
     1
102
RTVSPropertyOp19
 70
     1
102
RTVSPropertyOp20
 70
     1
102
RTVSPropertyOp21
 70
     1
102
RTVSPropertyOp22
 70
     1
102
RTVSPropertyOp23
 70
     1
102
RTVSPropertyOp24
 70
     1
102
RTVSPropertyOp25
 70
     1
102
RTVSPropertyOp26
 70
     1
102
RTVSPropertyOp27
 70
     1
102
RTVSPropertyOp28
 70
     1
102
RTVSPropertyOp29
 70
     1
102
RTVSPropertyOp30
 70
     1
102
RTVSPropertyOp31
 70
     1
102
RTVSPropertyOp32
 70
     1
  0
XRECORD
  5
1EB
102
{ACAD_REACTORS
330
1EA
102
}
330
1EA
100
AcDbXrecord
280
     1
102
RTVSPropertyOp0
 70
     1
102
RTVSPropertyOp1
 70
     1
102
RTVSPropertyOp2
 70
     1
102
RTVSPropertyOp3
 70
     1
102
RTVSPropertyOp4
 70
     1
102
RTVSPropertyOp5
 70
     1
102
RTVSPropertyOp6
 70
     1
102
RTVSPropertyOp7
 70
     1
102
RTVSPropertyOp8
 70
     1
102
RTVSPropertyOp9
 70
     1
102
RTVSPropertyOp10
 70
     1
102
RTVSPropertyOp11
 70
     1
102
RTVSPropertyOp12
 70
     1
102
RTVSPropertyOp13
 70
     1
102
RTVSPropertyOp14
 70
     1
102
RTVSPropertyOp15
 70
     1
102
RTVSPropertyOp16
 70
     1
102
RTVSPropertyOp17
 70
     1
102
RTVSPropertyOp18
 70
     1
102
RTVSPropertyOp19
 70
     1
102
RTVSPropertyOp20
 70
     1
102
RTVSPropertyOp21
 70
     1
102
RTVSPropertyOp22
 70
     1
102
RTVSPropertyOp23
 70
     1
102
RTVSPropertyOp24
 70
     1
102
RTVSPropertyOp25
 70
     1
102
RTVSPropertyOp26
 70
     1
102
RTVSPropertyOp27
 70
     1
102
RTVSPropertyOp28
 70
     1
102
RTVSPropertyOp29
 70
     1
102
RTVSPropertyOp30
 70
     1
102
RTVSPropertyOp31
 70
     1
102
RTVSPropertyOp32
 70
     1
  0
XRECORD
  5
1ED
102
{ACAD_REACTORS
330
1EC
102
}
330
1EC
100
AcDbXrecord
280
     1
102
RTVSPropertyOp0
 70
     1
102
RTVSPropertyOp1
 70
     1
102
RTVSPropertyOp2
 70
     1
102
RTVSPropertyOp3
 70
     1
102
RTVSPropertyOp4
 70
     1
102
RTVSPropertyOp5
 70
     1
102
RTVSPropertyOp6
 70
     1
102
RTVSPropertyOp7
 70
     1
102
RTVSPropertyOp8
 70
     1
102
RTVSPropertyOp9
 70
     1
102
RTVSPropertyOp10
 70
     1
102
RTVSPropertyOp11
 70
     1
102
RTVSPropertyOp12
 70
     1
102
RTVSPropertyOp13
 70
     1
102
RTVSPropertyOp14
 70
     1
102
RTVSPropertyOp15
 70
     1
102
RTVSPropertyOp16
 70
     1
102
RTVSPropertyOp17
 70
     1
102
RTVSPropertyOp18
 70
     1
102
RTVSPropertyOp19
 70
     1
102
RTVSPropertyOp20
 70
     1
102
RTVSPropertyOp21
 70
     1
102
RTVSPropertyOp22
 70
     1
102
RTVSPropertyOp23
 70
     1
102
RTVSPropertyOp24
 70
     1
102
RTVSPropertyOp25
 70
     1
102
RTVSPropertyOp26
 70
     1
102
RTVSPropertyOp27
 70
     1
102
RTVSPropertyOp28
 70
     1
102
RTVSPropertyOp29
 70
     1
102
RTVSPropertyOp30
 70
     1
102
RTVSPropertyOp31
 70
     1
102
RTVSPropertyOp32
 70
     1
  0
XRECORD
  5
1F5
102
{ACAD_REACTORS
330
1F4
102
}
330
1F4
100
AcDbXrecord
280
     1
102
RTVSPropertyOp0
 70
     1
102
RTVSPropertyOp1
 70
     1
102
RTVSPropertyOp2
 70
     1
102
RTVSPropertyOp3
 70
     1
102
RTVSPropertyOp4
 70
     1
102
RTVSPropertyOp5
 70
     1
102
RTVSPropertyOp6
 70
     1
102
RTVSPropertyOp7
 70
     1
102
RTVSPropertyOp8
 70
     1
102
RTVSPropertyOp9
 70
     1
102
RTVSPropertyOp10
 70
     1
102
RTVSPropertyOp11
 70
     1
102
RTVSPropertyOp12
 70
     1
102
RTVSPropertyOp13
 70
     1
102
RTVSPropertyOp14
 70
     1
102
RTVSPropertyOp15
 70
     1
102
RTVSPropertyOp16
 70
     1
102
RTVSPropertyOp17
 70
     1
102
RTVSPropertyOp18
 70
     1
102
RTVSPropertyOp19
 70
     1
102
RTVSPropertyOp20
 70
     1
102
RTVSPropertyOp21
 70
     1
102
RTVSPropertyOp22
 70
     1
102
RTVSPropertyOp23
 70
     1
102
RTVSPropertyOp24
 70
     1
102
RTVSPropertyOp25
 70
     1
102
RTVSPropertyOp26
 70
     1
102
RTVSPropertyOp27
 70
     1
102
RTVSPropertyOp28
 70
     1
102
RTVSPropertyOp29
 70
     1
102
RTVSPropertyOp30
 70
     1
102
RTVSPropertyOp31
 70
     1
102
RTVSPropertyOp32
 70
     1
  0
XRECORD
  5
1D9
102
{ACAD_REACTORS
330
1D8
102
}
330
1D8
100
AcDbXrecord
280
     1
102
RTVSPropertyOp0
 70
     1
102
RTVSPropertyOp1
 70
     1
102
RTVSPropertyOp2
 70
     1
102
RTVSPropertyOp3
 70
     1
102
RTVSPropertyOp4
 70
     1
102
RTVSPropertyOp5
 70
     1
102
RTVSPropertyOp6
 70
     1
102
RTVSPropertyOp7
 70
     1
102
RTVSPropertyOp8
 70
     1
102
RTVSPropertyOp9
 70
     1
102
RTVSPropertyOp10
 70
     1
102
RTVSPropertyOp11
 70
     1
102
RTVSPropertyOp12
 70
     1
102
RTVSPropertyOp13
 70
     1
102
RTVSPropertyOp14
 70
     1
102
RTVSPropertyOp15
 70
     1
102
RTVSPropertyOp16
 70
     1
102
RTVSPropertyOp17
 70
     1
102
RTVSPropertyOp18
 70
     1
102
RTVSPropertyOp19
 70
     1
102
RTVSPropertyOp20
 70
     1
102
RTVSPropertyOp21
 70
     1
102
RTVSPropertyOp22
 70
     1
102
RTVSPropertyOp23
 70
     1
102
RTVSPropertyOp24
 70
     1
102
RTVSPropertyOp25
 70
     1
102
RTVSPropertyOp26
 70
     1
102
RTVSPropertyOp27
 70
     1
102
RTVSPropertyOp28
 70
     1
102
RTVSPropertyOp29
 70
     1
102
RTVSPropertyOp30
 70
     1
102
RTVSPropertyOp31
 70
     1
102
RTVSPropertyOp32
 70
     1
  0
XRECORD
  5
1DB
102
{ACAD_REACTORS
330
1DA
102
}
330
1DA
100
AcDbXrecord
280
     1
102
RTVSPropertyOp0
 70
     1
102
RTVSPropertyOp1
 70
     1
102
RTVSPropertyOp2
 70
     1
102
RTVSPropertyOp3
 70
     1
102
RTVSPropertyOp4
 70
     1
102
RTVSPropertyOp5
 70
     1
102
RTVSPropertyOp6
 70
     1
102
RTVSPropertyOp7
 70
     1
102
RTVSPropertyOp8
 70
     1
102
RTVSPropertyOp9
 70
     1
102
RTVSPropertyOp10
 70
     1
102
RTVSPropertyOp11
 70
     1
102
RTVSPropertyOp12
 70
     1
102
RTVSPropertyOp13
 70
     1
102
RTVSPropertyOp14
 70
     1
102
RTVSPropertyOp15
 70
     1
102
RTVSPropertyOp16
 70
     1
102
RTVSPropertyOp17
 70
     1
102
RTVSPropertyOp18
 70
     1
102
RTVSPropertyOp19
 70
     1
102
RTVSPropertyOp20
 70
     1
102
RTVSPropertyOp21
 70
     1
102
RTVSPropertyOp22
 70
     1
102
RTVSPropertyOp23
 70
     1
102
RTVSPropertyOp24
 70
     1
102
RTVSPropertyOp25
 70
     1
102
RTVSPropertyOp26
 70
     1
102
RTVSPropertyOp27
 70
     1
102
RTVSPropertyOp28
 70
     1
102
RTVSPropertyOp29
 70
     1
102
RTVSPropertyOp30
 70
     1
102
RTVSPropertyOp31
 70
     1
102
RTVSPropertyOp32
 70
     1
  0
XRECORD
  5
1DD
102
{ACAD_REACTORS
330
1DC
102
}
330
1DC
100
AcDbXrecord
280
     1
102
RTVSPropertyOp0
 70
     1
102
RTVSPropertyOp1
 70
     1
102
RTVSPropertyOp2
 70
     1
102
RTVSPropertyOp3
 70
     1
102
RTVSPropertyOp4
 70
     1
102
RTVSPropertyOp5
 70
     1
102
RTVSPropertyOp6
 70
     1
102
RTVSPropertyOp7
 70
     1
102
RTVSPropertyOp8
 70
     1
102
RTVSPropertyOp9
 70
     1
102
RTVSPropertyOp10
 70
     1
102
RTVSPropertyOp11
 70
     1
102
RTVSPropertyOp12
 70
     1
102
RTVSPropertyOp13
 70
     1
102
RTVSPropertyOp14
 70
     1
102
RTVSPropertyOp15
 70
     1
102
RTVSPropertyOp16
 70
     1
102
RTVSPropertyOp17
 70
     1
102
RTVSPropertyOp18
 70
     1
102
RTVSPropertyOp19
 70
     1
102
RTVSPropertyOp20
 70
     1
102
RTVSPropertyOp21
 70
     1
102
RTVSPropertyOp22
 70
     1
102
RTVSPropertyOp23
 70
     1
102
RTVSPropertyOp24
 70
     1
102
RTVSPropertyOp25
 70
     1
102
RTVSPropertyOp26
 70
     1
102
RTVSPropertyOp27
 70
     1
102
RTVSPropertyOp28
 70
     1
102
RTVSPropertyOp29
 70
     1
102
RTVSPropertyOp30
 70
     1
102
RTVSPropertyOp31
 70
     1
102
RTVSPropertyOp32
 70
     1
  0
XRECORD
  5
1DF
102
{ACAD_REACTORS
330
1DE
102
}
330
1DE
100
AcDbXrecord
280
     1
102
RTVSPropertyOp0
 70
     1
102
RTVSPropertyOp1
 70
     1
102
RTVSPropertyOp2
 70
     1
102
RTVSPropertyOp3
 70
     1
102
RTVSPropertyOp4
 70
     1
102
RTVSPropertyOp5
 70
     1
102
RTVSPropertyOp6
 70
     1
102
RTVSPropertyOp7
 70
     1
102
RTVSPropertyOp8
 70
     1
102
RTVSPropertyOp9
 70
     1
102
RTVSPropertyOp10
 70
     1
102
RTVSPropertyOp11
 70
     1
102
RTVSPropertyOp12
 70
     1
102
RTVSPropertyOp13
 70
     1
102
RTVSPropertyOp14
 70
     1
102
RTVSPropertyOp15
 70
     1
102
RTVSPropertyOp16
 70
     1
102
RTVSPropertyOp17
 70
     1
102
RTVSPropertyOp18
 70
     1
102
RTVSPropertyOp19
 70
     1
102
RTVSPropertyOp20
 70
     1
102
RTVSPropertyOp21
 70
     1
102
RTVSPropertyOp22
 70
     1
102
RTVSPropertyOp23
 70
     1
102
RTVSPropertyOp24
 70
     1
102
RTVSPropertyOp25
 70
     1
102
RTVSPropertyOp26
 70
     1
102
RTVSPropertyOp27
 70
     1
102
RTVSPropertyOp28
 70
     1
102
RTVSPropertyOp29
 70
     1
102
RTVSPropertyOp30
 70
     1
102
RTVSPropertyOp31
 70
     1
102
RTVSPropertyOp32
 70
     1
  0
XRECORD
  5
1F3
102
{ACAD_REACTORS
330
1F2
102
}
330
1F2
100
AcDbXrecord
280
     1
102
RTVSPropertyOp0
 70
     1
102
RTVSPropertyOp1
 70
     1
102
RTVSPropertyOp2
 70
     1
102
RTVSPropertyOp3
 70
     1
102
RTVSPropertyOp4
 70
     1
102
RTVSPropertyOp5
 70
     1
102
RTVSPropertyOp6
 70
     1
102
RTVSPropertyOp7
 70
     1
102
RTVSPropertyOp8
 70
     1
102
RTVSPropertyOp9
 70
     1
102
RTVSPropertyOp10
 70
     1
102
RTVSPropertyOp11
 70
     1
102
RTVSPropertyOp12
 70
     1
102
RTVSPropertyOp13
 70
     1
102
RTVSPropertyOp14
 70
     1
102
RTVSPropertyOp15
 70
     1
102
RTVSPropertyOp16
 70
     1
102
RTVSPropertyOp17
 70
     1
102
RTVSPropertyOp18
 70
     1
102
RTVSPropertyOp19
 70
     1
102
RTVSPropertyOp20
 70
     1
102
RTVSPropertyOp21
 70
     1
102
RTVSPropertyOp22
 70
     1
102
RTVSPropertyOp23
 70
     1
102
RTVSPropertyOp24
 70
     1
102
RTVSPropertyOp25
 70
     1
102
RTVSPropertyOp26
 70
     1
102
RTVSPropertyOp27
 70
     1
102
RTVSPropertyOp28
 70
     1
102
RTVSPropertyOp29
 70
     1
102
RTVSPropertyOp30
 70
     1
102
RTVSPropertyOp31
 70
     1
102
RTVSPropertyOp32
 70
     1
  0
XRECORD
  5
1E9
102
{ACAD_REACTORS
330
1E8
102
}
330
1E8
100
AcDbXrecord
280
     1
102
RTVSPropertyOp0
 70
     1
102
RTVSPropertyOp1
 70
     1
102
RTVSPropertyOp2
 70
     1
102
RTVSPropertyOp3
 70
     1
102
RTVSPropertyOp4
 70
     1
102
RTVSPropertyOp5
 70
     1
102
RTVSPropertyOp6
 70
     1
102
RTVSPropertyOp7
 70
     1
102
RTVSPropertyOp8
 70
     1
102
RTVSPropertyOp9
 70
     1
102
RTVSPropertyOp10
 70
     1
102
RTVSPropertyOp11
 70
     1
102
RTVSPropertyOp12
 70
     1
102
RTVSPropertyOp13
 70
     1
102
RTVSPropertyOp14
 70
     1
102
RTVSPropertyOp15
 70
     1
102
RTVSPropertyOp16
 70
     1
102
RTVSPropertyOp17
 70
     1
102
RTVSPropertyOp18
 70
     1
102
RTVSPropertyOp19
 70
     1
102
RTVSPropertyOp20
 70
     1
102
RTVSPropertyOp21
 70
     1
102
RTVSPropertyOp22
 70
     1
102
RTVSPropertyOp23
 70
     1
102
RTVSPropertyOp24
 70
     1
102
RTVSPropertyOp25
 70
     1
102
RTVSPropertyOp26
 70
     1
102
RTVSPropertyOp27
 70
     1
102
RTVSPropertyOp28
 70
     1
102
RTVSPropertyOp29
 70
     1
102
RTVSPropertyOp30
 70
     1
102
RTVSPropertyOp31
 70
     1
102
RTVSPropertyOp32
 70
     1
  0
XRECORD
  5
1F1
102
{ACAD_REACTORS
330
1F0
102
}
330
1F0
100
AcDbXrecord
280
     1
102
RTVSPropertyOp0
 70
     1
102
RTVSPropertyOp1
 70
     1
102
RTVSPropertyOp2
 70
     1
102
RTVSPropertyOp3
 70
     1
102
RTVSPropertyOp4
 70
     1
102
RTVSPropertyOp5
 70
     1
102
RTVSPropertyOp6
 70
     1
102
RTVSPropertyOp7
 70
     1
102
RTVSPropertyOp8
 70
     1
102
RTVSPropertyOp9
 70
     1
102
RTVSPropertyOp10
 70
     1
102
RTVSPropertyOp11
 70
     1
102
RTVSPropertyOp12
 70
     1
102
RTVSPropertyOp13
 70
     1
102
RTVSPropertyOp14
 70
     1
102
RTVSPropertyOp15
 70
     1
102
RTVSPropertyOp16
 70
     1
102
RTVSPropertyOp17
 70
     1
102
RTVSPropertyOp18
 70
     1
102
RTVSPropertyOp19
 70
     1
102
RTVSPropertyOp20
 70
     1
102
RTVSPropertyOp21
 70
     1
102
RTVSPropertyOp22
 70
     1
102
RTVSPropertyOp23
 70
     1
102
RTVSPropertyOp24
 70
     1
102
RTVSPropertyOp25
 70
     1
102
RTVSPropertyOp26
 70
     1
102
RTVSPropertyOp27
 70
     1
102
RTVSPropertyOp28
 70
     1
102
RTVSPropertyOp29
 70
     1
102
RTVSPropertyOp30
 70
     1
102
RTVSPropertyOp31
 70
     1
102
RTVSPropertyOp32
 70
     1
  0
ENDSEC
  0
EOF
