  0
SECTION
  2
HEADER
  9
$ACADVER
  1
AC1015
  9
$ACADMAINTVER
 70
     6
  9
$DWGCODEPAGE
  3
ANSI_932
  9
$INSBASE
 10
0.0
 20
0.0
 30
0.0
  9
$EXTMIN
 10
0.0
 20
0.0
 30
0.0
  9
$EXTMAX
 10
210.0
 20
297.0
 30
0.0
  9
$LIMMIN
 10
0.0
 20
0.0
  9
$LIMMAX
 10
12.0
 20
9.0
  9
$ORTHOMODE
 70
     0
  9
$REGENMODE
 70
     1
  9
$FILLMODE
 70
     1
  9
$QTEXTMODE
 70
     0
  9
$MIRRTEXT
 70
     1
  9
$LTSCALE
 40
1.0
  9
$ATTMODE
 70
     1
  9
$TEXTSIZE
 40
0.2
  9
$TRACEWID
 40
0.05
  9
$TEXTSTYLE
  7
Standard
  9
$CLAYER
  8
0
  9
$CELTYPE
  6
ByLayer
  9
$CECOLOR
 62
   256
  9
$CELTSCALE
 40
1.0
  9
$DISPSILH
 70
     0
  9
$DIMSCALE
 40
1.0
  9
$DIMASZ
 40
0.18
  9
$DIMEXO
 40
0.0625
  9
$DIMDLI
 40
0.38
  9
$DIMRND
 40
0.0
  9
$DIMDLE
 40
0.0
  9
$DIMEXE
 40
0.18
  9
$DIMTP
 40
0.0
  9
$DIMTM
 40
0.0
  9
$DIMTXT
 40
0.18
  9
$DIMCEN
 40
0.09
  9
$DIMTSZ
 40
0.0
  9
$DIMTOL
 70
     0
  9
$DIMLIM
 70
     0
  9
$DIMTIH
 70
     1
  9
$DIMTOH
 70
     1
  9
$DIMSE1
 70
     0
  9
$DIMSE2
 70
     0
  9
$DIMTAD
 70
     0
  9
$DIMZIN
 70
     0
  9
$DIMBLK
  1

  9
$DIMASO
 70
     1
  9
$DIMSHO
 70
     1
  9
$DIMPOST
  1

  9
$DIMAPOST
  1

  9
$DIMALT
 70
     0
  9
$DIMALTD
 70
     2
  9
$DIMALTF
 40
25.4
  9
$DIMLFAC
 40
1.0
  9
$DIMTOFL
 70
     0
  9
$DIMTVP
 40
0.0
  9
$DIMTIX
 70
     0
  9
$DIMSOXD
 70
     0
  9
$DIMSAH
 70
     0
  9
$DIMBLK1
  1

  9
$DIMBLK2
  1

  9
$DIMSTYLE
  2
Standard
  9
$DIMCLRD
 70
     0
  9
$DIMCLRE
 70
     0
  9
$DIMCLRT
 70
     0
  9
$DIMTFAC
 40
1.0
  9
$DIMGAP
 40
0.09
  9
$DIMJUST
 70
     0
  9
$DIMSD1
 70
     0
  9
$DIMSD2
 70
     0
  9
$DIMTOLJ
 70
     1
  9
$DIMTZIN
 70
     0
  9
$DIMALTZ
 70
     0
  9
$DIMALTTZ
 70
     0
  9
$DIMUPT
 70
     0
  9
$DIMDEC
 70
     4
  9
$DIMTDEC
 70
     4
  9
$DIMALTU
 70
     2
  9
$DIMALTTD
 70
     2
  9
$DIMTXSTY
  7
Standard
  9
$DIMAUNIT
 70
     0
  9
$DIMADEC
 70
     0
  9
$DIMALTRND
 40
0.0
  9
$DIMAZIN
 70
     0
  9
$DIMDSEP
 70
    46
  9
$DIMATFIT
 70
     3
  9
$DIMFRAC
 70
     0
  9
$DIMLDRBLK
  1

  9
$DIMLUNIT
 70
     2
  9
$DIMLWD
 70
    -2
  9
$DIMLWE
 70
    -2
  9
$DIMTMOVE
 70
     0
  9
$LUNITS
 70
     2
  9
$LUPREC
 70
     4
  9
$SKETCHINC
 40
0.1
  9
$FILLETRAD
 40
0.5
  9
$AUNITS
 70
     0
  9
$AUPREC
 70
     0
  9
$MENU
  1
.
  9
$ELEVATION
 40
0.0
  9
$PELEVATION
 40
0.0
  9
$THICKNESS
 40
0.0
  9
$LIMCHECK
 70
     0
  9
$CHAMFERA
 40
0.5
  9
$CHAMFERB
 40
0.5
  9
$CHAMFERC
 40
1.0
  9
$CHAMFERD
 40
0.0
  9
$SKPOLY
 70
     0
  9
$TDCREATE
 40
2457529.434331134
  9
$TDUCREATE
 40
2457529.059331134
  9
$TDUPDATE
 40
2457529.434332222
  9
$TDUUPDATE
 40
2457529.059332222
  9
$TDINDWG
 40
0.0000000116
  9
$TDUSRTIMER
 40
0.0000000116
  9
$USRTIMER
 70
     1
  9
$ANGBASE
 50
0.0
  9
$ANGDIR
 70
     0
  9
$PDMODE
 70
     0
  9
$PDSIZE
 40
0.0
  9
$PLINEWID
 40
0.0
  9
$SPLFRAME
 70
     0
  9
$SPLINETYPE
 70
     6
  9
$SPLINESEGS
 70
     8
  9
$HANDSEED
  5
2EB
  9
$SURFTAB1
 70
     6
  9
$SURFTAB2
 70
     6
  9
$SURFTYPE
 70
     6
  9
$SURFU
 70
     6
  9
$SURFV
 70
     6
  9
$UCSBASE
  2

  9
$UCSNAME
  2

  9
$UCSORG
 10
0.0
 20
0.0
 30
0.0
  9
$UCSXDIR
 10
1.0
 20
0.0
 30
0.0
  9
$UCSYDIR
 10
0.0
 20
1.0
 30
0.0
  9
$UCSORTHOREF
  2

  9
$UCSORTHOVIEW
 70
     0
  9
$UCSORGTOP
 10
0.0
 20
0.0
 30
0.0
  9
$UCSORGBOTTOM
 10
0.0
 20
0.0
 30
0.0
  9
$UCSORGLEFT
 10
0.0
 20
0.0
 30
0.0
  9
$UCSORGRIGHT
 10
0.0
 20
0.0
 30
0.0
  9
$UCSORGFRONT
 10
0.0
 20
0.0
 30
0.0
  9
$UCSORGBACK
 10
0.0
 20
0.0
 30
0.0
  9
$PUCSBASE
  2

  9
$PUCSNAME
  2

  9
$PUCSORG
 10
0.0
 20
0.0
 30
0.0
  9
$PUCSXDIR
 10
1.0
 20
0.0
 30
0.0
  9
$PUCSYDIR
 10
0.0
 20
1.0
 30
0.0
  9
$PUCSORTHOREF
  2

  9
$PUCSORTHOVIEW
 70
     0
  9
$PUCSORGTOP
 10
0.0
 20
0.0
 30
0.0
  9
$PUCSORGBOTTOM
 10
0.0
 20
0.0
 30
0.0
  9
$PUCSORGLEFT
 10
0.0
 20
0.0
 30
0.0
  9
$PUCSORGRIGHT
 10
0.0
 20
0.0
 30
0.0
  9
$PUCSORGFRONT
 10
0.0
 20
0.0
 30
0.0
  9
$PUCSORGBACK
 10
0.0
 20
0.0
 30
0.0
  9
$USERI1
 70
     0
  9
$USERI2
 70
     0
  9
$USERI3
 70
     0
  9
$USERI4
 70
     0
  9
$USERI5
 70
     0
  9
$USERR1
 40
18.1
  9
$USERR2
 40
0.0
  9
$USERR3
 40
0.0
  9
$USERR4
 40
0.0
  9
$USERR5
 40
0.0
  9
$WORLDVIEW
 70
     1
  9
$SHADEDGE
 70
     3
  9
$SHADEDIF
 70
    70
  9
$TILEMODE
 70
     1
  9
$MAXACTVP
 70
    64
  9
$PINSBASE
 10
0.0
 20
0.0
 30
0.0
  9
$PLIMCHECK
 70
     0
  9
$PEXTMIN
 10
1.00000000000000E+20
 20
1.00000000000000E+20
 30
1.00000000000000E+20
  9
$PEXTMAX
 10
-1.00000000000000E+20
 20
-1.00000000000000E+20
 30
-1.00000000000000E+20
  9
$PLIMMIN
 10
0.0
 20
0.0
  9
$PLIMMAX
 10
12.0
 20
9.0
  9
$UNITMODE
 70
     0
  9
$VISRETAIN
 70
     1
  9
$PLINEGEN
 70
     0
  9
$PSLTSCALE
 70
     1
  9
$TREEDEPTH
 70
  3020
  9
$CMLSTYLE
  2
Standard
  9
$CMLJUST
 70
     0
  9
$CMLSCALE
 40
1.0
  9
$PROXYGRAPHICS
 70
     1
  9
$MEASUREMENT
 70
     1
  9
$CELWEIGHT
370
    -1
  9
$ENDCAPS
280
     0
  9
$JOINSTYLE
280
     0
  9
$LWDISPLAY
290
     0
  9
$INSUNITS
 70
     4
  9
$HYPERLINKBASE
  1

  9
$STYLESHEET
  1

  9
$XEDIT
290
     1
  9
$CEPSNTYPE
380
     0
  9
$PSTYLEMODE
290
     1
  9
$FINGERPRINTGUID
  2
{A992B907-F7C1-42F4-BED0-C89CF162375F}
  9
$VERSIONGUID
  2
{FAEB1C32-E019-11D5-929B-00C0DF256EC4}
  9
$EXTNAMES
290
     1
  9
$PSVPSCALE
 40
0.0
  9
$OLESTARTUP
290
     0
  0
ENDSEC
  0
SECTION
  2
CLASSES
  0
CLASS
  1
ACDBDICTIONARYWDFLT
  2
AcDbDictionaryWithDefault
  3
ObjectDBX Classes
 90
        0
280
     0
281
     0
  0
CLASS
  1
VISUALSTYLE
  2
AcDbVisualStyle
  3
ObjectDBX Classes
 90
     4095
280
     0
281
     0
  0
CLASS
  1
MATERIAL
  2
AcDbMaterial
  3
ObjectDBX Classes
 90
     1153
280
     0
281
     0
  0
CLASS
  1
DICTIONARYVAR
  2
AcDbDictionaryVar
  3
ObjectDBX Classes
 90
        0
280
     0
281
     0
  0
CLASS
  1
ACDBPLACEHOLDER
  2
AcDbPlaceHolder
  3
ObjectDBX Classes
 90
        0
280
     0
281
     0
  0
CLASS
  1
LAYOUT
  2
AcDbLayout
  3
ObjectDBX Classes
 90
        0
280
     0
281
     0
  0
ENDSEC
  0
SECTION
  2
TABLES
  0
TABLE
  2
VPORT
  5
8
330
0
100
AcDbSymbolTable
 70
     1
  0
VPORT
  5
29
330
8
100
AcDbSymbolTableRecord
100
AcDbViewportTableRecord
  2
*Active
 70
     0
 10
0.0
 20
0.0
 11
1.0
 21
1.0
 12
105.0
 22
148.5
 13
0.0
 23
0.0
 14
0.5
 24
0.5
 15
0.5
 25
0.5
 16
0.0
 26
0.0
 36
1.0
 17
0.0
 27
0.0
 37
0.0
 40
326.7
 41
1.60267857142857
 42
50.0
 43
0.0
 44
0.0
 50
0.0
 51
0.0
 71
     0
 72
   100
 73
     1
 74
     3
 75
     0
 76
     0
 77
     0
 78
     0
281
     0
 65
     1
110
0.0
120
0.0
130
0.0
111
1.0
121
0.0
131
0.0
112
0.0
122
1.0
132
0.0
 79
     0
146
0.0
  0
ENDTAB
  0
TABLE
  2
LTYPE
  5
5
330
0
100
AcDbSymbolTable
 70
     9
  0
LTYPE
  5
14
330
5
100
AcDbSymbolTableRecord
100
AcDbLinetypeTableRecord
  2
ByBlock
 70
     0
  3

 72
    65
 73
     0
 40
0.0
  0
LTYPE
  5
15
330
5
100
AcDbSymbolTableRecord
100
AcDbLinetypeTableRecord
  2
ByLayer
 70
     0
  3

 72
    65
 73
     0
 40
0.0
  0
LTYPE
  5
16
330
5
100
AcDbSymbolTableRecord
100
AcDbLinetypeTableRecord
  2
Continuous
 70
     0
  3
Solid line
 72
    65
 73
     0
 40
0.0
  0
LTYPE
  5
3F
330
5
100
AcDbSymbolTableRecord
100
AcDbLinetypeTableRecord
  2
DASHED
 70
     0
  3
Dashed
 72
    65
 73
     2
 40
15.0
 49
7.0
 74
     0
 49
-8.0
 74
     0
  0
LTYPE
  5
40
330
5
100
AcDbSymbolTableRecord
100
AcDbLinetypeTableRecord
  2
DOTTED
 70
     0
  3
Dotted
 72
    65
 73
     2
 40
1.0
 49
0.0
 74
     0
 49
-1.0
 74
     0
  0
LTYPE
  5
41
330
5
100
AcDbSymbolTableRecord
100
AcDbLinetypeTableRecord
  2
DOT_CENTER
 70
     0
  3
Dot_Center
 72
    65
 73
     4
 40
14.0
 49
12.0
 74
     0
 49
-1.0
 74
     0
 49
0.0
 74
     0
 49
-1.0
 74
     0
  0
LTYPE
  5
42
330
5
100
AcDbSymbolTableRecord
100
AcDbLinetypeTableRecord
  2
LONG_DASHED
 70
     0
  3
Long_Dashed
 72
    65
 73
     2
 40
15.0
 49
10.0
 74
     0
 49
-5.0
 74
     0
  0
LTYPE
  5
43
330
5
100
AcDbSymbolTableRecord
100
AcDbLinetypeTableRecord
  2
DASH_CENTER
 70
     0
  3
Dash_Center
 72
    65
 73
     4
 40
14.0
 49
11.0
 74
     0
 49
-1.0
 74
     0
 49
1.0
 74
     0
 49
-1.0
 74
     0
  0
LTYPE
  5
44
330
5
100
AcDbSymbolTableRecord
100
AcDbLinetypeTableRecord
  2
PHANTOM
 70
     0
  3
Phantom
 72
    65
 73
     6
 40
13.0
 49
10.0
 74
     0
 49
-1.0
 74
     0
 49
0.0
 74
     0
 49
-1.0
 74
     0
 49
0.0
 74
     0
 49
-1.0
 74
     0
  0
LTYPE
  5
45
330
5
100
AcDbSymbolTableRecord
100
AcDbLinetypeTableRecord
  2
CENTER_DASH_DASH
 70
     0
  3
Center_Dash_Dash
 72
    65
 73
     6
 40
14.0
 49
9.0
 74
     0
 49
-1.0
 74
     0
 49
1.0
 74
     0
 49
-1.0
 74
     0
 49
1.0
 74
     0
 49
-1.0
 74
     0
  0
LTYPE
  5
46
330
5
100
AcDbSymbolTableRecord
100
AcDbLinetypeTableRecord
  2
SXF_____________
 70
     0
  3
SXF_____________
 72
    65
 73
     4
 40
20.0
 49
12.0
 74
     0
 49
-2.0
 74
     0
 49
4.0
 74
     0
 49
-2.0
 74
     0
  0
ENDTAB
  0
TABLE
  2
LAYER
  5
2
330
0
100
AcDbSymbolTable
 70
     3
  0
LAYER
  5
10
330
2
100
AcDbSymbolTableRecord
100
AcDbLayerTableRecord
  2
0
 70
     0
 62
     7
  6
Continuous
370
    -3
390
F
  0
LAYER
  5
47
330
2
100
AcDbSymbolTableRecord
100
AcDbLayerTableRecord
  2
1
 70
     0
 62
     7
  6
Continuous
370
    -3
390
F
  0
LAYER
  5
48
330
2
100
AcDbSymbolTableRecord
100
AcDbLayerTableRecord
  2
レイヤ0
 70
     0
 62
     7
  6
Continuous
370
    -3
390
F
  0
ENDTAB
  0
TABLE
  2
STYLE
  5
3
330
0
100
AcDbSymbolTable
 70
     3
  0
STYLE
  5
11
330
3
100
AcDbSymbolTableRecord
100
AcDbTextStyleTableRecord
  2
Standard
 70
     0
 40
0.0
 41
1.0
 50
0.0
 71
     0
 42
0.2
  3
txt
  4

  0
STYLE
  5
98
330
3
100
AcDbSymbolTableRecord
100
AcDbTextStyleTableRecord
  2
CONVERTER_11
 70
     0
 40
0.0
 41
0.89
 50
0.0
 71
     0
 42
0.2
  3
MS Mincho.ttf
  4

1001
ACAD
1000
MS Mincho
1071
    32785
  0
STYLE
  5
261
330
3
100
AcDbSymbolTableRecord
100
AcDbTextStyleTableRecord
  2
CONVERTER_12
 70
     0
 40
0.0
 41
0.9
 50
0.0
 71
     0
 42
0.2
  3
txt.shx
  4

  0
ENDTAB
  0
TABLE
  2
VIEW
  5
6
330
0
100
AcDbSymbolTable
 70
     0
  0
ENDTAB
  0
TABLE
  2
UCS
  5
7
330
0
100
AcDbSymbolTable
 70
     0
  0
ENDTAB
  0
TABLE
  2
APPID
  5
9
330
0
100
AcDbSymbolTable
 70
     1
  0
APPID
  5
12
330
9
100
AcDbSymbolTableRecord
100
AcDbRegAppTableRecord
  2
ACAD
 70
     0
  0
ENDTAB
  0
TABLE
  2
DIMSTYLE
  5
A
330
0
100
AcDbSymbolTable
 70
     9
100
AcDbDimStyleTable
  0
DIMSTYLE
105
27
330
A
100
AcDbSymbolTableRecord
100
AcDbDimStyleTableRecord
  2
Standard
 70
     0
178
     0
340
11
  0
DIMSTYLE
105
271
102
{ACAD_REACTORS
330
272
102
}
330
A
100
AcDbSymbolTableRecord
100
AcDbDimStyleTableRecord
  2
ME10_DIM_10
 70
     0
  3
{\Fgdt;n}<>
 41
3.5
 42
0.0
 44
1.0
 73
     0
 74
     0
 77
     1
 78
     8
140
3.5
147
1.0
172
     1
173
     1
174
     1
175
     1
176
     2
177
     2
271
     2
178
     7
271
     2
340
261
  0
DIMSTYLE
105
27C
102
{ACAD_REACTORS
330
27D
102
}
330
A
100
AcDbSymbolTableRecord
100
AcDbDimStyleTableRecord
  2
ME10_DIM_11
 70
     0
 41
3.5
 42
0.0
 44
1.0
 73
     0
 74
     0
 77
     1
 78
     8
140
3.5
147
1.0
172
     1
173
     1
174
     1
175
     1
176
     2
177
     2
271
     2
178
     7
271
     2
340
98
  0
DIMSTYLE
105
287
102
{ACAD_REACTORS
330
288
102
}
330
A
100
AcDbSymbolTableRecord
100
AcDbDimStyleTableRecord
  2
ME10_DIM_12
 70
     0
 41
3.5
 42
0.0
 44
1.0
 73
     0
 74
     0
 77
     1
 78
     8
140
3.5
147
1.0
172
     1
173
     1
174
     1
175
     1
176
     2
177
     2
271
     2
178
     7
271
     2
340
261
  0
DIMSTYLE
105
292
102
{ACAD_REACTORS
330
293
102
}
330
A
100
AcDbSymbolTableRecord
100
AcDbDimStyleTableRecord
  2
ME10_DIM_13
 70
     0
 41
3.5
 42
0.0
 44
1.0
 73
     0
 74
     0
 77
     1
 78
     8
140
3.5
147
1.0
172
     1
173
     1
174
     1
175
     1
176
     2
177
     2
271
     2
178
     7
271
     2
340
261
  0
DIMSTYLE
105
29D
102
{ACAD_REACTORS
330
29E
102
}
330
A
100
AcDbSymbolTableRecord
100
AcDbDimStyleTableRecord
  2
ME10_DIM_14
 70
     0
 41
3.5
 42
0.0
 44
1.0
 73
     0
 74
     0
 77
     1
 78
     8
140
3.5
147
1.0
172
     1
173
     1
174
     1
175
     1
176
     2
177
     2
271
     2
178
     7
271
     2
340
261
  0
DIMSTYLE
105
2A8
102
{ACAD_REACTORS
330
2A9
102
}
330
A
100
AcDbSymbolTableRecord
100
AcDbDimStyleTableRecord
  2
ME10_DIM_15
 70
     0
  3
{\Fgdt;n}<>
 41
3.5
 42
0.0
 44
1.0
 73
     0
 74
     0
 77
     1
 78
     8
140
3.5
147
1.0
172
     1
173
     1
174
     1
175
     1
176
     2
177
     2
271
     2
178
     7
271
     2
340
261
  0
DIMSTYLE
105
2B3
102
{ACAD_REACTORS
330
2B4
102
}
330
A
100
AcDbSymbolTableRecord
100
AcDbDimStyleTableRecord
  2
ME10_DIM_16
 70
     0
  3
{\Fgdt;n}<>
 41
3.5
 42
0.0
 44
1.0
 73
     0
 74
     0
 77
     1
 78
     8
140
3.5
147
1.0
172
     1
173
     1
174
     1
175
     1
176
     2
177
     2
271
     2
178
     7
271
     2
340
261
  0
DIMSTYLE
105
2BE
102
{ACAD_REACTORS
330
2BF
102
}
330
A
100
AcDbSymbolTableRecord
100
AcDbDimStyleTableRecord
  2
ME10_DIM_17
 70
     0
 41
3.5
 42
0.0
 44
1.0
 73
     0
 74
     0
 77
     1
 78
     8
140
3.5
147
1.0
172
     1
173
     1
174
     1
175
     1
176
     2
177
     2
271
     2
178
     7
271
     2
340
261
  0
ENDTAB
  0
TABLE
  2
BLOCK_RECORD
  5
1
330
0
100
AcDbSymbolTable
 70
    10
  0
BLOCK_RECORD
  5
1F
330
1
100
AcDbSymbolTableRecord
100
AcDbBlockTableRecord
  2
*Model_Space
340
22
  0
BLOCK_RECORD
  5
1B
330
1
100
AcDbSymbolTableRecord
100
AcDbBlockTableRecord
  2
*Paper_Space
340
1E
  0
BLOCK_RECORD
  5
23
330
1
100
AcDbSymbolTableRecord
100
AcDbBlockTableRecord
  2
*Paper_Space0
340
26
  0
BLOCK_RECORD
  5
49
330
1
100
AcDbSymbolTableRecord
100
AcDbBlockTableRecord
  2
開示A4
340
0
102
{BLKREFS
331
4C
102
}
  0
BLOCK_RECORD
  5
268
330
1
100
AcDbSymbolTableRecord
100
AcDbBlockTableRecord
  2
*D2
340
0
  0
BLOCK_RECORD
  5
273
330
1
100
AcDbSymbolTableRecord
100
AcDbBlockTableRecord
  2
*D3
340
0
  0
BLOCK_RECORD
  5
27E
330
1
100
AcDbSymbolTableRecord
100
AcDbBlockTableRecord
  2
*D4
340
0
  0
BLOCK_RECORD
  5
289
330
1
100
AcDbSymbolTableRecord
100
AcDbBlockTableRecord
  2
*D5
340
0
  0
BLOCK_RECORD
  5
294
330
1
100
AcDbSymbolTableRecord
100
AcDbBlockTableRecord
  2
*D6
340
0
  0
BLOCK_RECORD
  5
29F
330
1
100
AcDbSymbolTableRecord
100
AcDbBlockTableRecord
  2
*D7
340
0
  0
BLOCK_RECORD
  5
2AA
330
1
100
AcDbSymbolTableRecord
100
AcDbBlockTableRecord
  2
*D8
340
0
  0
BLOCK_RECORD
  5
2B5
330
1
100
AcDbSymbolTableRecord
100
AcDbBlockTableRecord
  2
*D9
340
0
  0
ENDTAB
  0
ENDSEC
  0
SECTION
  2
BLOCKS
  0
BLOCK
  5
20
330
1F
100
AcDbEntity
  8
0
100
AcDbBlockBegin
  2
*Model_Space
 70
     0
 10
0.0
 20
0.0
 30
0.0
  3
*Model_Space
  1

  0
ENDBLK
  5
21
330
1F
100
AcDbEntity
  8
0
100
AcDbBlockEnd
  0
BLOCK
  5
1C
330
1B
100
AcDbEntity
 67
     1
  8
0
100
AcDbBlockBegin
  2
*Paper_Space
 70
     0
 10
0.0
 20
0.0
 30
0.0
  3
*Paper_Space
  1

  0
ENDBLK
  5
1D
330
1B
100
AcDbEntity
 67
     1
  8
0
100
AcDbBlockEnd
  0
BLOCK
  5
24
330
23
100
AcDbEntity
  8
0
100
AcDbBlockBegin
  2
*Paper_Space0
 70
     0
 10
0.0
 20
0.0
 30
0.0
  3
*Paper_Space0
  1

  0
ENDBLK
  5
25
330
23
100
AcDbEntity
  8
0
100
AcDbBlockEnd
  0
BLOCK
  5
4A
330
49
100
AcDbEntity
  8
0
100
AcDbBlockBegin
  2
開示A4
 70
     0
 10
0.0
 20
0.0
 30
0.0
  3
開示A4
  1

  0
POINT
  5
4D
330
49
100
AcDbEntity
  8
1
 62
     4
100
AcDbPoint
 10
34.0
 20
34.0
 30
0.0
  0
POINT
  5
4E
330
49
100
AcDbEntity
  8
1
 62
     4
100
AcDbPoint
 10
57.0
 20
12.25
 30
0.0
  0
POINT
  5
4F
330
49
100
AcDbEntity
  8
1
 62
     4
100
AcDbPoint
 10
57.0
 20
20.75
 30
0.0
  0
POINT
  5
50
330
49
100
AcDbEntity
  8
1
 62
     4
100
AcDbPoint
 10
57.0
 20
24.75
 30
0.0
  0
POINT
  5
51
330
49
100
AcDbEntity
  8
1
 62
     4
100
AcDbPoint
 10
57.0
 20
16.25
 30
0.0
  0
POINT
  5
52
330
49
100
AcDbEntity
  8
1
 62
     4
100
AcDbPoint
 10
157.5
 20
19.0
 30
0.0
  0
POINT
  5
53
330
49
100
AcDbEntity
  8
1
 62
     4
100
AcDbPoint
 10
47.5
 20
282.0000000000002
 30
0.0
  0
POINT
  5
54
330
49
100
AcDbEntity
  8
1
 62
     4
100
AcDbPoint
 10
57.0
 20
22.75
 30
0.0
  0
POINT
  5
55
330
49
100
AcDbEntity
  8
1
 62
     4
100
AcDbPoint
 10
57.0
 20
14.25
 30
0.0
  0
POINT
  5
56
330
49
100
AcDbEntity
  8
1
 62
     4
100
AcDbPoint
 10
157.5
 20
12.5
 30
0.0
  0
POINT
  5
57
330
49
100
AcDbEntity
  8
1
 62
     4
100
AcDbPoint
 10
163.25
 20
12.5
 30
0.0
  0
POINT
  5
58
330
49
100
AcDbEntity
  8
1
 62
     4
100
AcDbPoint
 10
151.75
 20
12.5
 30
0.0
  0
POINT
  5
59
330
49
100
AcDbEntity
  8
1
 62
     4
100
AcDbPoint
 10
134.75
 20
12.5
 30
0.0
  0
POINT
  5
5A
330
49
100
AcDbEntity
  8
1
 62
     4
100
AcDbPoint
 10
146.25
 20
12.5
 30
0.0
  0
POINT
  5
5B
330
49
100
AcDbEntity
  8
1
 62
     4
100
AcDbPoint
 10
140.5
 20
12.5
 30
0.0
  0
POINT
  5
5C
330
49
100
AcDbEntity
  8
1
 62
     4
100
AcDbPoint
 10
140.5
 20
19.0
 30
0.0
  0
POINT
  5
5D
330
49
100
AcDbEntity
  8
1
 62
     4
100
AcDbPoint
 10
117.75
 20
12.5
 30
0.0
  0
POINT
  5
5E
330
49
100
AcDbEntity
  8
1
 62
     4
100
AcDbPoint
 10
129.25
 20
12.5
 30
0.0
  0
POINT
  5
5F
330
49
100
AcDbEntity
  8
1
 62
     4
100
AcDbPoint
 10
123.5
 20
12.5
 30
0.0
  0
POINT
  5
60
330
49
100
AcDbEntity
  8
1
 62
     4
100
AcDbPoint
 10
123.5
 20
19.0
 30
0.0
  0
POINT
  5
61
330
49
100
AcDbEntity
  8
1
 62
     4
100
AcDbPoint
 10
100.75
 20
12.5
 30
0.0
  0
POINT
  5
62
330
49
100
AcDbEntity
  8
1
 62
     4
100
AcDbPoint
 10
112.25
 20
12.5
 30
0.0
  0
POINT
  5
63
330
49
100
AcDbEntity
  8
1
 62
     4
100
AcDbPoint
 10
106.5
 20
12.5
 30
0.0
  0
POINT
  5
64
330
49
100
AcDbEntity
  8
1
 62
     4
100
AcDbPoint
 10
106.5
 20
19.0
 30
0.0
  0
POINT
  5
65
330
49
100
AcDbEntity
  8
1
 62
     4
100
AcDbPoint
 10
85.25
 20
17.0
 30
0.0
  0
POINT
  5
66
330
49
100
AcDbEntity
  8
1
 62
     4
100
AcDbPoint
 10
93.75
 20
17.0
 30
0.0
  0
LINE
  5
67
330
49
100
AcDbEntity
  8
1
  6
Continuous
 62
     2
100
AcDbLine
 10
81.0
 20
27.0
 30
0.0
 11
81.0
 21
10.0
 31
0.0
  0
LINE
  5
68
330
49
100
AcDbEntity
  8
1
  6
DOT_CENTER
 62
     2
100
AcDbLine
 10
187.0
 20
26.5
 30
0.0
 11
187.0
 21
20.5
 31
0.0
  0
LINE
  5
69
330
49
100
AcDbEntity
  8
1
  6
DOT_CENTER
 62
     2
100
AcDbLine
 10
184.0
 20
23.5
 30
0.0
 11
197.0
 21
23.5
 31
0.0
  0
LINE
  5
6A
330
49
100
AcDbEntity
  8
1
  6
Continuous
 62
     7
100
AcDbLine
 10
196.0
 20
21.5
 30
0.0
 11
191.0
 21
22.30000000000001
 31
0.0
  0
LINE
  5
6B
330
49
100
AcDbEntity
  8
1
  6
Continuous
 62
     7
100
AcDbLine
 10
196.0
 20
25.5
 30
0.0
 11
196.0
 21
21.5
 31
0.0
  0
LINE
  5
6C
330
49
100
AcDbEntity
  8
1
  6
Continuous
 62
     7
100
AcDbLine
 10
191.0
 20
24.69999999999999
 30
0.0
 11
196.0
 21
25.5
 31
0.0
  0
LINE
  5
6D
330
49
100
AcDbEntity
  8
1
  6
Continuous
 62
     7
100
AcDbLine
 10
191.0
 20
24.69999999999999
 30
0.0
 11
191.0
 21
22.30000000000001
 31
0.0
  0
LINE
  5
6E
330
49
100
AcDbEntity
  8
1
  6
Continuous
 62
     2
100
AcDbLine
 10
33.0
 20
27.0
 30
0.0
 11
33.0
 21
10.0
 31
0.0
  0
LINE
  5
6F
330
49
100
AcDbEntity
  8
1
  6
Continuous
 62
     2
100
AcDbLine
 10
25.0
 20
18.5
 30
0.0
 11
81.0
 21
18.5
 31
0.0
  0
LINE
  5
70
330
49
100
AcDbEntity
  8
1
  6
Continuous
 62
     7
100
AcDbLine
 10
200.0
 20
287.0000000000002
 30
0.0
 11
105.0
 21
287.0000000000002
 31
0.0
  0
LINE
  5
71
330
49
100
AcDbEntity
  8
1
  6
Continuous
 62
     7
100
AcDbLine
 10
200.0
 20
10.0
 30
0.0
 11
200.0
 21
148.5
 31
0.0
  0
LINE
  5
72
330
49
100
AcDbEntity
  8
1
  6
Continuous
 62
     7
100
AcDbLine
 10
25.0
 20
10.0
 30
0.0
 11
105.0
 21
10.0
 31
0.0
  0
LINE
  5
73
330
49
100
AcDbEntity
  8
1
  6
PHANTOM
 62
     4
100
AcDbLine
 10
0.0
 20
297.0
 30
0.0
 11
0.0
 21
0.0
 31
0.0
  0
LINE
  5
74
330
49
100
AcDbEntity
  8
1
  6
PHANTOM
 62
     4
100
AcDbLine
 10
210.0
 20
297.0
 30
0.0
 11
0.0
 21
297.0
 31
0.0
  0
LINE
  5
75
330
49
100
AcDbEntity
  8
1
  6
PHANTOM
 62
     4
100
AcDbLine
 10
210.0
 20
0.0
 30
0.0
 11
210.0
 21
297.0
 31
0.0
  0
LINE
  5
76
330
49
100
AcDbEntity
  8
1
  6
PHANTOM
 62
     4
100
AcDbLine
 10
0.0
 20
0.0
 30
0.0
 11
210.0
 21
0.0
 31
0.0
  0
LINE
  5
77
330
49
100
AcDbEntity
  8
1
  6
Continuous
 62
     7
100
AcDbLine
 10
25.0
 20
41.0
 30
0.0
 11
200.0
 21
41.0
 31
0.0
  0
LINE
  5
78
330
49
100
AcDbEntity
  8
1
  6
Continuous
 62
     7
100
AcDbLine
 10
200.0
 20
27.0
 30
0.0
 11
25.0
 21
27.0
 31
0.0
  0
LINE
  5
79
330
49
100
AcDbEntity
  8
1
  6
Continuous
 62
     2
100
AcDbLine
 10
33.0
 20
41.0
 30
0.0
 11
33.0
 21
27.0
 31
0.0
  0
LINE
  5
7A
330
49
100
AcDbEntity
  8
1
  6
Continuous
 62
     2
100
AcDbLine
 10
55.0
 20
287.0000000000002
 30
0.0
 11
55.0
 21
277.0000000000002
 31
0.0
  0
LINE
  5
7B
330
49
100
AcDbEntity
  8
1
  6
Continuous
 62
     2
100
AcDbLine
 10
40.0
 20
287.0000000000002
 30
0.0
 11
40.0
 21
277.0000000000002
 31
0.0
  0
LINE
  5
7C
330
49
100
AcDbEntity
  8
1
  6
Continuous
 62
     7
100
AcDbLine
 10
25.0
 20
10.0
 30
0.0
 11
25.0
 21
148.5
 31
0.0
  0
LINE
  5
7D
330
49
100
AcDbEntity
  8
1
  6
Continuous
 62
     2
100
AcDbLine
 10
55.0
 20
277.0000000000002
 30
0.0
 11
25.0
 21
277.0000000000002
 31
0.0
  0
LINE
  5
7E
330
49
100
AcDbEntity
  8
1
  6
Continuous
 62
     2
100
AcDbLine
 10
166.0
 20
27.0
 30
0.0
 11
166.0
 21
10.0
 31
0.0
  0
LINE
  5
7F
330
49
100
AcDbEntity
  8
1
  6
Continuous
 62
     2
100
AcDbLine
 10
132.0
 20
27.0
 30
0.0
 11
132.0
 21
10.0
 31
0.0
  0
LINE
  5
80
330
49
100
AcDbEntity
  8
1
  6
Continuous
 62
     2
100
AcDbLine
 10
149.0
 20
27.0
 30
0.0
 11
149.0
 21
10.0
 31
0.0
  0
LINE
  5
81
330
49
100
AcDbEntity
  8
1
  6
Continuous
 62
     2
100
AcDbLine
 10
115.0
 20
27.0
 30
0.0
 11
115.0
 21
10.0
 31
0.0
  0
LINE
  5
82
330
49
100
AcDbEntity
  8
1
  6
Continuous
 62
     2
100
AcDbLine
 10
98.0
 20
27.0
 30
0.0
 11
98.0
 21
10.0
 31
0.0
  0
LINE
  5
83
330
49
100
AcDbEntity
  8
1
  6
Continuous
 62
     2
100
AcDbLine
 10
166.0
 20
20.0
 30
0.0
 11
200.0
 21
20.0
 31
0.0
  0
LINE
  5
84
330
49
100
AcDbEntity
  8
1
  6
Continuous
 62
     2
100
AcDbLine
 10
105.0
 20
287.0000000000002
 30
0.0
 11
105.0
 21
292.0000000000002
 31
0.0
  0
LINE
  5
85
330
49
100
AcDbEntity
  8
1
  6
Continuous
 62
     7
100
AcDbLine
 10
105.0
 20
287.0000000000002
 30
0.0
 11
25.0
 21
287.0000000000002
 31
0.0
  0
LINE
  5
86
330
49
100
AcDbEntity
  8
1
  6
Continuous
 62
     2
100
AcDbLine
 10
25.0
 20
148.5
 30
0.0
 11
20.0
 21
148.5
 31
0.0
  0
LINE
  5
87
330
49
100
AcDbEntity
  8
1
  6
Continuous
 62
     7
100
AcDbLine
 10
25.0
 20
148.5
 30
0.0
 11
25.0
 21
287.0000000000002
 31
0.0
  0
LINE
  5
88
330
49
100
AcDbEntity
  8
1
  6
Continuous
 62
     2
100
AcDbLine
 10
200.0
 20
148.5
 30
0.0
 11
205.0
 21
148.5
 31
0.0
  0
LINE
  5
89
330
49
100
AcDbEntity
  8
1
  6
Continuous
 62
     7
100
AcDbLine
 10
200.0
 20
148.5
 30
0.0
 11
200.0
 21
287.0000000000002
 31
0.0
  0
LINE
  5
8A
330
49
100
AcDbEntity
  8
1
  6
Continuous
 62
     2
100
AcDbLine
 10
105.0
 20
10.0
 30
0.0
 11
105.0
 21
5.0
 31
0.0
  0
LINE
  5
8B
330
49
100
AcDbEntity
  8
1
  6
Continuous
 62
     7
100
AcDbLine
 10
105.0
 20
10.0
 30
0.0
 11
200.0
 21
10.0
 31
0.0
  0
CIRCLE
  5
8C
330
49
100
AcDbEntity
  8
1
  6
DOT_CENTER
 62
     7
100
AcDbCircle
 10
89.5
 20
18.0
 30
0.0
 40
0.1000000000000227
  0
CIRCLE
  5
8D
330
49
100
AcDbEntity
  8
1
  6
DOT_CENTER
 62
     7
100
AcDbCircle
 10
89.5
 20
16.0
 30
0.0
 40
0.1000000000000227
  0
CIRCLE
  5
8E
330
49
100
AcDbEntity
  8
1
  6
Continuous
 62
     7
100
AcDbCircle
 10
187.0
 20
23.5
 30
0.0
 40
2.0
  0
CIRCLE
  5
8F
330
49
100
AcDbEntity
  8
1
  6
Continuous
 62
     7
100
AcDbCircle
 10
187.0
 20
23.5
 30
0.0
 40
1.200000000000102
  0
CIRCLE
  5
90
330
49
100
AcDbEntity
  8
1
  6
Continuous
 62
     7
100
AcDbCircle
 10
154.5
 20
12.5
 30
0.0
 40
0.3000000000000114
  0
CIRCLE
  5
91
330
49
100
AcDbEntity
  8
1
  6
Continuous
 62
     7
100
AcDbCircle
 10
160.5
 20
12.5
 30
0.0
 40
0.3000000000000114
  0
CIRCLE
  5
92
330
49
100
AcDbEntity
  8
1
  6
Continuous
 62
     7
100
AcDbCircle
 10
143.5
 20
12.5
 30
0.0
 40
0.3000000000000114
  0
CIRCLE
  5
93
330
49
100
AcDbEntity
  8
1
  6
Continuous
 62
     7
100
AcDbCircle
 10
137.5
 20
12.5
 30
0.0
 40
0.3000000000000114
  0
CIRCLE
  5
94
330
49
100
AcDbEntity
  8
1
  6
Continuous
 62
     7
100
AcDbCircle
 10
126.5
 20
12.5
 30
0.0
 40
0.2999999999999972
  0
CIRCLE
  5
95
330
49
100
AcDbEntity
  8
1
  6
Continuous
 62
     7
100
AcDbCircle
 10
120.5
 20
12.5
 30
0.0
 40
0.2999999999999972
  0
CIRCLE
  5
96
330
49
100
AcDbEntity
  8
1
  6
Continuous
 62
     7
100
AcDbCircle
 10
109.5
 20
12.5
 30
0.0
 40
0.2999999999999972
  0
CIRCLE
  5
97
330
49
100
AcDbEntity
  8
1
  6
Continuous
 62
     7
100
AcDbCircle
 10
103.5
 20
12.5
 30
0.0
 40
0.2999999999999972
  0
MTEXT
  5
99
330
49
100
AcDbEntity
  8
1
 62
   250
100
AcDbMText
 10
25.0
 20
5.0
 30
0.0
 40
3.5
 41
0.0
 71
     4
 72
     1
  1
備考欄の文字列 原点位置=4
  7
CONVERTER_11
 73
     1
 44
0.54545454545455
  0
MTEXT
  5
9A
330
49
100
AcDbEntity
  8
1
 62
     2
100
AcDbMText
 10
89.5
 20
24.0
 30
0.0
 40
3.5
 41
0.0
 71
     5
 72
     1
  1
尺度
  7
CONVERTER_11
 73
     1
 44
0.54545454545455
  0
MTEXT
  5
9B
330
49
100
AcDbEntity
  8
1
 62
     2
100
AcDbMText
 10
135.5
 20
25.0
 30
0.0
 40
3.0
 41
0.0
 71
     5
 72
     1
  1
製図
  7
CONVERTER_11
 73
     1
 44
0.59090909090909
  0
MTEXT
  5
9C
330
49
100
AcDbEntity
  8
1
 62
     2
100
AcDbMText
 10
152.5
 20
25.0
 30
0.0
 40
3.0
 41
0.0
 71
     5
 72
     1
  1
担当
  7
CONVERTER_11
 73
     1
 44
0.59090909090909
  0
MTEXT
  5
9D
330
49
100
AcDbEntity
  8
1
 62
     2
100
AcDbMText
 10
118.5
 20
25.0
 30
0.0
 40
3.0
 41
0.0
 71
     5
 72
     1
  1
検図
  7
CONVERTER_11
 73
     1
 44
0.59090909090909
  0
MTEXT
  5
9E
330
49
100
AcDbEntity
  8
1
 62
     2
100
AcDbMText
 10
175.0
 20
23.5
 30
0.0
 40
3.5
 41
0.0
 71
     5
 72
     1
  1
第三角法
  7
CONVERTER_11
 73
     1
 44
0.54545454545455
  0
MTEXT
  5
9F
330
49
100
AcDbEntity
  8
1
 62
     2
100
AcDbMText
 10
101.5
 20
25.0
 30
0.0
 40
3.0
 41
0.0
 71
     5
 72
     1
  1
承認
  7
CONVERTER_11
 73
     1
 44
0.59090909090909
  0
MTEXT
  5
A0
330
49
100
AcDbEntity
  8
1
 62
     2
100
AcDbMText
 10
29.0
 20
14.25
 30
0.0
 40
3.5
 41
0.0
 71
     5
 72
     1
  1
品番
  7
CONVERTER_11
 73
     1
 44
0.72727272727273
  0
MTEXT
  5
A1
330
49
100
AcDbEntity
  8
1
 62
     2
100
AcDbMText
 10
29.0
 20
22.75
 30
0.0
 40
3.5
 41
0.0
 71
     5
 72
     1
  1
品名
  7
CONVERTER_11
 73
     1
 44
0.72727272727273
  0
MTEXT
  5
A2
330
49
100
AcDbEntity
  8
1
 62
     2
100
AcDbMText
 10
29.0
 20
34.0
 30
0.0
 40
3.5
 41
0.0
 71
     5
 72
     1
  1
備考
  7
CONVERTER_11
 73
     1
 44
0.45454545454545
  0
MTEXT
  5
A3
330
49
100
AcDbEntity
  8
1
 62
     2
100
AcDbMText
 10
32.5
 20
282.0000000000002
 30
0.0
 40
5.0
 41
0.0
 71
     5
 72
     1
  1
図番
  7
CONVERTER_11
 73
     1
 44
0.45454545454545
  0
MTEXT
  5
A4
330
49
100
AcDbEntity
  8
1
 62
     7
100
AcDbMText
 10
171.5
 20
15.0
 30
0.0
 40
2.5
 41
0.0
 71
     5
 72
     1
  1
株式会社
  7
CONVERTER_11
 73
     1
 44
1.0
  0
MTEXT
  5
A5
330
49
100
AcDbEntity
  8
1
 62
     7
100
AcDbMText
 10
188.5
 20
15.0
 30
0.0
 40
3.0
 41
0.0
 71
     5
 72
     1
  1
三栄水栓製作所
  7
CONVERTER_11
 73
     1
 44
1.0
  0
ENDBLK
  5
4B
330
49
100
AcDbEntity
  8
0
100
AcDbBlockEnd
  0
BLOCK
  5
26F
330
268
100
AcDbEntity
  8
0
100
AcDbBlockBegin
  2
*D2
 70
     1
 10
0.0
 20
0.0
 30
0.0
  3
*D2
  1

  0
LINE
  5
269
330
268
100
AcDbEntity
  8
1
  6
Continuous
 62
     2
100
AcDbLine
 10
71.257008510599
 20
183.612074782366
 30
0.0
 11
71.257008510599
 21
154.612074782366
 31
0.0
  0
LINE
  5
26A
330
268
100
AcDbEntity
  8
1
  6
Continuous
 62
     2
100
AcDbLine
 10
63.25700851059931
 20
154.612074782366
 30
0.0
 11
72.257008510599
 21
154.612074782366
 31
0.0
  0
LINE
  5
26B
330
268
100
AcDbEntity
  8
1
  6
Continuous
 62
     2
100
AcDbLine
 10
63.25700851059921
 20
183.612074782366
 30
0.0
 11
72.257008510599
 21
183.612074782366
 31
0.0
  0
SOLID
  5
26C
330
268
100
AcDbEntity
  8
1
 62
     2
100
AcDbTrace
 10
71.71779225215488
 20
180.112074782366
 30
0.0
 11
70.7962247690431
 21
180.112074782366
 31
0.0
 12
71.257008510599
 22
183.612074782366
 32
0.0
 13
71.257008510599
 23
183.612074782366
 33
0.0
  0
SOLID
  5
26D
330
268
100
AcDbEntity
  8
1
 62
     2
100
AcDbTrace
 10
70.7962247690431
 20
158.112074782366
 30
0.0
 11
71.71779225215488
 21
158.112074782366
 31
0.0
 12
71.257008510599
 22
154.612074782366
 32
0.0
 13
71.257008510599
 23
154.612074782366
 33
0.0
  0
MTEXT
  5
26E
330
268
100
AcDbEntity
  8
1
 62
     7
100
AcDbMText
 10
70.257008510599
 20
172.967074782366
 30
0.0
 40
3.5
 41
0.0
 71
     7
 72
     1
  1
\C7;{\Fgdt;n}\C7;29
  7
CONVERTER_12
 11
0.0
 21
1.0
 31
0.0
 73
     1
 44
0.60024009603842
  0
ENDBLK
  5
270
330
268
100
AcDbEntity
  8
0
100
AcDbBlockEnd
  0
BLOCK
  5
27A
330
273
100
AcDbEntity
  8
0
100
AcDbBlockBegin
  2
*D3
 70
     1
 10
0.0
 20
0.0
 30
0.0
  3
*D3
  1

  0
LINE
  5
274
330
273
100
AcDbEntity
  8
1
  6
Continuous
 62
     2
100
AcDbLine
 10
126.7570138715598
 20
204.1120747823659
 30
0.0
 11
54.25701758339297
 21
204.1120747823659
 31
0.0
  0
LINE
  5
275
330
273
100
AcDbEntity
  8
1
  6
Continuous
 62
     2
100
AcDbLine
 10
126.7570138715598
 20
169.112074782366
 30
0.0
 11
126.7570138715598
 21
205.1120747823659
 31
0.0
  0
LINE
  5
276
330
273
100
AcDbEntity
  8
1
  6
Continuous
 62
     2
100
AcDbLine
 10
54.25701758339299
 20
190.763948897174
 30
0.0
 11
54.25701758339299
 21
205.1120747823659
 31
0.0
  0
SOLID
  5
277
330
273
100
AcDbEntity
  8
1
 62
     2
100
AcDbTrace
 10
123.2570138715598
 20
203.65129104081
 30
0.0
 11
123.2570138715598
 21
204.5728585239218
 31
0.0
 12
126.7570138715598
 22
204.1120747823659
 32
0.0
 13
126.7570138715598
 23
204.1120747823659
 33
0.0
  0
SOLID
  5
278
330
273
100
AcDbEntity
  8
1
 62
     2
100
AcDbTrace
 10
57.75701758339297
 20
204.5728585239218
 30
0.0
 11
57.75701758339297
 21
203.65129104081
 31
0.0
 12
54.25701758339297
 22
204.1120747823659
 32
0.0
 13
54.25701758339297
 23
204.1120747823659
 33
0.0
  0
MTEXT
  5
279
330
273
100
AcDbEntity
  8
1
 62
     7
100
AcDbMText
 10
81.05701572747638
 20
205.1120747823659
 30
0.0
 40
3.5
 41
0.0
 71
     7
 72
     1
  1
72リフト7
  7
CONVERTER_11
 11
0.9999999999970619
 21
2.424068405545306E-6
 31
0.0
 73
     1
 44
0.45454545454545
  0
ENDBLK
  5
27B
330
273
100
AcDbEntity
  8
0
100
AcDbBlockEnd
  0
BLOCK
  5
285
330
27E
100
AcDbEntity
  8
0
100
AcDbBlockBegin
  2
*D4
 70
     1
 10
0.0
 20
0.0
 30
0.0
  3
*D4
  1

  0
LINE
  5
27F
330
27E
100
AcDbEntity
  8
1
  6
Continuous
 62
     2
100
AcDbLine
 10
40.2570146965942
 20
115.112074782365
 30
0.0
 11
54.25701758339299
 21
115.112074782365
 31
0.0
  0
LINE
  5
280
330
27E
100
AcDbEntity
  8
1
  6
Continuous
 62
     2
100
AcDbLine
 10
40.2570146965942
 20
159.786638127966
 30
0.0
 11
40.2570146965942
 21
114.112074782365
 31
0.0
  0
LINE
  5
281
330
27E
100
AcDbEntity
  8
1
  6
Continuous
 62
     2
100
AcDbLine
 10
54.25701758339299
 20
147.460200667557
 30
0.0
 11
54.25701758339299
 21
114.112074782365
 31
0.0
  0
SOLID
  5
282
330
27E
100
AcDbEntity
  8
1
 62
     2
100
AcDbTrace
 10
43.7570146965942
 20
115.5728585239209
 30
0.0
 11
43.7570146965942
 21
114.6512910408091
 31
0.0
 12
40.2570146965942
 22
115.112074782365
 32
0.0
 13
40.2570146965942
 23
115.112074782365
 33
0.0
  0
SOLID
  5
283
330
27E
100
AcDbEntity
  8
1
 62
     2
100
AcDbTrace
 10
50.75701758339299
 20
114.6512910408091
 30
0.0
 11
50.75701758339299
 21
115.5728585239209
 31
0.0
 12
54.25701758339299
 22
115.112074782365
 32
0.0
 13
54.25701758339299
 23
115.112074782365
 33
0.0
  0
MTEXT
  5
284
330
27E
100
AcDbEntity
  8
1
 62
     7
100
AcDbMText
 10
45.1570161399936
 20
116.112074782365
 30
0.0
 40
3.5
 41
0.0
 71
     7
 72
     1
  1
14
  7
CONVERTER_12
 11
0.9999999999970619
 21
2.424068405545306E-6
 31
0.0
 73
     1
 44
0.60024009603842
  0
ENDBLK
  5
286
330
27E
100
AcDbEntity
  8
0
100
AcDbBlockEnd
  0
BLOCK
  5
290
330
289
100
AcDbEntity
  8
0
100
AcDbBlockBegin
  2
*D5
 70
     1
 10
0.0
 20
0.0
 30
0.0
  3
*D5
  1

  0
LINE
  5
28A
330
289
100
AcDbEntity
  8
1
  6
Continuous
 62
     2
100
AcDbLine
 10
54.25701758339299
 20
115.112074782365
 30
0.0
 11
81.257014696594
 21
115.112074782365
 31
0.0
  0
LINE
  5
28B
330
289
100
AcDbEntity
  8
1
  6
Continuous
 62
     2
100
AcDbLine
 10
54.25701758339299
 20
147.460200667557
 30
0.0
 11
54.25701758339299
 21
114.112074782365
 31
0.0
  0
LINE
  5
28C
330
289
100
AcDbEntity
  8
1
  6
Continuous
 62
     2
100
AcDbLine
 10
81.257014696594
 20
122.112074782365
 30
0.0
 11
81.257014696594
 21
114.112074782365
 31
0.0
  0
SOLID
  5
28D
330
289
100
AcDbEntity
  8
1
 62
     2
100
AcDbTrace
 10
57.75701758339299
 20
115.5728585239209
 30
0.0
 11
57.75701758339299
 21
114.6512910408091
 31
0.0
 12
54.25701758339299
 22
115.112074782365
 32
0.0
 13
54.25701758339299
 23
115.112074782365
 33
0.0
  0
SOLID
  5
28E
330
289
100
AcDbEntity
  8
1
 62
     2
100
AcDbTrace
 10
77.757014696594
 20
114.6512910408091
 30
0.0
 11
77.757014696594
 21
115.5728585239209
 31
0.0
 12
81.257014696594
 22
115.112074782365
 32
0.0
 13
81.257014696594
 23
115.112074782365
 33
0.0
  0
MTEXT
  5
28F
330
289
100
AcDbEntity
  8
1
 62
     7
100
AcDbMText
 10
65.1320161399935
 20
116.112074782365
 30
0.0
 40
3.5
 41
0.0
 71
     7
 72
     1
  1
27
  7
CONVERTER_12
 11
0.9999999999970619
 21
2.424068405545306E-6
 31
0.0
 73
     1
 44
0.60024009603842
  0
ENDBLK
  5
291
330
289
100
AcDbEntity
  8
0
100
AcDbBlockEnd
  0
BLOCK
  5
29B
330
294
100
AcDbEntity
  8
0
100
AcDbBlockBegin
  2
*D6
 70
     1
 10
0.0
 20
0.0
 30
0.0
  3
*D6
  1

  0
LINE
  5
295
330
294
100
AcDbEntity
  8
1
  6
Continuous
 62
     2
100
AcDbLine
 10
136.7570138715598
 20
169.1120747823661
 30
0.0
 11
136.7570138715598
 21
125.1120747823651
 31
0.0
  0
LINE
  5
296
330
294
100
AcDbEntity
  8
1
  6
Continuous
 62
     2
100
AcDbLine
 10
129.7570138715598
 20
169.1120747823661
 30
0.0
 11
137.7570138715598
 21
169.1120747823661
 31
0.0
  0
LINE
  5
297
330
294
100
AcDbEntity
  8
1
  6
Continuous
 62
     2
100
AcDbLine
 10
86.20701469659397
 20
125.1120747823651
 30
0.0
 11
137.7570138715598
 21
125.1120747823651
 31
0.0
  0
SOLID
  5
298
330
294
100
AcDbEntity
  8
1
 62
     2
100
AcDbTrace
 10
137.2177976131157
 20
165.6120747823661
 30
0.0
 11
136.2962301300039
 21
165.6120747823661
 31
0.0
 12
136.7570138715598
 22
169.1120747823661
 32
0.0
 13
136.7570138715598
 23
169.1120747823661
 33
0.0
  0
SOLID
  5
299
330
294
100
AcDbEntity
  8
1
 62
     2
100
AcDbTrace
 10
136.2962301300039
 20
128.6120747823651
 30
0.0
 11
137.2177976131157
 21
128.6120747823651
 31
0.0
 12
136.7570138715598
 22
125.1120747823651
 32
0.0
 13
136.7570138715598
 23
125.1120747823651
 33
0.0
  0
MTEXT
  5
29A
330
294
100
AcDbEntity
  8
1
 62
     7
100
AcDbMText
 10
135.7570138715598
 20
133.4870747823653
 30
0.0
 40
3.5
 41
0.0
 71
     7
 72
     1
  1
44
  7
CONVERTER_12
 11
0.0
 21
1.0
 31
0.0
 73
     1
 44
0.60024009603842
  0
ENDBLK
  5
29C
330
294
100
AcDbEntity
  8
0
100
AcDbBlockEnd
  0
BLOCK
  5
2A6
330
29F
100
AcDbEntity
  8
0
100
AcDbBlockBegin
  2
*D7
 70
     1
 10
0.0
 20
0.0
 30
0.0
  3
*D7
  1

  0
LINE
  5
2A0
330
29F
100
AcDbEntity
  8
1
  6
Continuous
 62
     2
100
AcDbLine
 10
73.307014696594
 20
107.112074782365
 30
0.0
 11
89.207014696594
 21
107.112074782365
 31
0.0
  0
LINE
  5
2A1
330
29F
100
AcDbEntity
  8
1
  6
Continuous
 62
     2
100
AcDbLine
 10
73.307014696594
 20
128.112074782365
 30
0.0
 11
73.307014696594
 21
106.112074782365
 31
0.0
  0
LINE
  5
2A2
330
29F
100
AcDbEntity
  8
1
  6
Continuous
 62
     2
100
AcDbLine
 10
89.207014696594
 20
128.112074782365
 30
0.0
 11
89.207014696594
 21
106.112074782365
 31
0.0
  0
SOLID
  5
2A3
330
29F
100
AcDbEntity
  8
1
 62
     2
100
AcDbTrace
 10
76.807014696594
 20
107.5728585239209
 30
0.0
 11
76.807014696594
 21
106.6512910408091
 31
0.0
 12
73.307014696594
 22
107.112074782365
 32
0.0
 13
73.307014696594
 23
107.112074782365
 33
0.0
  0
SOLID
  5
2A4
330
29F
100
AcDbEntity
  8
1
 62
     2
100
AcDbTrace
 10
85.707014696594
 20
106.6512910408091
 30
0.0
 11
85.707014696594
 21
107.5728585239209
 31
0.0
 12
89.207014696594
 22
107.112074782365
 32
0.0
 13
89.207014696594
 23
107.112074782365
 33
0.0
  0
MTEXT
  5
2A5
330
29F
100
AcDbEntity
  8
1
 62
     7
100
AcDbMText
 10
76.19951469660244
 20
108.4620678252887
 30
0.0
 40
3.5
 41
0.0
 71
     7
 72
     1
  1
\C7;{\Fgdt;n}\C7;15,9
  7
CONVERTER_12
 11
0.9999999999970619
 21
2.424068405545306E-6
 31
0.0
 73
     1
 44
0.60024009603842
  0
ENDBLK
  5
2A7
330
29F
100
AcDbEntity
  8
0
100
AcDbBlockEnd
  0
BLOCK
  5
2B1
330
2AA
100
AcDbEntity
  8
0
100
AcDbBlockBegin
  2
*D8
 70
     1
 10
0.0
 20
0.0
 30
0.0
  3
*D8
  1

  0
LINE
  5
2AB
330
2AA
100
AcDbEntity
  8
1
  6
Continuous
 62
     2
100
AcDbLine
 10
32.2570146965942
 20
191.117503287746
 30
0.0
 11
32.2570146965942
 21
147.106646276985
 31
0.0
  0
LINE
  5
2AC
330
2AA
100
AcDbEntity
  8
1
  6
Continuous
 62
     2
100
AcDbLine
 10
54.61060908993862
 20
191.117503287746
 30
0.0
 11
31.2570146965942
 21
191.117503287746
 31
0.0
  0
LINE
  5
2AD
330
2AA
100
AcDbEntity
  8
1
  6
Continuous
 62
     2
100
AcDbLine
 10
54.61060908993862
 20
147.106646276985
 30
0.0
 11
31.2570146965942
 21
147.106646276985
 31
0.0
  0
SOLID
  5
2AE
330
2AA
100
AcDbEntity
  8
1
 62
     2
100
AcDbTrace
 10
32.71779843815008
 20
187.617503287746
 30
0.0
 11
31.79623095503831
 21
187.617503287746
 31
0.0
 12
32.2570146965942
 22
191.117503287746
 32
0.0
 13
32.2570146965942
 23
191.117503287746
 33
0.0
  0
SOLID
  5
2AF
330
2AA
100
AcDbEntity
  8
1
 62
     2
100
AcDbTrace
 10
31.79623095503831
 20
150.606646276985
 30
0.0
 11
32.71779843815008
 21
150.606646276985
 31
0.0
 12
32.2570146965942
 22
147.106646276985
 32
0.0
 13
32.2570146965942
 23
147.106646276985
 33
0.0
  0
MTEXT
  5
2B0
330
2AA
100
AcDbEntity
  8
1
 62
     7
100
AcDbMText
 10
31.2570146965942
 20
165.717074782366
 30
0.0
 40
3.5
 41
0.0
 71
     7
 72
     1
  1
\C7;{\Fgdt;n}\C7;44
  7
CONVERTER_12
 11
0.0
 21
1.0
 31
0.0
 73
     1
 44
0.60024009603842
  0
ENDBLK
  5
2B2
330
2AA
100
AcDbEntity
  8
0
100
AcDbBlockEnd
  0
BLOCK
  5
2BC
330
2B5
100
AcDbEntity
  8
0
100
AcDbBlockBegin
  2
*D9
 70
     1
 10
0.0
 20
0.0
 30
0.0
  3
*D9
  1

  0
LINE
  5
2B6
330
2B5
100
AcDbEntity
  8
1
  6
Continuous
 62
     2
100
AcDbLine
 10
144.7570138715598
 20
194.1120747823659
 30
0.0
 11
144.7570138715598
 21
144.1120747820787
 31
0.0
  0
LINE
  5
2B7
330
2B5
100
AcDbEntity
  8
1
  6
Continuous
 62
     2
100
AcDbLine
 10
118.757013871775
 20
194.1120747823659
 30
0.0
 11
145.7570138715598
 21
194.1120747823659
 31
0.0
  0
LINE
  5
2B8
330
2B5
100
AcDbEntity
  8
1
  6
Continuous
 62
     2
100
AcDbLine
 10
118.757013871775
 20
144.1120747820787
 30
0.0
 11
145.7570138715598
 21
144.1120747820787
 31
0.0
  0
SOLID
  5
2B9
330
2B5
100
AcDbEntity
  8
1
 62
     2
100
AcDbTrace
 10
145.2177976131157
 20
190.6120747823659
 30
0.0
 11
144.2962301300039
 21
190.6120747823659
 31
0.0
 12
144.7570138715598
 22
194.1120747823659
 32
0.0
 13
144.7570138715598
 23
194.1120747823659
 33
0.0
  0
SOLID
  5
2BA
330
2B5
100
AcDbEntity
  8
1
 62
     2
100
AcDbTrace
 10
144.2962301300039
 20
147.6120747820787
 30
0.0
 11
145.2177976131157
 21
147.6120747820787
 31
0.0
 12
144.7570138715598
 22
144.1120747820787
 32
0.0
 13
144.7570138715598
 23
144.1120747820787
 33
0.0
  0
MTEXT
  5
2BB
330
2B5
100
AcDbEntity
  8
1
 62
     7
100
AcDbMText
 10
143.7570138715598
 20
166.487074782366
 30
0.0
 40
3.5
 41
0.0
 71
     7
 72
     1
  1
50
  7
CONVERTER_12
 11
0.0
 21
1.0
 31
0.0
 73
     1
 44
0.60024009603842
  0
ENDBLK
  5
2BD
330
2B5
100
AcDbEntity
  8
0
100
AcDbBlockEnd
  0
ENDSEC
  0
SECTION
  2
ENTITIES
  0
INSERT
  5
4C
330
1F
100
AcDbEntity
  8
1
100
AcDbBlockReference
  2
開示A4
 10
0.0
 20
0.0
 30
0.0
  0
LINE
  5
A6
330
1F
100
AcDbEntity
  8
1
  6
DASH_CENTER
 62
     2
100
AcDbLine
 10
126.7570138715598
 20
169.112074782366
 30
0.0
 11
129.7570138715598
 21
169.112074782366
 31
0.0
  0
LINE
  5
A7
330
1F
100
AcDbEntity
  8
1
  6
DASH_CENTER
 62
     2
100
AcDbLine
 10
118.757013871775
 20
144.1120747820787
 30
0.0
 11
118.757013871775
 21
141.1120747820787
 31
0.0
  0
LINE
  5
A8
330
1F
100
AcDbEntity
  8
1
  6
DASH_CENTER
 62
     2
100
AcDbLine
 10
118.757013871775
 20
194.1120747823659
 30
0.0
 11
118.757013871775
 21
144.1120747820787
 31
0.0
  0
LINE
  5
A9
330
1F
100
AcDbEntity
  8
1
  6
Continuous
 62
     7
100
AcDbLine
 10
57.2570274809859
 20
156.60665287538
 30
0.0
 11
57.2570274809859
 21
181.617496689351
 31
0.0
  0
LINE
  5
AA
330
1F
100
AcDbEntity
  8
レイヤ0
  6
Continuous
 62
     7
100
AcDbLine
 10
40.2570146965942
 20
159.786638127966
 30
0.0
 11
41.4170187711033
 21
158.626640239453
 31
0.0
  0
LINE
  5
AB
330
1F
100
AcDbEntity
  8
レイヤ0
  6
Continuous
 62
     7
100
AcDbLine
 10
41.4170187711033
 20
158.626640239453
 30
0.0
 11
54.25701758339299
 21
158.626640239453
 31
0.0
  0
LINE
  5
AC
330
1F
100
AcDbEntity
  8
レイヤ0
  6
Continuous
 62
     7
100
AcDbLine
 10
54.61060908993861
 20
147.106646276985
 30
0.0
 11
54.25701758339299
 21
147.460200667557
 31
0.0
  0
LINE
  5
AD
330
1F
100
AcDbEntity
  8
レイヤ0
  6
Continuous
 62
     7
100
AcDbLine
 10
56.7819677655087
 20
147.58036981742
 30
0.0
 11
57.2570274809859
 21
156.60665287538
 31
0.0
  0
LINE
  5
AE
330
1F
100
AcDbEntity
  8
レイヤ0
  6
Continuous
 62
     7
100
AcDbLine
 10
56.2826589474133
 20
147.106646276985
 30
0.0
 11
54.61060908993861
 21
147.106646276985
 31
0.0
  0
LINE
  5
AF
330
1F
100
AcDbEntity
  8
レイヤ0
  6
Continuous
 62
     7
100
AcDbLine
 10
58.93259098394211
 20
157.234989188989
 30
0.0
 11
57.2570274809859
 21
156.60665287538
 31
0.0
  0
LINE
  5
B0
330
1F
100
AcDbEntity
  8
レイヤ0
  6
Continuous
 62
     7
100
AcDbLine
 10
59.25703407937991
 20
158.626640239453
 30
0.0
 11
59.2570340793808
 21
157.069060528169
 31
0.0
  0
LINE
  5
B1
330
1F
100
AcDbEntity
  8
レイヤ0
  6
Continuous
 62
     7
100
AcDbLine
 10
181.618510250254
 20
169.112001647956
 30
0.0
 11
181.618510250254
 21
169.112000317165
 31
0.0
  0
LINE
  5
B2
330
1F
100
AcDbEntity
  8
レイヤ0
  6
Continuous
 62
     7
100
AcDbLine
 10
91.757014696594
 20
183.112074782367
 30
0.0
 11
91.257014696595
 21
183.612074782366
 31
0.0
  0
LINE
  5
B3
330
1F
100
AcDbEntity
  8
レイヤ0
  6
Continuous
 62
     7
100
AcDbLine
 10
91.757014696594
 20
155.112074782367
 30
0.0
 11
91.257014696595
 21
154.612074782366
 31
0.0
  0
LINE
  5
B4
330
1F
100
AcDbEntity
  8
レイヤ0
  6
Continuous
 62
     7
100
AcDbLine
 10
63.25700851059931
 20
154.612074782366
 30
0.0
 11
59.2570076857986
 21
157.112074782364
 31
0.0
  0
LINE
  5
B5
330
1F
100
AcDbEntity
  8
レイヤ0
  6
Continuous
 62
     7
100
AcDbLine
 10
63.25700851059931
 20
154.612074782366
 30
0.0
 11
74.257014696594
 21
154.612074782366
 31
0.0
  0
LINE
  5
B6
330
1F
100
AcDbEntity
  8
レイヤ0
  6
Continuous
 62
     7
100
AcDbLine
 10
63.25700851059921
 20
183.612074782366
 30
0.0
 11
59.25700768579711
 21
181.112074782366
 31
0.0
  0
LINE
  5
B7
330
1F
100
AcDbEntity
  8
レイヤ0
  6
Continuous
 62
     7
100
AcDbLine
 10
63.25700851059921
 20
183.612074782366
 30
0.0
 11
91.257014696595
 21
183.612074782366
 31
0.0
  0
LINE
  5
B8
330
1F
100
AcDbEntity
  8
レイヤ0
  6
Continuous
 62
     7
100
AcDbLine
 10
91.757014696594
 20
183.112074782367
 30
0.0
 11
91.757014696595
 21
169.112074782366
 31
0.0
  0
LINE
  5
B9
330
1F
100
AcDbEntity
  8
レイヤ0
  6
Continuous
 62
     7
100
AcDbLine
 10
73.257014696594
 20
131.312074782365
 30
0.0
 11
73.257014696594
 21
133.812074782365
 31
0.0
  0
LINE
  5
BA
330
1F
100
AcDbEntity
  8
レイヤ0
  6
Continuous
 62
     7
100
AcDbLine
 10
73.257014696594
 20
133.812074782365
 30
0.0
 11
72.807014696594
 21
134.812074782365
 31
0.0
  0
LINE
  5
BB
330
1F
100
AcDbEntity
  8
レイヤ0
  6
Continuous
 62
     7
100
AcDbLine
 10
75.257014696594
 20
131.312074782365
 30
0.0
 11
89.257014696594
 21
131.312074782365
 31
0.0
  0
LINE
  5
BC
330
1F
100
AcDbEntity
  8
レイヤ0
  6
Continuous
 62
     7
100
AcDbLine
 10
87.257014696594
 20
131.312074782365
 30
0.0
 11
87.257014696594
 21
131.012074782365
 31
0.0
  0
LINE
  5
BD
330
1F
100
AcDbEntity
  8
レイヤ0
  6
Continuous
 62
     7
100
AcDbLine
 10
87.257014696594
 20
128.312074782365
 30
0.0
 11
89.207014696594
 21
128.312074782365
 31
0.0
  0
LINE
  5
BE
330
1F
100
AcDbEntity
  8
レイヤ0
  6
Continuous
 62
     7
100
AcDbLine
 10
89.707014696594
 20
134.812074782365
 30
0.0
 11
89.257014696594
 21
133.812074782365
 31
0.0
  0
LINE
  5
BF
330
1F
100
AcDbEntity
  8
レイヤ0
  6
Continuous
 62
     7
100
AcDbLine
 10
89.257014696594
 20
131.312074782365
 30
0.0
 11
89.257014696594
 21
133.812074782365
 31
0.0
  0
LINE
  5
C0
330
1F
100
AcDbEntity
  8
レイヤ0
  6
Continuous
 62
     7
100
AcDbLine
 10
88.257014696594
 20
137.112074782365
 30
0.0
 11
88.257014696594
 21
142.212074782365
 31
0.0
  0
LINE
  5
C1
330
1F
100
AcDbEntity
  8
レイヤ0
  6
Continuous
 62
     7
100
AcDbLine
 10
88.257014696594
 20
137.112074782365
 30
0.0
 11
89.707014696594
 21
136.112074782365
 31
0.0
  0
LINE
  5
C2
330
1F
100
AcDbEntity
  8
レイヤ0
  6
Continuous
 62
     7
100
AcDbLine
 10
89.707014696594
 20
134.812074782365
 30
0.0
 11
89.707014696594
 21
136.112074782365
 31
0.0
  0
LINE
  5
C3
330
1F
100
AcDbEntity
  8
レイヤ0
  6
Continuous
 62
     7
100
AcDbLine
 10
72.807014696594
 20
134.812074782365
 30
0.0
 11
72.807014696594
 21
136.112074782365
 31
0.0
  0
LINE
  5
C4
330
1F
100
AcDbEntity
  8
レイヤ0
  6
Continuous
 62
     7
100
AcDbLine
 10
74.257014696594
 20
137.112074782365
 30
0.0
 11
72.807014696594
 21
136.112074782365
 31
0.0
  0
LINE
  5
C5
330
1F
100
AcDbEntity
  8
レイヤ0
  6
Continuous
 62
     7
100
AcDbLine
 10
73.307014696594
 20
128.112074782365
 30
0.0
 11
73.307014696594
 21
128.312074782365
 31
0.0
  0
LINE
  5
C6
330
1F
100
AcDbEntity
  8
レイヤ0
  6
Continuous
 62
     7
100
AcDbLine
 10
89.207014696594
 20
128.112074782365
 30
0.0
 11
89.207014696594
 21
128.312074782365
 31
0.0
  0
LINE
  5
C7
330
1F
100
AcDbEntity
  8
レイヤ0
  6
Continuous
 62
     7
100
AcDbLine
 10
76.307014696594
 20
125.112074782365
 30
0.0
 11
86.207014696594
 21
125.112074782365
 31
0.0
  0
LINE
  5
C8
330
1F
100
AcDbEntity
  8
レイヤ0
  6
Continuous
 62
     7
100
AcDbLine
 10
74.257014696594
 20
137.112074782365
 30
0.0
 11
74.257014696594
 21
142.212074782365
 31
0.0
  0
LINE
  5
C9
330
1F
100
AcDbEntity
  8
レイヤ0
  6
Continuous
 62
     7
100
AcDbLine
 10
73.257014696594
 20
131.312074782365
 30
0.0
 11
75.257014696594
 21
131.312074782365
 31
0.0
  0
LINE
  5
CA
330
1F
100
AcDbEntity
  8
レイヤ0
  6
Continuous
 62
     7
100
AcDbLine
 10
75.257014696594
 20
131.312074782365
 30
0.0
 11
75.257014696594
 21
131.012074782365
 31
0.0
  0
LINE
  5
CB
330
1F
100
AcDbEntity
  8
レイヤ0
  6
Continuous
 62
     7
100
AcDbLine
 10
73.307014696594
 20
128.312074782365
 30
0.0
 11
87.257014696594
 21
128.312074782365
 31
0.0
  0
LINE
  5
CC
330
1F
100
AcDbEntity
  8
レイヤ0
  6
Continuous
 62
     7
100
AcDbLine
 10
71.4570146965955
 20
147.495494028634
 30
0.0
 11
71.4570146965947
 21
145.641360422262
 31
0.0
  0
LINE
  5
CD
330
1F
100
AcDbEntity
  8
レイヤ0
  6
Continuous
 62
     7
100
AcDbLine
 10
91.057014696594
 20
147.495494028634
 30
0.0
 11
91.057014696594
 21
145.641360422262
 31
0.0
  0
LINE
  5
CE
330
1F
100
AcDbEntity
  8
レイヤ0
  6
Continuous
 62
     7
100
AcDbLine
 10
74.257014696594
 20
149.112074782364
 30
0.0
 11
71.4570146965955
 21
147.495494028634
 31
0.0
  0
LINE
  5
CF
330
1F
100
AcDbEntity
  8
レイヤ0
  6
Continuous
 62
     7
100
AcDbLine
 10
74.257014696594
 20
149.112074782364
 30
0.0
 11
74.257014696594
 21
154.612074782366
 31
0.0
  0
LINE
  5
D0
330
1F
100
AcDbEntity
  8
レイヤ0
  6
Continuous
 62
     7
100
AcDbLine
 10
88.257014696594
 20
149.112074782365
 30
0.0
 11
91.057014696594
 21
147.495494028634
 31
0.0
  0
LINE
  5
D1
330
1F
100
AcDbEntity
  8
レイヤ0
  6
Continuous
 62
     7
100
AcDbLine
 10
88.257014696594
 20
149.112074782365
 30
0.0
 11
88.257014696595
 21
154.612074782366
 31
0.0
  0
LINE
  5
D2
330
1F
100
AcDbEntity
  8
レイヤ0
  6
Continuous
 62
     7
100
AcDbLine
 10
91.75701469658704
 20
169.112074782366
 30
0.0
 11
91.757014696594
 21
155.112074782367
 31
0.0
  0
LINE
  5
D3
330
1F
100
AcDbEntity
  8
レイヤ0
  6
Continuous
 62
     7
100
AcDbLine
 10
164.618538217435
 20
131.312074782365
 30
0.0
 11
164.618538217435
 21
133.812074782365
 31
0.0
  0
LINE
  5
D4
330
1F
100
AcDbEntity
  8
レイヤ0
  6
Continuous
 62
     7
100
AcDbLine
 10
164.618538217435
 20
133.812074782365
 30
0.0
 11
164.168538217435
 21
134.812074782365
 31
0.0
  0
LINE
  5
D5
330
1F
100
AcDbEntity
  8
レイヤ0
  6
Continuous
 62
     7
100
AcDbLine
 10
181.068538217435
 20
134.812074782365
 30
0.0
 11
180.618538217435
 21
133.812074782365
 31
0.0
  0
LINE
  5
D6
330
1F
100
AcDbEntity
  8
レイヤ0
  6
Continuous
 62
     7
100
AcDbLine
 10
180.618538217435
 20
131.312074782365
 30
0.0
 11
180.618538217435
 21
133.812074782365
 31
0.0
  0
LINE
  5
D7
330
1F
100
AcDbEntity
  8
レイヤ0
  6
Continuous
 62
     7
100
AcDbLine
 10
179.618538217435
 20
137.112074782365
 30
0.0
 11
179.618538217435
 21
142.212074782365
 31
0.0
  0
LINE
  5
D8
330
1F
100
AcDbEntity
  8
レイヤ0
  6
Continuous
 62
     7
100
AcDbLine
 10
165.618538217435
 20
137.112074782365
 30
0.0
 11
165.618538217435
 21
142.212074782365
 31
0.0
  0
LINE
  5
D9
330
1F
100
AcDbEntity
  8
レイヤ0
  6
Continuous
 62
     7
100
AcDbLine
 10
179.618538217435
 20
137.112074782365
 30
0.0
 11
181.068538217435
 21
136.112074782365
 31
0.0
  0
LINE
  5
DA
330
1F
100
AcDbEntity
  8
レイヤ0
  6
Continuous
 62
     7
100
AcDbLine
 10
181.068538217435
 20
134.812074782365
 30
0.0
 11
181.068538217435
 21
136.112074782365
 31
0.0
  0
LINE
  5
DB
330
1F
100
AcDbEntity
  8
レイヤ0
  6
Continuous
 62
     7
100
AcDbLine
 10
164.168538217435
 20
134.812074782365
 30
0.0
 11
164.168538217435
 21
136.112074782365
 31
0.0
  0
LINE
  5
DC
330
1F
100
AcDbEntity
  8
レイヤ0
  6
Continuous
 62
     7
100
AcDbLine
 10
165.618538217435
 20
137.112074782365
 30
0.0
 11
164.168538217435
 21
136.112074782365
 31
0.0
  0
LINE
  5
DD
330
1F
100
AcDbEntity
  8
レイヤ0
  6
Continuous
 62
     7
100
AcDbLine
 10
164.668538217435
 20
128.112074782365
 30
0.0
 11
164.668538217435
 21
128.312074782365
 31
0.0
  0
LINE
  5
DE
330
1F
100
AcDbEntity
  8
レイヤ0
  6
Continuous
 62
     7
100
AcDbLine
 10
180.568538217435
 20
128.112074782365
 30
0.0
 11
180.568538217435
 21
128.312074782365
 31
0.0
  0
LINE
  5
DF
330
1F
100
AcDbEntity
  8
レイヤ0
  6
Continuous
 62
     7
100
AcDbLine
 10
167.668538217435
 20
125.112074782365
 30
0.0
 11
177.568538217435
 21
125.112074782365
 31
0.0
  0
LINE
  5
E0
330
1F
100
AcDbEntity
  8
レイヤ0
  6
Continuous
 62
     7
100
AcDbLine
 10
166.618538217435
 20
128.312074782365
 30
0.0
 11
166.6185382174348
 21
128.612074782367
 31
0.0
  0
LINE
  5
E1
330
1F
100
AcDbEntity
  8
レイヤ0
  6
Continuous
 62
     7
100
AcDbLine
 10
165.618538217435
 20
137.112074782365
 30
0.0
 11
179.618538217435
 21
137.112074782365
 31
0.0
  0
LINE
  5
E2
330
1F
100
AcDbEntity
  8
レイヤ0
  6
Continuous
 62
     7
100
AcDbLine
 10
164.168538217435
 20
136.112074782365
 30
0.0
 11
181.068538217435
 21
136.112074782365
 31
0.0
  0
LINE
  5
E3
330
1F
100
AcDbEntity
  8
レイヤ0
  6
Continuous
 62
     7
100
AcDbLine
 10
164.168538217435
 20
134.812074782365
 30
0.0
 11
181.068538217435
 21
134.812074782365
 31
0.0
  0
LINE
  5
E4
330
1F
100
AcDbEntity
  8
レイヤ0
  6
Continuous
 62
     7
100
AcDbLine
 10
180.618538217435
 20
133.812074782365
 30
0.0
 11
164.618538217435
 21
133.812074782365
 31
0.0
  0
LINE
  5
E5
330
1F
100
AcDbEntity
  8
レイヤ0
  6
Continuous
 62
     7
100
AcDbLine
 10
164.618538217435
 20
131.312074782365
 30
0.0
 11
180.618538217435
 21
131.312074782365
 31
0.0
  0
LINE
  5
E6
330
1F
100
AcDbEntity
  8
レイヤ0
  6
Continuous
 62
     7
100
AcDbLine
 10
164.668538217435
 20
128.312074782365
 30
0.0
 11
180.568538217435
 21
128.312074782365
 31
0.0
  0
LINE
  5
E7
330
1F
100
AcDbEntity
  8
レイヤ0
  6
Continuous
 62
     7
100
AcDbLine
 10
165.518538217435
 20
128.612074782367
 30
0.0
 11
179.718538217435
 21
128.612074782367
 31
0.0
  0
LINE
  5
E8
330
1F
100
AcDbEntity
  8
レイヤ0
  6
Continuous
 62
     7
100
AcDbLine
 10
165.518538217435
 20
131.012074782365
 30
0.0
 11
179.718538217435
 21
131.012074782365
 31
0.0
  0
LINE
  5
E9
330
1F
100
AcDbEntity
  8
レイヤ0
  6
Continuous
 62
     7
100
AcDbLine
 10
165.618538217435
 20
149.112074782364
 30
0.0
 11
162.618538217435
 21
147.380023974795
 31
0.0
  0
LINE
  5
EA
330
1F
100
AcDbEntity
  8
レイヤ0
  6
Continuous
 62
     7
100
AcDbLine
 10
162.618538217435
 20
147.380023974795
 30
0.0
 11
162.618538217435
 21
145.676176397503
 31
0.0
  0
LINE
  5
EB
330
1F
100
AcDbEntity
  8
レイヤ0
  6
Continuous
 62
     7
100
AcDbLine
 10
179.618538217435
 20
149.112074782365
 30
0.0
 11
182.618538217436
 21
147.380023974797
 31
0.0
  0
LINE
  5
EC
330
1F
100
AcDbEntity
  8
レイヤ0
  6
Continuous
 62
     7
100
AcDbLine
 10
182.618538217436
 20
147.380023974797
 30
0.0
 11
182.618538217435
 21
145.676176397503
 31
0.0
  0
LINE
  5
ED
330
1F
100
AcDbEntity
  8
レイヤ0
  6
Continuous
 62
     7
100
AcDbLine
 10
165.618538217435
 20
149.112074782364
 30
0.0
 11
165.618538217433
 21
156.413649683167
 31
0.0
  0
LINE
  5
EE
330
1F
100
AcDbEntity
  8
レイヤ0
  6
Continuous
 62
     7
100
AcDbLine
 10
179.618538217435
 20
149.112074782365
 30
0.0
 11
179.618538217434
 21
156.413649683165
 31
0.0
  0
LINE
  5
EF
330
1F
100
AcDbEntity
  8
レイヤ0
  6
Continuous
 62
     7
100
AcDbLine
 10
91.257014696595
 20
183.612074782366
 30
0.0
 11
91.257014696595
 21
154.612074782366
 31
0.0
  0
LINE
  5
F0
330
1F
100
AcDbEntity
  8
レイヤ0
  6
Continuous
 62
     7
100
AcDbLine
 10
103.553024288949
 20
179.106644627386
 30
0.0
 11
104.053024288949
 21
179.106644627386
 31
0.0
  0
LINE
  5
F1
330
1F
100
AcDbEntity
  8
レイヤ0
  6
Continuous
 62
     7
100
AcDbLine
 10
101.553024288949
 20
183.106673880508
 30
0.0
 11
101.553024288949
 21
169.106644627386
 31
0.0
  0
LINE
  5
F2
330
1F
100
AcDbEntity
  8
レイヤ0
  6
Continuous
 62
     7
100
AcDbLine
 10
104.553024288949
 20
180.606644627386
 30
0.0
 11
104.553024288949
 21
173.797060387209
 31
0.0
  0
LINE
  5
F3
330
1F
100
AcDbEntity
  8
レイヤ0
  6
Continuous
 62
     7
100
AcDbLine
 10
104.553024288949
 20
180.606644627386
 30
0.0
 11
107.553024288949
 21
180.606644627386
 31
0.0
  0
LINE
  5
F4
330
1F
100
AcDbEntity
  8
レイヤ0
  6
Continuous
 62
     7
100
AcDbLine
 10
101.053024288949
 20
154.606633485186
 30
0.0
 11
92.553024288948
 21
154.606633485187
 31
0.0
  0
LINE
  5
F5
330
1F
100
AcDbEntity
  8
レイヤ0
  6
Continuous
 62
     7
100
AcDbLine
 10
101.053024288949
 20
183.606673880508
 30
0.0
 11
92.553024288949
 21
183.606673880509
 31
0.0
  0
LINE
  5
F6
330
1F
100
AcDbEntity
  8
レイヤ0
  6
Continuous
 62
     7
100
AcDbLine
 10
108.053024288949
 20
169.112074782366
 30
0.0
 11
108.053024288949
 21
173.862078081565
 31
0.0
  0
LINE
  5
F7
330
1F
100
AcDbEntity
  8
レイヤ0
  6
Continuous
 62
     7
100
AcDbLine
 10
108.053024288949
 20
173.797060387209
 30
0.0
 11
104.553024288949
 21
173.797060387209
 31
0.0
  0
LINE
  5
F8
330
1F
100
AcDbEntity
  8
レイヤ0
  6
Continuous
 62
     7
100
AcDbLine
 10
92.053024288948
 20
155.106633485186
 30
0.0
 11
92.053024288948
 21
169.112074782366
 31
0.0
  0
LINE
  5
F9
330
1F
100
AcDbEntity
  8
レイヤ0
  6
Continuous
 62
     7
100
AcDbLine
 10
92.053024288949
 20
169.112074782366
 30
0.0
 11
92.053024288949
 21
183.106673880509
 31
0.0
  0
LINE
  5
FA
330
1F
100
AcDbEntity
  8
レイヤ0
  6
Continuous
 62
     7
100
AcDbLine
 10
92.053024288948
 20
180.952206356307
 30
0.0
 11
91.757014696593
 21
181.112052512782
 31
0.0
  0
LINE
  5
FB
330
1F
100
AcDbEntity
  8
レイヤ0
  6
Continuous
 62
     7
100
AcDbLine
 10
91.757014696593
 20
181.112052512782
 30
0.0
 11
92.053024288948
 21
181.112052512783
 31
0.0
  0
LINE
  5
FC
330
1F
100
AcDbEntity
  8
レイヤ0
  6
Continuous
 62
     7
100
AcDbLine
 10
111.048546794794
 20
173.862078081562
 30
0.0
 11
112.757013871796
 21
173.862078081564
 31
0.0
  0
LINE
  5
FD
330
1F
100
AcDbEntity
  8
レイヤ0
  6
Continuous
 62
     7
100
AcDbLine
 10
63.25700851059921
 20
183.612074782366
 30
0.0
 11
63.25700851059879
 21
169.112074782366
 31
0.0
  0
LINE
  5
FE
330
1F
100
AcDbEntity
  8
レイヤ0
  6
Continuous
 62
     7
100
AcDbLine
 10
108.053024288949
 20
173.862078081565
 30
0.0
 11
113.257013871796
 21
173.862078081564
 31
0.0
  0
LINE
  5
FF
330
1F
100
AcDbEntity
  8
レイヤ0
  6
Continuous
 62
     7
100
AcDbLine
 10
124.257013871775
 20
174.783053533869
 30
0.0
 11
124.257013871775
 21
163.441096030863
 31
0.0
  0
LINE
  5
100
330
1F
100
AcDbEntity
  8
レイヤ0
  6
Continuous
 62
     7
100
AcDbLine
 10
113.257013871782
 20
169.112074782366
 30
0.0
 11
113.257013871782
 21
174.783053533875
 31
0.0
  0
LINE
  5
101
330
1F
100
AcDbEntity
  8
レイヤ0
  6
Continuous
 62
     7
100
AcDbLine
 10
126.292257542146
 20
162.362074782253
 30
0.0
 11
124.25701387156
 21
162.362074782253
 31
0.0
  0
LINE
  5
102
330
1F
100
AcDbEntity
  8
レイヤ0
  6
Continuous
 62
     7
100
AcDbLine
 10
126.384002322145
 20
163.062074782253
 30
0.0
 11
124.25701387156
 21
163.062074782253
 31
0.0
  0
LINE
  5
103
330
1F
100
AcDbEntity
  8
レイヤ0
  6
Continuous
 62
     7
100
AcDbLine
 10
126.476392058329
 20
163.862074782254
 30
0.0
 11
124.25701387156
 21
163.862074782253
 31
0.0
  0
LINE
  5
104
330
1F
100
AcDbEntity
  8
レイヤ0
  6
Continuous
 62
     7
100
AcDbLine
 10
126.564531134453
 20
164.762074782254
 30
0.0
 11
124.25701387156
 21
164.762074782254
 31
0.0
  0
LINE
  5
105
330
1F
100
AcDbEntity
  8
レイヤ0
  6
Continuous
 62
     7
100
AcDbLine
 10
126.642947769261
 20
165.762074782253
 30
0.0
 11
124.25701387156
 21
165.762074782253
 31
0.0
  0
LINE
  5
106
330
1F
100
AcDbEntity
  8
レイヤ0
  6
Continuous
 62
     7
100
AcDbLine
 10
126.705591086755
 20
166.862074782253
 30
0.0
 11
124.25701387156
 21
166.862074782253
 31
0.0
  0
LINE
  5
107
330
1F
100
AcDbEntity
  8
レイヤ0
  6
Continuous
 62
     7
100
AcDbLine
 10
126.74581970598
 20
168.062074782253
 30
0.0
 11
124.25701387156
 21
168.062074782253
 31
0.0
  0
LINE
  5
108
330
1F
100
AcDbEntity
  8
レイヤ0
  6
Continuous
 62
     7
100
AcDbLine
 10
126.292257542146
 20
175.862074782478
 30
0.0
 11
124.25701387156
 21
175.862074782478
 31
0.0
  0
LINE
  5
109
330
1F
100
AcDbEntity
  8
レイヤ0
  6
Continuous
 62
     7
100
AcDbLine
 10
126.384002322145
 20
175.162074782478
 30
0.0
 11
124.25701387156
 21
175.162074782479
 31
0.0
  0
LINE
  5
10A
330
1F
100
AcDbEntity
  8
レイヤ0
  6
Continuous
 62
     7
100
AcDbLine
 10
126.476392058329
 20
174.362074782478
 30
0.0
 11
124.25701387156
 21
174.362074782478
 31
0.0
  0
LINE
  5
10B
330
1F
100
AcDbEntity
  8
レイヤ0
  6
Continuous
 62
     7
100
AcDbLine
 10
126.564531134453
 20
173.462074782478
 30
0.0
 11
124.25701387156
 21
173.462074782478
 31
0.0
  0
LINE
  5
10C
330
1F
100
AcDbEntity
  8
レイヤ0
  6
Continuous
 62
     7
100
AcDbLine
 10
126.642947769261
 20
172.462074782478
 30
0.0
 11
124.25701387156
 21
172.462074782478
 31
0.0
  0
LINE
  5
10D
330
1F
100
AcDbEntity
  8
レイヤ0
  6
Continuous
 62
     7
100
AcDbLine
 10
126.74581970598
 20
170.162074782479
 30
0.0
 11
124.25701387156
 21
170.162074782478
 31
0.0
  0
LINE
  5
10E
330
1F
100
AcDbEntity
  8
レイヤ0
  6
Continuous
 62
     7
100
AcDbLine
 10
126.705591086755
 20
171.362074782478
 30
0.0
 11
124.25701387156
 21
171.362074782478
 31
0.0
  0
LINE
  5
10F
330
1F
100
AcDbEntity
  8
レイヤ0
  6
Continuous
 62
     7
100
AcDbLine
 10
124.25701387156
 20
175.862074782478
 30
0.0
 11
124.25701387156
 21
162.362074782253
 31
0.0
  0
LINE
  5
110
330
1F
100
AcDbEntity
  8
レイヤ0
  6
Continuous
 62
     7
100
AcDbLine
 10
113.957013871775
 20
160.312074782365
 30
0.0
 11
113.757013871775
 21
160.512074782365
 31
0.0
  0
LINE
  5
111
330
1F
100
AcDbEntity
  8
レイヤ0
  6
Continuous
 62
     7
100
AcDbLine
 10
113.757013871775
 20
161.749330728686
 30
0.0
 11
113.757013871775
 21
160.512074782365
 31
0.0
  0
LINE
  5
112
330
1F
100
AcDbEntity
  8
レイヤ0
  6
Continuous
 62
     7
100
AcDbLine
 10
123.557013871773
 20
160.312074782365
 30
0.0
 11
123.757013871774
 21
160.512074782366
 31
0.0
  0
LINE
  5
113
330
1F
100
AcDbEntity
  8
レイヤ0
  6
Continuous
 62
     7
100
AcDbLine
 10
123.757013871776
 20
161.749330728686
 30
0.0
 11
123.757013871774
 21
160.512074782366
 31
0.0
  0
LINE
  5
114
330
1F
100
AcDbEntity
  8
レイヤ0
  6
Continuous
 62
     7
100
AcDbLine
 10
113.957013871775
 20
177.912074782365
 30
0.0
 11
113.757013871775
 21
177.712074782365
 31
0.0
  0
LINE
  5
115
330
1F
100
AcDbEntity
  8
レイヤ0
  6
Continuous
 62
     7
100
AcDbLine
 10
113.757013871775
 20
176.474818836044
 30
0.0
 11
113.757013871775
 21
177.712074782365
 31
0.0
  0
LINE
  5
116
330
1F
100
AcDbEntity
  8
レイヤ0
  6
Continuous
 62
     7
100
AcDbLine
 10
123.557013871773
 20
177.912074782365
 30
0.0
 11
123.757013871774
 21
177.712074782365
 31
0.0
  0
LINE
  5
117
330
1F
100
AcDbEntity
  8
レイヤ0
  6
Continuous
 62
     7
100
AcDbLine
 10
123.757013871776
 20
176.474818836044
 30
0.0
 11
123.757013871774
 21
177.712074782365
 31
0.0
  0
LINE
  5
118
330
1F
100
AcDbEntity
  8
レイヤ0
  6
Continuous
 62
     7
100
AcDbLine
 10
124.257013871775
 20
176.109217056179
 30
0.0
 11
124.257013871775
 21
162.114932508551
 31
0.0
  0
LINE
  5
119
330
1F
100
AcDbEntity
  8
レイヤ0
  6
Continuous
 62
     7
100
AcDbLine
 10
113.957013871775
 20
160.312074782365
 30
0.0
 11
114.357013871775
 21
160.312074782365
 31
0.0
  0
LINE
  5
11A
330
1F
100
AcDbEntity
  8
レイヤ0
  6
Continuous
 62
     7
100
AcDbLine
 10
123.157013871775
 20
160.312074782365
 30
0.0
 11
123.557013871773
 21
160.312074782365
 31
0.0
  0
LINE
  5
11B
330
1F
100
AcDbEntity
  8
レイヤ0
  6
Continuous
 62
     7
100
AcDbLine
 10
113.957013871775
 20
177.912074782365
 30
0.0
 11
123.557013871773
 21
177.912074782365
 31
0.0
  0
LINE
  5
11C
330
1F
100
AcDbEntity
  8
レイヤ0
  6
Continuous
 62
     7
100
AcDbLine
 10
113.757013871775
 20
176.474818836044
 30
0.0
 11
123.757013871776
 21
176.474818836044
 31
0.0
  0
LINE
  5
11D
330
1F
100
AcDbEntity
  8
レイヤ0
  6
Continuous
 62
     7
100
AcDbLine
 10
113.757013871775
 20
177.712074782365
 30
0.0
 11
123.757013871774
 21
177.712074782365
 31
0.0
  0
LINE
  5
11E
330
1F
100
AcDbEntity
  8
レイヤ0
  6
Continuous
 62
     7
100
AcDbLine
 10
113.257013871782
 20
169.112074782366
 30
0.0
 11
113.257013871776
 21
176.10921705618
 31
0.0
  0
LINE
  5
11F
330
1F
100
AcDbEntity
  8
レイヤ0
  6
Continuous
 62
     7
100
AcDbLine
 10
177.418538217432
 20
160.312074782365
 30
0.0
 11
167.818538217434
 21
160.312074782365
 31
0.0
  0
LINE
  5
120
330
1F
100
AcDbEntity
  8
レイヤ0
  6
Continuous
 62
     7
100
AcDbLine
 10
167.818538217434
 20
160.312074782365
 30
0.0
 11
167.618538217434
 21
160.512074782365
 31
0.0
  0
LINE
  5
121
330
1F
100
AcDbEntity
  8
レイヤ0
  6
Continuous
 62
     7
100
AcDbLine
 10
177.618538217432
 20
160.512074782379
 30
0.0
 11
167.618538217434
 21
160.512074782365
 31
0.0
  0
LINE
  5
122
330
1F
100
AcDbEntity
  8
レイヤ0
  6
Continuous
 62
     7
100
AcDbLine
 10
167.618538217434
 20
161.749330728687
 30
0.0
 11
167.618538217434
 21
160.512074782365
 31
0.0
  0
LINE
  5
123
330
1F
100
AcDbEntity
  8
レイヤ0
  6
Continuous
 62
     7
100
AcDbLine
 10
167.618538217434
 20
161.749330728687
 30
0.0
 11
177.618538217435
 21
161.749330728687
 31
0.0
  0
LINE
  5
124
330
1F
100
AcDbEntity
  8
レイヤ0
  6
Continuous
 62
     7
100
AcDbLine
 10
177.418538217432
 20
160.312074782365
 30
0.0
 11
177.618538217432
 21
160.512074782379
 31
0.0
  0
LINE
  5
125
330
1F
100
AcDbEntity
  8
レイヤ0
  6
Continuous
 62
     7
100
AcDbLine
 10
177.618538217435
 20
161.749330728687
 30
0.0
 11
177.618538217432
 21
160.512074782379
 31
0.0
  0
LINE
  5
126
330
1F
100
AcDbEntity
  8
レイヤ0
  6
Continuous
 62
     7
100
AcDbLine
 10
177.418538217432
 20
177.912074782366
 30
0.0
 11
167.818538217434
 21
177.912074782366
 31
0.0
  0
LINE
  5
127
330
1F
100
AcDbEntity
  8
レイヤ0
  6
Continuous
 62
     7
100
AcDbLine
 10
167.818538217434
 20
177.912074782366
 30
0.0
 11
167.618538217434
 21
177.712074782366
 31
0.0
  0
LINE
  5
128
330
1F
100
AcDbEntity
  8
レイヤ0
  6
Continuous
 62
     7
100
AcDbLine
 10
177.618538217432
 20
177.712074782352
 30
0.0
 11
167.618538217434
 21
177.712074782366
 31
0.0
  0
LINE
  5
129
330
1F
100
AcDbEntity
  8
レイヤ0
  6
Continuous
 62
     7
100
AcDbLine
 10
167.618538217434
 20
176.474818836044
 30
0.0
 11
167.618538217434
 21
177.712074782366
 31
0.0
  0
LINE
  5
12A
330
1F
100
AcDbEntity
  8
レイヤ0
  6
Continuous
 62
     7
100
AcDbLine
 10
167.618538217434
 20
176.474818836044
 30
0.0
 11
177.618538217435
 21
176.474818836044
 31
0.0
  0
LINE
  5
12B
330
1F
100
AcDbEntity
  8
レイヤ0
  6
Continuous
 62
     7
100
AcDbLine
 10
177.418538217432
 20
177.912074782366
 30
0.0
 11
177.618538217432
 21
177.712074782352
 31
0.0
  0
LINE
  5
12C
330
1F
100
AcDbEntity
  8
レイヤ0
  6
Continuous
 62
     7
100
AcDbLine
 10
177.618538217435
 20
176.474818836044
 30
0.0
 11
177.618538217432
 21
177.712074782352
 31
0.0
  0
LINE
  5
12D
330
1F
100
AcDbEntity
  8
レイヤ0
  6
Continuous
 62
     7
100
AcDbLine
 10
113.257013871775
 20
162.114932508551
 30
0.0
 11
113.2570138717688
 21
169.112074782366
 31
0.0
  0
LINE
  5
12E
330
1F
100
AcDbEntity
  8
レイヤ0
  6
Continuous
 62
     7
100
AcDbLine
 10
54.25701758339299
 20
147.460200667557
 30
0.0
 11
54.25701758339299
 21
158.626640239453
 31
0.0
  0
LINE
  5
12F
330
1F
100
AcDbEntity
  8
レイヤ0
  6
Continuous
 62
     7
100
AcDbLine
 10
163.047109646006
 20
145.181304738197
 30
0.0
 11
168.622987367446
 21
145.181304738197
 31
0.0
  0
LINE
  5
130
330
1F
100
AcDbEntity
  8
レイヤ0
  6
Continuous
 62
     7
100
AcDbLine
 10
73.54330619761
 20
131.312074782365
 30
0.0
 11
73.257014696594
 21
131.59836628338
 31
0.0
  0
LINE
  5
131
330
1F
100
AcDbEntity
  8
レイヤ0
  6
Continuous
 62
     7
100
AcDbLine
 10
176.614089067434
 20
145.1813047382
 30
0.0
 11
182.189966788864
 21
145.181304738197
 31
0.0
  0
LINE
  5
132
330
1F
100
AcDbEntity
  8
レイヤ0
  6
Continuous
 62
     7
100
AcDbLine
 10
177.612159938751
 20
146.020633822004
 30
0.0
 11
177.018538217435
 21
160.312074782365
 31
0.0
  0
LINE
  5
133
330
1F
100
AcDbEntity
  8
レイヤ0
  6
Continuous
 62
     7
100
AcDbLine
 10
167.624916496119
 20
192.203515742727
 30
0.0
 11
168.218538217435
 21
177.912074782366
 31
0.0
  0
LINE
  5
134
330
1F
100
AcDbEntity
  8
レイヤ0
  6
Continuous
 62
     7
100
AcDbLine
 10
177.612159938751
 20
192.203515742727
 30
0.0
 11
177.018538217435
 21
177.912074782366
 31
0.0
  0
LINE
  5
135
330
1F
100
AcDbEntity
  8
レイヤ0
  6
Continuous
 62
     7
100
AcDbLine
 10
167.624916496119
 20
146.020633822004
 30
0.0
 11
168.218538217435
 21
160.312074782365
 31
0.0
  0
LINE
  5
136
330
1F
100
AcDbEntity
  8
レイヤ0
  6
Continuous
 62
     7
100
AcDbLine
 10
167.659914959139
 20
145.867076783873
 30
0.0
 11
177.577161475709
 21
145.867076783873
 31
0.0
  0
LINE
  5
137
330
1F
100
AcDbEntity
  8
レイヤ0
  6
Continuous
 62
     7
100
AcDbLine
 10
167.659914959139
 20
192.357072780858
 30
0.0
 11
177.577161475709
 21
192.357072780858
 31
0.0
  0
LINE
  5
138
330
1F
100
AcDbEntity
  8
レイヤ0
  6
Continuous
 62
     7
100
AcDbLine
 10
165.618538217435
 20
149.112074782364
 30
0.0
 11
167.753325276544
 21
149.112074782358
 31
0.0
  0
LINE
  5
139
330
1F
100
AcDbEntity
  8
レイヤ0
  6
Continuous
 62
     7
100
AcDbLine
 10
177.483751158326
 20
149.11207478236
 30
0.0
 11
179.618538217435
 21
149.112074782365
 31
0.0
  0
LINE
  5
13A
330
1F
100
AcDbEntity
  8
レイヤ0
  6
Continuous
 62
     7
100
AcDbLine
 10
123.750635593091
 20
146.020633822004
 30
0.0
 11
123.157013871775
 21
160.312074782365
 31
0.0
  0
LINE
  5
13B
330
1F
100
AcDbEntity
  8
レイヤ0
  6
Continuous
 62
     7
100
AcDbLine
 10
113.763392150459
 20
192.203515742727
 30
0.0
 11
114.357013871775
 21
177.912074782366
 31
0.0
  0
LINE
  5
13C
330
1F
100
AcDbEntity
  8
レイヤ0
  6
Continuous
 62
     7
100
AcDbLine
 10
123.750635593091
 20
192.203515742727
 30
0.0
 11
123.157013871775
 21
177.912074782366
 31
0.0
  0
LINE
  5
13D
330
1F
100
AcDbEntity
  8
レイヤ0
  6
Continuous
 62
     7
100
AcDbLine
 10
113.763392150459
 20
146.020633822004
 30
0.0
 11
114.357013871775
 21
160.312074782365
 31
0.0
  0
LINE
  5
13E
330
1F
100
AcDbEntity
  8
レイヤ0
  6
Continuous
 62
     7
100
AcDbLine
 10
113.798390613479
 20
145.867076783873
 30
0.0
 11
123.715637130049
 21
145.867076783873
 31
0.0
  0
LINE
  5
13F
330
1F
100
AcDbEntity
  8
レイヤ0
  6
Continuous
 62
     7
100
AcDbLine
 10
113.798390613479
 20
192.357072780858
 30
0.0
 11
123.715637130049
 21
192.357072780858
 31
0.0
  0
LINE
  5
140
330
1F
100
AcDbEntity
  8
レイヤ0
  6
Continuous
 62
     7
100
AcDbLine
 10
162.118538217435
 20
164.434988518244
 30
0.0
 11
162.118538217435
 21
173.789161046487
 31
0.0
  0
LINE
  5
141
330
1F
100
AcDbEntity
  8
レイヤ0
  6
Continuous
 62
     7
100
AcDbLine
 10
183.118538217435
 20
164.434988518244
 30
0.0
 11
183.118538217435
 21
173.789161046487
 31
0.0
  0
LINE
  5
142
330
1F
100
AcDbEntity
  8
レイヤ0
  6
Continuous
 62
     7
100
AcDbLine
 10
40.2570146965942
 20
178.437511436765
 30
0.0
 11
41.4170187711033
 21
179.597509325278
 31
0.0
  0
LINE
  5
143
330
1F
100
AcDbEntity
  8
レイヤ0
  6
Continuous
 62
     7
100
AcDbLine
 10
41.4170187711033
 20
179.597509325278
 30
0.0
 11
54.25701758339299
 21
179.597509325278
 31
0.0
  0
LINE
  5
144
330
1F
100
AcDbEntity
  8
レイヤ0
  6
Continuous
 62
     7
100
AcDbLine
 10
54.61060908993861
 20
191.117503287746
 30
0.0
 11
54.25701758339299
 21
190.763948897174
 31
0.0
  0
LINE
  5
145
330
1F
100
AcDbEntity
  8
レイヤ0
  6
Continuous
 62
     7
100
AcDbLine
 10
56.7819677655087
 20
190.643779747311
 30
0.0
 11
57.2570274809859
 21
181.617496689351
 31
0.0
  0
LINE
  5
146
330
1F
100
AcDbEntity
  8
レイヤ0
  6
Continuous
 62
     7
100
AcDbLine
 10
56.2826589474133
 20
191.117503287746
 30
0.0
 11
54.61060908993861
 21
191.117503287746
 31
0.0
  0
LINE
  5
147
330
1F
100
AcDbEntity
  8
レイヤ0
  6
Continuous
 62
     7
100
AcDbLine
 10
58.93259098394211
 20
180.989160375742
 30
0.0
 11
57.2570274809859
 21
181.617496689351
 31
0.0
  0
LINE
  5
148
330
1F
100
AcDbEntity
  8
レイヤ0
  6
Continuous
 62
     7
100
AcDbLine
 10
59.25703407937991
 20
179.597509325278
 30
0.0
 11
59.2570340793808
 21
181.155089036562
 31
0.0
  0
LINE
  5
149
330
1F
100
AcDbEntity
  8
レイヤ0
  6
Continuous
 62
     7
100
AcDbLine
 10
54.25701758339299
 20
190.763948897174
 30
0.0
 11
54.25701758339299
 21
179.597509325278
 31
0.0
  0
LINE
  5
14A
330
1F
100
AcDbEntity
  8
レイヤ0
  6
Continuous
 62
     7
100
AcDbLine
 10
40.2570146965942
 20
178.437511436765
 30
0.0
 11
40.2570146965942
 21
159.786638127966
 31
0.0
  0
LINE
  5
1ED
330
1F
100
AcDbEntity
  8
1
  6
DASH_CENTER
 62
     2
100
AcDbLine
 10
147.6239716651672
 20
169.112074782366
 30
0.0
 11
197.6131047697015
 21
169.112074782366
 31
0.0
  0
LINE
  5
1EE
330
1F
100
AcDbEntity
  8
1
  6
DASH_CENTER
 62
     2
100
AcDbLine
 10
172.618538217435
 20
122.112074782365
 30
0.0
 11
172.618538217435
 21
197.112074782366
 31
0.0
  0
LINE
  5
1EF
330
1F
100
AcDbEntity
  8
レイヤ0
  6
Continuous
 62
     7
100
AcDbLine
 10
178.618538217435
 20
131.312074782365
 30
0.0
 11
178.618538217435
 21
131.012074782365
 31
0.0
  0
LINE
  5
1F0
330
1F
100
AcDbEntity
  8
レイヤ0
  6
Continuous
 62
     7
100
AcDbLine
 10
178.618538217435
 20
128.612074782367
 30
0.0
 11
178.618538217435
 21
128.312074782365
 31
0.0
  0
LINE
  5
1F1
330
1F
100
AcDbEntity
  8
レイヤ0
  6
Continuous
 62
     7
100
AcDbLine
 10
166.6185382174332
 20
131.012074782365
 30
0.0
 11
166.618538217433
 21
131.312074782365
 31
0.0
  0
LINE
  5
1F2
330
1F
100
AcDbEntity
  8
レイヤ0
  6
Continuous
 62
     7
100
AcDbLine
 10
123.757013871776
 20
161.749330728688
 30
0.0
 11
113.757013871775
 21
161.749330728688
 31
0.0
  0
LINE
  5
1F3
330
1F
100
AcDbEntity
  8
レイヤ0
  6
Continuous
 62
     7
100
AcDbLine
 10
123.757013871774
 20
160.512074782366
 30
0.0
 11
113.757013871775
 21
160.512074782367
 31
0.0
  0
LINE
  5
1F4
330
1F
100
AcDbEntity
  8
レイヤ0
  6
Continuous
 62
     7
100
AcDbLine
 10
123.557013871773
 20
160.312074782367
 30
0.0
 11
113.957013871775
 21
160.312074782367
 31
0.0
  0
LINE
  5
1F5
330
1F
100
AcDbEntity
  8
レイヤ0
  6
Continuous
 62
     7
100
AcDbLine
 10
104.553024288949
 20
164.427089177523
 30
0.0
 11
108.053024288949
 21
164.427089177523
 31
0.0
  0
LINE
  5
1F6
330
1F
100
AcDbEntity
  8
レイヤ0
  6
Continuous
 62
     7
100
AcDbLine
 10
108.053024288949
 20
158.117504937346
 30
0.0
 11
108.053024288949
 21
164.427089177523
 31
0.0
  0
LINE
  5
1F7
330
1F
100
AcDbEntity
  8
レイヤ0
  6
Continuous
 62
     7
100
AcDbLine
 10
107.553024288949
 20
157.617504937346
 30
0.0
 11
104.553024288949
 21
157.617504937346
 31
0.0
  0
LINE
  5
1F8
330
1F
100
AcDbEntity
  8
レイヤ0
  6
Continuous
 62
     7
100
AcDbLine
 10
104.553024288949
 20
169.117504937346
 30
0.0
 11
104.553024288949
 21
164.427089177523
 31
0.0
  0
LINE
  5
1F9
330
1F
100
AcDbEntity
  8
レイヤ0
  6
Continuous
 62
     7
100
AcDbLine
 10
104.053024288949
 20
159.117504937346
 30
0.0
 11
103.553024288949
 21
159.117504937346
 31
0.0
  0
LINE
  5
1FA
330
1F
100
AcDbEntity
  8
レイヤ0
  6
Continuous
 62
     7
100
AcDbLine
 10
101.553024288949
 20
169.117504937346
 30
0.0
 11
101.553024288949
 21
155.1174756842241
 31
0.0
  0
LINE
  5
1FB
330
1F
100
AcDbEntity
  8
レイヤ0
  6
Continuous
 62
     7
100
AcDbLine
 10
101.553024288949
 20
169.117504937346
 30
0.0
 11
101.553024288949
 21
155.1174756842241
 31
0.0
  0
LINE
  5
1FC
330
1F
100
AcDbEntity
  8
レイヤ0
  6
Continuous
 62
     7
100
AcDbLine
 10
108.053024288949
 20
164.362074782366
 30
0.0
 11
113.257013871773
 21
164.362074782366
 31
0.0
  0
LINE
  5
1FD
330
1F
100
AcDbEntity
  8
1
  6
Continuous
 62
     2
100
AcDbLine
 10
104.553024288949
 20
164.427089177523
 30
0.0
 11
108.053024288949
 21
173.862078081565
 31
0.0
  0
LINE
  5
1FE
330
1F
100
AcDbEntity
  8
レイヤ0
  6
Continuous
 62
     7
100
AcDbLine
 10
108.053024288949
 20
173.862078081565
 30
0.0
 11
108.053024288949
 21
180.106644627386
 31
0.0
  0
LINE
  5
1FF
330
1F
100
AcDbEntity
  8
レイヤ0
  6
Continuous
 62
     7
100
AcDbLine
 10
104.553024288949
 20
164.427089177523
 30
0.0
 11
104.553024288949
 21
157.617504937346
 31
0.0
  0
LINE
  5
200
330
1F
100
AcDbEntity
  8
1
  6
Continuous
 62
     2
100
AcDbLine
 10
104.553024288949
 20
173.797060387209
 30
0.0
 11
108.053024288949
 21
164.427089177523
 31
0.0
  0
LINE
  5
201
330
1F
100
AcDbEntity
  8
レイヤ0
  6
Continuous
 62
     7
100
AcDbLine
 10
104.553024288949
 20
173.797060387209
 30
0.0
 11
104.553024288949
 21
169.106644627386
 31
0.0
  0
LINE
  5
202
330
1F
100
AcDbEntity
  8
レイヤ0
  6
Continuous
 62
     7
100
AcDbLine
 10
108.053024288949
 20
164.427089177523
 30
0.0
 11
108.053024288949
 21
169.112074782366
 31
0.0
  0
LINE
  5
203
330
1F
100
AcDbEntity
  8
レイヤ0
  6
SXF_____________
 62
     7
100
AcDbLine
 10
91.75701469658704
 20
169.112074782366
 30
0.0
 11
92.053024288948
 21
169.112074782366
 31
0.0
  0
LINE
  5
204
330
1F
100
AcDbEntity
  8
レイヤ0
  6
Continuous
 62
     7
100
AcDbLine
 10
92.053024288948
 20
157.112097051949
 30
0.0
 11
91.757014696593
 21
157.112097051949
 31
0.0
  0
LINE
  5
205
330
1F
100
AcDbEntity
  8
レイヤ0
  6
Continuous
 62
     7
100
AcDbLine
 10
91.757014696593
 20
157.112097051949
 30
0.0
 11
92.053024288948
 21
157.271943208425
 31
0.0
  0
LINE
  5
206
330
1F
100
AcDbEntity
  8
レイヤ0
  6
Continuous
 62
     7
100
AcDbLine
 10
88.257014696595
 20
154.612074782366
 30
0.0
 11
91.257014696595
 21
154.612074782366
 31
0.0
  0
LINE
  5
207
330
1F
100
AcDbEntity
  8
レイヤ0
  6
Continuous
 62
     7
100
AcDbLine
 10
74.257014696594
 20
154.612074782366
 30
0.0
 11
88.257014696595
 21
154.612074782366
 31
0.0
  0
LINE
  5
208
330
1F
100
AcDbEntity
  8
1
  6
Continuous
 62
     7
100
AcDbLine
 10
91.057014696594
 20
147.495494028634
 30
0.0
 11
71.4570146965955
 21
147.495494028634
 31
0.0
  0
LINE
  5
209
330
1F
100
AcDbEntity
  8
1
  6
Continuous
 62
     7
100
AcDbLine
 10
71.4570146965947
 20
145.641360422262
 30
0.0
 11
91.057014696594
 21
145.641360422262
 31
0.0
  0
LINE
  5
20A
330
1F
100
AcDbEntity
  8
1
  6
Continuous
 62
     7
100
AcDbLine
 10
88.257014696594
 20
149.112074782365
 30
0.0
 11
74.257014696594
 21
149.112074782364
 31
0.0
  0
LINE
  5
20B
330
1F
100
AcDbEntity
  8
1
  6
Continuous
 62
     7
100
AcDbLine
 10
74.257014696594
 20
137.112074782365
 30
0.0
 11
88.257014696594
 21
137.112074782365
 31
0.0
  0
LINE
  5
20C
330
1F
100
AcDbEntity
  8
1
  6
Continuous
 62
     7
100
AcDbLine
 10
89.707014696594
 20
136.112074782365
 30
0.0
 11
72.807014696594
 21
136.112074782365
 31
0.0
  0
LINE
  5
20D
330
1F
100
AcDbEntity
  8
1
  6
Continuous
 62
     7
100
AcDbLine
 10
72.807014696594
 20
134.812074782365
 30
0.0
 11
89.707014696594
 21
134.812074782365
 31
0.0
  0
LINE
  5
20E
330
1F
100
AcDbEntity
  8
1
  6
Continuous
 62
     7
100
AcDbLine
 10
89.257014696594
 20
133.812074782365
 30
0.0
 11
73.257014696594
 21
133.812074782365
 31
0.0
  0
LINE
  5
20F
330
1F
100
AcDbEntity
  8
1
  6
Continuous
 62
     7
100
AcDbLine
 10
88.357014696595
 20
131.012074782365
 30
0.0
 11
74.157014696595
 21
131.012074782365
 31
0.0
  0
LINE
  5
210
330
1F
100
AcDbEntity
  8
1
  6
Continuous
 62
     7
100
AcDbLine
 10
74.157014696595
 20
128.612074782365
 30
0.0
 11
88.357014696595
 21
128.612074782365
 31
0.0
  0
LINE
  5
211
330
1F
100
AcDbEntity
  8
レイヤ0
  6
Continuous
 62
     7
100
AcDbLine
 10
87.257014696594
 20
128.612074782365
 30
0.0
 11
87.257014696594
 21
128.312074782365
 31
0.0
  0
LINE
  5
212
330
1F
100
AcDbEntity
  8
レイヤ0
  6
Continuous
 62
     7
100
AcDbLine
 10
75.257014696594
 20
128.612074782365
 30
0.0
 11
75.257014696594
 21
128.312074782365
 31
0.0
  0
LINE
  5
213
330
1F
100
AcDbEntity
  8
1
  6
DASH_CENTER
 62
     2
100
AcDbLine
 10
118.757013871775
 20
197.112074782365
 30
0.0
 11
118.757013871775
 21
194.1120747823659
 31
0.0
  0
LINE
  5
214
330
1F
100
AcDbEntity
  8
1
  6
DASH_CENTER
 62
     2
100
AcDbLine
 10
81.257014696594
 20
172.112074782366
 30
0.0
 11
81.257014696594
 21
122.112074782365
 31
0.0
  0
LINE
  5
215
330
1F
100
AcDbEntity
  8
レイヤ0
  6
Continuous
 62
     7
100
AcDbLine
 10
63.25700851059879
 20
169.112074782366
 30
0.0
 11
63.25700851059931
 21
154.612074782366
 31
0.0
  0
LINE
  5
216
330
1F
100
AcDbEntity
  8
レイヤ0
  6
Continuous
 62
     2
100
AcDbLine
 10
54.25701758339299
 20
159.7866381279668
 30
0.0
 11
40.2570146965942
 21
159.786638127966
 31
0.0
  0
LINE
  5
217
330
1F
100
AcDbEntity
  8
1
  6
Continuous
 62
     7
100
AcDbLine
 10
41.4170187711033
 20
179.597509325278
 30
0.0
 11
41.4170187711033
 21
158.626640239453
 31
0.0
  0
LINE
  5
218
330
1F
100
AcDbEntity
  8
1
  6
Continuous
 62
     7
100
AcDbLine
 10
54.25701758339299
 20
179.595010183069
 30
0.0
 11
54.25701758339299
 21
178.437511436765
 31
0.0
  0
LINE
  5
219
330
1F
100
AcDbEntity
  8
1
  6
Continuous
 62
     7
100
AcDbLine
 10
59.25703407937991
 20
158.626640239453
 30
0.0
 11
59.25703407937991
 21
179.597509325278
 31
0.0
  0
LINE
  5
21A
330
1F
100
AcDbEntity
  8
1
  6
Continuous
 62
     7
100
AcDbLine
 10
54.25701758339299
 20
159.7866381279668
 30
0.0
 11
54.25701758339299
 21
158.626640239453
 31
0.0
  0
LINE
  5
21B
330
1F
100
AcDbEntity
  8
レイヤ0
  6
Continuous
 62
     2
100
AcDbLine
 10
40.2570146965942
 20
178.437511436765
 30
0.0
 11
54.25701758339299
 21
178.437511436765
 31
0.0
  0
LINE
  5
21C
330
1F
100
AcDbEntity
  8
1
  6
Continuous
 62
     7
100
AcDbLine
 10
54.25701758339299
 20
178.437511436765
 30
0.0
 11
54.25701758339299
 21
159.7866381279668
 31
0.0
  0
LINE
  5
21D
330
1F
100
AcDbEntity
  8
レイヤ0
  6
Continuous
 62
     7
100
AcDbLine
 10
54.25701758339299
 20
179.597509325278
 30
0.0
 11
54.25701758339299
 21
179.595010183069
 31
0.0
  0
LINE
  5
21E
330
1F
100
AcDbEntity
  8
1
  6
DASH_CENTER
 62
     2
100
AcDbLine
 10
37.2570146965942
 20
169.112074782366
 30
0.0
 11
126.7570138715598
 21
169.112074782366
 31
0.0
  0
ARC
  5
21F
330
1F
100
AcDbEntity
  8
レイヤ0
  6
Continuous
 62
     7
100
AcDbCircle
 10
58.7570324297824
 20
157.703145333415
 30
0.0
 40
0.5000000064437807
100
AcDbArc
 50
290.5550994873038
 51
0.0
  0
ARC
  5
220
330
1F
100
AcDbEntity
  8
レイヤ0
  6
Continuous
 62
     7
100
AcDbCircle
 10
56.2826589474133
 20
147.606647926584
 30
0.0
 40
0.5000000064439973
100
AcDbArc
 50
270.0
 51
356.9869995117002
  0
ARC
  5
221
330
1F
100
AcDbEntity
  8
レイヤ0
  6
Continuous
 62
     7
100
AcDbCircle
 10
76.307014696594
 20
128.112074782365
 30
0.0
 40
3.0
100
AcDbArc
 50
180.0
 51
270.0
  0
ARC
  5
222
330
1F
100
AcDbEntity
  8
レイヤ0
  6
Continuous
 62
     7
100
AcDbCircle
 10
86.207014696594
 20
128.112074782365
 30
0.0
 40
3.0
100
AcDbArc
 50
270.0
 51
0.0
  0
ARC
  5
223
330
1F
100
AcDbEntity
  8
レイヤ0
  6
Continuous
 62
     7
100
AcDbCircle
 10
71.9570146965949
 20
145.641360422262
 30
0.0
 40
0.500000000000199
100
AcDbArc
 50
180.0
 51
258.4630409671823
  0
ARC
  5
224
330
1F
100
AcDbEntity
  8
レイヤ0
  6
Continuous
 62
     7
100
AcDbCircle
 10
71.257014696594
 20
142.212074782365
 30
0.0
 40
3.0
100
AcDbArc
 50
0.0
 51
78.46304096717023
  0
ARC
  5
225
330
1F
100
AcDbEntity
  8
レイヤ0
  6
Continuous
 62
     7
100
AcDbCircle
 10
91.257014696594
 20
142.212074782365
 30
0.0
 40
3.000000000000197
100
AcDbArc
 50
101.5369590328146
 51
180.0
  0
ARC
  5
226
330
1F
100
AcDbEntity
  8
レイヤ0
  6
Continuous
 62
     7
100
AcDbCircle
 10
90.557014696594
 20
145.641360422262
 30
0.0
 40
0.5000000000003597
100
AcDbArc
 50
281.5369590328081
 51
0.0
  0
ARC
  5
227
330
1F
100
AcDbEntity
  8
レイヤ0
  6
Continuous
 62
     7
100
AcDbCircle
 10
182.618538217435
 20
142.212074782365
 30
0.0
 40
2.9999999999996
100
AcDbArc
 50
98.21321070173083
 51
180.0
  0
ARC
  5
228
330
1F
100
AcDbEntity
  8
レイヤ0
  6
Continuous
 62
     7
100
AcDbCircle
 10
182.118538217435
 20
145.676176397503
 30
0.0
 40
0.5000000000006627
100
AcDbArc
 50
278.213210701778
 51
0.0
  0
ARC
  5
229
330
1F
100
AcDbEntity
  8
レイヤ0
  6
Continuous
 62
     7
100
AcDbCircle
 10
162.618538217435
 20
142.212074782365
 30
0.0
 40
3.0
100
AcDbArc
 50
0.0
 51
81.78678929826918
  0
ARC
  5
22A
330
1F
100
AcDbEntity
  8
レイヤ0
  6
Continuous
 62
     7
100
AcDbCircle
 10
163.118538217435
 20
145.676176397503
 30
0.0
 40
0.5
100
AcDbArc
 50
180.0
 51
261.786789298222
  0
ARC
  5
22B
330
1F
100
AcDbEntity
  8
レイヤ0
  6
Continuous
 62
     7
100
AcDbCircle
 10
167.668538217435
 20
128.112074782365
 30
0.0
 40
3.0
100
AcDbArc
 50
180.0
 51
270.0
  0
ARC
  5
22C
330
1F
100
AcDbEntity
  8
レイヤ0
  6
Continuous
 62
     7
100
AcDbCircle
 10
177.568538217435
 20
128.112074782365
 30
0.0
 40
3.0
100
AcDbArc
 50
270.0
 51
0.0
  0
ARC
  5
22D
330
1F
100
AcDbEntity
  8
レイヤ0
  6
Continuous
 62
     7
100
AcDbCircle
 10
103.553024288949
 20
181.106644627386
 30
0.0
 40
2.0
100
AcDbArc
 50
180.0
 51
270.0
  0
ARC
  5
22E
330
1F
100
AcDbEntity
  8
レイヤ0
  6
Continuous
 62
     7
100
AcDbCircle
 10
104.053024288949
 20
179.606644627385
 30
0.0
 40
0.4999999999990052
100
AcDbArc
 50
270.0
 51
0.0
  0
ARC
  5
22F
330
1F
100
AcDbEntity
  8
レイヤ0
  6
Continuous
 62
     7
100
AcDbCircle
 10
101.053024288949
 20
183.106673880508
 30
0.0
 40
0.5
100
AcDbArc
 50
0.0
 51
90.0
  0
ARC
  5
230
330
1F
100
AcDbEntity
  8
レイヤ0
  6
Continuous
 62
     7
100
AcDbCircle
 10
107.553024288949
 20
180.106644627386
 30
0.0
 40
0.5
100
AcDbArc
 50
0.0
 51
90.0
  0
ARC
  5
231
330
1F
100
AcDbEntity
  8
レイヤ0
  6
Continuous
 62
     7
100
AcDbCircle
 10
92.553024288948
 20
183.106673880509
 30
0.0
 40
0.5
100
AcDbArc
 50
89.99999999988438
 51
180.0
  0
ARC
  5
232
330
1F
100
AcDbEntity
  8
レイヤ0
  6
Continuous
 62
     7
100
AcDbCircle
 10
92.553024288948
 20
155.106633485186
 30
0.0
 40
0.5
100
AcDbArc
 50
180.0
 51
270.0
  0
ARC
  5
233
330
1F
100
AcDbEntity
  8
レイヤ0
  6
Continuous
 62
     7
100
AcDbCircle
 10
125.27463570686
 20
164.307562123562
 30
0.0
 40
2.195558060009563
100
AcDbArc
 50
242.3873814009269
 51
297.6126185987497
  0
ARC
  5
234
330
1F
100
AcDbEntity
  8
レイヤ0
  6
Continuous
 62
     7
100
AcDbCircle
 10
125.27463570686
 20
173.916587441169
 30
0.0
 40
2.195558060003056
100
AcDbArc
 50
62.3873814012499
 51
117.6126185990735
  0
ARC
  5
235
330
1F
100
AcDbEntity
  8
レイヤ0
  6
Continuous
 62
     7
100
AcDbCircle
 10
77.507013871562
 20
169.112074782365
 30
0.0
 40
49.24999999999766
100
AcDbArc
 50
352.1224841356047
 51
7.87751586439646
  0
ARC
  5
236
330
1F
100
AcDbEntity
  8
レイヤ0
  6
Continuous
 62
     7
100
AcDbCircle
 10
118.757013871775
 20
169.112074782365
 30
0.0
 40
8.899999999999721
100
AcDbArc
 50
231.8314071863702
 51
235.8197842754178
  0
ARC
  5
237
330
1F
100
AcDbEntity
  8
レイヤ0
  6
Continuous
 62
     7
100
AcDbCircle
 10
118.757013871775
 20
169.112074782365
 30
0.0
 40
8.89999999999974
100
AcDbArc
 50
304.1802157245875
 51
308.1685928136297
  0
ARC
  5
238
330
1F
100
AcDbEntity
  8
レイヤ0
  6
Continuous
 62
     7
100
AcDbCircle
 10
118.757013871775
 20
169.112074782365
 30
0.0
 40
8.899999999999721
100
AcDbArc
 50
51.83140718637023
 51
55.81978427541249
  0
ARC
  5
239
330
1F
100
AcDbEntity
  8
レイヤ0
  6
Continuous
 62
     7
100
AcDbCircle
 10
118.757013871775
 20
169.112074782365
 30
0.0
 40
8.89999999999918
100
AcDbArc
 50
124.1802157245822
 51
128.1685928136208
  0
ARC
  5
23A
330
1F
100
AcDbEntity
  8
レイヤ0
  6
Continuous
 62
     7
100
AcDbCircle
 10
172.618538217435
 20
169.112074782366
 30
0.0
 40
8.89999999999918
100
AcDbArc
 50
304.1802157245822
 51
55.81978427541419
  0
ARC
  5
23B
330
1F
100
AcDbEntity
  8
レイヤ0
  6
Continuous
 62
     7
100
AcDbCircle
 10
172.618538217435
 20
169.112074782366
 30
0.0
 40
8.899999999998915
100
AcDbArc
 50
124.1802157245911
 51
235.8197842754125
  0
ARC
  5
23C
330
1F
100
AcDbEntity
  8
レイヤ0
  6
Continuous
 62
     7
100
AcDbCircle
 10
172.618538217435
 20
169.112074782366
 30
0.0
 40
14.49999999999971
100
AcDbArc
 50
146.2915552747258
 51
153.7084447252726
  0
ARC
  5
23D
330
1F
100
AcDbEntity
  8
レイヤ0
  6
Continuous
 62
     7
100
AcDbCircle
 10
172.618538217435
 20
169.112074782366
 30
0.0
 40
14.49999999999975
100
AcDbArc
 50
26.29155527472741
 51
33.70844472527092
  0
ARC
  5
23E
330
1F
100
AcDbEntity
  8
レイヤ0
  6
Continuous
 62
     7
100
AcDbCircle
 10
172.618538217435
 20
169.112074782366
 30
0.0
 40
14.49999999999971
100
AcDbArc
 50
326.2915552747258
 51
333.7084447252727
  0
ARC
  5
23F
330
1F
100
AcDbEntity
  8
レイヤ0
  6
Continuous
 62
     7
100
AcDbCircle
 10
172.618538217435
 20
169.112074782366
 30
0.0
 40
14.50000000000019
100
AcDbArc
 50
206.2915552747221
 51
213.708444725272
  0
ARC
  5
240
330
1F
100
AcDbEntity
  8
レイヤ0
  6
Continuous
 62
     7
100
AcDbCircle
 10
177.312418401085
 20
146.008183496804
 30
0.0
 40
0.3000000000002163
100
AcDbArc
 50
307.5602122284719
 51
2.3785200619288
  0
ARC
  5
241
330
1F
100
AcDbEntity
  8
レイヤ0
  6
Continuous
 62
     7
100
AcDbCircle
 10
172.618538217435
 20
186.112074782366
 30
0.0
 40
7.999999999999956
100
AcDbArc
 50
52.43978777153501
 51
127.560212228465
  0
ARC
  5
242
330
1F
100
AcDbEntity
  8
レイヤ0
  6
Continuous
 62
     7
100
AcDbCircle
 10
167.9246580336534
 20
192.2159660676452
 30
0.0
 40
0.299999999856762
100
AcDbArc
 50
127.5602121756762
 51
182.3785200092035
  0
ARC
  5
243
330
1F
100
AcDbEntity
  8
レイヤ0
  6
Continuous
 62
     7
100
AcDbCircle
 10
177.3124184012166
 20
192.2159660676452
 30
0.0
 40
0.2999999998567602
100
AcDbArc
 50
357.6214799907964
 51
52.43978782432383
  0
ARC
  5
244
330
1F
100
AcDbEntity
  8
レイヤ0
  6
Continuous
 62
     7
100
AcDbCircle
 10
167.924658033785
 20
146.008183496804
 30
0.0
 40
0.2999999999999333
100
AcDbArc
 50
177.6214799380712
 51
232.4397877715281
  0
ARC
  5
245
330
1F
100
AcDbEntity
  8
レイヤ0
  6
Continuous
 62
     7
100
AcDbCircle
 10
172.618538217435
 20
152.112074782366
 30
0.0
 40
8.000000000287345
100
AcDbArc
 50
232.4397877715368
 51
307.5602122284632
  0
ARC
  5
246
330
1F
100
AcDbEntity
  8
レイヤ0
  6
Continuous
 62
     7
100
AcDbCircle
 10
172.618538217435
 20
169.112074782366
 30
0.0
 40
14.50000000000047
100
AcDbArc
 50
289.2637875699337
 51
71.48060659627228
  0
ARC
  5
247
330
1F
100
AcDbEntity
  8
レイヤ0
  6
Continuous
 62
     7
100
AcDbCircle
 10
172.618538217435
 20
169.112074782366
 30
0.0
 40
14.4999999999995
100
AcDbArc
 50
108.5193934037316
 51
250.7362124300663
  0
ARC
  5
248
330
1F
100
AcDbEntity
  8
レイヤ0
  6
Continuous
 62
     7
100
AcDbCircle
 10
123.450894055425
 20
146.008183496804
 30
0.0
 40
0.300000000000225
100
AcDbArc
 50
307.5602122284741
 51
2.37852006192869
  0
ARC
  5
249
330
1F
100
AcDbEntity
  8
レイヤ0
  6
Continuous
 62
     7
100
AcDbCircle
 10
118.757013871775
 20
186.112074782366
 30
0.0
 40
7.999999999999956
100
AcDbArc
 50
52.43978777153501
 51
127.560212228465
  0
ARC
  5
24A
330
1F
100
AcDbEntity
  8
レイヤ0
  6
Continuous
 62
     7
100
AcDbCircle
 10
114.063133687993
 20
192.2159660676454
 30
0.0
 40
0.2999999998564016
100
AcDbArc
 50
127.5602121756401
 51
182.378520009239
  0
ARC
  5
24B
330
1F
100
AcDbEntity
  8
レイヤ0
  6
Continuous
 62
     7
100
AcDbCircle
 10
123.450894055557
 20
192.2159660676454
 30
0.0
 40
0.2999999998563982
100
AcDbArc
 50
357.621479990761
 51
52.43978782435993
  0
ARC
  5
24C
330
1F
100
AcDbEntity
  8
レイヤ0
  6
Continuous
 62
     7
100
AcDbCircle
 10
114.063133688125
 20
146.008183496804
 30
0.0
 40
0.2999999999999475
100
AcDbArc
 50
177.6214799380713
 51
232.4397877715259
  0
ARC
  5
24D
330
1F
100
AcDbEntity
  8
レイヤ0
  6
Continuous
 62
     7
100
AcDbCircle
 10
118.757013871775
 20
152.112074782366
 30
0.0
 40
8.000000000287345
100
AcDbArc
 50
232.4397877715368
 51
307.5602122284632
  0
ARC
  5
24E
330
1F
100
AcDbEntity
  8
レイヤ0
  6
Continuous
 62
     7
100
AcDbCircle
 10
172.618538217435
 20
169.112074782366
 30
0.0
 40
11.49456984502009
100
AcDbArc
 50
112.9078793568592
 51
155.9900499535933
  0
ARC
  5
24F
330
1F
100
AcDbEntity
  8
レイヤ0
  6
Continuous
 62
     7
100
AcDbCircle
 10
172.618538217435
 20
169.112074782366
 30
0.0
 40
11.4945698450198
100
AcDbArc
 50
204.0099500464111
 51
247.0921206431427
  0
ARC
  5
250
330
1F
100
AcDbEntity
  8
レイヤ0
  6
Continuous
 62
     7
100
AcDbCircle
 10
172.618538217435
 20
169.112074782366
 30
0.0
 40
11.494569845021
100
AcDbArc
 50
292.9078793568572
 51
335.9900499535889
  0
ARC
  5
251
330
1F
100
AcDbEntity
  8
レイヤ0
  6
Continuous
 62
     7
100
AcDbCircle
 10
172.618538217435
 20
169.112074782366
 30
0.0
 40
11.49456984501941
100
AcDbArc
 50
24.00995004640669
 51
67.09212064314086
  0
ARC
  5
252
330
1F
100
AcDbEntity
  8
レイヤ0
  6
Continuous
 62
     7
100
AcDbCircle
 10
172.618538217435
 20
169.112074782366
 30
0.0
 40
21.99456655226728
100
AcDbArc
 50
291.0707628214259
 51
77.06104664082442
  0
ARC
  5
253
330
1F
100
AcDbEntity
  8
レイヤ0
  6
Continuous
 62
     7
100
AcDbCircle
 10
172.618538217435
 20
169.112074782366
 30
0.0
 40
21.99456655226652
100
AcDbArc
 50
102.9389533591757
 51
248.9292371785775
  0
ARC
  5
254
330
1F
100
AcDbEntity
  8
レイヤ0
  6
Continuous
 62
     7
100
AcDbCircle
 10
58.7570324297824
 20
180.521004231316
 30
0.0
 40
0.5000000064436989
100
AcDbArc
 50
0.0
 51
69.44490051269615
  0
ARC
  5
255
330
1F
100
AcDbEntity
  8
レイヤ0
  6
Continuous
 62
     7
100
AcDbCircle
 10
56.2826589474133
 20
190.617501638147
 30
0.0
 40
0.5000000064437959
100
AcDbArc
 50
3.01300048830305
 51
90.0
  0
ARC
  5
256
330
1F
100
AcDbEntity
  8
レイヤ0
  6
Continuous
 62
     7
100
AcDbCircle
 10
107.553024288949
 20
158.117504937346
 30
0.0
 40
0.5
100
AcDbArc
 50
270.0
 51
0.0
  0
ARC
  5
257
330
1F
100
AcDbEntity
  8
レイヤ0
  6
Continuous
 62
     7
100
AcDbCircle
 10
103.553024288949
 20
157.117504937346
 30
0.0
 40
2.0
100
AcDbArc
 50
90.0
 51
180.0
  0
ARC
  5
258
330
1F
100
AcDbEntity
  8
レイヤ0
  6
Continuous
 62
     7
100
AcDbCircle
 10
101.053024288949
 20
155.1174756842241
 30
0.0
 40
0.5
100
AcDbArc
 50
270.0
 51
0.0
  0
ARC
  5
259
330
1F
100
AcDbEntity
  8
レイヤ0
  6
Continuous
 62
     7
100
AcDbCircle
 10
74.157014696595
 20
129.812074782365
 30
0.0
 40
1.200000000000017
100
AcDbArc
 50
90.0
 51
270.0
  0
ARC
  5
25A
330
1F
100
AcDbEntity
  8
レイヤ0
  6
Continuous
 62
     7
100
AcDbCircle
 10
88.357014696595
 20
129.812074782365
 30
0.0
 40
1.199999999999989
100
AcDbArc
 50
270.0
 51
0.0
  0
ARC
  5
25B
330
1F
100
AcDbEntity
  8
レイヤ0
  6
Continuous
 62
     7
100
AcDbCircle
 10
88.357014696595
 20
129.812074782365
 30
0.0
 40
1.200000000000003
100
AcDbArc
 50
0.0
 51
90.0
  0
CIRCLE
  5
25C
330
1F
100
AcDbEntity
  8
レイヤ0
  6
Continuous
 62
     7
100
AcDbCircle
 10
172.618538217435
 20
169.112074782366
 30
0.0
 40
6.997142273839984
  0
CIRCLE
  5
25D
330
1F
100
AcDbEntity
  8
レイヤ0
  6
Continuous
 62
     7
100
AcDbCircle
 10
172.618538217435
 20
169.112074782366
 30
0.0
 40
6.900000000000006
  0
LWPOLYLINE
  5
25E
330
1F
100
AcDbEntity
  8
レイヤ0
  6
Continuous
 62
     7
100
AcDbPolyline
 90
      163
 70
     1
 43
0.0
 10
179.718538217435
 20
131.012074782365
 10
179.765649996346
 20
131.011149625854
 10
179.812689132309
 20
131.008375582845
 10
179.859583094384
 20
131.003756930711
 10
179.906259575483
 20
130.997300791079
 10
179.952646603854
 20
130.989017118849
 10
179.998672654062
 20
130.978918686842
 10
180.044266757273
 20
130.967021066109
 10
180.089358610685
 20
130.953342601919
 10
180.133878685928
 20
130.937904385472
 10
180.177758336273
 20
130.920730221379
 10
180.22092990248
 20
130.901846590955
 10
180.263326817123
 20
130.881282611391
 10
180.304883707231
 20
130.859069990852
 10
180.345536495094
 20
130.83524297959
 10
180.385222497059
 20
130.809838317128
 10
180.423880520186
 20
130.782895175615
 10
180.461450956607
 20
130.754455099422
 10
180.497875875431
 20
130.724561941085
 10
180.533099112075
 20
130.693261793688
 10
180.567066354859
 20
130.660602919789
 10
180.599725228758
 20
130.626635677004
 10
180.631025376155
 20
130.591412440361
 10
180.660918534492
 20
130.554987521537
 10
180.689358610685
 20
130.517417085116
 10
180.716301752198
 20
130.478759061989
 10
180.74170641466
 20
130.439073060024
 10
180.765533425922
 20
130.398420272161
 10
180.787746046461
 20
130.356863382053
 10
180.808310026025
 20
130.31446646741
 10
180.827193656449
 20
130.271294901203
 10
180.844367820542
 20
130.227415250858
 10
180.859806036989
 20
130.182895175615
 10
180.873484501179
 20
130.137803322203
 10
180.885382121912
 20
130.092209218992
 10
180.895480553919
 20
130.046183168784
 10
180.903764226149
 20
129.999796140413
 10
180.910220365781
 20
129.953119659314
 10
180.914839017915
 20
129.906225697239
 10
180.917613060924
 20
129.859186561276
 10
180.918538217435
 20
129.812074782365
 10
180.917613060924
 20
129.764963003454
 10
180.914839017915
 20
129.717923867492
 10
180.910220365781
 20
129.671029905416
 10
180.903764226149
 20
129.624353424317
 10
180.895480553919
 20
129.577966395946
 10
180.885382121912
 20
129.531940345738
 10
180.873484501179
 20
129.486346242527
 10
180.859806036989
 20
129.441254389115
 10
180.844367820542
 20
129.396734313872
 10
180.827193656449
 20
129.352854663527
 10
180.808310026025
 20
129.30968309732
 10
180.787746046461
 20
129.267286182678
 10
180.765533425922
 20
129.225729292569
 10
180.74170641466
 20
129.185076504706
 10
180.716301752198
 20
129.145390502741
 10
180.689358610685
 20
129.106732479614
 10
180.660918534492
 20
129.069162043193
 10
180.631025376155
 20
129.032737124369
 10
180.599725228758
 20
128.997513887725
 10
180.567066354859
 20
128.963546644941
 10
180.533099112075
 20
128.930887771042
 10
180.497875875431
 20
128.899587623645
 10
180.461450956607
 20
128.869694465308
 10
180.423880520186
 20
128.841254389115
 10
180.385222497059
 20
128.814311247602
 10
180.345536495094
 20
128.78890658514
 10
180.304883707231
 20
128.765079573878
 10
180.263326817123
 20
128.742866953339
 10
180.22092990248
 20
128.722302973775
 10
180.177758336273
 20
128.703419343352
 10
180.133878685928
 20
128.686245179258
 10
180.089358610685
 20
128.670806962811
 10
180.044266757273
 20
128.657128498621
 10
179.998672654062
 20
128.645230877888
 10
179.952646603854
 20
128.635132445881
 10
179.906259575483
 20
128.626848773651
 10
179.859583094385
 20
128.620392634019
 10
179.812689132309
 20
128.615773981885
 10
179.765649996346
 20
128.612999938876
 10
179.718538217435
 20
128.612074782367
 10
165.518538217435
 20
128.612074782367
 10
165.471426438525
 20
128.612999938876
 10
165.424387302562
 20
128.615773981885
 10
165.377493340486
 20
128.620392634019
 10
165.330816859387
 20
128.626848773651
 10
165.284429831016
 20
128.635132445881
 10
165.238403780808
 20
128.645230877888
 10
165.192809677598
 20
128.65712849862
 10
165.147717824186
 20
128.670806962811
 10
165.103197748943
 20
128.686245179258
 10
165.059318098597
 20
128.703419343351
 10
165.016146532391
 20
128.722302973775
 10
164.973749617748
 20
128.742866953339
 10
164.932192727639
 20
128.765079573877
 10
164.891539939776
 20
128.78890658514
 10
164.851853937812
 20
128.814311247602
 10
164.813195914684
 20
128.841254389115
 10
164.775625478264
 20
128.869694465308
 10
164.739200559439
 20
128.899587623645
 10
164.703977322796
 20
128.930887771042
 10
164.670010080012
 20
128.963546644941
 10
164.637351206113
 20
128.997513887725
 10
164.606051058715
 20
129.032737124368
 10
164.576157900379
 20
129.069162043193
 10
164.547717824185
 20
129.106732479614
 10
164.520774682672
 20
129.145390502741
 10
164.49537002021
 20
129.185076504705
 10
164.471543008948
 20
129.225729292568
 10
164.449330388409
 20
129.267286182677
 10
164.428766408845
 20
129.30968309732
 10
164.409882778422
 20
129.352854663526
 10
164.392708614328
 20
129.396734313871
 10
164.377270397881
 20
129.441254389115
 10
164.363591933691
 20
129.486346242526
 10
164.351694312958
 20
129.531940345737
 10
164.341595880951
 20
129.577966395945
 10
164.333312208721
 20
129.624353424316
 10
164.326856069089
 20
129.671029905415
 10
164.322237416955
 20
129.717923867491
 10
164.319463373946
 20
129.764963003454
 10
164.318538217435
 20
129.812074782365
 10
164.319463373946
 20
129.859186561275
 10
164.322237416955
 20
129.906225697238
 10
164.326856069089
 20
129.953119659314
 10
164.333312208721
 20
129.999796140413
 10
164.341595880951
 20
130.046183168784
 10
164.351694312958
 20
130.092209218992
 10
164.363591933691
 20
130.137803322203
 10
164.377270397881
 20
130.182895175614
 10
164.392708614328
 20
130.227415250857
 10
164.409882778421
 20
130.271294901203
 10
164.428766408845
 20
130.314466467409
 10
164.449330388409
 20
130.356863382052
 10
164.471543008948
 20
130.398420272161
 10
164.49537002021
 20
130.439073060024
 10
164.520774682672
 20
130.478759061988
 10
164.547717824185
 20
130.517417085116
 10
164.576157900378
 20
130.554987521536
 10
164.606051058715
 20
130.591412440361
 10
164.637351206112
 20
130.626635677004
 10
164.670010080011
 20
130.660602919788
 10
164.703977322795
 20
130.693261793688
 10
164.739200559439
 20
130.724561941085
 10
164.775625478263
 20
130.754455099422
 10
164.813195914684
 20
130.782895175615
 10
164.851853937811
 20
130.809838317128
 10
164.891539939776
 20
130.83524297959
 10
164.932192727638
 20
130.859069990852
 10
164.973749617747
 20
130.881282611391
 10
165.01614653239
 20
130.901846590955
 10
165.059318098597
 20
130.920730221378
 10
165.103197748942
 20
130.937904385472
 10
165.147717824185
 20
130.953342601919
 10
165.192809677597
 20
130.967021066109
 10
165.238403780807
 20
130.978918686842
 10
165.284429831015
 20
130.989017118849
 10
165.330816859386
 20
130.997300791079
 10
165.377493340485
 20
131.003756930711
 10
165.424387302561
 20
131.008375582845
 10
165.471426438524
 20
131.011149625854
 10
165.518538217435
 20
131.012074782365
 10
179.718538217435
 20
131.012074782365
  0
SOLID
  5
25F
330
1F
100
AcDbEntity
  8
1
 62
     2
100
AcDbTrace
 10
50.87353847510087
 20
155.3651594554295
 30
0.0
 11
50.07543762342439
 21
155.8259431969854
 31
0.0
 12
52.22448804926262
 22
158.626640239453
 32
0.0
 13
52.22448804926262
 23
158.626640239453
 33
0.0
  0
LEADER
  5
260
330
1F
100
AcDbEntity
  8
1
  6
Continuous
 62
     2
100
AcDbLeader
  3
Standard
 71
     0
 76
     3
 10
52.22448804926262
 20
158.626640239453
 30
0.0
 10
39.6174291527131
 20
136.790573696616
 30
0.0
 10
25.7147075806583
 20
136.790573696616
 30
0.0
  0
MTEXT
  5
262
330
1F
100
AcDbEntity
  8
1
 62
     7
100
AcDbMText
 10
32.5354286665177
 20
139.790573696616
 30
0.0
 40
3.5
 41
0.0
 71
     5
 72
     1
  1
PJ1/2
  7
CONVERTER_12
 73
     1
 44
0.7202881152461
  0
MTEXT
  5
263
330
1F
100
AcDbEntity
  8
1
 62
     7
100
AcDbMText
 10
93.75
 20
17.0
 30
0.0
 40
3.5
 41
0.0
 71
     5
 72
     1
  1
1
  7
CONVERTER_12
 73
     1
 44
0.7202881152461
  0
MTEXT
  5
264
330
1F
100
AcDbEntity
  8
1
 62
     7
100
AcDbMText
 10
85.25
 20
17.0
 30
0.0
 40
3.5
 41
0.0
 71
     5
 72
     1
  1
1
  7
CONVERTER_12
 73
     1
 44
0.7202881152461
  0
MTEXT
  5
265
330
1F
100
AcDbEntity
  8
1
 62
     7
100
AcDbMText
 10
57.0
 20
22.75
 30
0.0
 40
3.0
 41
0.0
 71
     5
 72
     1
  1
ガーデン水栓(一文字ハンドル)
  7
CONVERTER_11
 73
     1
 44
0.54545454545455
  0
MTEXT
  5
266
330
1F
100
AcDbEntity
  8
1
 62
     7
100
AcDbMText
 10
57.0
 20
12.25
 30
0.0
 40
3.5
 41
0.0
 71
     5
 72
     1
  1
Y1812B-13
  7
CONVERTER_12
 73
     1
 44
0.7202881152461
  0
MTEXT
  5
267
330
1F
100
AcDbEntity
  8
1
 62
     7
100
AcDbMText
 10
57.0
 20
16.25
 30
0.0
 40
3.5
 41
0.0
 71
     5
 72
     1
  1
Y1812-13
  7
CONVERTER_12
 73
     1
 44
0.7202881152461
  0
DIMENSION
  5
272
330
1F
100
AcDbEntity
  8
1
100
AcDbDimension
  2
*D2
 10
71.257008510599
 20
183.612074782366
 30
0.0
 11
68.507008510599
 21
176.362074782366
 31
0.0
 70
    32
  1
<>
 71
     5
 42
-1.0
 53
90.0
  3
ME10_DIM_10
100
AcDbAlignedDimension
 13
63.25700851059931
 23
154.612074782366
 33
0.0
 14
63.25700851059921
 24
183.612074782366
 34
0.0
 50
90.0
100
AcDbRotatedDimension
  0
DIMENSION
  5
27D
330
1F
100
AcDbEntity
  8
1
100
AcDbDimension
  2
*D3
 10
126.7570138715598
 20
204.1120747823659
 30
0.0
 11
90.50701572747639
 21
206.8620747823659
 31
0.0
 70
    32
  1
72リフト7
 71
     5
 42
-1.0
 53
0.00013888888889
  3
ME10_DIM_11
100
AcDbAlignedDimension
 13
54.25701758339299
 23
190.763948897174
 33
0.0
 14
126.7570138715598
 24
169.112074782366
 34
0.0
100
AcDbRotatedDimension
  0
DIMENSION
  5
288
330
1F
100
AcDbEntity
  8
1
100
AcDbDimension
  2
*D4
 10
40.2570146965942
 20
115.112074782365
 30
0.0
 11
47.2570161399936
 21
117.862074782365
 31
0.0
 70
    32
  1
14
 71
     5
 42
-1.0
 53
0.00013888888889
  3
ME10_DIM_12
100
AcDbAlignedDimension
 13
54.25701758339299
 23
147.460200667557
 33
0.0
 14
40.2570146965942
 24
159.786638127966
 34
0.0
100
AcDbRotatedDimension
  0
DIMENSION
  5
293
330
1F
100
AcDbEntity
  8
1
100
AcDbDimension
  2
*D5
 10
54.25701758339299
 20
115.112074782365
 30
0.0
 11
67.7570161399935
 21
117.862074782365
 31
0.0
 70
    32
  1
27
 71
     5
 42
-1.0
 53
0.00013888888889
  3
ME10_DIM_13
100
AcDbAlignedDimension
 13
81.257014696594
 23
122.112074782365
 33
0.0
 14
54.25701758339299
 24
147.460200667557
 34
0.0
100
AcDbRotatedDimension
  0
DIMENSION
  5
29E
330
1F
100
AcDbEntity
  8
1
100
AcDbDimension
  2
*D6
 10
136.7570138715598
 20
169.1120747823661
 30
0.0
 11
134.0070138715598
 21
136.1120747823653
 31
0.0
 70
    32
  1
<>
 71
     5
 42
-1.0
 53
90.0
  3
ME10_DIM_14
100
AcDbAlignedDimension
 13
86.207014696594
 23
125.112074782365
 33
0.0
 14
129.7570138715598
 24
169.112074782366
 34
0.0
 50
90.0
100
AcDbRotatedDimension
  0
DIMENSION
  5
2A9
330
1F
100
AcDbEntity
  8
1
100
AcDbDimension
  2
*D7
 10
73.307014696594
 20
107.112074782365
 30
0.0
 11
81.257014696594
 21
110.037074782365
 31
0.0
 70
    32
  1
<>
 71
     5
 42
-1.0
 53
0.00013888888889
  3
ME10_DIM_15
100
AcDbAlignedDimension
 13
89.207014696594
 23
128.112074782365
 33
0.0
 14
73.307014696594
 24
128.112074782365
 34
0.0
100
AcDbRotatedDimension
  0
DIMENSION
  5
2B4
330
1F
100
AcDbEntity
  8
1
100
AcDbDimension
  2
*D8
 10
32.2570146965942
 20
191.117503287746
 30
0.0
 11
29.5070146965942
 21
169.112074782366
 31
0.0
 70
    32
  1
{\Fgdt;n}44
 71
     5
 42
-1.0
 53
90.0
  3
ME10_DIM_16
100
AcDbAlignedDimension
 13
54.61060908993861
 23
147.106646276985
 33
0.0
 14
54.61060908993861
 24
191.117503287746
 34
0.0
 50
90.0
100
AcDbRotatedDimension
  0
DIMENSION
  5
2BF
330
1F
100
AcDbEntity
  8
1
100
AcDbDimension
  2
*D9
 10
144.7570138715598
 20
194.1120747823659
 30
0.0
 11
142.0070138715598
 21
169.112074782366
 31
0.0
 70
    32
  1
<>
 71
     5
 42
-1.0
 53
90.0
  3
ME10_DIM_17
100
AcDbAlignedDimension
 13
118.757013871775
 23
144.1120747820787
 33
0.0
 14
118.757013871775
 24
194.1120747823659
 34
0.0
 50
90.0
100
AcDbRotatedDimension
  0
ENDSEC
  0
SECTION
  2
OBJECTS
  0
DICTIONARY
  5
C
330
0
100
AcDbDictionary
281
     1
  3
ACAD_GROUP
350
D
  3
ACAD_LAYOUT
350
1A
  3
ACAD_MATERIAL
350
3B
  3
ACAD_MLEADERSTYLE
350
2C2
  3
ACAD_MLINESTYLE
350
17
  3
ACAD_PLOTSETTINGS
350
19
  3
ACAD_PLOTSTYLENAME
350
E
  3
ACAD_VISUALSTYLE
350
2A
  3
AcDbVariableDictionary
350
2C0
  0
DICTIONARY
  5
D
102
{ACAD_REACTORS
330
C
102
}
330
C
100
AcDbDictionary
281
     1
  0
DICTIONARY
  5
1A
102
{ACAD_REACTORS
330
C
102
}
330
C
100
AcDbDictionary
281
     1
  3
Layout1
350
1E
  3
Layout2
350
26
  3
Model
350
22
  0
DICTIONARY
  5
3B
102
{ACAD_REACTORS
330
C
102
}
330
C
100
AcDbDictionary
281
     1
  3
ByBlock
350
3D
  3
ByLayer
350
3C
  3
Global
350
3E
  0
DICTIONARY
  5
2C2
102
{ACAD_REACTORS
330
C
102
}
330
C
100
AcDbDictionary
281
     1
  0
DICTIONARY
  5
17
102
{ACAD_REACTORS
330
C
102
}
330
C
100
AcDbDictionary
281
     1
  3
Standard
350
18
  0
DICTIONARY
  5
19
102
{ACAD_REACTORS
330
C
102
}
330
C
100
AcDbDictionary
281
     1
  0
ACDBDICTIONARYWDFLT
  5
E
102
{ACAD_REACTORS
330
C
102
}
330
C
100
AcDbDictionary
281
     1
  3
Normal
350
F
100
AcDbDictionaryWithDefault
340
F
  0
DICTIONARY
  5
2A
102
{ACAD_REACTORS
330
C
102
}
330
C
100
AcDbDictionary
281
     1
  3
2dWireframe
350
2F
  3
3D Hidden
350
31
  3
3dWireframe
350
30
  3
Basic
350
32
  3
Brighten
350
36
  3
ColorChange
350
3A
  3
Conceptual
350
34
  3
Dim
350
35
  3
Facepattern
350
39
  3
Flat
350
2B
  3
FlatWithEdges
350
2C
  3
Gouraud
350
2D
  3
GouraudWithEdges
350
2E
  3
Linepattern
350
38
  3
Realistic
350
33
  3
Thicken
350
37
  0
DICTIONARY
  5
2C0
102
{ACAD_REACTORS
330
C
102
}
330
C
100
AcDbDictionary
281
     1
  3
DIMASSOC
350
2C3
  3
HIDETEXT
350
2C4
  0
LAYOUT
  5
1E
102
{ACAD_REACTORS
330
1A
102
}
330
1A
100
AcDbPlotSettings
  1

  2
none_device
  4

  6

 40
0.0
 41
0.0
 42
0.0
 43
0.0
 44
0.0
 45
0.0
 46
0.0
 47
0.0
 48
0.0
 49
0.0
140
0.0
141
0.0
142
1.0
143
1.0
 70
   688
 72
     0
 73
     0
 74
     5
  7

 75
    16
147
1.0
148
0.0
149
0.0
100
AcDbLayout
  1
Layout1
 70
     1
 71
     1
 10
0.0
 20
0.0
 11
12.0
 21
9.0
 12
0.0
 22
0.0
 32
0.0
 14
1.00000000000000E+20
 24
1.00000000000000E+20
 34
1.00000000000000E+20
 15
-1.00000000000000E+20
 25
-1.00000000000000E+20
 35
-1.00000000000000E+20
146
0.0
 13
0.0
 23
0.0
 33
0.0
 16
1.0
 26
0.0
 36
0.0
 17
0.0
 27
1.0
 37
0.0
 76
     0
330
1B
  0
LAYOUT
  5
26
102
{ACAD_REACTORS
330
1A
102
}
330
1A
100
AcDbPlotSettings
  1

  2
none_device
  4

  6

 40
0.0
 41
0.0
 42
0.0
 43
0.0
 44
0.0
 45
0.0
 46
0.0
 47
0.0
 48
0.0
 49
0.0
140
0.0
141
0.0
142
1.0
143
1.0
 70
   688
 72
     0
 73
     0
 74
     5
  7

 75
    16
147
1.0
148
0.0
149
0.0
100
AcDbLayout
  1
Layout2
 70
     1
 71
     2
 10
0.0
 20
0.0
 11
0.0
 21
0.0
 12
0.0
 22
0.0
 32
0.0
 14
0.0
 24
0.0
 34
0.0
 15
0.0
 25
0.0
 35
0.0
146
0.0
 13
0.0
 23
0.0
 33
0.0
 16
1.0
 26
0.0
 36
0.0
 17
0.0
 27
1.0
 37
0.0
 76
     0
330
23
  0
LAYOUT
  5
22
102
{ACAD_REACTORS
330
1A
102
}
330
1A
100
AcDbPlotSettings
  1

  2
none_device
  4

  6

 40
0.0
 41
0.0
 42
0.0
 43
0.0
 44
0.0
 45
0.0
 46
0.0
 47
0.0
 48
0.0
 49
0.0
140
0.0
141
0.0
142
1.0
143
1.0
 70
  1712
 72
     0
 73
     0
 74
     0
  7

 75
     0
147
1.0
148
0.0
149
0.0
100
AcDbLayout
  1
Model
 70
     1
 71
     0
 10
0.0
 20
0.0
 11
12.0
 21
9.0
 12
0.0
 22
0.0
 32
0.0
 14
0.0
 24
0.0
 34
0.0
 15
210.0
 25
297.0
 35
0.0
146
0.0
 13
0.0
 23
0.0
 33
0.0
 16
1.0
 26
0.0
 36
0.0
 17
0.0
 27
1.0
 37
0.0
 76
     0
330
1F
331
29
  0
MATERIAL
  5
3D
102
{ACAD_REACTORS
330
3B
102
}
102
{ACAD_XDICTIONARY
360
2E7
102
}
330
3B
100
AcDbMaterial
  1
ByBlock
  0
MATERIAL
  5
3C
102
{ACAD_REACTORS
330
3B
102
}
102
{ACAD_XDICTIONARY
360
2E5
102
}
330
3B
100
AcDbMaterial
  1
ByLayer
  0
MATERIAL
  5
3E
102
{ACAD_REACTORS
330
3B
102
}
102
{ACAD_XDICTIONARY
360
2E9
102
}
330
3B
100
AcDbMaterial
  1
Global
  0
MLINESTYLE
  5
18
102
{ACAD_REACTORS
330
17
102
}
330
17
100
AcDbMlineStyle
  2
Standard
 70
     0
  3

 62
   256
 51
90.0
 52
90.0
 71
     2
 49
0.5
 62
   256
  6
BYLAYER
 49
-0.5
 62
   256
  6
BYLAYER
  0
ACDBPLACEHOLDER
  5
F
102
{ACAD_REACTORS
330
E
102
}
330
E
  0
VISUALSTYLE
  5
2F
102
{ACAD_REACTORS
330
2A
102
}
102
{ACAD_XDICTIONARY
360
2CD
102
}
330
2A
100
AcDbVisualStyle
  2
2dWireframe
 70
     4
 71
     0
 72
     2
 73
     0
 90
        0
 40
-0.6
 41
-30.0
 62
     5
 63
     7
 74
     1
 91
        4
 64
     7
 65
   257
 75
     1
175
     1
 42
1.0
 92
        0
 66
   257
 43
1.0
 76
     1
 77
     6
 78
     2
 67
     7
 79
     5
170
     0
171
     0
290
     0
174
     0
 93
        1
 44
0.0
173
     0
291
     0
 45
0.0
1001
ACAD
1000
AcDbSavedByObjectVersion
1070
     0
  0
VISUALSTYLE
  5
31
102
{ACAD_REACTORS
330
2A
102
}
102
{ACAD_XDICTIONARY
360
2D1
102
}
330
2A
100
AcDbVisualStyle
  2
3D Hidden
 70
     6
 71
     1
 72
     2
 73
     2
 90
        0
 40
-0.6
 41
-30.0
 62
     5
 63
     7
 74
     2
 91
        2
 64
     7
 65
   257
 75
     2
175
     1
 42
40.0
 92
        0
 66
   257
 43
1.0
 76
     1
 77
     6
 78
     2
 67
     7
 79
     3
170
     0
171
     0
290
     0
174
     0
 93
        1
 44
0.0
173
     0
291
     0
 45
0.0
1001
ACAD
1000
AcDbSavedByObjectVersion
1070
     0
  0
VISUALSTYLE
  5
30
102
{ACAD_REACTORS
330
2A
102
}
102
{ACAD_XDICTIONARY
360
2CF
102
}
330
2A
100
AcDbVisualStyle
  2
3dWireframe
 70
     5
 71
     0
 72
     2
 73
     0
 90
        0
 40
-0.6
 41
-30.0
 62
     5
 63
     7
 74
     1
 91
        4
 64
     7
 65
   257
 75
     1
175
     1
 42
1.0
 92
        0
 66
   257
 43
1.0
 76
     1
 77
     6
 78
     2
 67
     7
 79
     5
170
     0
171
     0
290
     0
174
     0
 93
        1
 44
0.0
173
     0
291
     0
 45
0.0
1001
ACAD
1000
AcDbSavedByObjectVersion
1070
     0
  0
VISUALSTYLE
  5
32
102
{ACAD_REACTORS
330
2A
102
}
102
{ACAD_XDICTIONARY
360
2D3
102
}
330
2A
100
AcDbVisualStyle
  2
Basic
 70
     7
 71
     1
 72
     0
 73
     1
 90
        0
 40
-0.6
 41
-30.0
 62
     5
 63
     7
 74
     0
 91
        4
 64
     7
 65
   257
 75
     1
175
     1
 42
1.0
 92
        8
 66
     7
 43
1.0
 76
     1
 77
     6
 78
     2
 67
     7
 79
     5
170
     0
171
     0
290
     0
174
     0
 93
        1
 44
0.0
173
     0
291
     1
 45
0.0
1001
ACAD
1000
AcDbSavedByObjectVersion
1070
     0
  0
VISUALSTYLE
  5
36
102
{ACAD_REACTORS
330
2A
102
}
102
{ACAD_XDICTIONARY
360
2DB
102
}
330
2A
100
AcDbVisualStyle
  2
Brighten
 70
    12
 71
     2
 72
     2
 73
     0
 90
        0
 40
-0.6
 41
-30.0
 62
     5
 63
     7
 74
     1
 91
        4
 64
     7
 65
   257
 75
     1
175
     1
 42
1.0
 92
        8
 66
     7
 43
1.0
 76
     1
 77
     6
 78
     2
 67
     7
 79
     5
170
     0
171
     0
290
     0
174
     0
 93
        1
 44
50.0
173
     0
291
     1
 45
0.0
1001
ACAD
1000
AcDbSavedByObjectVersion
1070
     0
  0
VISUALSTYLE
  5
3A
102
{ACAD_REACTORS
330
2A
102
}
102
{ACAD_XDICTIONARY
360
2E3
102
}
330
2A
100
AcDbVisualStyle
  2
ColorChange
 70
    16
 71
     2
 72
     2
 73
     3
 90
        0
 40
-0.6
 41
-30.0
 62
     5
 63
     8
 74
     1
 91
        4
 64
     7
 65
   257
 75
     1
175
     1
 42
1.0
 92
        8
 66
     8
 43
1.0
 76
     1
 77
     6
 78
     2
 67
     7
 79
     5
170
     0
171
     0
290
     0
174
     0
 93
        1
 44
0.0
173
     0
291
     1
 45
0.0
1001
ACAD
1000
AcDbSavedByObjectVersion
1070
     0
  0
VISUALSTYLE
  5
34
102
{ACAD_REACTORS
330
2A
102
}
102
{ACAD_XDICTIONARY
360
2D7
102
}
330
2A
100
AcDbVisualStyle
  2
Conceptual
 70
     9
 71
     3
 72
     2
 73
     0
 90
        0
 40
-0.6
 41
-30.0
 62
     5
 63
     7
 74
     2
 91
        2
 64
     7
 65
   257
 75
     1
175
     1
 42
40.0
 92
        8
 66
     7
 43
1.0
 76
     1
 77
     6
 78
     2
 67
     7
 79
     3
170
     0
171
     0
290
     0
174
     0
 93
        1
 44
0.0
173
     0
291
     0
 45
0.0
1001
ACAD
1000
AcDbSavedByObjectVersion
1070
     0
  0
VISUALSTYLE
  5
35
102
{ACAD_REACTORS
330
2A
102
}
102
{ACAD_XDICTIONARY
360
2D9
102
}
330
2A
100
AcDbVisualStyle
  2
Dim
 70
    11
 71
     2
 72
     2
 73
     0
 90
        0
 40
-0.6
 41
-30.0
 62
     5
 63
     7
 74
     1
 91
        4
 64
     7
 65
   257
 75
     1
175
     1
 42
1.0
 92
        8
 66
     7
 43
1.0
 76
     1
 77
     6
 78
     2
 67
     7
 79
     5
170
     0
171
     0
290
     0
174
     0
 93
        1
 44
-50.0
173
     0
291
     1
 45
0.0
1001
ACAD
1000
AcDbSavedByObjectVersion
1070
     0
  0
VISUALSTYLE
  5
39
102
{ACAD_REACTORS
330
2A
102
}
102
{ACAD_XDICTIONARY
360
2E1
102
}
330
2A
100
AcDbVisualStyle
  2
Facepattern
 70
    15
 71
     2
 72
     2
 73
     0
 90
        0
 40
-0.6
 41
-30.0
 62
     5
 63
     7
 74
     1
 91
        4
 64
     7
 65
   257
 75
     1
175
     1
 42
1.0
 92
        8
 66
     7
 43
1.0
 76
     1
 77
     6
 78
     2
 67
     7
 79
     5
170
     0
171
     0
290
     0
174
     0
 93
        1
 44
0.0
173
     0
291
     1
 45
0.0
1001
ACAD
1000
AcDbSavedByObjectVersion
1070
     0
  0
VISUALSTYLE
  5
2B
102
{ACAD_REACTORS
330
2A
102
}
102
{ACAD_XDICTIONARY
360
2C5
102
}
330
2A
100
AcDbVisualStyle
  2
Flat
 70
     0
 71
     2
 72
     1
 73
     1
 90
        2
 40
-0.6
 41
30.0
 62
     5
 63
     7
 74
     0
 91
        4
 64
     7
 65
   257
 75
     1
175
     1
 42
1.0
 92
        8
 66
     7
 43
1.0
 76
     1
 77
     6
 78
     2
 67
     7
 79
     5
170
     0
171
     0
290
     0
174
     0
 93
       13
 44
0.0
173
     0
291
     1
 45
0.0
1001
ACAD
1000
AcDbSavedByObjectVersion
1070
     0
  0
VISUALSTYLE
  5
2C
102
{ACAD_REACTORS
330
2A
102
}
102
{ACAD_XDICTIONARY
360
2C7
102
}
330
2A
100
AcDbVisualStyle
  2
FlatWithEdges
 70
     1
 71
     2
 72
     1
 73
     1
 90
        2
 40
-0.6
 41
30.0
 62
     5
 63
     7
 74
     1
 91
        4
 64
     7
 65
   257
 75
     1
175
     1
 42
1.0
 92
        0
 66
   257
 43
1.0
 76
     1
 77
     6
 78
     2
 67
     7
 79
     5
170
     0
171
     0
290
     0
174
     0
 93
       13
 44
0.0
173
     0
291
     1
 45
0.0
1001
ACAD
1000
AcDbSavedByObjectVersion
1070
     0
  0
VISUALSTYLE
  5
2D
102
{ACAD_REACTORS
330
2A
102
}
102
{ACAD_XDICTIONARY
360
2C9
102
}
330
2A
100
AcDbVisualStyle
  2
Gouraud
 70
     2
 71
     2
 72
     2
 73
     1
 90
        2
 40
-0.6
 41
30.0
 62
     5
 63
     7
 74
     0
 91
        4
 64
     7
 65
   257
 75
     1
175
     1
 42
1.0
 92
        0
 66
     7
 43
1.0
 76
     1
 77
     6
 78
     2
 67
     7
 79
     5
170
     0
171
     0
290
     0
174
     0
 93
       13
 44
0.0
173
     0
291
     1
 45
0.0
1001
ACAD
1000
AcDbSavedByObjectVersion
1070
     0
  0
VISUALSTYLE
  5
2E
102
{ACAD_REACTORS
330
2A
102
}
102
{ACAD_XDICTIONARY
360
2CB
102
}
330
2A
100
AcDbVisualStyle
  2
GouraudWithEdges
 70
     3
 71
     2
 72
     2
 73
     1
 90
        2
 40
-0.6
 41
30.0
 62
     5
 63
     7
 74
     1
 91
        4
 64
     7
 65
   257
 75
     1
175
     1
 42
1.0
 92
        0
 66
   257
 43
1.0
 76
     1
 77
     6
 78
     2
 67
     7
 79
     5
170
     0
171
     0
290
     0
174
     0
 93
       13
 44
0.0
173
     0
291
     1
 45
0.0
1001
ACAD
1000
AcDbSavedByObjectVersion
1070
     0
  0
VISUALSTYLE
  5
38
102
{ACAD_REACTORS
330
2A
102
}
102
{ACAD_XDICTIONARY
360
2DF
102
}
330
2A
100
AcDbVisualStyle
  2
Linepattern
 70
    14
 71
     2
 72
     2
 73
     0
 90
        0
 40
-0.6
 41
-30.0
 62
     5
 63
     7
 74
     1
 91
        4
 64
     7
 65
   257
 75
     7
175
     7
 42
1.0
 92
        8
 66
     7
 43
1.0
 76
     1
 77
     6
 78
     2
 67
     7
 79
     5
170
     0
171
     0
290
     0
174
     0
 93
        1
 44
0.0
173
     0
291
     1
 45
0.0
1001
ACAD
1000
AcDbSavedByObjectVersion
1070
     0
  0
VISUALSTYLE
  5
33
102
{ACAD_REACTORS
330
2A
102
}
102
{ACAD_XDICTIONARY
360
2D5
102
}
330
2A
100
AcDbVisualStyle
  2
Realistic
 70
     8
 71
     2
 72
     2
 73
     0
 90
        0
 40
-0.6
 41
-30.0
 62
     5
 63
     7
 74
     1
 91
        0
 64
     7
 65
   257
 75
     1
175
     1
 42
1.0
 92
        8
 66
     8
 43
1.0
 76
     1
 77
     6
 78
     2
 67
     7
 79
     5
170
     0
171
     0
290
     0
174
     0
 93
       13
 44
0.0
173
     0
291
     0
 45
0.0
1001
ACAD
1000
AcDbSavedByObjectVersion
1070
     0
  0
VISUALSTYLE
  5
37
102
{ACAD_REACTORS
330
2A
102
}
102
{ACAD_XDICTIONARY
360
2DD
102
}
330
2A
100
AcDbVisualStyle
  2
Thicken
 70
    13
 71
     2
 72
     2
 73
     0
 90
        0
 40
-0.6
 41
-30.0
 62
     5
 63
     7
 74
     1
 91
        4
 64
     7
 65
   257
 75
     1
175
     1
 42
1.0
 92
       12
 66
     7
 43
1.0
 76
     1
 77
     6
 78
     2
 67
     7
 79
     5
170
     0
171
     0
290
     0
174
     0
 93
        1
 44
0.0
173
     0
291
     1
 45
0.0
1001
ACAD
1000
AcDbSavedByObjectVersion
1070
     0
  0
DICTIONARYVAR
  5
2C3
102
{ACAD_REACTORS
330
2C0
102
}
330
2C0
100
DictionaryVariables
280
     0
  1
2
  0
DICTIONARYVAR
  5
2C4
102
{ACAD_REACTORS
330
2C0
102
}
330
2C0
100
DictionaryVariables
280
     0
  1
1
  0
DICTIONARY
  5
2E7
330
3D
100
AcDbDictionary
280
     1
281
     1
  3
ACAD_XREC_ROUNDTRIP
360
2E8
  0
DICTIONARY
  5
2E5
330
3C
100
AcDbDictionary
280
     1
281
     1
  3
ACAD_XREC_ROUNDTRIP
360
2E6
  0
DICTIONARY
  5
2E9
330
3E
100
AcDbDictionary
280
     1
281
     1
  3
ACAD_XREC_ROUNDTRIP
360
2EA
  0
DICTIONARY
  5
2CD
330
2F
100
AcDbDictionary
280
     1
281
     1
  3
ACAD_XREC_ROUNDTRIP
360
2CE
  0
DICTIONARY
  5
2D1
330
31
100
AcDbDictionary
280
     1
281
     1
  3
ACAD_XREC_ROUNDTRIP
360
2D2
  0
DICTIONARY
  5
2CF
330
30
100
AcDbDictionary
280
     1
281
     1
  3
ACAD_XREC_ROUNDTRIP
360
2D0
  0
DICTIONARY
  5
2D3
330
32
100
AcDbDictionary
280
     1
281
     1
  3
ACAD_XREC_ROUNDTRIP
360
2D4
  0
DICTIONARY
  5
2DB
330
36
100
AcDbDictionary
280
     1
281
     1
  3
ACAD_XREC_ROUNDTRIP
360
2DC
  0
DICTIONARY
  5
2E3
330
3A
100
AcDbDictionary
280
     1
281
     1
  3
ACAD_XREC_ROUNDTRIP
360
2E4
  0
DICTIONARY
  5
2D7
330
34
100
AcDbDictionary
280
     1
281
     1
  3
ACAD_XREC_ROUNDTRIP
360
2D8
  0
DICTIONARY
  5
2D9
330
35
100
AcDbDictionary
280
     1
281
     1
  3
ACAD_XREC_ROUNDTRIP
360
2DA
  0
DICTIONARY
  5
2E1
330
39
100
AcDbDictionary
280
     1
281
     1
  3
ACAD_XREC_ROUNDTRIP
360
2E2
  0
DICTIONARY
  5
2C5
330
2B
100
AcDbDictionary
280
     1
281
     1
  3
ACAD_XREC_ROUNDTRIP
360
2C6
  0
DICTIONARY
  5
2C7
330
2C
100
AcDbDictionary
280
     1
281
     1
  3
ACAD_XREC_ROUNDTRIP
360
2C8
  0
DICTIONARY
  5
2C9
330
2D
100
AcDbDictionary
280
     1
281
     1
  3
ACAD_XREC_ROUNDTRIP
360
2CA
  0
DICTIONARY
  5
2CB
330
2E
100
AcDbDictionary
280
     1
281
     1
  3
ACAD_XREC_ROUNDTRIP
360
2CC
  0
DICTIONARY
  5
2DF
330
38
100
AcDbDictionary
280
     1
281
     1
  3
ACAD_XREC_ROUNDTRIP
360
2E0
  0
DICTIONARY
  5
2D5
330
33
100
AcDbDictionary
280
     1
281
     1
  3
ACAD_XREC_ROUNDTRIP
360
2D6
  0
DICTIONARY
  5
2DD
330
37
100
AcDbDictionary
280
     1
281
     1
  3
ACAD_XREC_ROUNDTRIP
360
2DE
  0
XRECORD
  5
2E8
102
{ACAD_REACTORS
330
2E7
102
}
330
2E7
100
AcDbXrecord
280
     1
102
MATERIAL
148
0.0
149
0.0
149
0.0
 93
        0
 94
      127
282
     0
 72
     1
 77
     1
171
     1
175
     1
179
     1
273
     0
  0
XRECORD
  5
2E6
102
{ACAD_REACTORS
330
2E5
102
}
330
2E5
100
AcDbXrecord
280
     1
102
MATERIAL
148
0.0
149
0.0
149
0.0
 93
        0
 94
      127
282
     0
 72
     1
 77
     1
171
     1
175
     1
179
     1
273
     0
  0
XRECORD
  5
2EA
102
{ACAD_REACTORS
330
2E9
102
}
330
2E9
100
AcDbXrecord
280
     1
102
MATERIAL
148
0.0
149
0.0
149
0.0
 93
        0
 94
      127
282
     0
 72
     1
 77
     1
171
     1
175
     1
179
     1
273
     0
  0
XRECORD
  5
2CE
102
{ACAD_REACTORS
330
2CD
102
}
330
2CD
100
AcDbXrecord
280
     1
102
RTVSPropertyOp0
 70
     1
102
RTVSPropertyOp1
 70
     1
102
RTVSPropertyOp2
 70
     1
102
RTVSPropertyOp3
 70
     1
102
RTVSPropertyOp4
 70
     1
102
RTVSPropertyOp5
 70
     1
102
RTVSPropertyOp6
 70
     1
102
RTVSPropertyOp7
 70
     1
102
RTVSPropertyOp8
 70
     1
102
RTVSPropertyOp9
 70
     1
102
RTVSPropertyOp10
 70
     1
102
RTVSPropertyOp11
 70
     1
102
RTVSPropertyOp12
 70
     1
102
RTVSPropertyOp13
 70
     1
102
RTVSPropertyOp14
 70
     1
102
RTVSPropertyOp15
 70
     1
102
RTVSPropertyOp16
 70
     1
102
RTVSPropertyOp17
 70
     1
102
RTVSPropertyOp18
 70
     1
102
RTVSPropertyOp19
 70
     1
102
RTVSPropertyOp20
 70
     1
102
RTVSPropertyOp21
 70
     1
102
RTVSPropertyOp22
 70
     1
102
RTVSPropertyOp23
 70
     1
102
RTVSPropertyOp24
 70
     1
102
RTVSPropertyOp25
 70
     1
102
RTVSPropertyOp26
 70
     1
102
RTVSPropertyOp27
 70
     1
102
RTVSPropertyOp28
 70
     1
102
RTVSPropertyOp29
 70
     1
102
RTVSPropertyOp30
 70
     1
102
RTVSPropertyOp31
 70
     1
102
RTVSPropertyOp32
 70
     1
  0
XRECORD
  5
2D2
102
{ACAD_REACTORS
330
2D1
102
}
330
2D1
100
AcDbXrecord
280
     1
102
RTVSPropertyOp0
 70
     1
102
RTVSPropertyOp1
 70
     1
102
RTVSPropertyOp2
 70
     1
102
RTVSPropertyOp3
 70
     1
102
RTVSPropertyOp4
 70
     1
102
RTVSPropertyOp5
 70
     1
102
RTVSPropertyOp6
 70
     1
102
RTVSPropertyOp7
 70
     1
102
RTVSPropertyOp8
 70
     1
102
RTVSPropertyOp9
 70
     1
102
RTVSPropertyOp10
 70
     1
102
RTVSPropertyOp11
 70
     1
102
RTVSPropertyOp12
 70
     1
102
RTVSPropertyOp13
 70
     1
102
RTVSPropertyOp14
 70
     1
102
RTVSPropertyOp15
 70
     1
102
RTVSPropertyOp16
 70
     1
102
RTVSPropertyOp17
 70
     1
102
RTVSPropertyOp18
 70
     1
102
RTVSPropertyOp19
 70
     1
102
RTVSPropertyOp20
 70
     1
102
RTVSPropertyOp21
 70
     1
102
RTVSPropertyOp22
 70
     1
102
RTVSPropertyOp23
 70
     1
102
RTVSPropertyOp24
 70
     1
102
RTVSPropertyOp25
 70
     1
102
RTVSPropertyOp26
 70
     1
102
RTVSPropertyOp27
 70
     1
102
RTVSPropertyOp28
 70
     1
102
RTVSPropertyOp29
 70
     1
102
RTVSPropertyOp30
 70
     1
102
RTVSPropertyOp31
 70
     1
102
RTVSPropertyOp32
 70
     1
  0
XRECORD
  5
2D0
102
{ACAD_REACTORS
330
2CF
102
}
330
2CF
100
AcDbXrecord
280
     1
102
RTVSPropertyOp0
 70
     1
102
RTVSPropertyOp1
 70
     1
102
RTVSPropertyOp2
 70
     1
102
RTVSPropertyOp3
 70
     1
102
RTVSPropertyOp4
 70
     1
102
RTVSPropertyOp5
 70
     1
102
RTVSPropertyOp6
 70
     1
102
RTVSPropertyOp7
 70
     1
102
RTVSPropertyOp8
 70
     1
102
RTVSPropertyOp9
 70
     1
102
RTVSPropertyOp10
 70
     1
102
RTVSPropertyOp11
 70
     1
102
RTVSPropertyOp12
 70
     1
102
RTVSPropertyOp13
 70
     1
102
RTVSPropertyOp14
 70
     1
102
RTVSPropertyOp15
 70
     1
102
RTVSPropertyOp16
 70
     1
102
RTVSPropertyOp17
 70
     1
102
RTVSPropertyOp18
 70
     1
102
RTVSPropertyOp19
 70
     1
102
RTVSPropertyOp20
 70
     1
102
RTVSPropertyOp21
 70
     1
102
RTVSPropertyOp22
 70
     1
102
RTVSPropertyOp23
 70
     1
102
RTVSPropertyOp24
 70
     1
102
RTVSPropertyOp25
 70
     1
102
RTVSPropertyOp26
 70
     1
102
RTVSPropertyOp27
 70
     1
102
RTVSPropertyOp28
 70
     1
102
RTVSPropertyOp29
 70
     1
102
RTVSPropertyOp30
 70
     1
102
RTVSPropertyOp31
 70
     1
102
RTVSPropertyOp32
 70
     1
  0
XRECORD
  5
2D4
102
{ACAD_REACTORS
330
2D3
102
}
330
2D3
100
AcDbXrecord
280
     1
102
RTVSPropertyOp0
 70
     1
102
RTVSPropertyOp1
 70
     1
102
RTVSPropertyOp2
 70
     1
102
RTVSPropertyOp3
 70
     1
102
RTVSPropertyOp4
 70
     1
102
RTVSPropertyOp5
 70
     1
102
RTVSPropertyOp6
 70
     1
102
RTVSPropertyOp7
 70
     1
102
RTVSPropertyOp8
 70
     1
102
RTVSPropertyOp9
 70
     1
102
RTVSPropertyOp10
 70
     1
102
RTVSPropertyOp11
 70
     1
102
RTVSPropertyOp12
 70
     1
102
RTVSPropertyOp13
 70
     1
102
RTVSPropertyOp14
 70
     1
102
RTVSPropertyOp15
 70
     1
102
RTVSPropertyOp16
 70
     1
102
RTVSPropertyOp17
 70
     1
102
RTVSPropertyOp18
 70
     1
102
RTVSPropertyOp19
 70
     1
102
RTVSPropertyOp20
 70
     1
102
RTVSPropertyOp21
 70
     1
102
RTVSPropertyOp22
 70
     1
102
RTVSPropertyOp23
 70
     1
102
RTVSPropertyOp24
 70
     1
102
RTVSPropertyOp25
 70
     1
102
RTVSPropertyOp26
 70
     1
102
RTVSPropertyOp27
 70
     1
102
RTVSPropertyOp28
 70
     1
102
RTVSPropertyOp29
 70
     1
102
RTVSPropertyOp30
 70
     1
102
RTVSPropertyOp31
 70
     1
102
RTVSPropertyOp32
 70
     1
  0
XRECORD
  5
2DC
102
{ACAD_REACTORS
330
2DB
102
}
330
2DB
100
AcDbXrecord
280
     1
102
RTVSPropertyOp0
 70
     1
102
RTVSPropertyOp1
 70
     1
102
RTVSPropertyOp2
 70
     1
102
RTVSPropertyOp3
 70
     1
102
RTVSPropertyOp4
 70
     1
102
RTVSPropertyOp5
 70
     1
102
RTVSPropertyOp6
 70
     1
102
RTVSPropertyOp7
 70
     1
102
RTVSPropertyOp8
 70
     1
102
RTVSPropertyOp9
 70
     1
102
RTVSPropertyOp10
 70
     1
102
RTVSPropertyOp11
 70
     1
102
RTVSPropertyOp12
 70
     1
102
RTVSPropertyOp13
 70
     1
102
RTVSPropertyOp14
 70
     1
102
RTVSPropertyOp15
 70
     1
102
RTVSPropertyOp16
 70
     1
102
RTVSPropertyOp17
 70
     1
102
RTVSPropertyOp18
 70
     1
102
RTVSPropertyOp19
 70
     1
102
RTVSPropertyOp20
 70
     1
102
RTVSPropertyOp21
 70
     1
102
RTVSPropertyOp22
 70
     1
102
RTVSPropertyOp23
 70
     1
102
RTVSPropertyOp24
 70
     1
102
RTVSPropertyOp25
 70
     1
102
RTVSPropertyOp26
 70
     1
102
RTVSPropertyOp27
 70
     1
102
RTVSPropertyOp28
 70
     1
102
RTVSPropertyOp29
 70
     1
102
RTVSPropertyOp30
 70
     1
102
RTVSPropertyOp31
 70
     1
102
RTVSPropertyOp32
 70
     1
  0
XRECORD
  5
2E4
102
{ACAD_REACTORS
330
2E3
102
}
330
2E3
100
AcDbXrecord
280
     1
102
RTVSPropertyOp0
 70
     1
102
RTVSPropertyOp1
 70
     1
102
RTVSPropertyOp2
 70
     1
102
RTVSPropertyOp3
 70
     1
102
RTVSPropertyOp4
 70
     1
102
RTVSPropertyOp5
 70
     1
102
RTVSPropertyOp6
 70
     1
102
RTVSPropertyOp7
 70
     1
102
RTVSPropertyOp8
 70
     1
102
RTVSPropertyOp9
 70
     1
102
RTVSPropertyOp10
 70
     1
102
RTVSPropertyOp11
 70
     1
102
RTVSPropertyOp12
 70
     1
102
RTVSPropertyOp13
 70
     1
102
RTVSPropertyOp14
 70
     1
102
RTVSPropertyOp15
 70
     1
102
RTVSPropertyOp16
 70
     1
102
RTVSPropertyOp17
 70
     1
102
RTVSPropertyOp18
 70
     1
102
RTVSPropertyOp19
 70
     1
102
RTVSPropertyOp20
 70
     1
102
RTVSPropertyOp21
 70
     1
102
RTVSPropertyOp22
 70
     1
102
RTVSPropertyOp23
 70
     1
102
RTVSPropertyOp24
 70
     1
102
RTVSPropertyOp25
 70
     1
102
RTVSPropertyOp26
 70
     1
102
RTVSPropertyOp27
 70
     1
102
RTVSPropertyOp28
 70
     1
102
RTVSPropertyOp29
 70
     1
102
RTVSPropertyOp30
 70
     1
102
RTVSPropertyOp31
 70
     1
102
RTVSPropertyOp32
 70
     1
  0
XRECORD
  5
2D8
102
{ACAD_REACTORS
330
2D7
102
}
330
2D7
100
AcDbXrecord
280
     1
102
RTVSPropertyOp0
 70
     1
102
RTVSPropertyOp1
 70
     1
102
RTVSPropertyOp2
 70
     1
102
RTVSPropertyOp3
 70
     1
102
RTVSPropertyOp4
 70
     1
102
RTVSPropertyOp5
 70
     1
102
RTVSPropertyOp6
 70
     1
102
RTVSPropertyOp7
 70
     1
102
RTVSPropertyOp8
 70
     1
102
RTVSPropertyOp9
 70
     1
102
RTVSPropertyOp10
 70
     1
102
RTVSPropertyOp11
 70
     1
102
RTVSPropertyOp12
 70
     1
102
RTVSPropertyOp13
 70
     1
102
RTVSPropertyOp14
 70
     1
102
RTVSPropertyOp15
 70
     1
102
RTVSPropertyOp16
 70
     1
102
RTVSPropertyOp17
 70
     1
102
RTVSPropertyOp18
 70
     1
102
RTVSPropertyOp19
 70
     1
102
RTVSPropertyOp20
 70
     1
102
RTVSPropertyOp21
 70
     1
102
RTVSPropertyOp22
 70
     1
102
RTVSPropertyOp23
 70
     1
102
RTVSPropertyOp24
 70
     1
102
RTVSPropertyOp25
 70
     1
102
RTVSPropertyOp26
 70
     1
102
RTVSPropertyOp27
 70
     1
102
RTVSPropertyOp28
 70
     1
102
RTVSPropertyOp29
 70
     1
102
RTVSPropertyOp30
 70
     1
102
RTVSPropertyOp31
 70
     1
102
RTVSPropertyOp32
 70
     1
  0
XRECORD
  5
2DA
102
{ACAD_REACTORS
330
2D9
102
}
330
2D9
100
AcDbXrecord
280
     1
102
RTVSPropertyOp0
 70
     1
102
RTVSPropertyOp1
 70
     1
102
RTVSPropertyOp2
 70
     1
102
RTVSPropertyOp3
 70
     1
102
RTVSPropertyOp4
 70
     1
102
RTVSPropertyOp5
 70
     1
102
RTVSPropertyOp6
 70
     1
102
RTVSPropertyOp7
 70
     1
102
RTVSPropertyOp8
 70
     1
102
RTVSPropertyOp9
 70
     1
102
RTVSPropertyOp10
 70
     1
102
RTVSPropertyOp11
 70
     1
102
RTVSPropertyOp12
 70
     1
102
RTVSPropertyOp13
 70
     1
102
RTVSPropertyOp14
 70
     1
102
RTVSPropertyOp15
 70
     1
102
RTVSPropertyOp16
 70
     1
102
RTVSPropertyOp17
 70
     1
102
RTVSPropertyOp18
 70
     1
102
RTVSPropertyOp19
 70
     1
102
RTVSPropertyOp20
 70
     1
102
RTVSPropertyOp21
 70
     1
102
RTVSPropertyOp22
 70
     1
102
RTVSPropertyOp23
 70
     1
102
RTVSPropertyOp24
 70
     1
102
RTVSPropertyOp25
 70
     1
102
RTVSPropertyOp26
 70
     1
102
RTVSPropertyOp27
 70
     1
102
RTVSPropertyOp28
 70
     1
102
RTVSPropertyOp29
 70
     1
102
RTVSPropertyOp30
 70
     1
102
RTVSPropertyOp31
 70
     1
102
RTVSPropertyOp32
 70
     1
  0
XRECORD
  5
2E2
102
{ACAD_REACTORS
330
2E1
102
}
330
2E1
100
AcDbXrecord
280
     1
102
RTVSPropertyOp0
 70
     1
102
RTVSPropertyOp1
 70
     1
102
RTVSPropertyOp2
 70
     1
102
RTVSPropertyOp3
 70
     1
102
RTVSPropertyOp4
 70
     1
102
RTVSPropertyOp5
 70
     1
102
RTVSPropertyOp6
 70
     1
102
RTVSPropertyOp7
 70
     1
102
RTVSPropertyOp8
 70
     1
102
RTVSPropertyOp9
 70
     1
102
RTVSPropertyOp10
 70
     1
102
RTVSPropertyOp11
 70
     1
102
RTVSPropertyOp12
 70
     1
102
RTVSPropertyOp13
 70
     1
102
RTVSPropertyOp14
 70
     1
102
RTVSPropertyOp15
 70
     1
102
RTVSPropertyOp16
 70
     1
102
RTVSPropertyOp17
 70
     1
102
RTVSPropertyOp18
 70
     1
102
RTVSPropertyOp19
 70
     1
102
RTVSPropertyOp20
 70
     1
102
RTVSPropertyOp21
 70
     1
102
RTVSPropertyOp22
 70
     1
102
RTVSPropertyOp23
 70
     1
102
RTVSPropertyOp24
 70
     1
102
RTVSPropertyOp25
 70
     1
102
RTVSPropertyOp26
 70
     1
102
RTVSPropertyOp27
 70
     1
102
RTVSPropertyOp28
 70
     1
102
RTVSPropertyOp29
 70
     1
102
RTVSPropertyOp30
 70
     1
102
RTVSPropertyOp31
 70
     1
102
RTVSPropertyOp32
 70
     1
  0
XRECORD
  5
2C6
102
{ACAD_REACTORS
330
2C5
102
}
330
2C5
100
AcDbXrecord
280
     1
102
RTVSPropertyOp0
 70
     1
102
RTVSPropertyOp1
 70
     1
102
RTVSPropertyOp2
 70
     1
102
RTVSPropertyOp3
 70
     1
102
RTVSPropertyOp4
 70
     1
102
RTVSPropertyOp5
 70
     1
102
RTVSPropertyOp6
 70
     1
102
RTVSPropertyOp7
 70
     1
102
RTVSPropertyOp8
 70
     1
102
RTVSPropertyOp9
 70
     1
102
RTVSPropertyOp10
 70
     1
102
RTVSPropertyOp11
 70
     1
102
RTVSPropertyOp12
 70
     1
102
RTVSPropertyOp13
 70
     1
102
RTVSPropertyOp14
 70
     1
102
RTVSPropertyOp15
 70
     1
102
RTVSPropertyOp16
 70
     1
102
RTVSPropertyOp17
 70
     1
102
RTVSPropertyOp18
 70
     1
102
RTVSPropertyOp19
 70
     1
102
RTVSPropertyOp20
 70
     1
102
RTVSPropertyOp21
 70
     1
102
RTVSPropertyOp22
 70
     1
102
RTVSPropertyOp23
 70
     1
102
RTVSPropertyOp24
 70
     1
102
RTVSPropertyOp25
 70
     1
102
RTVSPropertyOp26
 70
     1
102
RTVSPropertyOp27
 70
     1
102
RTVSPropertyOp28
 70
     1
102
RTVSPropertyOp29
 70
     1
102
RTVSPropertyOp30
 70
     1
102
RTVSPropertyOp31
 70
     1
102
RTVSPropertyOp32
 70
     1
  0
XRECORD
  5
2C8
102
{ACAD_REACTORS
330
2C7
102
}
330
2C7
100
AcDbXrecord
280
     1
102
RTVSPropertyOp0
 70
     1
102
RTVSPropertyOp1
 70
     1
102
RTVSPropertyOp2
 70
     1
102
RTVSPropertyOp3
 70
     1
102
RTVSPropertyOp4
 70
     1
102
RTVSPropertyOp5
 70
     1
102
RTVSPropertyOp6
 70
     1
102
RTVSPropertyOp7
 70
     1
102
RTVSPropertyOp8
 70
     1
102
RTVSPropertyOp9
 70
     1
102
RTVSPropertyOp10
 70
     1
102
RTVSPropertyOp11
 70
     1
102
RTVSPropertyOp12
 70
     1
102
RTVSPropertyOp13
 70
     1
102
RTVSPropertyOp14
 70
     1
102
RTVSPropertyOp15
 70
     1
102
RTVSPropertyOp16
 70
     1
102
RTVSPropertyOp17
 70
     1
102
RTVSPropertyOp18
 70
     1
102
RTVSPropertyOp19
 70
     1
102
RTVSPropertyOp20
 70
     1
102
RTVSPropertyOp21
 70
     1
102
RTVSPropertyOp22
 70
     1
102
RTVSPropertyOp23
 70
     1
102
RTVSPropertyOp24
 70
     1
102
RTVSPropertyOp25
 70
     1
102
RTVSPropertyOp26
 70
     1
102
RTVSPropertyOp27
 70
     1
102
RTVSPropertyOp28
 70
     1
102
RTVSPropertyOp29
 70
     1
102
RTVSPropertyOp30
 70
     1
102
RTVSPropertyOp31
 70
     1
102
RTVSPropertyOp32
 70
     1
  0
XRECORD
  5
2CA
102
{ACAD_REACTORS
330
2C9
102
}
330
2C9
100
AcDbXrecord
280
     1
102
RTVSPropertyOp0
 70
     1
102
RTVSPropertyOp1
 70
     1
102
RTVSPropertyOp2
 70
     1
102
RTVSPropertyOp3
 70
     1
102
RTVSPropertyOp4
 70
     1
102
RTVSPropertyOp5
 70
     1
102
RTVSPropertyOp6
 70
     1
102
RTVSPropertyOp7
 70
     1
102
RTVSPropertyOp8
 70
     1
102
RTVSPropertyOp9
 70
     1
102
RTVSPropertyOp10
 70
     1
102
RTVSPropertyOp11
 70
     1
102
RTVSPropertyOp12
 70
     1
102
RTVSPropertyOp13
 70
     1
102
RTVSPropertyOp14
 70
     1
102
RTVSPropertyOp15
 70
     1
102
RTVSPropertyOp16
 70
     1
102
RTVSPropertyOp17
 70
     1
102
RTVSPropertyOp18
 70
     1
102
RTVSPropertyOp19
 70
     1
102
RTVSPropertyOp20
 70
     1
102
RTVSPropertyOp21
 70
     1
102
RTVSPropertyOp22
 70
     1
102
RTVSPropertyOp23
 70
     1
102
RTVSPropertyOp24
 70
     1
102
RTVSPropertyOp25
 70
     1
102
RTVSPropertyOp26
 70
     1
102
RTVSPropertyOp27
 70
     1
102
RTVSPropertyOp28
 70
     1
102
RTVSPropertyOp29
 70
     1
102
RTVSPropertyOp30
 70
     1
102
RTVSPropertyOp31
 70
     1
102
RTVSPropertyOp32
 70
     1
  0
XRECORD
  5
2CC
102
{ACAD_REACTORS
330
2CB
102
}
330
2CB
100
AcDbXrecord
280
     1
102
RTVSPropertyOp0
 70
     1
102
RTVSPropertyOp1
 70
     1
102
RTVSPropertyOp2
 70
     1
102
RTVSPropertyOp3
 70
     1
102
RTVSPropertyOp4
 70
     1
102
RTVSPropertyOp5
 70
     1
102
RTVSPropertyOp6
 70
     1
102
RTVSPropertyOp7
 70
     1
102
RTVSPropertyOp8
 70
     1
102
RTVSPropertyOp9
 70
     1
102
RTVSPropertyOp10
 70
     1
102
RTVSPropertyOp11
 70
     1
102
RTVSPropertyOp12
 70
     1
102
RTVSPropertyOp13
 70
     1
102
RTVSPropertyOp14
 70
     1
102
RTVSPropertyOp15
 70
     1
102
RTVSPropertyOp16
 70
     1
102
RTVSPropertyOp17
 70
     1
102
RTVSPropertyOp18
 70
     1
102
RTVSPropertyOp19
 70
     1
102
RTVSPropertyOp20
 70
     1
102
RTVSPropertyOp21
 70
     1
102
RTVSPropertyOp22
 70
     1
102
RTVSPropertyOp23
 70
     1
102
RTVSPropertyOp24
 70
     1
102
RTVSPropertyOp25
 70
     1
102
RTVSPropertyOp26
 70
     1
102
RTVSPropertyOp27
 70
     1
102
RTVSPropertyOp28
 70
     1
102
RTVSPropertyOp29
 70
     1
102
RTVSPropertyOp30
 70
     1
102
RTVSPropertyOp31
 70
     1
102
RTVSPropertyOp32
 70
     1
  0
XRECORD
  5
2E0
102
{ACAD_REACTORS
330
2DF
102
}
330
2DF
100
AcDbXrecord
280
     1
102
RTVSPropertyOp0
 70
     1
102
RTVSPropertyOp1
 70
     1
102
RTVSPropertyOp2
 70
     1
102
RTVSPropertyOp3
 70
     1
102
RTVSPropertyOp4
 70
     1
102
RTVSPropertyOp5
 70
     1
102
RTVSPropertyOp6
 70
     1
102
RTVSPropertyOp7
 70
     1
102
RTVSPropertyOp8
 70
     1
102
RTVSPropertyOp9
 70
     1
102
RTVSPropertyOp10
 70
     1
102
RTVSPropertyOp11
 70
     1
102
RTVSPropertyOp12
 70
     1
102
RTVSPropertyOp13
 70
     1
102
RTVSPropertyOp14
 70
     1
102
RTVSPropertyOp15
 70
     1
102
RTVSPropertyOp16
 70
     1
102
RTVSPropertyOp17
 70
     1
102
RTVSPropertyOp18
 70
     1
102
RTVSPropertyOp19
 70
     1
102
RTVSPropertyOp20
 70
     1
102
RTVSPropertyOp21
 70
     1
102
RTVSPropertyOp22
 70
     1
102
RTVSPropertyOp23
 70
     1
102
RTVSPropertyOp24
 70
     1
102
RTVSPropertyOp25
 70
     1
102
RTVSPropertyOp26
 70
     1
102
RTVSPropertyOp27
 70
     1
102
RTVSPropertyOp28
 70
     1
102
RTVSPropertyOp29
 70
     1
102
RTVSPropertyOp30
 70
     1
102
RTVSPropertyOp31
 70
     1
102
RTVSPropertyOp32
 70
     1
  0
XRECORD
  5
2D6
102
{ACAD_REACTORS
330
2D5
102
}
330
2D5
100
AcDbXrecord
280
     1
102
RTVSPropertyOp0
 70
     1
102
RTVSPropertyOp1
 70
     1
102
RTVSPropertyOp2
 70
     1
102
RTVSPropertyOp3
 70
     1
102
RTVSPropertyOp4
 70
     1
102
RTVSPropertyOp5
 70
     1
102
RTVSPropertyOp6
 70
     1
102
RTVSPropertyOp7
 70
     1
102
RTVSPropertyOp8
 70
     1
102
RTVSPropertyOp9
 70
     1
102
RTVSPropertyOp10
 70
     1
102
RTVSPropertyOp11
 70
     1
102
RTVSPropertyOp12
 70
     1
102
RTVSPropertyOp13
 70
     1
102
RTVSPropertyOp14
 70
     1
102
RTVSPropertyOp15
 70
     1
102
RTVSPropertyOp16
 70
     1
102
RTVSPropertyOp17
 70
     1
102
RTVSPropertyOp18
 70
     1
102
RTVSPropertyOp19
 70
     1
102
RTVSPropertyOp20
 70
     1
102
RTVSPropertyOp21
 70
     1
102
RTVSPropertyOp22
 70
     1
102
RTVSPropertyOp23
 70
     1
102
RTVSPropertyOp24
 70
     1
102
RTVSPropertyOp25
 70
     1
102
RTVSPropertyOp26
 70
     1
102
RTVSPropertyOp27
 70
     1
102
RTVSPropertyOp28
 70
     1
102
RTVSPropertyOp29
 70
     1
102
RTVSPropertyOp30
 70
     1
102
RTVSPropertyOp31
 70
     1
102
RTVSPropertyOp32
 70
     1
  0
XRECORD
  5
2DE
102
{ACAD_REACTORS
330
2DD
102
}
330
2DD
100
AcDbXrecord
280
     1
102
RTVSPropertyOp0
 70
     1
102
RTVSPropertyOp1
 70
     1
102
RTVSPropertyOp2
 70
     1
102
RTVSPropertyOp3
 70
     1
102
RTVSPropertyOp4
 70
     1
102
RTVSPropertyOp5
 70
     1
102
RTVSPropertyOp6
 70
     1
102
RTVSPropertyOp7
 70
     1
102
RTVSPropertyOp8
 70
     1
102
RTVSPropertyOp9
 70
     1
102
RTVSPropertyOp10
 70
     1
102
RTVSPropertyOp11
 70
     1
102
RTVSPropertyOp12
 70
     1
102
RTVSPropertyOp13
 70
     1
102
RTVSPropertyOp14
 70
     1
102
RTVSPropertyOp15
 70
     1
102
RTVSPropertyOp16
 70
     1
102
RTVSPropertyOp17
 70
     1
102
RTVSPropertyOp18
 70
     1
102
RTVSPropertyOp19
 70
     1
102
RTVSPropertyOp20
 70
     1
102
RTVSPropertyOp21
 70
     1
102
RTVSPropertyOp22
 70
     1
102
RTVSPropertyOp23
 70
     1
102
RTVSPropertyOp24
 70
     1
102
RTVSPropertyOp25
 70
     1
102
RTVSPropertyOp26
 70
     1
102
RTVSPropertyOp27
 70
     1
102
RTVSPropertyOp28
 70
     1
102
RTVSPropertyOp29
 70
     1
102
RTVSPropertyOp30
 70
     1
102
RTVSPropertyOp31
 70
     1
102
RTVSPropertyOp32
 70
     1
  0
ENDSEC
  0
EOF
