  0
SECTION
  2
HEADER
  9
$ACADVER
  1
AC1015
  9
$ACADMAINTVER
 70
     6
  9
$DWGCODEPAGE
  3
ANSI_932
  9
$INSBASE
 10
0.0
 20
0.0
 30
0.0
  9
$EXTMIN
 10
0.0
 20
0.0
 30
0.0
  9
$EXTMAX
 10
210.0
 20
297.0
 30
0.0
  9
$LIMMIN
 10
0.0
 20
0.0
  9
$LIMMAX
 10
12.0
 20
9.0
  9
$ORTHOMODE
 70
     0
  9
$REGENMODE
 70
     1
  9
$FILLMODE
 70
     1
  9
$QTEXTMODE
 70
     0
  9
$MIRRTEXT
 70
     1
  9
$LTSCALE
 40
1.0
  9
$ATTMODE
 70
     1
  9
$TEXTSIZE
 40
0.2
  9
$TRACEWID
 40
0.05
  9
$TEXTSTYLE
  7
Standard
  9
$CLAYER
  8
0
  9
$CELTYPE
  6
ByLayer
  9
$CECOLOR
 62
   256
  9
$CELTSCALE
 40
1.0
  9
$DISPSILH
 70
     0
  9
$DIMSCALE
 40
1.0
  9
$DIMASZ
 40
0.18
  9
$DIMEXO
 40
0.0625
  9
$DIMDLI
 40
0.38
  9
$DIMRND
 40
0.0
  9
$DIMDLE
 40
0.0
  9
$DIMEXE
 40
0.18
  9
$DIMTP
 40
0.0
  9
$DIMTM
 40
0.0
  9
$DIMTXT
 40
0.18
  9
$DIMCEN
 40
0.09
  9
$DIMTSZ
 40
0.0
  9
$DIMTOL
 70
     0
  9
$DIMLIM
 70
     0
  9
$DIMTIH
 70
     1
  9
$DIMTOH
 70
     1
  9
$DIMSE1
 70
     0
  9
$DIMSE2
 70
     0
  9
$DIMTAD
 70
     0
  9
$DIMZIN
 70
     0
  9
$DIMBLK
  1

  9
$DIMASO
 70
     1
  9
$DIMSHO
 70
     1
  9
$DIMPOST
  1

  9
$DIMAPOST
  1

  9
$DIMALT
 70
     0
  9
$DIMALTD
 70
     2
  9
$DIMALTF
 40
25.4
  9
$DIMLFAC
 40
1.0
  9
$DIMTOFL
 70
     0
  9
$DIMTVP
 40
0.0
  9
$DIMTIX
 70
     0
  9
$DIMSOXD
 70
     0
  9
$DIMSAH
 70
     0
  9
$DIMBLK1
  1

  9
$DIMBLK2
  1

  9
$DIMSTYLE
  2
Standard
  9
$DIMCLRD
 70
     0
  9
$DIMCLRE
 70
     0
  9
$DIMCLRT
 70
     0
  9
$DIMTFAC
 40
1.0
  9
$DIMGAP
 40
0.09
  9
$DIMJUST
 70
     0
  9
$DIMSD1
 70
     0
  9
$DIMSD2
 70
     0
  9
$DIMTOLJ
 70
     1
  9
$DIMTZIN
 70
     0
  9
$DIMALTZ
 70
     0
  9
$DIMALTTZ
 70
     0
  9
$DIMUPT
 70
     0
  9
$DIMDEC
 70
     4
  9
$DIMTDEC
 70
     4
  9
$DIMALTU
 70
     2
  9
$DIMALTTD
 70
     2
  9
$DIMTXSTY
  7
Standard
  9
$DIMAUNIT
 70
     0
  9
$DIMADEC
 70
     0
  9
$DIMALTRND
 40
0.0
  9
$DIMAZIN
 70
     0
  9
$DIMDSEP
 70
    46
  9
$DIMATFIT
 70
     3
  9
$DIMFRAC
 70
     0
  9
$DIMLDRBLK
  1

  9
$DIMLUNIT
 70
     2
  9
$DIMLWD
 70
    -2
  9
$DIMLWE
 70
    -2
  9
$DIMTMOVE
 70
     0
  9
$LUNITS
 70
     2
  9
$LUPREC
 70
     4
  9
$SKETCHINC
 40
0.1
  9
$FILLETRAD
 40
0.5
  9
$AUNITS
 70
     0
  9
$AUPREC
 70
     0
  9
$MENU
  1
.
  9
$ELEVATION
 40
0.0
  9
$PELEVATION
 40
0.0
  9
$THICKNESS
 40
0.0
  9
$LIMCHECK
 70
     0
  9
$CHAMFERA
 40
0.5
  9
$CHAMFERB
 40
0.5
  9
$CHAMFERC
 40
1.0
  9
$CHAMFERD
 40
0.0
  9
$SKPOLY
 70
     0
  9
$TDCREATE
 40
2457529.434677986
  9
$TDUCREATE
 40
2457529.059677986
  9
$TDUPDATE
 40
2457529.434678889
  9
$TDUUPDATE
 40
2457529.059678889
  9
$TDINDWG
 40
0.0000000116
  9
$TDUSRTIMER
 40
0.0000000116
  9
$USRTIMER
 70
     1
  9
$ANGBASE
 50
0.0
  9
$ANGDIR
 70
     0
  9
$PDMODE
 70
     0
  9
$PDSIZE
 40
0.0
  9
$PLINEWID
 40
0.0
  9
$SPLFRAME
 70
     0
  9
$SPLINETYPE
 70
     6
  9
$SPLINESEGS
 70
     8
  9
$HANDSEED
  5
2CE
  9
$SURFTAB1
 70
     6
  9
$SURFTAB2
 70
     6
  9
$SURFTYPE
 70
     6
  9
$SURFU
 70
     6
  9
$SURFV
 70
     6
  9
$UCSBASE
  2

  9
$UCSNAME
  2

  9
$UCSORG
 10
0.0
 20
0.0
 30
0.0
  9
$UCSXDIR
 10
1.0
 20
0.0
 30
0.0
  9
$UCSYDIR
 10
0.0
 20
1.0
 30
0.0
  9
$UCSORTHOREF
  2

  9
$UCSORTHOVIEW
 70
     0
  9
$UCSORGTOP
 10
0.0
 20
0.0
 30
0.0
  9
$UCSORGBOTTOM
 10
0.0
 20
0.0
 30
0.0
  9
$UCSORGLEFT
 10
0.0
 20
0.0
 30
0.0
  9
$UCSORGRIGHT
 10
0.0
 20
0.0
 30
0.0
  9
$UCSORGFRONT
 10
0.0
 20
0.0
 30
0.0
  9
$UCSORGBACK
 10
0.0
 20
0.0
 30
0.0
  9
$PUCSBASE
  2

  9
$PUCSNAME
  2

  9
$PUCSORG
 10
0.0
 20
0.0
 30
0.0
  9
$PUCSXDIR
 10
1.0
 20
0.0
 30
0.0
  9
$PUCSYDIR
 10
0.0
 20
1.0
 30
0.0
  9
$PUCSORTHOREF
  2

  9
$PUCSORTHOVIEW
 70
     0
  9
$PUCSORGTOP
 10
0.0
 20
0.0
 30
0.0
  9
$PUCSORGBOTTOM
 10
0.0
 20
0.0
 30
0.0
  9
$PUCSORGLEFT
 10
0.0
 20
0.0
 30
0.0
  9
$PUCSORGRIGHT
 10
0.0
 20
0.0
 30
0.0
  9
$PUCSORGFRONT
 10
0.0
 20
0.0
 30
0.0
  9
$PUCSORGBACK
 10
0.0
 20
0.0
 30
0.0
  9
$USERI1
 70
     0
  9
$USERI2
 70
     0
  9
$USERI3
 70
     0
  9
$USERI4
 70
     0
  9
$USERI5
 70
     0
  9
$USERR1
 40
18.1
  9
$USERR2
 40
0.0
  9
$USERR3
 40
0.0
  9
$USERR4
 40
0.0
  9
$USERR5
 40
0.0
  9
$WORLDVIEW
 70
     1
  9
$SHADEDGE
 70
     3
  9
$SHADEDIF
 70
    70
  9
$TILEMODE
 70
     1
  9
$MAXACTVP
 70
    64
  9
$PINSBASE
 10
0.0
 20
0.0
 30
0.0
  9
$PLIMCHECK
 70
     0
  9
$PEXTMIN
 10
1.00000000000000E+20
 20
1.00000000000000E+20
 30
1.00000000000000E+20
  9
$PEXTMAX
 10
-1.00000000000000E+20
 20
-1.00000000000000E+20
 30
-1.00000000000000E+20
  9
$PLIMMIN
 10
0.0
 20
0.0
  9
$PLIMMAX
 10
12.0
 20
9.0
  9
$UNITMODE
 70
     0
  9
$VISRETAIN
 70
     1
  9
$PLINEGEN
 70
     0
  9
$PSLTSCALE
 70
     1
  9
$TREEDEPTH
 70
  3020
  9
$CMLSTYLE
  2
Standard
  9
$CMLJUST
 70
     0
  9
$CMLSCALE
 40
1.0
  9
$PROXYGRAPHICS
 70
     1
  9
$MEASUREMENT
 70
     1
  9
$CELWEIGHT
370
    -1
  9
$ENDCAPS
280
     0
  9
$JOINSTYLE
280
     0
  9
$LWDISPLAY
290
     0
  9
$INSUNITS
 70
     4
  9
$HYPERLINKBASE
  1

  9
$STYLESHEET
  1

  9
$XEDIT
290
     1
  9
$CEPSNTYPE
380
     0
  9
$PSTYLEMODE
290
     1
  9
$FINGERPRINTGUID
  2
{FEAE20ED-79BC-4E16-BEA7-E2CDF38AB905}
  9
$VERSIONGUID
  2
{FAEB1C32-E019-11D5-929B-00C0DF256EC4}
  9
$EXTNAMES
290
     1
  9
$PSVPSCALE
 40
0.0
  9
$OLESTARTUP
290
     0
  0
ENDSEC
  0
SECTION
  2
CLASSES
  0
CLASS
  1
ACDBDICTIONARYWDFLT
  2
AcDbDictionaryWithDefault
  3
ObjectDBX Classes
 90
        0
280
     0
281
     0
  0
CLASS
  1
VISUALSTYLE
  2
AcDbVisualStyle
  3
ObjectDBX Classes
 90
     4095
280
     0
281
     0
  0
CLASS
  1
MATERIAL
  2
AcDbMaterial
  3
ObjectDBX Classes
 90
     1153
280
     0
281
     0
  0
CLASS
  1
DICTIONARYVAR
  2
AcDbDictionaryVar
  3
ObjectDBX Classes
 90
        0
280
     0
281
     0
  0
CLASS
  1
ACDBPLACEHOLDER
  2
AcDbPlaceHolder
  3
ObjectDBX Classes
 90
        0
280
     0
281
     0
  0
CLASS
  1
LAYOUT
  2
AcDbLayout
  3
ObjectDBX Classes
 90
        0
280
     0
281
     0
  0
ENDSEC
  0
SECTION
  2
TABLES
  0
TABLE
  2
VPORT
  5
8
330
0
100
AcDbSymbolTable
 70
     1
  0
VPORT
  5
29
330
8
100
AcDbSymbolTableRecord
100
AcDbViewportTableRecord
  2
*Active
 70
     0
 10
0.0
 20
0.0
 11
1.0
 21
1.0
 12
105.0
 22
148.5
 13
0.0
 23
0.0
 14
0.5
 24
0.5
 15
0.5
 25
0.5
 16
0.0
 26
0.0
 36
1.0
 17
0.0
 27
0.0
 37
0.0
 40
326.7
 41
1.60267857142857
 42
50.0
 43
0.0
 44
0.0
 50
0.0
 51
0.0
 71
     0
 72
   100
 73
     1
 74
     3
 75
     0
 76
     0
 77
     0
 78
     0
281
     0
 65
     1
110
0.0
120
0.0
130
0.0
111
1.0
121
0.0
131
0.0
112
0.0
122
1.0
132
0.0
 79
     0
146
0.0
  0
ENDTAB
  0
TABLE
  2
LTYPE
  5
5
330
0
100
AcDbSymbolTable
 70
     8
  0
LTYPE
  5
14
330
5
100
AcDbSymbolTableRecord
100
AcDbLinetypeTableRecord
  2
ByBlock
 70
     0
  3

 72
    65
 73
     0
 40
0.0
  0
LTYPE
  5
15
330
5
100
AcDbSymbolTableRecord
100
AcDbLinetypeTableRecord
  2
ByLayer
 70
     0
  3

 72
    65
 73
     0
 40
0.0
  0
LTYPE
  5
16
330
5
100
AcDbSymbolTableRecord
100
AcDbLinetypeTableRecord
  2
Continuous
 70
     0
  3
Solid line
 72
    65
 73
     0
 40
0.0
  0
LTYPE
  5
3F
330
5
100
AcDbSymbolTableRecord
100
AcDbLinetypeTableRecord
  2
DASHED
 70
     0
  3
Dashed
 72
    65
 73
     2
 40
15.0
 49
7.0
 74
     0
 49
-8.0
 74
     0
  0
LTYPE
  5
40
330
5
100
AcDbSymbolTableRecord
100
AcDbLinetypeTableRecord
  2
DOTTED
 70
     0
  3
Dotted
 72
    65
 73
     2
 40
1.0
 49
0.0
 74
     0
 49
-1.0
 74
     0
  0
LTYPE
  5
41
330
5
100
AcDbSymbolTableRecord
100
AcDbLinetypeTableRecord
  2
DOT_CENTER
 70
     0
  3
Dot_Center
 72
    65
 73
     4
 40
14.0
 49
12.0
 74
     0
 49
-1.0
 74
     0
 49
0.0
 74
     0
 49
-1.0
 74
     0
  0
LTYPE
  5
42
330
5
100
AcDbSymbolTableRecord
100
AcDbLinetypeTableRecord
  2
LONG_DASHED
 70
     0
  3
Long_Dashed
 72
    65
 73
     2
 40
15.0
 49
10.0
 74
     0
 49
-5.0
 74
     0
  0
LTYPE
  5
43
330
5
100
AcDbSymbolTableRecord
100
AcDbLinetypeTableRecord
  2
DASH_CENTER
 70
     0
  3
Dash_Center
 72
    65
 73
     4
 40
14.0
 49
11.0
 74
     0
 49
-1.0
 74
     0
 49
1.0
 74
     0
 49
-1.0
 74
     0
  0
LTYPE
  5
44
330
5
100
AcDbSymbolTableRecord
100
AcDbLinetypeTableRecord
  2
PHANTOM
 70
     0
  3
Phantom
 72
    65
 73
     6
 40
13.0
 49
10.0
 74
     0
 49
-1.0
 74
     0
 49
0.0
 74
     0
 49
-1.0
 74
     0
 49
0.0
 74
     0
 49
-1.0
 74
     0
  0
LTYPE
  5
45
330
5
100
AcDbSymbolTableRecord
100
AcDbLinetypeTableRecord
  2
CENTER_DASH_DASH
 70
     0
  3
Center_Dash_Dash
 72
    65
 73
     6
 40
14.0
 49
9.0
 74
     0
 49
-1.0
 74
     0
 49
1.0
 74
     0
 49
-1.0
 74
     0
 49
1.0
 74
     0
 49
-1.0
 74
     0
  0
ENDTAB
  0
TABLE
  2
LAYER
  5
2
330
0
100
AcDbSymbolTable
 70
     3
  0
LAYER
  5
10
330
2
100
AcDbSymbolTableRecord
100
AcDbLayerTableRecord
  2
0
 70
     0
 62
     7
  6
Continuous
370
    -3
390
F
  0
LAYER
  5
46
330
2
100
AcDbSymbolTableRecord
100
AcDbLayerTableRecord
  2
1
 70
     0
 62
     7
  6
Continuous
370
    -3
390
F
  0
LAYER
  5
47
330
2
100
AcDbSymbolTableRecord
100
AcDbLayerTableRecord
  2
レイヤ0
 70
     0
 62
     7
  6
Continuous
370
    -3
390
F
  0
ENDTAB
  0
TABLE
  2
STYLE
  5
3
330
0
100
AcDbSymbolTable
 70
     3
  0
STYLE
  5
11
330
3
100
AcDbSymbolTableRecord
100
AcDbTextStyleTableRecord
  2
Standard
 70
     0
 40
0.0
 41
1.0
 50
0.0
 71
     0
 42
0.2
  3
txt
  4

  0
STYLE
  5
97
330
3
100
AcDbSymbolTableRecord
100
AcDbTextStyleTableRecord
  2
CONVERTER_11
 70
     0
 40
0.0
 41
0.89
 50
0.0
 71
     0
 42
0.2
  3
MS Mincho.ttf
  4

1001
ACAD
1000
MS Mincho
1071
    32785
  0
STYLE
  5
244
330
3
100
AcDbSymbolTableRecord
100
AcDbTextStyleTableRecord
  2
CONVERTER_12
 70
     0
 40
0.0
 41
0.9
 50
0.0
 71
     0
 42
0.2
  3
txt.shx
  4

  0
ENDTAB
  0
TABLE
  2
VIEW
  5
6
330
0
100
AcDbSymbolTable
 70
     0
  0
ENDTAB
  0
TABLE
  2
UCS
  5
7
330
0
100
AcDbSymbolTable
 70
     0
  0
ENDTAB
  0
TABLE
  2
APPID
  5
9
330
0
100
AcDbSymbolTable
 70
     1
  0
APPID
  5
12
330
9
100
AcDbSymbolTableRecord
100
AcDbRegAppTableRecord
  2
ACAD
 70
     0
  0
ENDTAB
  0
TABLE
  2
DIMSTYLE
  5
A
330
0
100
AcDbSymbolTable
 70
     9
100
AcDbDimStyleTable
  0
DIMSTYLE
105
27
330
A
100
AcDbSymbolTableRecord
100
AcDbDimStyleTableRecord
  2
Standard
 70
     0
178
     0
340
11
  0
DIMSTYLE
105
253
102
{ACAD_REACTORS
330
254
102
}
330
A
100
AcDbSymbolTableRecord
100
AcDbDimStyleTableRecord
  2
ME10_DIM_10
 70
     0
 41
3.5
 42
0.0
 44
1.0
 73
     0
 74
     0
 77
     1
 78
     8
140
3.5
147
1.0
172
     1
173
     1
174
     1
175
     1
176
     2
177
     2
271
     2
178
     7
271
     2
340
244
  0
DIMSTYLE
105
25E
102
{ACAD_REACTORS
330
25F
102
}
330
A
100
AcDbSymbolTableRecord
100
AcDbDimStyleTableRecord
  2
ME10_DIM_11
 70
     0
 41
3.5
 42
0.0
 44
1.0
 73
     0
 74
     0
 77
     1
 78
     8
140
3.5
147
1.0
172
     1
173
     1
174
     1
175
     1
176
     2
177
     2
271
     2
178
     7
271
     2
340
244
  0
DIMSTYLE
105
269
102
{ACAD_REACTORS
330
26A
102
}
330
A
100
AcDbSymbolTableRecord
100
AcDbDimStyleTableRecord
  2
ME10_DIM_12
 70
     0
  3
{\Fgdt;n}<>
 41
3.5
 42
0.0
 44
1.0
 73
     0
 74
     0
 77
     1
 78
     8
140
3.5
147
1.0
172
     1
173
     1
174
     1
175
     1
176
     2
177
     2
271
     2
178
     7
271
     2
340
244
  0
DIMSTYLE
105
274
102
{ACAD_REACTORS
330
275
102
}
330
A
100
AcDbSymbolTableRecord
100
AcDbDimStyleTableRecord
  2
ME10_DIM_13
 70
     0
  3
{\Fgdt;n}<>
 41
3.5
 42
0.0
 44
1.0
 73
     0
 74
     0
 77
     1
 78
     8
140
3.5
147
1.0
172
     1
173
     1
174
     1
175
     1
176
     2
177
     2
271
     2
178
     7
271
     2
340
244
  0
DIMSTYLE
105
27F
102
{ACAD_REACTORS
330
280
102
}
330
A
100
AcDbSymbolTableRecord
100
AcDbDimStyleTableRecord
  2
ME10_DIM_14
 70
     0
 41
3.5
 42
0.0
 44
1.0
 73
     0
 74
     0
 77
     1
 78
     8
140
3.5
147
1.0
172
     1
173
     1
174
     1
175
     1
176
     2
177
     2
271
     2
178
     7
271
     2
340
244
  0
DIMSTYLE
105
28A
102
{ACAD_REACTORS
330
28B
102
}
330
A
100
AcDbSymbolTableRecord
100
AcDbDimStyleTableRecord
  2
ME10_DIM_15
 70
     0
 41
3.5
 42
0.0
 44
1.0
 73
     0
 74
     0
 77
     1
 78
     8
140
3.5
147
1.0
172
     1
173
     1
174
     1
175
     1
176
     2
177
     2
271
     2
178
     7
271
     2
340
244
  0
DIMSTYLE
105
296
102
{ACAD_REACTORS
330
297
102
}
330
A
100
AcDbSymbolTableRecord
100
AcDbDimStyleTableRecord
  2
ME10_DIM_16
 70
     0
  3
{\Fgdt;n}<>
 41
3.5
 42
0.0
 44
1.0
 73
     0
 74
     0
 77
     1
 78
     8
140
3.5
147
1.0
172
     1
173
     1
174
     1
175
     1
176
     2
177
     2
271
     2
178
     7
271
     2
340
244
  0
DIMSTYLE
105
2A1
102
{ACAD_REACTORS
330
2A2
102
}
330
A
100
AcDbSymbolTableRecord
100
AcDbDimStyleTableRecord
  2
ME10_DIM_17
 70
     0
 41
3.5
 42
0.0
 44
1.0
 73
     0
 74
     0
 77
     1
 78
     8
140
3.5
147
1.0
172
     1
173
     1
174
     1
175
     1
176
     2
177
     2
271
     2
178
     7
271
     2
340
97
  0
ENDTAB
  0
TABLE
  2
BLOCK_RECORD
  5
1
330
0
100
AcDbSymbolTable
 70
    10
  0
BLOCK_RECORD
  5
1F
330
1
100
AcDbSymbolTableRecord
100
AcDbBlockTableRecord
  2
*Model_Space
340
22
  0
BLOCK_RECORD
  5
1B
330
1
100
AcDbSymbolTableRecord
100
AcDbBlockTableRecord
  2
*Paper_Space
340
1E
  0
BLOCK_RECORD
  5
23
330
1
100
AcDbSymbolTableRecord
100
AcDbBlockTableRecord
  2
*Paper_Space0
340
26
  0
BLOCK_RECORD
  5
48
330
1
100
AcDbSymbolTableRecord
100
AcDbBlockTableRecord
  2
開示A4
340
0
102
{BLKREFS
331
4B
102
}
  0
BLOCK_RECORD
  5
24A
330
1
100
AcDbSymbolTableRecord
100
AcDbBlockTableRecord
  2
*D2
340
0
  0
BLOCK_RECORD
  5
255
330
1
100
AcDbSymbolTableRecord
100
AcDbBlockTableRecord
  2
*D3
340
0
  0
BLOCK_RECORD
  5
260
330
1
100
AcDbSymbolTableRecord
100
AcDbBlockTableRecord
  2
*D4
340
0
  0
BLOCK_RECORD
  5
26B
330
1
100
AcDbSymbolTableRecord
100
AcDbBlockTableRecord
  2
*D5
340
0
  0
BLOCK_RECORD
  5
276
330
1
100
AcDbSymbolTableRecord
100
AcDbBlockTableRecord
  2
*D6
340
0
  0
BLOCK_RECORD
  5
281
330
1
100
AcDbSymbolTableRecord
100
AcDbBlockTableRecord
  2
*D7
340
0
  0
BLOCK_RECORD
  5
28C
330
1
100
AcDbSymbolTableRecord
100
AcDbBlockTableRecord
  2
*D8
340
0
  0
BLOCK_RECORD
  5
298
330
1
100
AcDbSymbolTableRecord
100
AcDbBlockTableRecord
  2
*D9
340
0
  0
ENDTAB
  0
ENDSEC
  0
SECTION
  2
BLOCKS
  0
BLOCK
  5
20
330
1F
100
AcDbEntity
  8
0
100
AcDbBlockBegin
  2
*Model_Space
 70
     0
 10
0.0
 20
0.0
 30
0.0
  3
*Model_Space
  1

  0
ENDBLK
  5
21
330
1F
100
AcDbEntity
  8
0
100
AcDbBlockEnd
  0
BLOCK
  5
1C
330
1B
100
AcDbEntity
 67
     1
  8
0
100
AcDbBlockBegin
  2
*Paper_Space
 70
     0
 10
0.0
 20
0.0
 30
0.0
  3
*Paper_Space
  1

  0
ENDBLK
  5
1D
330
1B
100
AcDbEntity
 67
     1
  8
0
100
AcDbBlockEnd
  0
BLOCK
  5
24
330
23
100
AcDbEntity
  8
0
100
AcDbBlockBegin
  2
*Paper_Space0
 70
     0
 10
0.0
 20
0.0
 30
0.0
  3
*Paper_Space0
  1

  0
ENDBLK
  5
25
330
23
100
AcDbEntity
  8
0
100
AcDbBlockEnd
  0
BLOCK
  5
49
330
48
100
AcDbEntity
  8
0
100
AcDbBlockBegin
  2
開示A4
 70
     0
 10
0.0
 20
0.0
 30
0.0
  3
開示A4
  1

  0
POINT
  5
4C
330
48
100
AcDbEntity
  8
1
 62
     4
100
AcDbPoint
 10
93.75
 20
17.0
 30
0.0
  0
POINT
  5
4D
330
48
100
AcDbEntity
  8
1
 62
     4
100
AcDbPoint
 10
85.25
 20
17.0
 30
0.0
  0
POINT
  5
4E
330
48
100
AcDbEntity
  8
1
 62
     4
100
AcDbPoint
 10
106.5
 20
19.00000000000001
 30
0.0
  0
POINT
  5
4F
330
48
100
AcDbEntity
  8
1
 62
     4
100
AcDbPoint
 10
106.5
 20
12.5
 30
0.0
  0
POINT
  5
50
330
48
100
AcDbEntity
  8
1
 62
     4
100
AcDbPoint
 10
112.25
 20
12.5
 30
0.0
  0
POINT
  5
51
330
48
100
AcDbEntity
  8
1
 62
     4
100
AcDbPoint
 10
100.75
 20
12.5
 30
0.0
  0
POINT
  5
52
330
48
100
AcDbEntity
  8
1
 62
     4
100
AcDbPoint
 10
123.5
 20
19.00000000000001
 30
0.0
  0
POINT
  5
53
330
48
100
AcDbEntity
  8
1
 62
     4
100
AcDbPoint
 10
123.5
 20
12.5
 30
0.0
  0
POINT
  5
54
330
48
100
AcDbEntity
  8
1
 62
     4
100
AcDbPoint
 10
129.25
 20
12.5
 30
0.0
  0
POINT
  5
55
330
48
100
AcDbEntity
  8
1
 62
     4
100
AcDbPoint
 10
117.75
 20
12.5
 30
0.0
  0
POINT
  5
56
330
48
100
AcDbEntity
  8
1
 62
     4
100
AcDbPoint
 10
140.5
 20
19.00000000000001
 30
0.0
  0
POINT
  5
57
330
48
100
AcDbEntity
  8
1
 62
     4
100
AcDbPoint
 10
140.5
 20
12.5
 30
0.0
  0
POINT
  5
58
330
48
100
AcDbEntity
  8
1
 62
     4
100
AcDbPoint
 10
146.25
 20
12.5
 30
0.0
  0
POINT
  5
59
330
48
100
AcDbEntity
  8
1
 62
     4
100
AcDbPoint
 10
134.75
 20
12.5
 30
0.0
  0
POINT
  5
5A
330
48
100
AcDbEntity
  8
1
 62
     4
100
AcDbPoint
 10
151.75
 20
12.5
 30
0.0
  0
POINT
  5
5B
330
48
100
AcDbEntity
  8
1
 62
     4
100
AcDbPoint
 10
163.25
 20
12.5
 30
0.0
  0
POINT
  5
5C
330
48
100
AcDbEntity
  8
1
 62
     4
100
AcDbPoint
 10
157.5
 20
12.5
 30
0.0
  0
POINT
  5
5D
330
48
100
AcDbEntity
  8
1
 62
     4
100
AcDbPoint
 10
57.0
 20
14.25
 30
0.0
  0
POINT
  5
5E
330
48
100
AcDbEntity
  8
1
 62
     4
100
AcDbPoint
 10
57.0
 20
22.75000000000001
 30
0.0
  0
POINT
  5
5F
330
48
100
AcDbEntity
  8
1
 62
     4
100
AcDbPoint
 10
47.5
 20
282.0000000000003
 30
0.0
  0
POINT
  5
60
330
48
100
AcDbEntity
  8
1
 62
     4
100
AcDbPoint
 10
157.5
 20
19.00000000000001
 30
0.0
  0
POINT
  5
61
330
48
100
AcDbEntity
  8
1
 62
     4
100
AcDbPoint
 10
57.0
 20
16.25
 30
0.0
  0
POINT
  5
62
330
48
100
AcDbEntity
  8
1
 62
     4
100
AcDbPoint
 10
57.0
 20
24.75000000000001
 30
0.0
  0
POINT
  5
63
330
48
100
AcDbEntity
  8
1
 62
     4
100
AcDbPoint
 10
57.0
 20
20.75000000000001
 30
0.0
  0
POINT
  5
64
330
48
100
AcDbEntity
  8
1
 62
     4
100
AcDbPoint
 10
57.0
 20
12.25
 30
0.0
  0
POINT
  5
65
330
48
100
AcDbEntity
  8
1
 62
     4
100
AcDbPoint
 10
34.0
 20
34.00000000000001
 30
0.0
  0
LINE
  5
66
330
48
100
AcDbEntity
  8
1
  6
Continuous
 62
     7
100
AcDbLine
 10
105.0
 20
10.0
 30
0.0
 11
200.0
 21
10.0
 31
0.0
  0
LINE
  5
67
330
48
100
AcDbEntity
  8
1
  6
Continuous
 62
     2
100
AcDbLine
 10
105.0
 20
10.0
 30
0.0
 11
105.0
 21
5.0
 31
0.0
  0
LINE
  5
68
330
48
100
AcDbEntity
  8
1
  6
Continuous
 62
     7
100
AcDbLine
 10
200.0
 20
148.5
 30
0.0
 11
200.0
 21
287.0000000000003
 31
0.0
  0
LINE
  5
69
330
48
100
AcDbEntity
  8
1
  6
Continuous
 62
     2
100
AcDbLine
 10
200.0
 20
148.5
 30
0.0
 11
205.0
 21
148.5
 31
0.0
  0
LINE
  5
6A
330
48
100
AcDbEntity
  8
1
  6
Continuous
 62
     7
100
AcDbLine
 10
25.0
 20
148.5
 30
0.0
 11
25.0
 21
287.0000000000003
 31
0.0
  0
LINE
  5
6B
330
48
100
AcDbEntity
  8
1
  6
Continuous
 62
     2
100
AcDbLine
 10
25.0
 20
148.5
 30
0.0
 11
20.0
 21
148.5
 31
0.0
  0
LINE
  5
6C
330
48
100
AcDbEntity
  8
1
  6
Continuous
 62
     7
100
AcDbLine
 10
105.0
 20
287.0000000000003
 30
0.0
 11
25.0
 21
287.0000000000003
 31
0.0
  0
LINE
  5
6D
330
48
100
AcDbEntity
  8
1
  6
Continuous
 62
     2
100
AcDbLine
 10
105.0
 20
287.0000000000003
 30
0.0
 11
105.0
 21
292.0000000000003
 31
0.0
  0
LINE
  5
6E
330
48
100
AcDbEntity
  8
1
  6
Continuous
 62
     2
100
AcDbLine
 10
166.0
 20
20.00000000000001
 30
0.0
 11
200.0
 21
20.00000000000001
 31
0.0
  0
LINE
  5
6F
330
48
100
AcDbEntity
  8
1
  6
Continuous
 62
     2
100
AcDbLine
 10
98.0
 20
27.00000000000001
 30
0.0
 11
98.0
 21
9.99999999999999
 31
0.0
  0
LINE
  5
70
330
48
100
AcDbEntity
  8
1
  6
Continuous
 62
     2
100
AcDbLine
 10
115.0
 20
27.00000000000001
 30
0.0
 11
115.0
 21
9.99999999999999
 31
0.0
  0
LINE
  5
71
330
48
100
AcDbEntity
  8
1
  6
Continuous
 62
     2
100
AcDbLine
 10
149.0
 20
27.00000000000001
 30
0.0
 11
149.0
 21
10.0
 31
0.0
  0
LINE
  5
72
330
48
100
AcDbEntity
  8
1
  6
Continuous
 62
     2
100
AcDbLine
 10
132.0
 20
27.00000000000001
 30
0.0
 11
132.0
 21
9.99999999999999
 31
0.0
  0
LINE
  5
73
330
48
100
AcDbEntity
  8
1
  6
Continuous
 62
     2
100
AcDbLine
 10
166.0
 20
27.00000000000001
 30
0.0
 11
166.0
 21
10.0
 31
0.0
  0
LINE
  5
74
330
48
100
AcDbEntity
  8
1
  6
Continuous
 62
     2
100
AcDbLine
 10
55.0
 20
277.0000000000003
 30
0.0
 11
25.0
 21
277.0000000000003
 31
0.0
  0
LINE
  5
75
330
48
100
AcDbEntity
  8
1
  6
Continuous
 62
     7
100
AcDbLine
 10
25.0
 20
10.0
 30
0.0
 11
25.0
 21
148.5
 31
0.0
  0
LINE
  5
76
330
48
100
AcDbEntity
  8
1
  6
Continuous
 62
     2
100
AcDbLine
 10
40.0
 20
287.0000000000003
 30
0.0
 11
40.0
 21
277.0000000000003
 31
0.0
  0
LINE
  5
77
330
48
100
AcDbEntity
  8
1
  6
Continuous
 62
     2
100
AcDbLine
 10
55.0
 20
287.0000000000003
 30
0.0
 11
55.0
 21
277.0000000000003
 31
0.0
  0
LINE
  5
78
330
48
100
AcDbEntity
  8
1
  6
Continuous
 62
     2
100
AcDbLine
 10
33.0
 20
41.00000000000001
 30
0.0
 11
33.0
 21
27.0
 31
0.0
  0
LINE
  5
79
330
48
100
AcDbEntity
  8
1
  6
Continuous
 62
     7
100
AcDbLine
 10
200.0
 20
27.00000000000001
 30
0.0
 11
25.0
 21
27.00000000000001
 31
0.0
  0
LINE
  5
7A
330
48
100
AcDbEntity
  8
1
  6
Continuous
 62
     7
100
AcDbLine
 10
25.0
 20
41.0
 30
0.0
 11
200.0
 21
41.0
 31
0.0
  0
LINE
  5
7B
330
48
100
AcDbEntity
  8
1
  6
PHANTOM
 62
     4
100
AcDbLine
 10
0.0
 20
0.0
 30
0.0
 11
210.0
 21
0.0
 31
0.0
  0
LINE
  5
7C
330
48
100
AcDbEntity
  8
1
  6
PHANTOM
 62
     4
100
AcDbLine
 10
210.0
 20
0.0
 30
0.0
 11
210.0
 21
297.0
 31
0.0
  0
LINE
  5
7D
330
48
100
AcDbEntity
  8
1
  6
PHANTOM
 62
     4
100
AcDbLine
 10
210.0
 20
297.0
 30
0.0
 11
0.0
 21
297.0
 31
0.0
  0
LINE
  5
7E
330
48
100
AcDbEntity
  8
1
  6
PHANTOM
 62
     4
100
AcDbLine
 10
0.0
 20
297.0
 30
0.0
 11
0.0
 21
0.0
 31
0.0
  0
LINE
  5
7F
330
48
100
AcDbEntity
  8
1
  6
Continuous
 62
     7
100
AcDbLine
 10
25.0
 20
10.0
 30
0.0
 11
105.0
 21
10.0
 31
0.0
  0
LINE
  5
80
330
48
100
AcDbEntity
  8
1
  6
Continuous
 62
     7
100
AcDbLine
 10
200.0
 20
10.0
 30
0.0
 11
200.0
 21
148.5
 31
0.0
  0
LINE
  5
81
330
48
100
AcDbEntity
  8
1
  6
Continuous
 62
     7
100
AcDbLine
 10
200.0
 20
287.0000000000003
 30
0.0
 11
105.0
 21
287.0000000000003
 31
0.0
  0
LINE
  5
82
330
48
100
AcDbEntity
  8
1
  6
Continuous
 62
     2
100
AcDbLine
 10
25.0
 20
18.50000000000001
 30
0.0
 11
81.0
 21
18.50000000000001
 31
0.0
  0
LINE
  5
83
330
48
100
AcDbEntity
  8
1
  6
Continuous
 62
     2
100
AcDbLine
 10
33.0
 20
27.0
 30
0.0
 11
33.0
 21
10.0
 31
0.0
  0
LINE
  5
84
330
48
100
AcDbEntity
  8
1
  6
Continuous
 62
     7
100
AcDbLine
 10
191.0
 20
24.70000000000001
 30
0.0
 11
191.0
 21
22.30000000000001
 31
0.0
  0
LINE
  5
85
330
48
100
AcDbEntity
  8
1
  6
Continuous
 62
     7
100
AcDbLine
 10
191.0
 20
24.70000000000001
 30
0.0
 11
196.0
 21
25.50000000000001
 31
0.0
  0
LINE
  5
86
330
48
100
AcDbEntity
  8
1
  6
Continuous
 62
     7
100
AcDbLine
 10
196.0
 20
25.50000000000001
 30
0.0
 11
196.0
 21
21.50000000000001
 31
0.0
  0
LINE
  5
87
330
48
100
AcDbEntity
  8
1
  6
Continuous
 62
     7
100
AcDbLine
 10
196.0
 20
21.50000000000001
 30
0.0
 11
191.0
 21
22.30000000000001
 31
0.0
  0
LINE
  5
88
330
48
100
AcDbEntity
  8
1
  6
DOT_CENTER
 62
     2
100
AcDbLine
 10
184.0
 20
23.50000000000001
 30
0.0
 11
197.0
 21
23.50000000000001
 31
0.0
  0
LINE
  5
89
330
48
100
AcDbEntity
  8
1
  6
DOT_CENTER
 62
     2
100
AcDbLine
 10
187.0
 20
26.50000000000001
 30
0.0
 11
187.0
 21
20.50000000000001
 31
0.0
  0
LINE
  5
8A
330
48
100
AcDbEntity
  8
1
  6
Continuous
 62
     2
100
AcDbLine
 10
81.0
 20
27.00000000000001
 30
0.0
 11
81.0
 21
10.0
 31
0.0
  0
CIRCLE
  5
8B
330
48
100
AcDbEntity
  8
1
  6
Continuous
 62
     7
100
AcDbCircle
 10
103.5
 20
12.5
 30
0.0
 40
0.2999999999999972
  0
CIRCLE
  5
8C
330
48
100
AcDbEntity
  8
1
  6
Continuous
 62
     7
100
AcDbCircle
 10
109.5
 20
12.5
 30
0.0
 40
0.2999999999999972
  0
CIRCLE
  5
8D
330
48
100
AcDbEntity
  8
1
  6
Continuous
 62
     7
100
AcDbCircle
 10
120.5
 20
12.5
 30
0.0
 40
0.2999999999999972
  0
CIRCLE
  5
8E
330
48
100
AcDbEntity
  8
1
  6
Continuous
 62
     7
100
AcDbCircle
 10
126.5
 20
12.5
 30
0.0
 40
0.2999999999999972
  0
CIRCLE
  5
8F
330
48
100
AcDbEntity
  8
1
  6
Continuous
 62
     7
100
AcDbCircle
 10
137.5
 20
12.5
 30
0.0
 40
0.3000000000000114
  0
CIRCLE
  5
90
330
48
100
AcDbEntity
  8
1
  6
Continuous
 62
     7
100
AcDbCircle
 10
143.5
 20
12.5
 30
0.0
 40
0.3000000000000114
  0
CIRCLE
  5
91
330
48
100
AcDbEntity
  8
1
  6
Continuous
 62
     7
100
AcDbCircle
 10
160.5
 20
12.5
 30
0.0
 40
0.3000000000000114
  0
CIRCLE
  5
92
330
48
100
AcDbEntity
  8
1
  6
Continuous
 62
     7
100
AcDbCircle
 10
154.5
 20
12.5
 30
0.0
 40
0.3000000000000114
  0
CIRCLE
  5
93
330
48
100
AcDbEntity
  8
1
  6
Continuous
 62
     7
100
AcDbCircle
 10
187.0
 20
23.50000000000001
 30
0.0
 40
1.200000000000102
  0
CIRCLE
  5
94
330
48
100
AcDbEntity
  8
1
  6
Continuous
 62
     7
100
AcDbCircle
 10
187.0
 20
23.50000000000001
 30
0.0
 40
2.0
  0
CIRCLE
  5
95
330
48
100
AcDbEntity
  8
1
  6
DOT_CENTER
 62
     7
100
AcDbCircle
 10
89.5
 20
16.0
 30
0.0
 40
0.1000000000000227
  0
CIRCLE
  5
96
330
48
100
AcDbEntity
  8
1
  6
DOT_CENTER
 62
     7
100
AcDbCircle
 10
89.5
 20
18.0
 30
0.0
 40
0.1000000000000227
  0
MTEXT
  5
98
330
48
100
AcDbEntity
  8
1
 62
     7
100
AcDbMText
 10
188.5
 20
15.0
 30
0.0
 40
3.0
 41
0.0
 71
     5
 72
     1
  1
三栄水栓製作所
  7
CONVERTER_11
 73
     1
 44
1.0
  0
MTEXT
  5
99
330
48
100
AcDbEntity
  8
1
 62
     7
100
AcDbMText
 10
171.5
 20
15.0
 30
0.0
 40
2.5
 41
0.0
 71
     5
 72
     1
  1
株式会社
  7
CONVERTER_11
 73
     1
 44
1.0
  0
MTEXT
  5
9A
330
48
100
AcDbEntity
  8
1
 62
     2
100
AcDbMText
 10
32.5
 20
282.0000000000003
 30
0.0
 40
5.0
 41
0.0
 71
     5
 72
     1
  1
図番
  7
CONVERTER_11
 73
     1
 44
0.45454545454545
  0
MTEXT
  5
9B
330
48
100
AcDbEntity
  8
1
 62
     2
100
AcDbMText
 10
29.0
 20
34.00000000000001
 30
0.0
 40
3.5
 41
0.0
 71
     5
 72
     1
  1
備考
  7
CONVERTER_11
 73
     1
 44
0.45454545454545
  0
MTEXT
  5
9C
330
48
100
AcDbEntity
  8
1
 62
     2
100
AcDbMText
 10
29.0
 20
22.75
 30
0.0
 40
3.5
 41
0.0
 71
     5
 72
     1
  1
品名
  7
CONVERTER_11
 73
     1
 44
0.72727272727273
  0
MTEXT
  5
9D
330
48
100
AcDbEntity
  8
1
 62
     2
100
AcDbMText
 10
29.0
 20
14.25
 30
0.0
 40
3.5
 41
0.0
 71
     5
 72
     1
  1
品番
  7
CONVERTER_11
 73
     1
 44
0.72727272727273
  0
MTEXT
  5
9E
330
48
100
AcDbEntity
  8
1
 62
     2
100
AcDbMText
 10
101.5
 20
25.00000000000001
 30
0.0
 40
3.0
 41
0.0
 71
     5
 72
     1
  1
承認
  7
CONVERTER_11
 73
     1
 44
0.59090909090909
  0
MTEXT
  5
9F
330
48
100
AcDbEntity
  8
1
 62
     2
100
AcDbMText
 10
175.0
 20
23.50000000000001
 30
0.0
 40
3.5
 41
0.0
 71
     5
 72
     1
  1
第三角法
  7
CONVERTER_11
 73
     1
 44
0.54545454545455
  0
MTEXT
  5
A0
330
48
100
AcDbEntity
  8
1
 62
     2
100
AcDbMText
 10
118.5
 20
25.00000000000001
 30
0.0
 40
3.0
 41
0.0
 71
     5
 72
     1
  1
検図
  7
CONVERTER_11
 73
     1
 44
0.59090909090909
  0
MTEXT
  5
A1
330
48
100
AcDbEntity
  8
1
 62
     2
100
AcDbMText
 10
152.5
 20
25.00000000000001
 30
0.0
 40
3.0
 41
0.0
 71
     5
 72
     1
  1
担当
  7
CONVERTER_11
 73
     1
 44
0.59090909090909
  0
MTEXT
  5
A2
330
48
100
AcDbEntity
  8
1
 62
     2
100
AcDbMText
 10
135.5
 20
25.00000000000001
 30
0.0
 40
3.0
 41
0.0
 71
     5
 72
     1
  1
製図
  7
CONVERTER_11
 73
     1
 44
0.59090909090909
  0
MTEXT
  5
A3
330
48
100
AcDbEntity
  8
1
 62
     2
100
AcDbMText
 10
89.5
 20
24.00000000000001
 30
0.0
 40
3.5
 41
0.0
 71
     5
 72
     1
  1
尺度
  7
CONVERTER_11
 73
     1
 44
0.54545454545455
  0
MTEXT
  5
A4
330
48
100
AcDbEntity
  8
1
 62
   250
100
AcDbMText
 10
25.0
 20
5.0
 30
0.0
 40
3.5
 41
0.0
 71
     4
 72
     1
  1
備考欄の文字列 原点位置=4
  7
CONVERTER_11
 73
     1
 44
0.54545454545455
  0
ENDBLK
  5
4A
330
48
100
AcDbEntity
  8
0
100
AcDbBlockEnd
  0
BLOCK
  5
251
330
24A
100
AcDbEntity
  8
0
100
AcDbBlockBegin
  2
*D2
 70
     1
 10
0.0
 20
0.0
 30
0.0
  3
*D2
  1

  0
LINE
  5
24B
330
24A
100
AcDbEntity
  8
1
  6
Continuous
 62
     2
100
AcDbLine
 10
124.9283621863998
 20
179.184335065718
 30
0.0
 11
124.9283621863998
 21
135.184335065718
 31
0.0
  0
LINE
  5
24C
330
24A
100
AcDbEntity
  8
1
  6
Continuous
 62
     2
100
AcDbLine
 10
121.9283621863998
 20
179.184335065718
 30
0.0
 11
125.9283621863998
 21
179.184335065718
 31
0.0
  0
LINE
  5
24D
330
24A
100
AcDbEntity
  8
1
  6
Continuous
 62
     2
100
AcDbLine
 10
75.378363011201
 20
135.184335065718
 30
0.0
 11
125.9283621863998
 21
135.184335065718
 31
0.0
  0
SOLID
  5
24E
330
24A
100
AcDbEntity
  8
1
 62
     2
100
AcDbTrace
 10
125.3891459279557
 20
175.684335065718
 30
0.0
 11
124.4675784448439
 21
175.684335065718
 31
0.0
 12
124.9283621863998
 22
179.184335065718
 32
0.0
 13
124.9283621863998
 23
179.184335065718
 33
0.0
  0
SOLID
  5
24F
330
24A
100
AcDbEntity
  8
1
 62
     2
100
AcDbTrace
 10
124.4675784448439
 20
138.684335065718
 30
0.0
 11
125.3891459279557
 21
138.684335065718
 31
0.0
 12
124.9283621863998
 22
135.184335065718
 32
0.0
 13
124.9283621863998
 23
135.184335065718
 33
0.0
  0
MTEXT
  5
250
330
24A
100
AcDbEntity
  8
1
 62
     7
100
AcDbMText
 10
123.9283621863998
 20
154.559335065718
 30
0.0
 40
3.5
 41
0.0
 71
     7
 72
     1
  1
44
  7
CONVERTER_12
 11
0.0
 21
1.0
 31
0.0
 73
     1
 44
0.60024009603842
  0
ENDBLK
  5
252
330
24A
100
AcDbEntity
  8
0
100
AcDbBlockEnd
  0
BLOCK
  5
25C
330
255
100
AcDbEntity
  8
0
100
AcDbBlockBegin
  2
*D3
 70
     1
 10
0.0
 20
0.0
 30
0.0
  3
*D3
  1

  0
LINE
  5
256
330
255
100
AcDbEntity
  8
1
  6
Continuous
 62
     2
100
AcDbLine
 10
43.4283658979998
 20
117.184335065718
 30
0.0
 11
70.428363011201
 21
117.184335065718
 31
0.0
  0
LINE
  5
257
330
255
100
AcDbEntity
  8
1
  6
Continuous
 62
     2
100
AcDbLine
 10
43.4283658979998
 20
157.53246095091
 30
0.0
 11
43.4283658979998
 21
116.184335065718
 31
0.0
  0
LINE
  5
258
330
255
100
AcDbEntity
  8
1
  6
Continuous
 62
     2
100
AcDbLine
 10
70.428363011201
 20
132.184335065718
 30
0.0
 11
70.428363011201
 21
116.184335065718
 31
0.0
  0
SOLID
  5
259
330
255
100
AcDbEntity
  8
1
 62
     2
100
AcDbTrace
 10
46.9283658979998
 20
117.6451188072739
 30
0.0
 11
46.9283658979998
 21
116.7235513241621
 31
0.0
 12
43.4283658979998
 22
117.184335065718
 32
0.0
 13
43.4283658979998
 23
117.184335065718
 33
0.0
  0
SOLID
  5
25A
330
255
100
AcDbEntity
  8
1
 62
     2
100
AcDbTrace
 10
66.928363011201
 20
116.7235513241621
 30
0.0
 11
66.928363011201
 21
117.6451188072739
 31
0.0
 12
70.428363011201
 22
117.184335065718
 32
0.0
 13
70.428363011201
 23
117.184335065718
 33
0.0
  0
MTEXT
  5
25B
330
255
100
AcDbEntity
  8
1
 62
     7
100
AcDbMText
 10
54.3033644546004
 20
118.184335065718
 30
0.0
 40
3.5
 41
0.0
 71
     7
 72
     1
  1
27
  7
CONVERTER_12
 11
0.9999999999970619
 21
2.424068405545306E-6
 31
0.0
 73
     1
 44
0.60024009603842
  0
ENDBLK
  5
25D
330
255
100
AcDbEntity
  8
0
100
AcDbBlockEnd
  0
BLOCK
  5
267
330
260
100
AcDbEntity
  8
0
100
AcDbBlockBegin
  2
*D4
 70
     1
 10
0.0
 20
0.0
 30
0.0
  3
*D4
  1

  0
LINE
  5
261
330
260
100
AcDbEntity
  8
1
  6
Continuous
 62
     2
100
AcDbLine
 10
33.4283658979998
 20
201.189763571099
 30
0.0
 11
33.4283658979998
 21
157.178906560338
 31
0.0
  0
LINE
  5
262
330
260
100
AcDbEntity
  8
1
  6
Continuous
 62
     2
100
AcDbLine
 10
43.78195740454541
 20
201.189763571099
 30
0.0
 11
32.4283658979998
 21
201.189763571099
 31
0.0
  0
LINE
  5
263
330
260
100
AcDbEntity
  8
1
  6
Continuous
 62
     2
100
AcDbLine
 10
43.78195740454541
 20
157.178906560338
 30
0.0
 11
32.4283658979998
 21
157.178906560338
 31
0.0
  0
SOLID
  5
264
330
260
100
AcDbEntity
  8
1
 62
     2
100
AcDbTrace
 10
33.88914963955568
 20
197.689763571099
 30
0.0
 11
32.96758215644391
 21
197.689763571099
 31
0.0
 12
33.4283658979998
 22
201.189763571099
 32
0.0
 13
33.4283658979998
 23
201.189763571099
 33
0.0
  0
SOLID
  5
265
330
260
100
AcDbEntity
  8
1
 62
     2
100
AcDbTrace
 10
32.96758215644391
 20
160.678906560338
 30
0.0
 11
33.88914963955568
 21
160.678906560338
 31
0.0
 12
33.4283658979998
 22
157.178906560338
 32
0.0
 13
33.4283658979998
 23
157.178906560338
 33
0.0
  0
MTEXT
  5
266
330
260
100
AcDbEntity
  8
1
 62
     7
100
AcDbMText
 10
32.4283658979998
 20
193.066865270435
 30
0.0
 40
3.5
 41
0.0
 71
     7
 72
     1
  1
\C7;{\Fgdt;n}\C7;44
  7
CONVERTER_12
 11
0.0
 21
1.0
 31
0.0
 73
     1
 44
0.60024009603842
  0
ENDBLK
  5
268
330
260
100
AcDbEntity
  8
0
100
AcDbBlockEnd
  0
BLOCK
  5
272
330
26B
100
AcDbEntity
  8
0
100
AcDbBlockBegin
  2
*D5
 70
     1
 10
0.0
 20
0.0
 30
0.0
  3
*D5
  1

  0
LINE
  5
26C
330
26B
100
AcDbEntity
  8
1
  6
Continuous
 62
     2
100
AcDbLine
 10
62.42835682520525
 20
164.684335065718
 30
0.0
 11
62.42835682520525
 21
193.684335065718
 31
0.0
  0
LINE
  5
26D
330
26B
100
AcDbEntity
  8
1
  6
Continuous
 62
     2
100
AcDbLine
 10
52.428356825206
 20
164.684335065718
 30
0.0
 11
63.42835682520525
 21
164.684335065718
 31
0.0
  0
LINE
  5
26E
330
26B
100
AcDbEntity
  8
1
  6
Continuous
 62
     2
100
AcDbLine
 10
52.4283568252059
 20
193.684335065718
 30
0.0
 11
63.42835682520525
 21
193.684335065718
 31
0.0
  0
SOLID
  5
26F
330
26B
100
AcDbEntity
  8
1
 62
     2
100
AcDbTrace
 10
61.96757308364936
 20
168.184335065718
 30
0.0
 11
62.88914056676114
 21
168.184335065718
 31
0.0
 12
62.42835682520525
 22
164.684335065718
 32
0.0
 13
62.42835682520525
 23
164.684335065718
 33
0.0
  0
SOLID
  5
270
330
26B
100
AcDbEntity
  8
1
 62
     2
100
AcDbTrace
 10
62.88914056676114
 20
190.184335065718
 30
0.0
 11
61.96757308364936
 21
190.184335065718
 31
0.0
 12
62.42835682520525
 22
193.684335065718
 32
0.0
 13
62.42835682520525
 23
193.684335065718
 33
0.0
  0
MTEXT
  5
271
330
26B
100
AcDbEntity
  8
1
 62
     7
100
AcDbMText
 10
61.42835682520525
 20
183.039335065718
 30
0.0
 40
3.5
 41
0.0
 71
     7
 72
     1
  1
\C7;{\Fgdt;n}\C7;29
  7
CONVERTER_12
 11
0.0
 21
1.0
 31
0.0
 73
     1
 44
0.60024009603842
  0
ENDBLK
  5
273
330
26B
100
AcDbEntity
  8
0
100
AcDbBlockEnd
  0
BLOCK
  5
27D
330
276
100
AcDbEntity
  8
0
100
AcDbBlockBegin
  2
*D6
 70
     1
 10
0.0
 20
0.0
 30
0.0
  3
*D6
  1

  0
LINE
  5
277
330
276
100
AcDbEntity
  8
1
  6
Continuous
 62
     2
100
AcDbLine
 10
29.428363011201
 20
117.184335065718
 30
0.0
 11
43.4283658979998
 21
117.184335065718
 31
0.0
  0
LINE
  5
278
330
276
100
AcDbEntity
  8
1
  6
Continuous
 62
     2
100
AcDbLine
 10
29.428363011201
 20
169.858898411319
 30
0.0
 11
29.428363011201
 21
116.184335065718
 31
0.0
  0
LINE
  5
279
330
276
100
AcDbEntity
  8
1
  6
Continuous
 62
     2
100
AcDbLine
 10
43.4283658979998
 20
157.53246095091
 30
0.0
 11
43.4283658979998
 21
116.184335065718
 31
0.0
  0
SOLID
  5
27A
330
276
100
AcDbEntity
  8
1
 62
     2
100
AcDbTrace
 10
32.928363011201
 20
117.6451188072739
 30
0.0
 11
32.928363011201
 21
116.7235513241621
 31
0.0
 12
29.428363011201
 22
117.184335065718
 32
0.0
 13
29.428363011201
 23
117.184335065718
 33
0.0
  0
SOLID
  5
27B
330
276
100
AcDbEntity
  8
1
 62
     2
100
AcDbTrace
 10
39.9283658979998
 20
116.7235513241621
 30
0.0
 11
39.9283658979998
 21
117.6451188072739
 31
0.0
 12
43.4283658979998
 22
117.184335065718
 32
0.0
 13
43.4283658979998
 23
117.184335065718
 33
0.0
  0
MTEXT
  5
27C
330
276
100
AcDbEntity
  8
1
 62
     7
100
AcDbMText
 10
34.3283644546004
 20
118.184335065718
 30
0.0
 40
3.5
 41
0.0
 71
     7
 72
     1
  1
14
  7
CONVERTER_12
 11
0.9999999999970619
 21
2.424068405545306E-6
 31
0.0
 73
     1
 44
0.60024009603842
  0
ENDBLK
  5
27E
330
276
100
AcDbEntity
  8
0
100
AcDbBlockEnd
  0
BLOCK
  5
288
330
281
100
AcDbEntity
  8
0
100
AcDbBlockBegin
  2
*D7
 70
     1
 10
0.0
 20
0.0
 30
0.0
  3
*D7
  1

  0
LINE
  5
282
330
281
100
AcDbEntity
  8
1
  6
Continuous
 62
     2
100
AcDbLine
 10
128.9283621863998
 20
210.1843350657217
 30
0.0
 11
128.9283621863998
 21
148.1843350657211
 31
0.0
  0
LINE
  5
283
330
281
100
AcDbEntity
  8
1
  6
Continuous
 62
     2
100
AcDbLine
 10
109.4283621864014
 20
210.1843350657216
 30
0.0
 11
129.9283621863998
 21
210.1843350657216
 31
0.0
  0
LINE
  5
284
330
281
100
AcDbEntity
  8
1
  6
Continuous
 62
     2
100
AcDbLine
 10
109.4283621864014
 20
148.184335065721
 30
0.0
 11
129.9283621863998
 21
148.184335065721
 31
0.0
  0
SOLID
  5
285
330
281
100
AcDbEntity
  8
1
 62
     2
100
AcDbTrace
 10
129.3891459279557
 20
206.6843350657217
 30
0.0
 11
128.4675784448439
 21
206.6843350657217
 31
0.0
 12
128.9283621863998
 22
210.1843350657217
 32
0.0
 13
128.9283621863998
 23
210.1843350657217
 33
0.0
  0
SOLID
  5
286
330
281
100
AcDbEntity
  8
1
 62
     2
100
AcDbTrace
 10
128.4675784448439
 20
151.6843350657211
 30
0.0
 11
129.3891459279557
 21
151.6843350657211
 31
0.0
 12
128.9283621863998
 22
148.1843350657211
 32
0.0
 13
128.9283621863998
 23
148.1843350657211
 33
0.0
  0
MTEXT
  5
287
330
281
100
AcDbEntity
  8
1
 62
     7
100
AcDbMText
 10
127.9283621863998
 20
192.0593350657198
 30
0.0
 40
3.5
 41
0.0
 71
     7
 72
     1
  1
62
  7
CONVERTER_12
 11
0.0
 21
1.0
 31
0.0
 73
     1
 44
0.60024009603842
  0
ENDBLK
  5
289
330
281
100
AcDbEntity
  8
0
100
AcDbBlockEnd
  0
BLOCK
  5
294
330
28C
100
AcDbEntity
  8
0
100
AcDbBlockBegin
  2
*D8
 70
     1
 10
0.0
 20
0.0
 30
0.0
  3
*D8
  1

  0
LINE
  5
28D
330
28C
100
AcDbEntity
  8
1
  6
Continuous
 62
     2
100
AcDbLine
 10
62.478363011201
 20
125.184335065718
 30
0.0
 11
78.378363011201
 21
125.184335065718
 31
0.0
  0
LINE
  5
28E
330
28C
100
AcDbEntity
  8
1
  6
Continuous
 62
     2
100
AcDbLine
 10
78.378363011201
 20
125.184335065718
 30
0.0
 11
92.8707614289183
 21
125.184335065718
 31
0.0
  0
LINE
  5
28F
330
28C
100
AcDbEntity
  8
1
  6
Continuous
 62
     2
100
AcDbLine
 10
62.478363011201
 20
138.184335065718
 30
0.0
 11
62.478363011201
 21
124.184335065718
 31
0.0
  0
LINE
  5
290
330
28C
100
AcDbEntity
  8
1
  6
Continuous
 62
     2
100
AcDbLine
 10
78.378363011201
 20
138.184335065718
 30
0.0
 11
78.378363011201
 21
124.184335065718
 31
0.0
  0
SOLID
  5
291
330
28C
100
AcDbEntity
  8
1
 62
     2
100
AcDbTrace
 10
65.978363011201
 20
125.6451188072739
 30
0.0
 11
65.978363011201
 21
124.7235513241621
 31
0.0
 12
62.478363011201
 22
125.184335065718
 32
0.0
 13
62.478363011201
 23
125.184335065718
 33
0.0
  0
SOLID
  5
292
330
28C
100
AcDbEntity
  8
1
 62
     2
100
AcDbTrace
 10
74.878363011201
 20
124.7235513241621
 30
0.0
 11
74.878363011201
 21
125.6451188072739
 31
0.0
 12
78.378363011201
 22
125.184335065718
 32
0.0
 13
78.378363011201
 23
125.184335065718
 33
0.0
  0
MTEXT
  5
293
330
28C
100
AcDbEntity
  8
1
 62
     7
100
AcDbMText
 10
81.42576142892673
 20
126.5343281086417
 30
0.0
 40
3.5
 41
0.0
 71
     7
 72
     1
  1
\C7;{\Fgdt;n}\C7;15,9
  7
CONVERTER_12
 11
0.9999999999970619
 21
2.424068405545306E-6
 31
0.0
 73
     1
 44
0.60024009603842
  0
ENDBLK
  5
295
330
28C
100
AcDbEntity
  8
0
100
AcDbBlockEnd
  0
BLOCK
  5
29F
330
298
100
AcDbEntity
  8
0
100
AcDbBlockBegin
  2
*D9
 70
     1
 10
0.0
 20
0.0
 30
0.0
  3
*D9
  1

  0
LINE
  5
299
330
298
100
AcDbEntity
  8
1
  6
Continuous
 62
     2
100
AcDbLine
 10
43.42836589799979
 20
220.1843350657216
 30
0.0
 11
118.9283621863998
 21
220.1843350657216
 31
0.0
  0
LINE
  5
29A
330
298
100
AcDbEntity
  8
1
  6
Continuous
 62
     2
100
AcDbLine
 10
43.42836589799979
 20
200.836209180527
 30
0.0
 11
43.42836589799979
 21
221.1843350657216
 31
0.0
  0
LINE
  5
29B
330
298
100
AcDbEntity
  8
1
  6
Continuous
 62
     2
100
AcDbLine
 10
118.9283621863998
 20
179.184335065718
 30
0.0
 11
118.9283621863998
 21
221.1843350657216
 31
0.0
  0
SOLID
  5
29C
330
298
100
AcDbEntity
  8
1
 62
     2
100
AcDbTrace
 10
46.92836589799979
 20
220.6451188072775
 30
0.0
 11
46.92836589799979
 21
219.7235513241657
 31
0.0
 12
43.42836589799979
 22
220.1843350657216
 32
0.0
 13
43.42836589799979
 23
220.1843350657216
 33
0.0
  0
SOLID
  5
29D
330
298
100
AcDbEntity
  8
1
 62
     2
100
AcDbTrace
 10
115.4283621863998
 20
219.7235513241657
 30
0.0
 11
115.4283621863998
 21
220.6451188072775
 31
0.0
 12
118.9283621863998
 22
220.1843350657216
 32
0.0
 13
118.9283621863998
 23
220.1843350657216
 33
0.0
  0
MTEXT
  5
29E
330
298
100
AcDbEntity
  8
1
 62
     7
100
AcDbMText
 10
71.7283640421998
 20
221.1843350657216
 30
0.0
 40
3.5
 41
0.0
 71
     7
 72
     1
  1
76リフト7
  7
CONVERTER_11
 11
0.9999999999970619
 21
2.424068405545306E-6
 31
0.0
 73
     1
 44
0.45454545454545
  0
ENDBLK
  5
2A0
330
298
100
AcDbEntity
  8
0
100
AcDbBlockEnd
  0
ENDSEC
  0
SECTION
  2
ENTITIES
  0
INSERT
  5
4B
330
1F
100
AcDbEntity
  8
1
100
AcDbBlockReference
  2
開示A4
 10
0.0
 20
0.0
 30
0.0
  0
LINE
  5
A5
330
1F
100
AcDbEntity
  8
1
  6
Continuous
 62
     7
100
AcDbLine
 10
46.4283757955927
 20
191.689756972703
 30
0.0
 11
46.4283757955927
 21
166.678913158733
 31
0.0
  0
LINE
  5
A6
330
1F
100
AcDbEntity
  8
レイヤ0
  6
Continuous
 62
     7
100
AcDbLine
 10
29.428363011201
 20
169.858898411319
 30
0.0
 11
30.58836708571
 21
168.698900522806
 31
0.0
  0
LINE
  5
A7
330
1F
100
AcDbEntity
  8
レイヤ0
  6
Continuous
 62
     2
100
AcDbLine
 10
29.428363011201
 20
169.858898411319
 30
0.0
 11
43.4283658979998
 21
169.858898411319
 31
0.0
  0
LINE
  5
A8
330
1F
100
AcDbEntity
  8
レイヤ0
  6
Continuous
 62
     7
100
AcDbLine
 10
30.58836708571
 20
168.698900522806
 30
0.0
 11
43.4283658979998
 21
168.698900522806
 31
0.0
  0
LINE
  5
A9
330
1F
100
AcDbEntity
  8
レイヤ0
  6
Continuous
 62
     7
100
AcDbLine
 10
43.7819574045454
 20
157.178906560338
 30
0.0
 11
43.4283658979998
 21
157.53246095091
 31
0.0
  0
LINE
  5
AA
330
1F
100
AcDbEntity
  8
レイヤ0
  6
Continuous
 62
     7
100
AcDbLine
 10
45.9533160801155
 20
157.652630100773
 30
0.0
 11
46.4283757955927
 21
166.678913158733
 31
0.0
  0
LINE
  5
AB
330
1F
100
AcDbEntity
  8
レイヤ0
  6
Continuous
 62
     7
100
AcDbLine
 10
45.4540072620201
 20
157.178906560338
 30
0.0
 11
43.7819574045454
 21
157.178906560338
 31
0.0
  0
LINE
  5
AC
330
1F
100
AcDbEntity
  8
レイヤ0
  6
Continuous
 62
     7
100
AcDbLine
 10
48.1039392985488
 20
167.307249472342
 30
0.0
 11
46.4283757955927
 21
166.678913158733
 31
0.0
  0
LINE
  5
AD
330
1F
100
AcDbEntity
  8
レイヤ0
  6
Continuous
 62
     7
100
AcDbLine
 10
48.42838239397203
 20
191.1843515616947
 30
0.0
 11
48.4283823939876
 21
167.141320811522
 31
0.0
  0
LINE
  5
AE
330
1F
100
AcDbEntity
  8
レイヤ0
  6
Continuous
 62
     7
100
AcDbLine
 10
173.911320347426
 20
179.184261931308
 30
0.0
 11
173.911320347425
 21
179.184260600518
 31
0.0
  0
LINE
  5
AF
330
1F
100
AcDbEntity
  8
レイヤ0
  6
Continuous
 62
     7
100
AcDbLine
 10
80.928363011201
 20
193.184335065718
 30
0.0
 11
80.428363011201
 21
193.684335065718
 31
0.0
  0
LINE
  5
B0
330
1F
100
AcDbEntity
  8
レイヤ0
  6
Continuous
 62
     7
100
AcDbLine
 10
80.9283630112
 20
165.184335065719
 30
0.0
 11
80.428363011201
 21
164.684335065718
 31
0.0
  0
LINE
  5
B1
330
1F
100
AcDbEntity
  8
レイヤ0
  6
Continuous
 62
     7
100
AcDbLine
 10
63.428363011201
 20
164.684335065718
 30
0.0
 11
77.428363011201
 21
164.684335065718
 31
0.0
  0
LINE
  5
B2
330
1F
100
AcDbEntity
  8
レイヤ0
  6
Continuous
 62
     7
100
AcDbLine
 10
52.428356825206
 20
164.684335065718
 30
0.0
 11
48.4283560004053
 21
167.184335065717
 31
0.0
  0
LINE
  5
B3
330
1F
100
AcDbEntity
  8
レイヤ0
  6
Continuous
 62
     7
100
AcDbLine
 10
52.428356825206
 20
164.684335065718
 30
0.0
 11
63.428363011201
 21
164.684335065718
 31
0.0
  0
LINE
  5
B4
330
1F
100
AcDbEntity
  8
レイヤ0
  6
Continuous
 62
     7
100
AcDbLine
 10
52.4283568252059
 20
193.684335065718
 30
0.0
 11
48.42838239397203
 21
191.1843515616947
 31
0.0
  0
LINE
  5
B5
330
1F
100
AcDbEntity
  8
レイヤ0
  6
Continuous
 62
     7
100
AcDbLine
 10
52.4283568252059
 20
193.684335065718
 30
0.0
 11
80.428363011201
 21
193.684335065718
 31
0.0
  0
LINE
  5
B6
330
1F
100
AcDbEntity
  8
レイヤ0
  6
Continuous
 62
     7
100
AcDbLine
 10
80.928363011201
 20
193.184335065718
 30
0.0
 11
80.928363011201
 21
179.184335065718
 31
0.0
  0
LINE
  5
B7
330
1F
100
AcDbEntity
  8
レイヤ0
  6
Continuous
 62
     7
100
AcDbLine
 10
62.428363011201
 20
141.384335065717
 30
0.0
 11
62.428363011201
 21
143.884335065717
 31
0.0
  0
LINE
  5
B8
330
1F
100
AcDbEntity
  8
レイヤ0
  6
Continuous
 62
     7
100
AcDbLine
 10
62.428363011201
 20
143.884335065717
 30
0.0
 11
61.978363011201
 21
144.884335065717
 31
0.0
  0
LINE
  5
B9
330
1F
100
AcDbEntity
  8
レイヤ0
  6
Continuous
 62
     7
100
AcDbLine
 10
76.428363011201
 20
141.384335065717
 30
0.0
 11
78.428363011201
 21
141.384335065717
 31
0.0
  0
LINE
  5
BA
330
1F
100
AcDbEntity
  8
レイヤ0
  6
Continuous
 62
     7
100
AcDbLine
 10
64.428363011201
 20
138.384335065717
 30
0.0
 11
78.378363011201
 21
138.384335065717
 31
0.0
  0
LINE
  5
BB
330
1F
100
AcDbEntity
  8
レイヤ0
  6
Continuous
 62
     7
100
AcDbLine
 10
78.878363011201
 20
144.884335065717
 30
0.0
 11
78.428363011201
 21
143.884335065717
 31
0.0
  0
LINE
  5
BC
330
1F
100
AcDbEntity
  8
レイヤ0
  6
Continuous
 62
     7
100
AcDbLine
 10
78.428363011201
 20
141.384335065717
 30
0.0
 11
78.428363011201
 21
143.884335065717
 31
0.0
  0
LINE
  5
BD
330
1F
100
AcDbEntity
  8
レイヤ0
  6
Continuous
 62
     7
100
AcDbLine
 10
77.428363011201
 20
147.184335065718
 30
0.0
 11
77.428363011201
 21
152.284335065718
 31
0.0
  0
LINE
  5
BE
330
1F
100
AcDbEntity
  8
レイヤ0
  6
Continuous
 62
     7
100
AcDbLine
 10
77.428363011201
 20
147.184335065718
 30
0.0
 11
78.878363011201
 21
146.184335065718
 31
0.0
  0
LINE
  5
BF
330
1F
100
AcDbEntity
  8
レイヤ0
  6
Continuous
 62
     7
100
AcDbLine
 10
78.878363011201
 20
144.884335065717
 30
0.0
 11
78.878363011201
 21
146.184335065718
 31
0.0
  0
LINE
  5
C0
330
1F
100
AcDbEntity
  8
レイヤ0
  6
Continuous
 62
     7
100
AcDbLine
 10
61.978363011201
 20
144.884335065717
 30
0.0
 11
61.978363011201
 21
146.184335065718
 31
0.0
  0
LINE
  5
C1
330
1F
100
AcDbEntity
  8
レイヤ0
  6
Continuous
 62
     7
100
AcDbLine
 10
63.428363011201
 20
147.184335065718
 30
0.0
 11
61.978363011201
 21
146.184335065718
 31
0.0
  0
LINE
  5
C2
330
1F
100
AcDbEntity
  8
レイヤ0
  6
Continuous
 62
     7
100
AcDbLine
 10
62.478363011201
 20
138.184335065718
 30
0.0
 11
62.478363011201
 21
138.384335065717
 31
0.0
  0
LINE
  5
C3
330
1F
100
AcDbEntity
  8
レイヤ0
  6
Continuous
 62
     7
100
AcDbLine
 10
78.378363011201
 20
138.184335065718
 30
0.0
 11
78.378363011201
 21
138.384335065717
 31
0.0
  0
LINE
  5
C4
330
1F
100
AcDbEntity
  8
レイヤ0
  6
Continuous
 62
     7
100
AcDbLine
 10
65.478363011201
 20
135.184335065718
 30
0.0
 11
75.378363011201
 21
135.184335065718
 31
0.0
  0
LINE
  5
C5
330
1F
100
AcDbEntity
  8
レイヤ0
  6
Continuous
 62
     7
100
AcDbLine
 10
63.428363011201
 20
147.184335065718
 30
0.0
 11
63.428363011201
 21
152.284335065718
 31
0.0
  0
LINE
  5
C6
330
1F
100
AcDbEntity
  8
レイヤ0
  6
Continuous
 62
     7
100
AcDbLine
 10
62.428363011201
 20
141.384335065717
 30
0.0
 11
76.428363011201
 21
141.384335065717
 31
0.0
  0
LINE
  5
C7
330
1F
100
AcDbEntity
  8
レイヤ0
  6
Continuous
 62
     7
100
AcDbLine
 10
62.478363011201
 20
138.384335065717
 30
0.0
 11
64.428363011201
 21
138.384335065717
 31
0.0
  0
LINE
  5
C8
330
1F
100
AcDbEntity
  8
レイヤ0
  6
Continuous
 62
     7
100
AcDbLine
 10
60.628363011202
 20
157.567754311987
 30
0.0
 11
60.628363011201
 21
155.713620705614
 31
0.0
  0
LINE
  5
C9
330
1F
100
AcDbEntity
  8
レイヤ0
  6
Continuous
 62
     7
100
AcDbLine
 10
80.228363011201
 20
157.567754311987
 30
0.0
 11
80.228363011201
 21
155.713620705614
 31
0.0
  0
LINE
  5
CA
330
1F
100
AcDbEntity
  8
レイヤ0
  6
Continuous
 62
     7
100
AcDbLine
 10
63.428363011201
 20
159.184335065717
 30
0.0
 11
60.628363011202
 21
157.567754311987
 31
0.0
  0
LINE
  5
CB
330
1F
100
AcDbEntity
  8
レイヤ0
  6
Continuous
 62
     7
100
AcDbLine
 10
63.428363011201
 20
159.184335065717
 30
0.0
 11
63.428363011201
 21
164.684335065718
 31
0.0
  0
LINE
  5
CC
330
1F
100
AcDbEntity
  8
レイヤ0
  6
Continuous
 62
     7
100
AcDbLine
 10
77.428363011201
 20
159.184335065718
 30
0.0
 11
80.228363011201
 21
157.567754311987
 31
0.0
  0
LINE
  5
CD
330
1F
100
AcDbEntity
  8
レイヤ0
  6
Continuous
 62
     7
100
AcDbLine
 10
77.428363011201
 20
159.184335065718
 30
0.0
 11
77.428363011201
 21
164.684335065718
 31
0.0
  0
LINE
  5
CE
330
1F
100
AcDbEntity
  8
レイヤ0
  6
Continuous
 62
     7
100
AcDbLine
 10
80.928363011201
 20
179.184335065718
 30
0.0
 11
80.9283630112
 21
165.184335065719
 31
0.0
  0
LINE
  5
CF
330
1F
100
AcDbEntity
  8
レイヤ0
  6
Continuous
 62
     7
100
AcDbLine
 10
156.911348314607
 20
141.384335065718
 30
0.0
 11
156.911348314607
 21
143.884335065718
 31
0.0
  0
LINE
  5
D0
330
1F
100
AcDbEntity
  8
レイヤ0
  6
Continuous
 62
     7
100
AcDbLine
 10
156.911348314607
 20
143.884335065718
 30
0.0
 11
156.461348314607
 21
144.884335065718
 31
0.0
  0
LINE
  5
D1
330
1F
100
AcDbEntity
  8
レイヤ0
  6
Continuous
 62
     7
100
AcDbLine
 10
170.911348314607
 20
141.384335065718
 30
0.0
 11
170.911348314607
 21
141.0843350657171
 31
0.0
  0
LINE
  5
D2
330
1F
100
AcDbEntity
  8
レイヤ0
  6
Continuous
 62
     7
100
AcDbLine
 10
173.361348314607
 20
144.884335065718
 30
0.0
 11
172.911348314607
 21
143.884335065718
 31
0.0
  0
LINE
  5
D3
330
1F
100
AcDbEntity
  8
レイヤ0
  6
Continuous
 62
     7
100
AcDbLine
 10
172.911348314607
 20
141.384335065718
 30
0.0
 11
172.911348314607
 21
143.884335065718
 31
0.0
  0
LINE
  5
D4
330
1F
100
AcDbEntity
  8
レイヤ0
  6
Continuous
 62
     7
100
AcDbLine
 10
171.911348314607
 20
147.184335065718
 30
0.0
 11
171.911348314607
 21
152.284335065718
 31
0.0
  0
LINE
  5
D5
330
1F
100
AcDbEntity
  8
レイヤ0
  6
Continuous
 62
     7
100
AcDbLine
 10
157.911348314607
 20
147.184335065718
 30
0.0
 11
157.911348314607
 21
152.284335065718
 31
0.0
  0
LINE
  5
D6
330
1F
100
AcDbEntity
  8
レイヤ0
  6
Continuous
 62
     7
100
AcDbLine
 10
171.911348314607
 20
147.184335065718
 30
0.0
 11
173.361348314607
 21
146.184335065718
 31
0.0
  0
LINE
  5
D7
330
1F
100
AcDbEntity
  8
レイヤ0
  6
Continuous
 62
     7
100
AcDbLine
 10
173.361348314607
 20
144.884335065718
 30
0.0
 11
173.361348314607
 21
146.184335065718
 31
0.0
  0
LINE
  5
D8
330
1F
100
AcDbEntity
  8
レイヤ0
  6
Continuous
 62
     7
100
AcDbLine
 10
156.461348314607
 20
144.884335065718
 30
0.0
 11
156.461348314607
 21
146.184335065718
 31
0.0
  0
LINE
  5
D9
330
1F
100
AcDbEntity
  8
レイヤ0
  6
Continuous
 62
     7
100
AcDbLine
 10
157.911348314607
 20
147.184335065718
 30
0.0
 11
156.461348314607
 21
146.184335065718
 31
0.0
  0
LINE
  5
DA
330
1F
100
AcDbEntity
  8
レイヤ0
  6
Continuous
 62
     7
100
AcDbLine
 10
156.961348314607
 20
138.184335065718
 30
0.0
 11
156.961348314607
 21
138.384335065718
 31
0.0
  0
LINE
  5
DB
330
1F
100
AcDbEntity
  8
レイヤ0
  6
Continuous
 62
     7
100
AcDbLine
 10
172.861348314607
 20
138.184335065718
 30
0.0
 11
172.861348314607
 21
138.384335065718
 31
0.0
  0
LINE
  5
DC
330
1F
100
AcDbEntity
  8
レイヤ0
  6
Continuous
 62
     7
100
AcDbLine
 10
159.961348314607
 20
135.184335065718
 30
0.0
 11
169.861348314607
 21
135.184335065718
 31
0.0
  0
LINE
  5
DD
330
1F
100
AcDbEntity
  8
レイヤ0
  6
Continuous
 62
     7
100
AcDbLine
 10
158.911348314607
 20
138.384335065718
 30
0.0
 11
158.9113483146067
 21
138.684335065719
 31
0.0
  0
LINE
  5
DE
330
1F
100
AcDbEntity
  8
レイヤ0
  6
Continuous
 62
     7
100
AcDbLine
 10
157.911348314607
 20
147.184335065718
 30
0.0
 11
171.911348314607
 21
147.184335065718
 31
0.0
  0
LINE
  5
DF
330
1F
100
AcDbEntity
  8
レイヤ0
  6
Continuous
 62
     7
100
AcDbLine
 10
156.461348314607
 20
146.184335065718
 30
0.0
 11
173.361348314607
 21
146.184335065718
 31
0.0
  0
LINE
  5
E0
330
1F
100
AcDbEntity
  8
レイヤ0
  6
Continuous
 62
     7
100
AcDbLine
 10
156.461348314607
 20
144.884335065718
 30
0.0
 11
173.361348314607
 21
144.884335065718
 31
0.0
  0
LINE
  5
E1
330
1F
100
AcDbEntity
  8
レイヤ0
  6
Continuous
 62
     7
100
AcDbLine
 10
172.911348314607
 20
143.884335065718
 30
0.0
 11
156.911348314607
 21
143.884335065718
 31
0.0
  0
LINE
  5
E2
330
1F
100
AcDbEntity
  8
レイヤ0
  6
Continuous
 62
     7
100
AcDbLine
 10
156.911348314607
 20
141.384335065718
 30
0.0
 11
172.911348314607
 21
141.384335065718
 31
0.0
  0
LINE
  5
E3
330
1F
100
AcDbEntity
  8
レイヤ0
  6
Continuous
 62
     7
100
AcDbLine
 10
156.961348314607
 20
138.384335065718
 30
0.0
 11
172.861348314607
 21
138.384335065718
 31
0.0
  0
LINE
  5
E4
330
1F
100
AcDbEntity
  8
レイヤ0
  6
Continuous
 62
     7
100
AcDbLine
 10
157.811348314607
 20
138.684335065719
 30
0.0
 11
172.011348314607
 21
138.684335065719
 31
0.0
  0
LINE
  5
E5
330
1F
100
AcDbEntity
  8
レイヤ0
  6
Continuous
 62
     7
100
AcDbLine
 10
157.811348314606
 20
141.084335065718
 30
0.0
 11
172.011348314607
 21
141.084335065717
 31
0.0
  0
LINE
  5
E6
330
1F
100
AcDbEntity
  8
レイヤ0
  6
Continuous
 62
     7
100
AcDbLine
 10
157.911348314606
 20
159.184335065717
 30
0.0
 11
154.911348314607
 21
157.452284258148
 31
0.0
  0
LINE
  5
E7
330
1F
100
AcDbEntity
  8
レイヤ0
  6
Continuous
 62
     7
100
AcDbLine
 10
154.911348314607
 20
157.452284258148
 30
0.0
 11
154.911348314607
 21
155.748436680856
 31
0.0
  0
LINE
  5
E8
330
1F
100
AcDbEntity
  8
レイヤ0
  6
Continuous
 62
     7
100
AcDbLine
 10
171.911348314606
 20
159.184335065718
 30
0.0
 11
174.911348314607
 21
157.45228425815
 31
0.0
  0
LINE
  5
E9
330
1F
100
AcDbEntity
  8
レイヤ0
  6
Continuous
 62
     7
100
AcDbLine
 10
174.911348314607
 20
157.45228425815
 30
0.0
 11
174.911348314607
 21
155.748436680856
 31
0.0
  0
LINE
  5
EA
330
1F
100
AcDbEntity
  8
レイヤ0
  6
Continuous
 62
     7
100
AcDbLine
 10
157.911348314606
 20
159.184335065717
 30
0.0
 11
157.911348314605
 21
166.48590996652
 31
0.0
  0
LINE
  5
EB
330
1F
100
AcDbEntity
  8
レイヤ0
  6
Continuous
 62
     7
100
AcDbLine
 10
171.911348314606
 20
159.184335065718
 30
0.0
 11
171.911348314606
 21
166.485909966518
 31
0.0
  0
LINE
  5
EC
330
1F
100
AcDbEntity
  8
レイヤ0
  6
Continuous
 62
     7
100
AcDbLine
 10
80.428363011201
 20
193.684335065718
 30
0.0
 11
80.428363011201
 21
179.184335065718
 31
0.0
  0
LINE
  5
ED
330
1F
100
AcDbEntity
  8
レイヤ0
  6
Continuous
 62
     7
100
AcDbLine
 10
92.724372603555
 20
189.178904910739
 30
0.0
 11
93.224372603555
 21
189.178904910739
 31
0.0
  0
LINE
  5
EE
330
1F
100
AcDbEntity
  8
レイヤ0
  6
Continuous
 62
     7
100
AcDbLine
 10
92.724372603555
 20
169.178904910738
 30
0.0
 11
93.224372603555
 21
169.178904910737
 31
0.0
  0
LINE
  5
EF
330
1F
100
AcDbEntity
  8
レイヤ0
  6
Continuous
 62
     7
100
AcDbLine
 10
90.72437260355599
 20
193.178934163861
 30
0.0
 11
90.724372603555
 21
179.178904910739
 31
0.0
  0
LINE
  5
F0
330
1F
100
AcDbEntity
  8
レイヤ0
  6
Continuous
 62
     7
100
AcDbLine
 10
90.72437260355599
 20
167.178904910738
 30
0.0
 11
90.724372603555
 21
165.178893768539
 31
0.0
  0
LINE
  5
F1
330
1F
100
AcDbEntity
  8
レイヤ0
  6
Continuous
 62
     7
100
AcDbLine
 10
93.724372603555
 20
190.678904910738
 30
0.0
 11
93.724372603555
 21
183.869320670562
 31
0.0
  0
LINE
  5
F2
330
1F
100
AcDbEntity
  8
レイヤ0
  6
Continuous
 62
     7
100
AcDbLine
 10
93.724372603555
 20
168.678904910739
 30
0.0
 11
93.724372603554
 21
167.678904910739
 31
0.0
  0
LINE
  5
F3
330
1F
100
AcDbEntity
  8
レイヤ0
  6
Continuous
 62
     7
100
AcDbLine
 10
93.724372603555
 20
190.678904910738
 30
0.0
 11
96.724372603555
 21
190.678904910739
 31
0.0
  0
LINE
  5
F4
330
1F
100
AcDbEntity
  8
レイヤ0
  6
Continuous
 62
     7
100
AcDbLine
 10
93.724372603554
 20
167.678904910739
 30
0.0
 11
96.724372603555
 21
167.678904910739
 31
0.0
  0
LINE
  5
F5
330
1F
100
AcDbEntity
  8
レイヤ0
  6
Continuous
 62
     7
100
AcDbLine
 10
90.224372603555
 20
164.678893768539
 30
0.0
 11
81.724372603555
 21
164.67889376854
 31
0.0
  0
LINE
  5
F6
330
1F
100
AcDbEntity
  8
レイヤ0
  6
Continuous
 62
     7
100
AcDbLine
 10
90.22437260355599
 20
193.678934163861
 30
0.0
 11
81.724372603555
 21
193.678934163862
 31
0.0
  0
LINE
  5
F7
330
1F
100
AcDbEntity
  8
レイヤ0
  6
Continuous
 62
     7
100
AcDbLine
 10
97.224372603555
 20
174.43431939453
 30
0.0
 11
97.224372603555
 21
168.178904910739
 31
0.0
  0
LINE
  5
F8
330
1F
100
AcDbEntity
  8
レイヤ0
  6
Continuous
 62
     7
100
AcDbLine
 10
97.224372603555
 20
179.184335065718
 30
0.0
 11
97.224372603555
 21
183.934338364918
 31
0.0
  0
LINE
  5
F9
330
1F
100
AcDbEntity
  8
レイヤ0
  6
Continuous
 62
     7
100
AcDbLine
 10
97.224372603555
 20
183.869320670562
 30
0.0
 11
93.724372603555
 21
183.869320670562
 31
0.0
  0
LINE
  5
FA
330
1F
100
AcDbEntity
  8
レイヤ0
  6
Continuous
 62
     7
100
AcDbLine
 10
81.224372603555
 20
165.178893768539
 30
0.0
 11
81.224372603555
 21
179.184335065718
 31
0.0
  0
LINE
  5
FB
330
1F
100
AcDbEntity
  8
レイヤ0
  6
Continuous
 62
     7
100
AcDbLine
 10
81.224372603555
 20
179.184335065718
 30
0.0
 11
81.224372603555
 21
193.178934163862
 31
0.0
  0
LINE
  5
FC
330
1F
100
AcDbEntity
  8
レイヤ0
  6
Continuous
 62
     7
100
AcDbLine
 10
81.224372603555
 20
191.024466639659
 30
0.0
 11
80.9283630112
 21
191.184312796134
 31
0.0
  0
LINE
  5
FD
330
1F
100
AcDbEntity
  8
レイヤ0
  6
Continuous
 62
     7
100
AcDbLine
 10
80.9283630112
 20
191.184312796134
 30
0.0
 11
81.224372603555
 21
191.184312796136
 31
0.0
  0
LINE
  5
FE
330
1F
100
AcDbEntity
  8
レイヤ0
  6
Continuous
 62
     7
100
AcDbLine
 10
100.219895109401
 20
183.934338364915
 30
0.0
 11
101.928362186402
 21
183.934338364916
 31
0.0
  0
LINE
  5
FF
330
1F
100
AcDbEntity
  8
レイヤ0
  6
Continuous
 62
     7
100
AcDbLine
 10
52.4283568252059
 20
193.684335065718
 30
0.0
 11
52.4283568252055
 21
179.184335065718
 31
0.0
  0
LINE
  5
100
330
1F
100
AcDbEntity
  8
レイヤ0
  6
Continuous
 62
     7
100
AcDbLine
 10
97.224372603555
 20
183.934338364918
 30
0.0
 11
102.428362186402
 21
183.934338364917
 31
0.0
  0
LINE
  5
101
330
1F
100
AcDbEntity
  8
レイヤ0
  6
Continuous
 62
     7
100
AcDbLine
 10
43.4283658979998
 20
157.53246095091
 30
0.0
 11
43.4283658979998
 21
188.509771720118
 31
0.0
  0
LINE
  5
102
330
1F
100
AcDbEntity
  8
レイヤ0
  6
Continuous
 62
     7
100
AcDbLine
 10
62.714654512216
 20
141.384335065718
 30
0.0
 11
62.428363011201
 21
141.670626566733
 31
0.0
  0
LINE
  5
103
330
1F
100
AcDbEntity
  8
レイヤ0
  6
Continuous
 62
     7
100
AcDbLine
 10
105.4283621864
 20
195.247081132527
 30
0.0
 11
105.4283621864
 21
193.184335065721
 31
0.0
  0
LINE
  5
104
330
1F
100
AcDbEntity
  8
レイヤ0
  6
Continuous
 62
     7
100
AcDbLine
 10
105.4283621864
 20
163.121588998915
 30
0.0
 11
105.428362186399
 21
165.184335065721
 31
0.0
  0
LINE
  5
105
330
1F
100
AcDbEntity
  8
レイヤ0
  6
Continuous
 62
     7
100
AcDbLine
 10
113.4283621864
 20
195.247081132527
 30
0.0
 11
113.4283621864
 21
192.81703325395
 31
0.0
  0
LINE
  5
106
330
1F
100
AcDbEntity
  8
レイヤ0
  6
Continuous
 62
     7
100
AcDbLine
 10
113.4283621864
 20
163.121588998915
 30
0.0
 11
113.4283621864
 21
165.551636877492
 31
0.0
  0
LINE
  5
107
330
1F
100
AcDbEntity
  8
レイヤ0
  6
Continuous
 62
     7
100
AcDbLine
 10
116.4283621864
 20
187.3398076789
 30
0.0
 11
116.428362186399
 21
171.028862452542
 31
0.0
  0
LINE
  5
108
330
1F
100
AcDbEntity
  8
レイヤ0
  6
Continuous
 62
     7
100
AcDbLine
 10
118.463605856986
 20
172.434335065608
 30
0.0
 11
116.4283621864
 21
172.434335065608
 31
0.0
  0
LINE
  5
109
330
1F
100
AcDbEntity
  8
レイヤ0
  6
Continuous
 62
     7
100
AcDbLine
 10
118.555350636985
 20
173.134335065609
 30
0.0
 11
116.4283621864
 21
173.134335065608
 31
0.0
  0
LINE
  5
10A
330
1F
100
AcDbEntity
  8
レイヤ0
  6
Continuous
 62
     7
100
AcDbLine
 10
118.647740373169
 20
173.934335065609
 30
0.0
 11
116.4283621864
 21
173.934335065609
 31
0.0
  0
LINE
  5
10B
330
1F
100
AcDbEntity
  8
レイヤ0
  6
Continuous
 62
     7
100
AcDbLine
 10
118.735879449293
 20
174.834335065609
 30
0.0
 11
116.4283621864
 21
174.834335065609
 31
0.0
  0
LINE
  5
10C
330
1F
100
AcDbEntity
  8
レイヤ0
  6
Continuous
 62
     7
100
AcDbLine
 10
118.814296084101
 20
175.834335065608
 30
0.0
 11
116.4283621864
 21
175.834335065609
 31
0.0
  0
LINE
  5
10D
330
1F
100
AcDbEntity
  8
レイヤ0
  6
Continuous
 62
     7
100
AcDbLine
 10
118.876939401595
 20
176.934335065608
 30
0.0
 11
116.4283621864
 21
176.934335065608
 31
0.0
  0
LINE
  5
10E
330
1F
100
AcDbEntity
  8
レイヤ0
  6
Continuous
 62
     7
100
AcDbLine
 10
118.91716802082
 20
178.134335065608
 30
0.0
 11
116.4283621864
 21
178.134335065608
 31
0.0
  0
LINE
  5
10F
330
1F
100
AcDbEntity
  8
レイヤ0
  6
Continuous
 62
     7
100
AcDbLine
 10
118.463605856986
 20
185.934335065833
 30
0.0
 11
116.4283621864
 21
185.934335065833
 31
0.0
  0
LINE
  5
110
330
1F
100
AcDbEntity
  8
レイヤ0
  6
Continuous
 62
     7
100
AcDbLine
 10
118.555350636985
 20
185.234335065833
 30
0.0
 11
116.4283621864
 21
185.234335065834
 31
0.0
  0
LINE
  5
111
330
1F
100
AcDbEntity
  8
レイヤ0
  6
Continuous
 62
     7
100
AcDbLine
 10
118.647740373169
 20
184.434335065833
 30
0.0
 11
116.4283621864
 21
184.434335065833
 31
0.0
  0
LINE
  5
112
330
1F
100
AcDbEntity
  8
レイヤ0
  6
Continuous
 62
     7
100
AcDbLine
 10
118.735879449293
 20
183.534335065833
 30
0.0
 11
116.4283621864
 21
183.534335065833
 31
0.0
  0
LINE
  5
113
330
1F
100
AcDbEntity
  8
レイヤ0
  6
Continuous
 62
     7
100
AcDbLine
 10
118.814296084101
 20
182.534335065833
 30
0.0
 11
116.4283621864
 21
182.534335065833
 31
0.0
  0
LINE
  5
114
330
1F
100
AcDbEntity
  8
レイヤ0
  6
Continuous
 62
     7
100
AcDbLine
 10
118.91716802082
 20
180.234335065834
 30
0.0
 11
116.4283621864
 21
180.234335065833
 31
0.0
  0
LINE
  5
115
330
1F
100
AcDbEntity
  8
レイヤ0
  6
Continuous
 62
     7
100
AcDbLine
 10
118.876939401595
 20
181.434335065833
 30
0.0
 11
116.4283621864
 21
181.434335065833
 31
0.0
  0
LINE
  5
116
330
1F
100
AcDbEntity
  8
レイヤ0
  6
Continuous
 62
     7
100
AcDbLine
 10
102.4283621864
 20
189.311351719514
 30
0.0
 11
102.4283621864
 21
179.184335065721
 31
0.0
  0
LINE
  5
117
330
1F
100
AcDbEntity
  8
レイヤ0
  6
Continuous
 62
     7
100
AcDbLine
 10
157.911348314606
 20
159.184335065717
 30
0.0
 11
159.166785668066
 21
159.184335065714
 31
0.0
  0
LINE
  5
118
330
1F
100
AcDbEntity
  8
レイヤ0
  6
Continuous
 62
     7
100
AcDbLine
 10
155.339919743178
 20
155.25356502155
 30
0.0
 11
157.911690664892
 21
155.25356502155
 31
0.0
  0
LINE
  5
119
330
1F
100
AcDbEntity
  8
レイヤ0
  6
Continuous
 62
     7
100
AcDbLine
 10
170.655910961147
 20
159.184335065713
 30
0.0
 11
171.911348314606
 21
159.184335065718
 31
0.0
  0
LINE
  5
11A
330
1F
100
AcDbEntity
  8
レイヤ0
  6
Continuous
 62
     7
100
AcDbLine
 10
171.911005964321
 20
155.253565021552
 30
0.0
 11
174.482776886035
 21
155.25356502155
 31
0.0
  0
LINE
  5
11B
330
1F
100
AcDbEntity
  8
レイヤ0
  6
Continuous
 62
     7
100
AcDbLine
 10
29.428363011201
 20
169.858898411319
 30
0.0
 11
29.428363011201
 21
179.184335065718
 31
0.0
  0
LINE
  5
11C
330
1F
100
AcDbEntity
  8
レイヤ0
  6
Continuous
 62
     7
100
AcDbLine
 10
29.428363011201
 20
188.509771720118
 30
0.0
 11
30.58836708571
 21
189.669769608631
 31
0.0
  0
LINE
  5
11D
330
1F
100
AcDbEntity
  8
レイヤ0
  6
Continuous
 62
     2
100
AcDbLine
 10
29.428363011201
 20
188.509771720118
 30
0.0
 11
43.4283658979998
 21
188.509771720118
 31
0.0
  0
LINE
  5
11E
330
1F
100
AcDbEntity
  8
レイヤ0
  6
Continuous
 62
     7
100
AcDbLine
 10
30.58836708571
 20
189.669769608631
 30
0.0
 11
43.4283658979998
 21
189.669769608631
 31
0.0
  0
LINE
  5
11F
330
1F
100
AcDbEntity
  8
レイヤ0
  6
Continuous
 62
     7
100
AcDbLine
 10
43.7819574045454
 20
201.189763571099
 30
0.0
 11
43.4283658979998
 21
200.836209180527
 31
0.0
  0
LINE
  5
120
330
1F
100
AcDbEntity
  8
レイヤ0
  6
Continuous
 62
     7
100
AcDbLine
 10
45.9533160801155
 20
200.716040030664
 30
0.0
 11
46.4283757955927
 21
191.689756972703
 31
0.0
  0
LINE
  5
121
330
1F
100
AcDbEntity
  8
レイヤ0
  6
Continuous
 62
     7
100
AcDbLine
 10
45.4540072620201
 20
201.189763571099
 30
0.0
 11
43.7819574045454
 21
201.189763571099
 31
0.0
  0
LINE
  5
122
330
1F
100
AcDbEntity
  8
レイヤ0
  6
Continuous
 62
     7
100
AcDbLine
 10
48.1039392985488
 20
191.061420659095
 30
0.0
 11
46.4283757955927
 21
191.689756972703
 31
0.0
  0
LINE
  5
123
330
1F
100
AcDbEntity
  8
レイヤ0
  6
Continuous
 62
     7
100
AcDbLine
 10
43.4283658979998
 20
200.836209180527
 30
0.0
 11
43.4283658979998
 21
189.667270466422
 31
0.0
  0
LINE
  5
124
330
1F
100
AcDbEntity
  8
レイヤ0
  6
Continuous
 62
     7
100
AcDbLine
 10
29.428363011201
 20
188.509771720118
 30
0.0
 11
29.428363011201
 21
179.184335065718
 31
0.0
  0
LINE
  5
1C7
330
1F
100
AcDbEntity
  8
1
  6
DASH_CENTER
 62
     2
100
AcDbLine
 10
164.911348314607
 20
213.1843350657174
 30
0.0
 11
164.911348314607
 21
132.184335065718
 31
0.0
  0
LINE
  5
1C8
330
1F
100
AcDbEntity
  8
1
  6
DASH_CENTER
 62
     2
100
AcDbLine
 10
198.9113483146079
 20
179.184335065718
 30
0.0
 11
130.9113483146053
 21
179.184335065718
 31
0.0
  0
LINE
  5
1C9
330
1F
100
AcDbEntity
  8
1
  6
DASH_CENTER
 62
     2
100
AcDbLine
 10
109.4283621864014
 20
213.1843350657216
 30
0.0
 11
109.4283621864014
 21
210.1843350657216
 31
0.0
  0
LINE
  5
1CA
330
1F
100
AcDbEntity
  8
レイヤ0
  6
Continuous
 62
     7
100
AcDbLine
 10
170.911348314607
 20
138.684335065719
 30
0.0
 11
170.911348314607
 21
138.384335065718
 31
0.0
  0
LINE
  5
1CB
330
1F
100
AcDbEntity
  8
レイヤ0
  6
Continuous
 62
     7
100
AcDbLine
 10
158.9113483146043
 20
141.0843350657179
 30
0.0
 11
158.911348314604
 21
141.384335065718
 31
0.0
  0
LINE
  5
1CC
330
1F
100
AcDbEntity
  8
1
  6
DASH_CENTER
 62
     2
100
AcDbLine
 10
102.4283621864
 20
179.184335065718
 30
0.0
 11
118.9283621863998
 21
179.184335065718
 31
0.0
  0
LINE
  5
1CD
330
1F
100
AcDbEntity
  8
レイヤ0
  6
Continuous
 62
     7
100
AcDbLine
 10
102.4283621864
 20
174.434335065718
 30
0.0
 11
102.4283621864
 21
169.057318411928
 31
0.0
  0
LINE
  5
1CE
330
1F
100
AcDbEntity
  8
レイヤ0
  6
Continuous
 62
     7
100
AcDbLine
 10
102.4283621864
 20
179.184335065718
 30
0.0
 11
102.4283621864
 21
174.434335065718
 31
0.0
  0
LINE
  5
1CF
330
1F
100
AcDbEntity
  8
レイヤ0
  6
Continuous
 62
     7
100
AcDbLine
 10
97.224372603555
 20
174.434335065718
 30
0.0
 11
102.4283621864
 21
174.434335065718
 31
0.0
  0
LINE
  5
1D0
330
1F
100
AcDbEntity
  8
1
  6
DASH_CENTER
 62
     2
100
AcDbLine
 10
26.428363011201
 20
179.184335065718
 30
0.0
 11
81.224372603555
 21
179.184335065718
 31
0.0
  0
LINE
  5
1D1
330
1F
100
AcDbEntity
  8
レイヤ0
  6
Continuous
 62
     7
100
AcDbLine
 10
90.724372603555
 20
179.189765220697
 30
0.0
 11
90.72437260355599
 21
165.189735967575
 31
0.0
  0
LINE
  5
1D2
330
1F
100
AcDbEntity
  8
レイヤ0
  6
Continuous
 62
     7
100
AcDbLine
 10
93.724372603555
 20
179.189765220697
 30
0.0
 11
93.724372603555
 21
174.499349460874
 31
0.0
  0
LINE
  5
1D3
330
1F
100
AcDbEntity
  8
レイヤ0
  6
Continuous
 62
     7
100
AcDbLine
 10
93.724372603555
 20
179.189765220697
 30
0.0
 11
93.724372603555
 21
174.499349460874
 31
0.0
  0
LINE
  5
1D4
330
1F
100
AcDbEntity
  8
レイヤ0
  6
Continuous
 62
     7
100
AcDbLine
 10
93.724372603555
 20
174.499349460874
 30
0.0
 11
97.224372603555
 21
174.499349460874
 31
0.0
  0
LINE
  5
1D5
330
1F
100
AcDbEntity
  8
レイヤ0
  6
Continuous
 62
     7
100
AcDbLine
 10
97.224372603555
 20
168.189765220697
 30
0.0
 11
97.224372603555
 21
174.499349460874
 31
0.0
  0
LINE
  5
1D6
330
1F
100
AcDbEntity
  8
1
  6
Continuous
 62
     2
100
AcDbLine
 10
93.724372603555
 20
174.499349460874
 30
0.0
 11
97.224372603555
 21
183.934338364918
 31
0.0
  0
LINE
  5
1D7
330
1F
100
AcDbEntity
  8
レイヤ0
  6
Continuous
 62
     7
100
AcDbLine
 10
97.224372603555
 20
183.934338364918
 30
0.0
 11
97.224372603555
 21
190.178904910739
 31
0.0
  0
LINE
  5
1D8
330
1F
100
AcDbEntity
  8
レイヤ0
  6
Continuous
 62
     7
100
AcDbLine
 10
93.724372603555
 20
174.499349460874
 30
0.0
 11
93.724372603555
 21
167.689765220698
 31
0.0
  0
LINE
  5
1D9
330
1F
100
AcDbEntity
  8
レイヤ0
  6
Continuous
 62
     7
100
AcDbLine
 10
93.724372603555
 20
174.499349460874
 30
0.0
 11
93.724372603555
 21
167.689765220698
 31
0.0
  0
LINE
  5
1DA
330
1F
100
AcDbEntity
  8
1
  6
Continuous
 62
     2
100
AcDbLine
 10
93.724372603555
 20
183.869320670562
 30
0.0
 11
97.224372603555
 21
174.499349460874
 31
0.0
  0
LINE
  5
1DB
330
1F
100
AcDbEntity
  8
レイヤ0
  6
Continuous
 62
     7
100
AcDbLine
 10
93.724372603555
 20
183.869320670562
 30
0.0
 11
93.724372603555
 21
179.178904910739
 31
0.0
  0
LINE
  5
1DC
330
1F
100
AcDbEntity
  8
レイヤ0
  6
Continuous
 62
     7
100
AcDbLine
 10
97.224372603555
 20
174.499349460874
 30
0.0
 11
97.224372603555
 21
179.184335065718
 31
0.0
  0
LINE
  5
1DD
330
1F
100
AcDbEntity
  8
1
  6
Continuous
 62
     7
100
AcDbLine
 10
30.58836708571
 20
189.669769608631
 30
0.0
 11
30.58836708571
 21
168.698900522806
 31
0.0
  0
LINE
  5
1DE
330
1F
100
AcDbEntity
  8
レイヤ0
  6
Continuous
 62
     7
100
AcDbLine
 10
43.4283658979998
 20
188.509771720118
 30
0.0
 11
43.4283658979998
 21
189.669769608631
 31
0.0
  0
LINE
  5
1DF
330
1F
100
AcDbEntity
  8
レイヤ0
  6
Continuous
 62
     7
100
AcDbLine
 10
48.42838239397203
 20
191.1843515616947
 30
0.0
 11
48.4283560004039
 21
191.184335065718
 31
0.0
  0
LINE
  5
1E0
330
1F
100
AcDbEntity
  8
1
  6
DASH_CENTER
 62
     2
100
AcDbLine
 10
70.428363011201
 20
182.184335065718
 30
0.0
 11
70.428363011201
 21
132.184335065718
 31
0.0
  0
LINE
  5
1E1
330
1F
100
AcDbEntity
  8
1
  6
DASH_CENTER
 62
     2
100
AcDbLine
 10
81.224372603555
 20
179.184335065718
 30
0.0
 11
102.4283621864
 21
179.184335065718
 31
0.0
  0
LINE
  5
1E2
330
1F
100
AcDbEntity
  8
レイヤ0
  6
Continuous
 62
     7
100
AcDbLine
 10
80.428363011201
 20
179.184335065718
 30
0.0
 11
80.428363011201
 21
164.684335065718
 31
0.0
  0
LINE
  5
1E3
330
1F
100
AcDbEntity
  8
レイヤ0
  6
Continuous
 62
     7
100
AcDbLine
 10
81.224372603555
 20
167.1843573353
 30
0.0
 11
80.9283630112
 21
167.184357335302
 31
0.0
  0
LINE
  5
1E4
330
1F
100
AcDbEntity
  8
レイヤ0
  6
Continuous
 62
     7
100
AcDbLine
 10
80.9283630112
 20
167.184357335302
 30
0.0
 11
81.224372603555
 21
167.344203491777
 31
0.0
  0
LINE
  5
1E5
330
1F
100
AcDbEntity
  8
レイヤ0
  6
Continuous
 62
     7
100
AcDbLine
 10
64.428363011201
 20
141.384335065717
 30
0.0
 11
64.428363011201
 21
141.084335065717
 31
0.0
  0
LINE
  5
1E6
330
1F
100
AcDbEntity
  8
レイヤ0
  6
Continuous
 62
     7
100
AcDbLine
 10
76.428363011201
 20
141.384335065717
 30
0.0
 11
76.428363011201
 21
141.084335065717
 31
0.0
  0
LINE
  5
1E7
330
1F
100
AcDbEntity
  8
1
  6
Continuous
 62
     7
100
AcDbLine
 10
63.32836301125165
 20
141.084335065717
 30
0.0
 11
77.52836301125092
 21
141.084335065717
 31
0.0
  0
LINE
  5
1E8
330
1F
100
AcDbEntity
  8
1
  6
Continuous
 62
     7
100
AcDbLine
 10
77.528363011201
 20
138.684335065718
 30
0.0
 11
63.32836301120101
 21
138.684335065718
 31
0.0
  0
LINE
  5
1E9
330
1F
100
AcDbEntity
  8
レイヤ0
  6
Continuous
 62
     7
100
AcDbLine
 10
76.428363011201
 20
138.684335065718
 30
0.0
 11
76.428363011201
 21
138.384335065717
 31
0.0
  0
LINE
  5
1EA
330
1F
100
AcDbEntity
  8
レイヤ0
  6
Continuous
 62
     7
100
AcDbLine
 10
64.428363011201
 20
138.684335065718
 30
0.0
 11
64.428363011201
 21
138.384335065717
 31
0.0
  0
LINE
  5
1EB
330
1F
100
AcDbEntity
  8
レイヤ0
  6
Continuous
 62
     7
100
AcDbLine
 10
77.428363011201
 20
164.684335065718
 30
0.0
 11
80.428363011201
 21
164.684335065718
 31
0.0
  0
LINE
  5
1EC
330
1F
100
AcDbEntity
  8
1
  6
Continuous
 62
     7
100
AcDbLine
 10
63.428363011201
 20
159.184335065717
 30
0.0
 11
77.428363011201
 21
159.184335065718
 31
0.0
  0
LINE
  5
1ED
330
1F
100
AcDbEntity
  8
1
  6
Continuous
 62
     7
100
AcDbLine
 10
80.228363011201
 20
157.567754311987
 30
0.0
 11
60.628363011202
 21
157.567754311987
 31
0.0
  0
LINE
  5
1EE
330
1F
100
AcDbEntity
  8
1
  6
Continuous
 62
     7
100
AcDbLine
 10
60.62836301120262
 20
155.713620705614
 30
0.0
 11
80.228363011201
 21
155.713620705614
 31
0.0
  0
LINE
  5
1EF
330
1F
100
AcDbEntity
  8
1
  6
Continuous
 62
     7
100
AcDbLine
 10
77.428363011201
 20
147.184335065718
 30
0.0
 11
63.428363011201
 21
147.184335065718
 31
0.0
  0
LINE
  5
1F0
330
1F
100
AcDbEntity
  8
1
  6
Continuous
 62
     7
100
AcDbLine
 10
61.978363011201
 20
146.184335065718
 30
0.0
 11
78.878363011201
 21
146.184335065718
 31
0.0
  0
LINE
  5
1F1
330
1F
100
AcDbEntity
  8
1
  6
Continuous
 62
     7
100
AcDbLine
 10
78.878363011201
 20
144.884335065717
 30
0.0
 11
61.978363011201
 21
144.884335065717
 31
0.0
  0
LINE
  5
1F2
330
1F
100
AcDbEntity
  8
1
  6
Continuous
 62
     7
100
AcDbLine
 10
78.428363011201
 20
143.884335065717
 30
0.0
 11
62.428363011201
 21
143.884335065717
 31
0.0
  0
LINE
  5
1F3
330
1F
100
AcDbEntity
  8
レイヤ0
  6
Continuous
 62
     7
100
AcDbLine
 10
52.4283568252055
 20
179.184335065718
 30
0.0
 11
52.428356825206
 21
164.684335065718
 31
0.0
  0
LINE
  5
1F4
330
1F
100
AcDbEntity
  8
1
  6
DASH_CENTER
 62
     2
100
AcDbLine
 10
118.9283621863998
 20
179.184335065718
 30
0.0
 11
121.9283621863998
 21
179.184335065718
 31
0.0
  0
LINE
  5
1F5
330
1F
100
AcDbEntity
  8
1
  6
DASH_CENTER
 62
     2
100
AcDbLine
 10
109.4283621864014
 20
148.184335065721
 30
0.0
 11
109.4283621864014
 21
145.184335065721
 31
0.0
  0
LINE
  5
1F6
330
1F
100
AcDbEntity
  8
1
  6
DASH_CENTER
 62
     2
100
AcDbLine
 10
109.4283621864014
 20
210.1843350657216
 30
0.0
 11
109.4283621864014
 21
148.184335065721
 31
0.0
  0
ARC
  5
1F7
330
1F
100
AcDbEntity
  8
レイヤ0
  6
Continuous
 62
     7
100
AcDbCircle
 10
47.9283807443891
 20
167.775405616768
 30
0.0
 40
0.5000000064438098
100
AcDbArc
 50
290.5550994873034
 51
0.0
  0
ARC
  5
1F8
330
1F
100
AcDbEntity
  8
レイヤ0
  6
Continuous
 62
     7
100
AcDbCircle
 10
45.4540072620201
 20
157.678908209937
 30
0.0
 40
0.5000000064439973
100
AcDbArc
 50
270.0
 51
356.9869995116996
  0
ARC
  5
1F9
330
1F
100
AcDbEntity
  8
レイヤ0
  6
Continuous
 62
     7
100
AcDbCircle
 10
65.478363011201
 20
138.184335065718
 30
0.0
 40
3.0
100
AcDbArc
 50
180.0
 51
270.0
  0
ARC
  5
1FA
330
1F
100
AcDbEntity
  8
レイヤ0
  6
Continuous
 62
     7
100
AcDbCircle
 10
75.378363011201
 20
138.184335065718
 30
0.0
 40
3.0
100
AcDbArc
 50
270.0
 51
0.0
  0
ARC
  5
1FB
330
1F
100
AcDbEntity
  8
レイヤ0
  6
Continuous
 62
     7
100
AcDbCircle
 10
61.128363011202
 20
155.713620705614
 30
0.0
 40
0.5000000000009948
100
AcDbArc
 50
180.0
 51
258.4630409671707
  0
ARC
  5
1FC
330
1F
100
AcDbEntity
  8
レイヤ0
  6
Continuous
 62
     7
100
AcDbCircle
 10
60.428363011201
 20
152.284335065718
 30
0.0
 40
3.0
100
AcDbArc
 50
0.0
 51
78.4630409671664
  0
ARC
  5
1FD
330
1F
100
AcDbEntity
  8
レイヤ0
  6
Continuous
 62
     7
100
AcDbCircle
 10
80.428363011201
 20
152.284335065718
 30
0.0
 40
3.000000000000169
100
AcDbArc
 50
101.5369590328147
 51
180.0
  0
ARC
  5
1FE
330
1F
100
AcDbEntity
  8
レイヤ0
  6
Continuous
 62
     7
100
AcDbCircle
 10
79.728363011201
 20
155.713620705614
 30
0.0
 40
0.499999999999385
100
AcDbArc
 50
281.5369590328309
 51
0.0
  0
ARC
  5
1FF
330
1F
100
AcDbEntity
  8
レイヤ0
  6
Continuous
 62
     7
100
AcDbCircle
 10
174.911348314607
 20
152.284335065718
 30
0.0
 40
2.999999999999718
100
AcDbArc
 50
98.21321070175026
 51
180.0
  0
ARC
  5
200
330
1F
100
AcDbEntity
  8
レイヤ0
  6
Continuous
 62
     7
100
AcDbCircle
 10
174.411348314607
 20
155.748436680856
 30
0.0
 40
0.5000000000005166
100
AcDbArc
 50
278.2132107016619
 51
0.0
  0
ARC
  5
201
330
1F
100
AcDbEntity
  8
レイヤ0
  6
Continuous
 62
     7
100
AcDbCircle
 10
154.911348314607
 20
152.284335065718
 30
0.0
 40
3.0
100
AcDbArc
 50
0.0
 51
81.7867892982691
  0
ARC
  5
202
330
1F
100
AcDbEntity
  8
レイヤ0
  6
Continuous
 62
     7
100
AcDbCircle
 10
155.411348314607
 20
155.748436680856
 30
0.0
 40
0.5
100
AcDbArc
 50
180.0
 51
261.786789298222
  0
ARC
  5
203
330
1F
100
AcDbEntity
  8
レイヤ0
  6
Continuous
 62
     7
100
AcDbCircle
 10
159.961348314607
 20
138.184335065718
 30
0.0
 40
3.0
100
AcDbArc
 50
180.0
 51
270.0
  0
ARC
  5
204
330
1F
100
AcDbEntity
  8
レイヤ0
  6
Continuous
 62
     7
100
AcDbCircle
 10
169.861348314607
 20
138.184335065718
 30
0.0
 40
3.0
100
AcDbArc
 50
270.0
 51
0.0
  0
ARC
  5
205
330
1F
100
AcDbEntity
  8
レイヤ0
  6
Continuous
 62
     7
100
AcDbCircle
 10
92.72437260355599
 20
167.178904910738
 30
0.0
 40
2.0
100
AcDbArc
 50
90.00000000002849
 51
180.0
  0
ARC
  5
206
330
1F
100
AcDbEntity
  8
レイヤ0
  6
Continuous
 62
     7
100
AcDbCircle
 10
92.72437260355599
 20
191.178904910739
 30
0.0
 40
2.0
100
AcDbArc
 50
180.0
 51
269.9999999999715
  0
ARC
  5
207
330
1F
100
AcDbEntity
  8
レイヤ0
  6
Continuous
 62
     7
100
AcDbCircle
 10
93.224372603555
 20
168.678904910739
 30
0.0
 40
0.5
100
AcDbArc
 50
0.0
 51
90.0
  0
ARC
  5
208
330
1F
100
AcDbEntity
  8
レイヤ0
  6
Continuous
 62
     7
100
AcDbCircle
 10
93.224372603555
 20
189.678904910738
 30
0.0
 40
0.4999999999990052
100
AcDbArc
 50
270.0
 51
0.0
  0
ARC
  5
209
330
1F
100
AcDbEntity
  8
レイヤ0
  6
Continuous
 62
     7
100
AcDbCircle
 10
90.22437260355599
 20
193.178934163861
 30
0.0
 40
0.5
100
AcDbArc
 50
0.0
 51
90.0
  0
ARC
  5
20A
330
1F
100
AcDbEntity
  8
レイヤ0
  6
Continuous
 62
     7
100
AcDbCircle
 10
90.224372603555
 20
165.178893768539
 30
0.0
 40
0.5
100
AcDbArc
 50
270.0
 51
0.0
  0
ARC
  5
20B
330
1F
100
AcDbEntity
  8
レイヤ0
  6
Continuous
 62
     7
100
AcDbCircle
 10
96.724372603555
 20
190.178904910739
 30
0.0
 40
0.5
100
AcDbArc
 50
0.0
 51
90.0
  0
ARC
  5
20C
330
1F
100
AcDbEntity
  8
レイヤ0
  6
Continuous
 62
     7
100
AcDbCircle
 10
96.724372603555
 20
168.178904910739
 30
0.0
 40
0.5
100
AcDbArc
 50
270.0
 51
0.0
  0
ARC
  5
20D
330
1F
100
AcDbEntity
  8
レイヤ0
  6
Continuous
 62
     7
100
AcDbCircle
 10
81.724372603555
 20
193.178934163862
 30
0.0
 40
0.5
100
AcDbArc
 50
90.0
 51
180.0
  0
ARC
  5
20E
330
1F
100
AcDbEntity
  8
レイヤ0
  6
Continuous
 62
     7
100
AcDbCircle
 10
81.724372603555
 20
165.178893768539
 30
0.0
 40
0.5
100
AcDbArc
 50
180.0
 51
270.0
  0
ARC
  5
20F
330
1F
100
AcDbEntity
  8
レイヤ0
  6
Continuous
 62
     7
100
AcDbCircle
 10
164.911348314607
 20
179.184335065718
 30
0.0
 40
14.49999999999912
100
AcDbArc
 50
326.2915552747291
 51
333.7084447252762
  0
ARC
  5
210
330
1F
100
AcDbEntity
  8
レイヤ0
  6
Continuous
 62
     7
100
AcDbCircle
 10
164.911348314607
 20
179.184335065718
 30
0.0
 40
14.50000000000022
100
AcDbArc
 50
206.291555274722
 51
213.7084447252686
  0
ARC
  5
211
330
1F
100
AcDbEntity
  8
レイヤ0
  6
Continuous
 62
     7
100
AcDbCircle
 10
109.4283621864
 20
179.184335065721
 30
0.0
 40
7.0
100
AcDbArc
 50
0.0
 51
180.0
  0
ARC
  5
212
330
1F
100
AcDbEntity
  8
レイヤ0
  6
Continuous
 62
     7
100
AcDbCircle
 10
109.4283621864
 20
155.184335065721
 30
0.0
 40
6.999999999999973
100
AcDbArc
 50
138.5903778907294
 51
41.40962210927061
  0
ARC
  5
213
330
1F
100
AcDbEntity
  8
レイヤ0
  6
Continuous
 62
     7
100
AcDbCircle
 10
118.4283621864
 20
163.121588998915
 30
0.0
 40
5.0
100
AcDbArc
 50
180.0
 51
221.4096221092732
  0
ARC
  5
214
330
1F
100
AcDbEntity
  8
レイヤ0
  6
Continuous
 62
     7
100
AcDbCircle
 10
100.4283621864
 20
163.121588998915
 30
0.0
 40
5.000000000000178
100
AcDbArc
 50
318.5903778907268
 51
0.0
  0
ARC
  5
215
330
1F
100
AcDbEntity
  8
レイヤ0
  6
Continuous
 62
     7
100
AcDbCircle
 10
118.4283621864
 20
195.247081132527
 30
0.0
 40
5.000000000000178
100
AcDbArc
 50
138.5903778907268
 51
180.0
  0
ARC
  5
216
330
1F
100
AcDbEntity
  8
レイヤ0
  6
Continuous
 62
     7
100
AcDbCircle
 10
100.4283621864
 20
195.247081132527
 30
0.0
 40
5.0
100
AcDbArc
 50
0.0
 51
41.40962210926462
  0
ARC
  5
217
330
1F
100
AcDbEntity
  8
レイヤ0
  6
Continuous
 62
     7
100
AcDbCircle
 10
109.4283621864
 20
203.184335065721
 30
0.0
 40
6.999999999999973
100
AcDbArc
 50
318.5903778907294
 51
221.4096221092767
  0
ARC
  5
218
330
1F
100
AcDbEntity
  8
レイヤ0
  6
Continuous
 62
     7
100
AcDbCircle
 10
102.428362186399
 20
165.184335065721
 30
0.0
 40
3.0
100
AcDbArc
 50
0.0
 51
75.52248781406742
  0
ARC
  5
219
330
1F
100
AcDbEntity
  8
レイヤ0
  6
Continuous
 62
     7
100
AcDbCircle
 10
103.4283621864
 20
169.057318411928
 30
0.0
 40
1.0
100
AcDbArc
 50
180.0
 51
255.522487814017
  0
ARC
  5
21A
330
1F
100
AcDbEntity
  8
レイヤ0
  6
Continuous
 62
     7
100
AcDbCircle
 10
103.4283621864
 20
189.311351719514
 30
0.0
 40
1.00000000000039
100
AcDbArc
 50
104.477512185983
 51
180.0
  0
ARC
  5
21B
330
1F
100
AcDbEntity
  8
レイヤ0
  6
Continuous
 62
     7
100
AcDbCircle
 10
115.4283621864
 20
187.3398076789
 30
0.0
 40
1.0
100
AcDbArc
 50
0.0
 51
57.42102960720609
  0
ARC
  5
21C
330
1F
100
AcDbEntity
  8
レイヤ0
  6
Continuous
 62
     7
100
AcDbCircle
 10
118.9283621864
 20
192.817033253951
 30
0.0
 40
5.5
100
AcDbArc
 50
180.0000000000103
 51
237.4210296071903
  0
ARC
  5
21D
330
1F
100
AcDbEntity
  8
レイヤ0
  6
Continuous
 62
     7
100
AcDbCircle
 10
118.9283621864
 20
165.551636877491
 30
0.0
 40
5.500000000000122
100
AcDbArc
 50
122.5789703928099
 51
179.9999999999897
  0
ARC
  5
21E
330
1F
100
AcDbEntity
  8
レイヤ0
  6
Continuous
 62
     7
100
AcDbCircle
 10
115.4283621864
 20
171.028862452542
 30
0.0
 40
0.9999999999993161
100
AcDbArc
 50
302.578970392793
 51
0.0
  0
ARC
  5
21F
330
1F
100
AcDbEntity
  8
レイヤ0
  6
Continuous
 62
     7
100
AcDbCircle
 10
102.428362186399
 20
193.184335065721
 30
0.0
 40
2.999999999999462
100
AcDbArc
 50
284.4775121859326
 51
0.0
  0
ARC
  5
220
330
1F
100
AcDbEntity
  8
レイヤ0
  6
Continuous
 62
     7
100
AcDbCircle
 10
117.445984021701
 20
174.379822406917
 30
0.0
 40
2.195558060010006
100
AcDbArc
 50
242.3873814009032
 51
297.6126185987271
  0
ARC
  5
221
330
1F
100
AcDbEntity
  8
レイヤ0
  6
Continuous
 62
     7
100
AcDbCircle
 10
117.445984021701
 20
183.988847724524
 30
0.0
 40
2.195558060002621
100
AcDbArc
 50
62.38738140127324
 51
117.6126185990965
  0
ARC
  5
222
330
1F
100
AcDbEntity
  8
レイヤ0
  6
Continuous
 62
     7
100
AcDbCircle
 10
69.678362186403
 20
179.18433506572
 30
0.0
 40
49.24999999999666
100
AcDbArc
 50
352.1224841356045
 51
7.87751586439662
  0
ARC
  5
223
330
1F
100
AcDbEntity
  8
レイヤ0
  6
Continuous
 62
     7
100
AcDbCircle
 10
149.337282871135
 20
192.772218351081
 30
0.0
 40
8.999999999998803
100
AcDbArc
 50
236.2674072264523
 51
307.1062411005175
  0
ARC
  5
224
330
1F
100
AcDbEntity
  8
レイヤ0
  6
Continuous
 62
     7
100
AcDbCircle
 10
178.49923159997
 20
163.610269622247
 30
0.0
 40
9.000000000000604
100
AcDbArc
 50
142.8937588994863
 51
209.8740466695803
  0
ARC
  5
225
330
1F
100
AcDbEntity
  8
レイヤ0
  6
Continuous
 62
     7
100
AcDbCircle
 10
149.337282871135
 20
165.596451780355
 30
0.0
 40
9.000000000000604
100
AcDbArc
 50
52.89375889948629
 51
119.8740466694406
  0
ARC
  5
226
330
1F
100
AcDbEntity
  8
レイヤ0
  6
Continuous
 62
     7
100
AcDbCircle
 10
140.911348314607
 20
179.184335065718
 30
0.0
 40
7.000000000002284
100
AcDbArc
 50
60.67748055737669
 51
304.2841200005086
  0
ARC
  5
227
330
1F
100
AcDbEntity
  8
レイヤ0
  6
Continuous
 62
     7
100
AcDbCircle
 10
180.485413758078
 20
165.596451780355
 30
0.0
 40
9.000000000000124
100
AcDbArc
 50
60.12595333055938
 51
127.1062411005137
  0
ARC
  5
228
330
1F
100
AcDbEntity
  8
レイヤ0
  6
Continuous
 62
     7
100
AcDbCircle
 10
188.911348314607
 20
179.184335065718
 30
0.0
 40
7.000000000002273
100
AcDbArc
 50
235.7158799994845
 51
124.2841200005133
  0
ARC
  5
229
330
1F
100
AcDbEntity
  8
レイヤ0
  6
Continuous
 62
     7
100
AcDbCircle
 10
180.485413758078
 20
192.772218351081
 30
0.0
 40
8.999999999999812
100
AcDbArc
 50
232.8937588994824
 51
299.8740466694429
  0
ARC
  5
22A
330
1F
100
AcDbEntity
  8
レイヤ0
  6
Continuous
 62
     7
100
AcDbCircle
 10
151.323465029243
 20
194.75840050919
 30
0.0
 40
9.000000000000604
100
AcDbArc
 50
322.8937588994863
 51
29.87404666967434
  0
ARC
  5
22B
330
1F
100
AcDbEntity
  8
レイヤ0
  6
Continuous
 62
     7
100
AcDbCircle
 10
151.323465029243
 20
163.610269622247
 30
0.0
 40
8.999999999999904
100
AcDbArc
 50
326.2674072265334
 51
37.10624110051371
  0
ARC
  5
22C
330
1F
100
AcDbEntity
  8
レイヤ0
  6
Continuous
 62
     7
100
AcDbCircle
 10
164.911348314607
 20
155.184335065718
 30
0.0
 40
7.000000000001574
100
AcDbArc
 50
150.6774805572702
 51
34.28412000033642
  0
ARC
  5
22D
330
1F
100
AcDbEntity
  8
レイヤ0
  6
Continuous
 62
     7
100
AcDbCircle
 10
164.911348314607
 20
203.184335065718
 30
0.0
 40
6.999999999999832
100
AcDbArc
 50
330.6774805570276
 51
214.2841200002045
  0
ARC
  5
22E
330
1F
100
AcDbEntity
  8
レイヤ0
  6
Continuous
 62
     7
100
AcDbCircle
 10
178.49923159997
 20
194.75840050919
 30
0.0
 40
8.999999999997943
100
AcDbArc
 50
146.2674072267241
 51
217.1062411005137
  0
ARC
  5
22F
330
1F
100
AcDbEntity
  8
レイヤ0
  6
Continuous
 62
     7
100
AcDbCircle
 10
164.911348314607
 20
179.184335065718
 30
0.0
 40
14.50000000000024
100
AcDbArc
 50
199.2813828127706
 51
250.736212430065
  0
ARC
  5
230
330
1F
100
AcDbEntity
  8
レイヤ0
  6
Continuous
 62
     7
100
AcDbCircle
 10
164.911348314607
 20
179.184335065718
 30
0.0
 40
14.4999999999995
100
AcDbArc
 50
289.263787569935
 51
340.718617187228
  0
ARC
  5
231
330
1F
100
AcDbEntity
  8
レイヤ0
  6
Continuous
 62
     7
100
AcDbCircle
 10
164.911348314607
 20
179.184335065718
 30
0.0
 40
14.49999999999989
100
AcDbArc
 50
19.28138281276706
 51
71.48060659627356
  0
ARC
  5
232
330
1F
100
AcDbEntity
  8
レイヤ0
  6
Continuous
 62
     7
100
AcDbCircle
 10
164.911348314607
 20
179.184335065718
 30
0.0
 40
14.50000000000047
100
AcDbArc
 50
108.5193934037303
 51
160.7186171872204
  0
ARC
  5
233
330
1F
100
AcDbEntity
  8
レイヤ0
  6
Continuous
 62
     7
100
AcDbCircle
 10
164.911348314607
 20
179.184335065718
 30
0.0
 40
21.99456655226693
100
AcDbArc
 50
291.0707628214234
 51
343.2152614519541
  0
ARC
  5
234
330
1F
100
AcDbEntity
  8
レイヤ0
  6
Continuous
 62
     7
100
AcDbCircle
 10
164.911348314607
 20
179.184335065718
 30
0.0
 40
21.99456655226662
100
AcDbArc
 50
16.78473854804843
 51
73.21526145196314
  0
ARC
  5
235
330
1F
100
AcDbEntity
  8
レイヤ0
  6
Continuous
 62
     7
100
AcDbCircle
 10
164.911348314607
 20
179.184335065718
 30
0.0
 40
21.99456655226703
100
AcDbArc
 50
107.0049974200182
 51
162.9950025799825
  0
ARC
  5
236
330
1F
100
AcDbEntity
  8
レイヤ0
  6
Continuous
 62
     7
100
AcDbCircle
 10
164.911348314607
 20
179.184335065718
 30
0.0
 40
21.99456655226741
100
AcDbArc
 50
197.0049974200124
 51
248.9292371785766
  0
ARC
  5
237
330
1F
100
AcDbEntity
  8
レイヤ0
  6
Continuous
 62
     7
100
AcDbCircle
 10
47.9283807443891
 20
190.593264514669
 30
0.0
 40
0.5000000064437984
100
AcDbArc
 50
0.0
 51
69.44490051269652
  0
ARC
  5
238
330
1F
100
AcDbEntity
  8
レイヤ0
  6
Continuous
 62
     7
100
AcDbCircle
 10
45.4540072620201
 20
200.6897619215
 30
0.0
 40
0.5000000064436951
100
AcDbArc
 50
3.0130004883004
 51
90.0
  0
ARC
  5
239
330
1F
100
AcDbEntity
  8
レイヤ0
  6
Continuous
 62
     7
100
AcDbCircle
 10
109.4283621864
 20
179.184335065715
 30
0.0
 40
7.0
100
AcDbArc
 50
180.0
 51
0.0
  0
ARC
  5
23A
330
1F
100
AcDbEntity
  8
レイヤ0
  6
Continuous
 62
     7
100
AcDbCircle
 10
77.528363011201
 20
139.884335065717
 30
0.0
 40
1.200000000000003
100
AcDbArc
 50
0.0
 51
89.99999999761637
  0
ARC
  5
23B
330
1F
100
AcDbEntity
  8
レイヤ0
  6
Continuous
 62
     7
100
AcDbCircle
 10
77.528363011201
 20
139.884335065717
 30
0.0
 40
1.199999999999022
100
AcDbArc
 50
270.0
 51
0.0
  0
ARC
  5
23C
330
1F
100
AcDbEntity
  8
レイヤ0
  6
Continuous
 62
     7
100
AcDbCircle
 10
63.32836301120101
 20
139.884335065717
 30
0.0
 40
1.199999999999989
100
AcDbArc
 50
89.99999999758211
 51
270.0
  0
CIRCLE
  5
23D
330
1F
100
AcDbEntity
  8
レイヤ0
  6
Continuous
 62
     7
100
AcDbCircle
 10
164.911348314607
 20
179.184335065718
 30
0.0
 40
6.997142273838989
  0
CIRCLE
  5
23E
330
1F
100
AcDbEntity
  8
レイヤ0
  6
Continuous
 62
     7
100
AcDbCircle
 10
164.911348314607
 20
179.184335065718
 30
0.0
 40
6.899999999999977
  0
CIRCLE
  5
23F
330
1F
100
AcDbEntity
  8
レイヤ0
  6
Continuous
 62
     7
100
AcDbCircle
 10
164.911348314607
 20
179.184335065718
 30
0.0
 40
12.0
  0
LWPOLYLINE
  5
240
330
1F
100
AcDbEntity
  8
レイヤ0
  6
Continuous
 62
     7
100
AcDbPolyline
 90
      163
 70
     1
 43
0.0
 10
157.811348314606
 20
141.084335065718
 10
172.011348314607
 20
141.084335065717
 10
172.058460093518
 20
141.083409909207
 10
172.10549922948
 20
141.080635866198
 10
172.152393191556
 20
141.076017214064
 10
172.199069672655
 20
141.069561074432
 10
172.245456701026
 20
141.061277402202
 10
172.291482751234
 20
141.051178970195
 10
172.337076854445
 20
141.039281349462
 10
172.382168707857
 20
141.025602885272
 10
172.4266887831
 20
141.010164668825
 10
172.470568433445
 20
140.992990504731
 10
172.513739999652
 20
140.974106874308
 10
172.556136914294
 20
140.953542894744
 10
172.597693804403
 20
140.931330274205
 10
172.638346592266
 20
140.907503262943
 10
172.67803259423
 20
140.882098600481
 10
172.716690617358
 20
140.855155458968
 10
172.754261053779
 20
140.826715382775
 10
172.790685972603
 20
140.796822224438
 10
172.825909209246
 20
140.765522077041
 10
172.859876452031
 20
140.732863203142
 10
172.89253532593
 20
140.698895960357
 10
172.923835473327
 20
140.663672723714
 10
172.953728631664
 20
140.62724780489
 10
172.982168707857
 20
140.589677368469
 10
173.00911184937
 20
140.551019345341
 10
173.034516511832
 20
140.511333343377
 10
173.058343523094
 20
140.470680555514
 10
173.080556143633
 20
140.429123665405
 10
173.101120123197
 20
140.386726750763
 10
173.12000375362
 20
140.343555184556
 10
173.137177917714
 20
140.299675534211
 10
173.152616134161
 20
140.255155458968
 10
173.166294598351
 20
140.210063605556
 10
173.178192219084
 20
140.164469502345
 10
173.188290651091
 20
140.118443452137
 10
173.196574323321
 20
140.072056423766
 10
173.203030462953
 20
140.025379942667
 10
173.207649115087
 20
139.978485980591
 10
173.210423158096
 20
139.931446844629
 10
173.211348314607
 20
139.884335065718
 10
173.210423158096
 20
139.837223286807
 10
173.207649115087
 20
139.790184150844
 10
173.203030462953
 20
139.743290188768
 10
173.196574323321
 20
139.69661370767
 10
173.188290651091
 20
139.650226679298
 10
173.178192219084
 20
139.604200629091
 10
173.166294598351
 20
139.55860652588
 10
173.152616134161
 20
139.513514672468
 10
173.137177917714
 20
139.468994597225
 10
173.12000375362
 20
139.42511494688
 10
173.101120123197
 20
139.381943380673
 10
173.080556143633
 20
139.33954646603
 10
173.058343523094
 20
139.297989575921
 10
173.034516511832
 20
139.257336788059
 10
173.00911184937
 20
139.217650786094
 10
172.982168707857
 20
139.178992762967
 10
172.953728631664
 20
139.141422326546
 10
172.923835473327
 20
139.104997407722
 10
172.89253532593
 20
139.069774171078
 10
172.859876452031
 20
139.035806928294
 10
172.825909209246
 20
139.003148054395
 10
172.790685972603
 20
138.971847906998
 10
172.754261053779
 20
138.941954748661
 10
172.716690617358
 20
138.913514672468
 10
172.67803259423
 20
138.886571530955
 10
172.638346592266
 20
138.861166868493
 10
172.597693804403
 20
138.83733985723
 10
172.556136914294
 20
138.815127236692
 10
172.513739999652
 20
138.794563257128
 10
172.470568433445
 20
138.775679626704
 10
172.4266887831
 20
138.758505462611
 10
172.382168707857
 20
138.743067246163
 10
172.337076854445
 20
138.729388781973
 10
172.291482751234
 20
138.717491161241
 10
172.245456701026
 20
138.707392729234
 10
172.199069672655
 20
138.699109057004
 10
172.152393191556
 20
138.692652917372
 10
172.10549922948
 20
138.688034265238
 10
172.058460093518
 20
138.685260222229
 10
172.011348314607
 20
138.684335065719
 10
157.811348314607
 20
138.684335065719
 10
157.764236535697
 20
138.685260222229
 10
157.717197399734
 20
138.688034265238
 10
157.670303437658
 20
138.692652917372
 10
157.623626956559
 20
138.699109057004
 10
157.577239928188
 20
138.707392729234
 10
157.53121387798
 20
138.71749116124
 10
157.485619774769
 20
138.729388781973
 10
157.440527921357
 20
138.743067246163
 10
157.396007846114
 20
138.758505462611
 10
157.352128195769
 20
138.775679626704
 10
157.308956629562
 20
138.794563257127
 10
157.26655971492
 20
138.815127236692
 10
157.225002824811
 20
138.83733985723
 10
157.184350036948
 20
138.861166868492
 10
157.144664034984
 20
138.886571530954
 10
157.106006011856
 20
138.913514672468
 10
157.068435575435
 20
138.94195474866
 10
157.032010656611
 20
138.971847906997
 10
156.996787419968
 20
139.003148054395
 10
156.962820177183
 20
139.035806928294
 10
156.930161303284
 20
139.069774171078
 10
156.898861155887
 20
139.104997407721
 10
156.86896799755
 20
139.141422326546
 10
156.840527921357
 20
139.178992762966
 10
156.813584779844
 20
139.217650786094
 10
156.788180117382
 20
139.257336788058
 10
156.76435310612
 20
139.297989575921
 10
156.742140485581
 20
139.33954646603
 10
156.721576506017
 20
139.381943380672
 10
156.702692875594
 20
139.425114946879
 10
156.6855187115
 20
139.468994597224
 10
156.670080495053
 20
139.513514672467
 10
156.656402030863
 20
139.558606525879
 10
156.64450441013
 20
139.60420062909
 10
156.634405978123
 20
139.650226679298
 10
156.626122305893
 20
139.696613707669
 10
156.619666166261
 20
139.743290188768
 10
156.615047514127
 20
139.790184150844
 10
156.612273471118
 20
139.837223286806
 10
156.611348314607
 20
139.884335065717
 10
156.612273471118
 20
139.931446844628
 10
156.615047514127
 20
139.978485980591
 10
156.619666166261
 20
140.025379942667
 10
156.626122305893
 20
140.072056423766
 10
156.634405978123
 20
140.118443452137
 10
156.64450441013
 20
140.164469502344
 10
156.656402030862
 20
140.210063605555
 10
156.670080495053
 20
140.255155458967
 10
156.6855187115
 20
140.29967553421
 10
156.702692875593
 20
140.343555184555
 10
156.721576506017
 20
140.386726750762
 10
156.742140485581
 20
140.429123665405
 10
156.764353106119
 20
140.470680555514
 10
156.788180117382
 20
140.511333343376
 10
156.813584779844
 20
140.551019345341
 10
156.840527921357
 20
140.589677368468
 10
156.86896799755
 20
140.627247804889
 10
156.898861155886
 20
140.663672723714
 10
156.930161303284
 20
140.698895960357
 10
156.962820177183
 20
140.732863203141
 10
156.996787419967
 20
140.76552207704
 10
157.03201065661
 20
140.796822224437
 10
157.068435575435
 20
140.826715382774
 10
157.106006011855
 20
140.855155458967
 10
157.144664034983
 20
140.882098600481
 10
157.184350036947
 20
140.907503262942
 10
157.22500282481
 20
140.931330274205
 10
157.266559714919
 20
140.953542894744
 10
157.308956629561
 20
140.974106874308
 10
157.352128195768
 20
140.992990504731
 10
157.396007846113
 20
141.010164668825
 10
157.440527921356
 20
141.025602885272
 10
157.485619774768
 20
141.039281349462
 10
157.531213877979
 20
141.051178970195
 10
157.577239928187
 20
141.061277402202
 10
157.623626956558
 20
141.069561074432
 10
157.670303437657
 20
141.076017214064
 10
157.717197399733
 20
141.080635866198
 10
157.764236535695
 20
141.083409909207
 10
157.811348314606
 20
141.084335065718
  0
SOLID
  5
241
330
1F
100
AcDbEntity
  8
1
 62
     2
100
AcDbTrace
 10
37.29263877460863
 20
165.8982034803384
 30
0.0
 11
36.49453792293215
 21
165.4374197387825
 31
0.0
 12
35.1435883487704
 22
168.698900522806
 32
0.0
 13
35.1435883487704
 23
168.698900522806
 33
0.0
  0
LEADER
  5
242
330
1F
100
AcDbEntity
  8
1
  6
Continuous
 62
     2
100
AcDbLeader
  3
Standard
 71
     0
 76
     3
 10
35.1435883487704
 20
168.698900522806
 30
0.0
 10
45.93940359916249
 20
150.0
 30
0.0
 10
60.0
 20
150.0
 30
0.0
  0
MTEXT
  5
243
330
1F
100
AcDbEntity
  8
1
 62
     7
100
AcDbMText
 10
57.0
 20
22.75000000000001
 30
0.0
 40
3.0
 41
0.0
 71
     5
 72
     1
  1
ガーデン水栓(クロスハンドル)
  7
CONVERTER_11
 73
     1
 44
0.54545454545455
  0
MTEXT
  5
245
330
1F
100
AcDbEntity
  8
1
 62
     7
100
AcDbMText
 10
57.0
 20
16.25
 30
0.0
 40
3.5
 41
0.0
 71
     5
 72
     1
  1
Y1812Y-13
  7
CONVERTER_12
 73
     1
 44
0.7202881152461
  0
MTEXT
  5
246
330
1F
100
AcDbEntity
  8
1
 62
     7
100
AcDbMText
 10
85.25
 20
17.0
 30
0.0
 40
3.5
 41
0.0
 71
     5
 72
     1
  1
1
  7
CONVERTER_12
 73
     1
 44
0.7202881152461
  0
MTEXT
  5
247
330
1F
100
AcDbEntity
  8
1
 62
     7
100
AcDbMText
 10
57.0
 20
12.25
 30
0.0
 40
3.5
 41
0.0
 71
     5
 72
     1
  1
Y1812YB-13
  7
CONVERTER_12
 73
     1
 44
0.7202881152461
  0
MTEXT
  5
248
330
1F
100
AcDbEntity
  8
1
 62
     7
100
AcDbMText
 10
53.0
 20
153.0
 30
0.0
 40
3.5
 41
0.0
 71
     5
 72
     1
  1
PJ1/2
  7
CONVERTER_12
 73
     1
 44
0.7202881152461
  0
MTEXT
  5
249
330
1F
100
AcDbEntity
  8
1
 62
     7
100
AcDbMText
 10
93.75
 20
17.0
 30
0.0
 40
3.5
 41
0.0
 71
     5
 72
     1
  1
1
  7
CONVERTER_12
 73
     1
 44
0.7202881152461
  0
DIMENSION
  5
254
330
1F
100
AcDbEntity
  8
1
100
AcDbDimension
  2
*D2
 10
124.9283621863998
 20
179.184335065718
 30
0.0
 11
122.1783621863998
 21
157.184335065718
 31
0.0
 70
    32
  1
<>
 71
     5
 42
-1.0
 53
90.0
  3
ME10_DIM_10
100
AcDbAlignedDimension
 13
75.378363011201
 23
135.184335065718
 33
0.0
 14
121.9283621863998
 24
179.184335065718
 34
0.0
 50
90.0
100
AcDbRotatedDimension
  0
DIMENSION
  5
25F
330
1F
100
AcDbEntity
  8
1
100
AcDbDimension
  2
*D3
 10
43.4283658979998
 20
117.184335065718
 30
0.0
 11
56.9283644546004
 21
119.934335065718
 31
0.0
 70
    32
  1
<>
 71
     5
 42
-1.0
 53
0.00013888888889
  3
ME10_DIM_11
100
AcDbAlignedDimension
 13
70.428363011201
 23
132.184335065718
 33
0.0
 14
43.4283658979998
 24
157.53246095091
 34
0.0
100
AcDbRotatedDimension
  0
DIMENSION
  5
26A
330
1F
100
AcDbEntity
  8
1
100
AcDbDimension
  2
*D4
 10
33.4283658979998
 20
201.189763571099
 30
0.0
 11
30.6783658979998
 21
196.461865270435
 31
0.0
 70
    32
  1
{\Fgdt;n}44
 71
     5
 42
-1.0
 53
90.0
  3
ME10_DIM_12
100
AcDbAlignedDimension
 13
43.7819574045454
 23
157.178906560338
 33
0.0
 14
43.7819574045454
 24
201.189763571099
 34
0.0
 50
90.0
100
AcDbRotatedDimension
  0
DIMENSION
  5
275
330
1F
100
AcDbEntity
  8
1
100
AcDbDimension
  2
*D5
 10
62.42835682520525
 20
164.684335065718
 30
0.0
 11
59.67835682520525
 21
186.434335065718
 31
0.0
 70
    32
  1
<>
 71
     5
 42
-1.0
 53
90.0
  3
ME10_DIM_13
100
AcDbAlignedDimension
 13
52.4283568252059
 23
193.684335065718
 33
0.0
 14
52.428356825206
 24
164.684335065718
 34
0.0
 50
90.0
100
AcDbRotatedDimension
  0
DIMENSION
  5
280
330
1F
100
AcDbEntity
  8
1
100
AcDbDimension
  2
*D6
 10
29.428363011201
 20
117.184335065718
 30
0.0
 11
36.4283644546004
 21
119.934335065718
 31
0.0
 70
    32
  1
<>
 71
     5
 42
-1.0
 53
0.00013888888889
  3
ME10_DIM_14
100
AcDbAlignedDimension
 13
43.4283658979998
 23
157.53246095091
 33
0.0
 14
29.428363011201
 24
169.858898411319
 34
0.0
100
AcDbRotatedDimension
  0
DIMENSION
  5
28B
330
1F
100
AcDbEntity
  8
1
100
AcDbDimension
  2
*D7
 10
128.9283621863998
 20
210.1843350657217
 30
0.0
 11
126.1783621863998
 21
194.6843350657198
 31
0.0
 70
    32
  1
<>
 71
     5
 42
-1.0
 53
90.0
  3
ME10_DIM_15
100
AcDbAlignedDimension
 13
109.4283621864014
 23
148.184335065721
 33
0.0
 14
109.4283621864014
 24
210.1843350657216
 34
0.0
 50
90.0
100
AcDbRotatedDimension
  0
DIMENSION
  5
297
330
1F
100
AcDbEntity
  8
1
100
AcDbDimension
  2
*D8
 10
62.478363011201
 20
125.184335065718
 30
0.0
 11
86.4832614289183
 21
128.109335065718
 31
0.0
 70
    32
  1
<>
 71
     5
 42
-1.0
 53
0.00013888888889
  3
ME10_DIM_16
100
AcDbAlignedDimension
 13
78.378363011201
 23
138.184335065718
 33
0.0
 14
62.478363011201
 24
138.184335065718
 34
0.0
100
AcDbRotatedDimension
  0
DIMENSION
  5
2A2
330
1F
100
AcDbEntity
  8
1
100
AcDbDimension
  2
*D9
 10
43.42836589799979
 20
220.1843350657216
 30
0.0
 11
81.1783640421998
 21
222.9343350657216
 31
0.0
 70
    32
  1
76リフト7
 71
     5
 42
-1.0
 53
0.00013888888889
  3
ME10_DIM_17
100
AcDbAlignedDimension
 13
118.9283621863998
 23
179.184335065718
 33
0.0
 14
43.4283658979998
 24
200.836209180527
 34
0.0
100
AcDbRotatedDimension
  0
ENDSEC
  0
SECTION
  2
OBJECTS
  0
DICTIONARY
  5
C
330
0
100
AcDbDictionary
281
     1
  3
ACAD_GROUP
350
D
  3
ACAD_LAYOUT
350
1A
  3
ACAD_MATERIAL
350
3B
  3
ACAD_MLEADERSTYLE
350
2A5
  3
ACAD_MLINESTYLE
350
17
  3
ACAD_PLOTSETTINGS
350
19
  3
ACAD_PLOTSTYLENAME
350
E
  3
ACAD_VISUALSTYLE
350
2A
  3
AcDbVariableDictionary
350
2A3
  0
DICTIONARY
  5
D
102
{ACAD_REACTORS
330
C
102
}
330
C
100
AcDbDictionary
281
     1
  0
DICTIONARY
  5
1A
102
{ACAD_REACTORS
330
C
102
}
330
C
100
AcDbDictionary
281
     1
  3
Layout1
350
1E
  3
Layout2
350
26
  3
Model
350
22
  0
DICTIONARY
  5
3B
102
{ACAD_REACTORS
330
C
102
}
330
C
100
AcDbDictionary
281
     1
  3
ByBlock
350
3D
  3
ByLayer
350
3C
  3
Global
350
3E
  0
DICTIONARY
  5
2A5
102
{ACAD_REACTORS
330
C
102
}
330
C
100
AcDbDictionary
281
     1
  0
DICTIONARY
  5
17
102
{ACAD_REACTORS
330
C
102
}
330
C
100
AcDbDictionary
281
     1
  3
Standard
350
18
  0
DICTIONARY
  5
19
102
{ACAD_REACTORS
330
C
102
}
330
C
100
AcDbDictionary
281
     1
  0
ACDBDICTIONARYWDFLT
  5
E
102
{ACAD_REACTORS
330
C
102
}
330
C
100
AcDbDictionary
281
     1
  3
Normal
350
F
100
AcDbDictionaryWithDefault
340
F
  0
DICTIONARY
  5
2A
102
{ACAD_REACTORS
330
C
102
}
330
C
100
AcDbDictionary
281
     1
  3
2dWireframe
350
2F
  3
3D Hidden
350
31
  3
3dWireframe
350
30
  3
Basic
350
32
  3
Brighten
350
36
  3
ColorChange
350
3A
  3
Conceptual
350
34
  3
Dim
350
35
  3
Facepattern
350
39
  3
Flat
350
2B
  3
FlatWithEdges
350
2C
  3
Gouraud
350
2D
  3
GouraudWithEdges
350
2E
  3
Linepattern
350
38
  3
Realistic
350
33
  3
Thicken
350
37
  0
DICTIONARY
  5
2A3
102
{ACAD_REACTORS
330
C
102
}
330
C
100
AcDbDictionary
281
     1
  3
DIMASSOC
350
2A6
  3
HIDETEXT
350
2A7
  0
LAYOUT
  5
1E
102
{ACAD_REACTORS
330
1A
102
}
330
1A
100
AcDbPlotSettings
  1

  2
none_device
  4

  6

 40
0.0
 41
0.0
 42
0.0
 43
0.0
 44
0.0
 45
0.0
 46
0.0
 47
0.0
 48
0.0
 49
0.0
140
0.0
141
0.0
142
1.0
143
1.0
 70
   688
 72
     0
 73
     0
 74
     5
  7

 75
    16
147
1.0
148
0.0
149
0.0
100
AcDbLayout
  1
Layout1
 70
     1
 71
     1
 10
0.0
 20
0.0
 11
12.0
 21
9.0
 12
0.0
 22
0.0
 32
0.0
 14
1.00000000000000E+20
 24
1.00000000000000E+20
 34
1.00000000000000E+20
 15
-1.00000000000000E+20
 25
-1.00000000000000E+20
 35
-1.00000000000000E+20
146
0.0
 13
0.0
 23
0.0
 33
0.0
 16
1.0
 26
0.0
 36
0.0
 17
0.0
 27
1.0
 37
0.0
 76
     0
330
1B
  0
LAYOUT
  5
26
102
{ACAD_REACTORS
330
1A
102
}
330
1A
100
AcDbPlotSettings
  1

  2
none_device
  4

  6

 40
0.0
 41
0.0
 42
0.0
 43
0.0
 44
0.0
 45
0.0
 46
0.0
 47
0.0
 48
0.0
 49
0.0
140
0.0
141
0.0
142
1.0
143
1.0
 70
   688
 72
     0
 73
     0
 74
     5
  7

 75
    16
147
1.0
148
0.0
149
0.0
100
AcDbLayout
  1
Layout2
 70
     1
 71
     2
 10
0.0
 20
0.0
 11
0.0
 21
0.0
 12
0.0
 22
0.0
 32
0.0
 14
0.0
 24
0.0
 34
0.0
 15
0.0
 25
0.0
 35
0.0
146
0.0
 13
0.0
 23
0.0
 33
0.0
 16
1.0
 26
0.0
 36
0.0
 17
0.0
 27
1.0
 37
0.0
 76
     0
330
23
  0
LAYOUT
  5
22
102
{ACAD_REACTORS
330
1A
102
}
330
1A
100
AcDbPlotSettings
  1

  2
none_device
  4

  6

 40
0.0
 41
0.0
 42
0.0
 43
0.0
 44
0.0
 45
0.0
 46
0.0
 47
0.0
 48
0.0
 49
0.0
140
0.0
141
0.0
142
1.0
143
1.0
 70
  1712
 72
     0
 73
     0
 74
     0
  7

 75
     0
147
1.0
148
0.0
149
0.0
100
AcDbLayout
  1
Model
 70
     1
 71
     0
 10
0.0
 20
0.0
 11
12.0
 21
9.0
 12
0.0
 22
0.0
 32
0.0
 14
0.0
 24
0.0
 34
0.0
 15
210.0
 25
297.0
 35
0.0
146
0.0
 13
0.0
 23
0.0
 33
0.0
 16
1.0
 26
0.0
 36
0.0
 17
0.0
 27
1.0
 37
0.0
 76
     0
330
1F
331
29
  0
MATERIAL
  5
3D
102
{ACAD_REACTORS
330
3B
102
}
102
{ACAD_XDICTIONARY
360
2CA
102
}
330
3B
100
AcDbMaterial
  1
ByBlock
  0
MATERIAL
  5
3C
102
{ACAD_REACTORS
330
3B
102
}
102
{ACAD_XDICTIONARY
360
2C8
102
}
330
3B
100
AcDbMaterial
  1
ByLayer
  0
MATERIAL
  5
3E
102
{ACAD_REACTORS
330
3B
102
}
102
{ACAD_XDICTIONARY
360
2CC
102
}
330
3B
100
AcDbMaterial
  1
Global
  0
MLINESTYLE
  5
18
102
{ACAD_REACTORS
330
17
102
}
330
17
100
AcDbMlineStyle
  2
Standard
 70
     0
  3

 62
   256
 51
90.0
 52
90.0
 71
     2
 49
0.5
 62
   256
  6
BYLAYER
 49
-0.5
 62
   256
  6
BYLAYER
  0
ACDBPLACEHOLDER
  5
F
102
{ACAD_REACTORS
330
E
102
}
330
E
  0
VISUALSTYLE
  5
2F
102
{ACAD_REACTORS
330
2A
102
}
102
{ACAD_XDICTIONARY
360
2B0
102
}
330
2A
100
AcDbVisualStyle
  2
2dWireframe
 70
     4
 71
     0
 72
     2
 73
     0
 90
        0
 40
-0.6
 41
-30.0
 62
     5
 63
     7
 74
     1
 91
        4
 64
     7
 65
   257
 75
     1
175
     1
 42
1.0
 92
        0
 66
   257
 43
1.0
 76
     1
 77
     6
 78
     2
 67
     7
 79
     5
170
     0
171
     0
290
     0
174
     0
 93
        1
 44
0.0
173
     0
291
     0
 45
0.0
1001
ACAD
1000
AcDbSavedByObjectVersion
1070
     0
  0
VISUALSTYLE
  5
31
102
{ACAD_REACTORS
330
2A
102
}
102
{ACAD_XDICTIONARY
360
2B4
102
}
330
2A
100
AcDbVisualStyle
  2
3D Hidden
 70
     6
 71
     1
 72
     2
 73
     2
 90
        0
 40
-0.6
 41
-30.0
 62
     5
 63
     7
 74
     2
 91
        2
 64
     7
 65
   257
 75
     2
175
     1
 42
40.0
 92
        0
 66
   257
 43
1.0
 76
     1
 77
     6
 78
     2
 67
     7
 79
     3
170
     0
171
     0
290
     0
174
     0
 93
        1
 44
0.0
173
     0
291
     0
 45
0.0
1001
ACAD
1000
AcDbSavedByObjectVersion
1070
     0
  0
VISUALSTYLE
  5
30
102
{ACAD_REACTORS
330
2A
102
}
102
{ACAD_XDICTIONARY
360
2B2
102
}
330
2A
100
AcDbVisualStyle
  2
3dWireframe
 70
     5
 71
     0
 72
     2
 73
     0
 90
        0
 40
-0.6
 41
-30.0
 62
     5
 63
     7
 74
     1
 91
        4
 64
     7
 65
   257
 75
     1
175
     1
 42
1.0
 92
        0
 66
   257
 43
1.0
 76
     1
 77
     6
 78
     2
 67
     7
 79
     5
170
     0
171
     0
290
     0
174
     0
 93
        1
 44
0.0
173
     0
291
     0
 45
0.0
1001
ACAD
1000
AcDbSavedByObjectVersion
1070
     0
  0
VISUALSTYLE
  5
32
102
{ACAD_REACTORS
330
2A
102
}
102
{ACAD_XDICTIONARY
360
2B6
102
}
330
2A
100
AcDbVisualStyle
  2
Basic
 70
     7
 71
     1
 72
     0
 73
     1
 90
        0
 40
-0.6
 41
-30.0
 62
     5
 63
     7
 74
     0
 91
        4
 64
     7
 65
   257
 75
     1
175
     1
 42
1.0
 92
        8
 66
     7
 43
1.0
 76
     1
 77
     6
 78
     2
 67
     7
 79
     5
170
     0
171
     0
290
     0
174
     0
 93
        1
 44
0.0
173
     0
291
     1
 45
0.0
1001
ACAD
1000
AcDbSavedByObjectVersion
1070
     0
  0
VISUALSTYLE
  5
36
102
{ACAD_REACTORS
330
2A
102
}
102
{ACAD_XDICTIONARY
360
2BE
102
}
330
2A
100
AcDbVisualStyle
  2
Brighten
 70
    12
 71
     2
 72
     2
 73
     0
 90
        0
 40
-0.6
 41
-30.0
 62
     5
 63
     7
 74
     1
 91
        4
 64
     7
 65
   257
 75
     1
175
     1
 42
1.0
 92
        8
 66
     7
 43
1.0
 76
     1
 77
     6
 78
     2
 67
     7
 79
     5
170
     0
171
     0
290
     0
174
     0
 93
        1
 44
50.0
173
     0
291
     1
 45
0.0
1001
ACAD
1000
AcDbSavedByObjectVersion
1070
     0
  0
VISUALSTYLE
  5
3A
102
{ACAD_REACTORS
330
2A
102
}
102
{ACAD_XDICTIONARY
360
2C6
102
}
330
2A
100
AcDbVisualStyle
  2
ColorChange
 70
    16
 71
     2
 72
     2
 73
     3
 90
        0
 40
-0.6
 41
-30.0
 62
     5
 63
     8
 74
     1
 91
        4
 64
     7
 65
   257
 75
     1
175
     1
 42
1.0
 92
        8
 66
     8
 43
1.0
 76
     1
 77
     6
 78
     2
 67
     7
 79
     5
170
     0
171
     0
290
     0
174
     0
 93
        1
 44
0.0
173
     0
291
     1
 45
0.0
1001
ACAD
1000
AcDbSavedByObjectVersion
1070
     0
  0
VISUALSTYLE
  5
34
102
{ACAD_REACTORS
330
2A
102
}
102
{ACAD_XDICTIONARY
360
2BA
102
}
330
2A
100
AcDbVisualStyle
  2
Conceptual
 70
     9
 71
     3
 72
     2
 73
     0
 90
        0
 40
-0.6
 41
-30.0
 62
     5
 63
     7
 74
     2
 91
        2
 64
     7
 65
   257
 75
     1
175
     1
 42
40.0
 92
        8
 66
     7
 43
1.0
 76
     1
 77
     6
 78
     2
 67
     7
 79
     3
170
     0
171
     0
290
     0
174
     0
 93
        1
 44
0.0
173
     0
291
     0
 45
0.0
1001
ACAD
1000
AcDbSavedByObjectVersion
1070
     0
  0
VISUALSTYLE
  5
35
102
{ACAD_REACTORS
330
2A
102
}
102
{ACAD_XDICTIONARY
360
2BC
102
}
330
2A
100
AcDbVisualStyle
  2
Dim
 70
    11
 71
     2
 72
     2
 73
     0
 90
        0
 40
-0.6
 41
-30.0
 62
     5
 63
     7
 74
     1
 91
        4
 64
     7
 65
   257
 75
     1
175
     1
 42
1.0
 92
        8
 66
     7
 43
1.0
 76
     1
 77
     6
 78
     2
 67
     7
 79
     5
170
     0
171
     0
290
     0
174
     0
 93
        1
 44
-50.0
173
     0
291
     1
 45
0.0
1001
ACAD
1000
AcDbSavedByObjectVersion
1070
     0
  0
VISUALSTYLE
  5
39
102
{ACAD_REACTORS
330
2A
102
}
102
{ACAD_XDICTIONARY
360
2C4
102
}
330
2A
100
AcDbVisualStyle
  2
Facepattern
 70
    15
 71
     2
 72
     2
 73
     0
 90
        0
 40
-0.6
 41
-30.0
 62
     5
 63
     7
 74
     1
 91
        4
 64
     7
 65
   257
 75
     1
175
     1
 42
1.0
 92
        8
 66
     7
 43
1.0
 76
     1
 77
     6
 78
     2
 67
     7
 79
     5
170
     0
171
     0
290
     0
174
     0
 93
        1
 44
0.0
173
     0
291
     1
 45
0.0
1001
ACAD
1000
AcDbSavedByObjectVersion
1070
     0
  0
VISUALSTYLE
  5
2B
102
{ACAD_REACTORS
330
2A
102
}
102
{ACAD_XDICTIONARY
360
2A8
102
}
330
2A
100
AcDbVisualStyle
  2
Flat
 70
     0
 71
     2
 72
     1
 73
     1
 90
        2
 40
-0.6
 41
30.0
 62
     5
 63
     7
 74
     0
 91
        4
 64
     7
 65
   257
 75
     1
175
     1
 42
1.0
 92
        8
 66
     7
 43
1.0
 76
     1
 77
     6
 78
     2
 67
     7
 79
     5
170
     0
171
     0
290
     0
174
     0
 93
       13
 44
0.0
173
     0
291
     1
 45
0.0
1001
ACAD
1000
AcDbSavedByObjectVersion
1070
     0
  0
VISUALSTYLE
  5
2C
102
{ACAD_REACTORS
330
2A
102
}
102
{ACAD_XDICTIONARY
360
2AA
102
}
330
2A
100
AcDbVisualStyle
  2
FlatWithEdges
 70
     1
 71
     2
 72
     1
 73
     1
 90
        2
 40
-0.6
 41
30.0
 62
     5
 63
     7
 74
     1
 91
        4
 64
     7
 65
   257
 75
     1
175
     1
 42
1.0
 92
        0
 66
   257
 43
1.0
 76
     1
 77
     6
 78
     2
 67
     7
 79
     5
170
     0
171
     0
290
     0
174
     0
 93
       13
 44
0.0
173
     0
291
     1
 45
0.0
1001
ACAD
1000
AcDbSavedByObjectVersion
1070
     0
  0
VISUALSTYLE
  5
2D
102
{ACAD_REACTORS
330
2A
102
}
102
{ACAD_XDICTIONARY
360
2AC
102
}
330
2A
100
AcDbVisualStyle
  2
Gouraud
 70
     2
 71
     2
 72
     2
 73
     1
 90
        2
 40
-0.6
 41
30.0
 62
     5
 63
     7
 74
     0
 91
        4
 64
     7
 65
   257
 75
     1
175
     1
 42
1.0
 92
        0
 66
     7
 43
1.0
 76
     1
 77
     6
 78
     2
 67
     7
 79
     5
170
     0
171
     0
290
     0
174
     0
 93
       13
 44
0.0
173
     0
291
     1
 45
0.0
1001
ACAD
1000
AcDbSavedByObjectVersion
1070
     0
  0
VISUALSTYLE
  5
2E
102
{ACAD_REACTORS
330
2A
102
}
102
{ACAD_XDICTIONARY
360
2AE
102
}
330
2A
100
AcDbVisualStyle
  2
GouraudWithEdges
 70
     3
 71
     2
 72
     2
 73
     1
 90
        2
 40
-0.6
 41
30.0
 62
     5
 63
     7
 74
     1
 91
        4
 64
     7
 65
   257
 75
     1
175
     1
 42
1.0
 92
        0
 66
   257
 43
1.0
 76
     1
 77
     6
 78
     2
 67
     7
 79
     5
170
     0
171
     0
290
     0
174
     0
 93
       13
 44
0.0
173
     0
291
     1
 45
0.0
1001
ACAD
1000
AcDbSavedByObjectVersion
1070
     0
  0
VISUALSTYLE
  5
38
102
{ACAD_REACTORS
330
2A
102
}
102
{ACAD_XDICTIONARY
360
2C2
102
}
330
2A
100
AcDbVisualStyle
  2
Linepattern
 70
    14
 71
     2
 72
     2
 73
     0
 90
        0
 40
-0.6
 41
-30.0
 62
     5
 63
     7
 74
     1
 91
        4
 64
     7
 65
   257
 75
     7
175
     7
 42
1.0
 92
        8
 66
     7
 43
1.0
 76
     1
 77
     6
 78
     2
 67
     7
 79
     5
170
     0
171
     0
290
     0
174
     0
 93
        1
 44
0.0
173
     0
291
     1
 45
0.0
1001
ACAD
1000
AcDbSavedByObjectVersion
1070
     0
  0
VISUALSTYLE
  5
33
102
{ACAD_REACTORS
330
2A
102
}
102
{ACAD_XDICTIONARY
360
2B8
102
}
330
2A
100
AcDbVisualStyle
  2
Realistic
 70
     8
 71
     2
 72
     2
 73
     0
 90
        0
 40
-0.6
 41
-30.0
 62
     5
 63
     7
 74
     1
 91
        0
 64
     7
 65
   257
 75
     1
175
     1
 42
1.0
 92
        8
 66
     8
 43
1.0
 76
     1
 77
     6
 78
     2
 67
     7
 79
     5
170
     0
171
     0
290
     0
174
     0
 93
       13
 44
0.0
173
     0
291
     0
 45
0.0
1001
ACAD
1000
AcDbSavedByObjectVersion
1070
     0
  0
VISUALSTYLE
  5
37
102
{ACAD_REACTORS
330
2A
102
}
102
{ACAD_XDICTIONARY
360
2C0
102
}
330
2A
100
AcDbVisualStyle
  2
Thicken
 70
    13
 71
     2
 72
     2
 73
     0
 90
        0
 40
-0.6
 41
-30.0
 62
     5
 63
     7
 74
     1
 91
        4
 64
     7
 65
   257
 75
     1
175
     1
 42
1.0
 92
       12
 66
     7
 43
1.0
 76
     1
 77
     6
 78
     2
 67
     7
 79
     5
170
     0
171
     0
290
     0
174
     0
 93
        1
 44
0.0
173
     0
291
     1
 45
0.0
1001
ACAD
1000
AcDbSavedByObjectVersion
1070
     0
  0
DICTIONARYVAR
  5
2A6
102
{ACAD_REACTORS
330
2A3
102
}
330
2A3
100
DictionaryVariables
280
     0
  1
2
  0
DICTIONARYVAR
  5
2A7
102
{ACAD_REACTORS
330
2A3
102
}
330
2A3
100
DictionaryVariables
280
     0
  1
1
  0
DICTIONARY
  5
2CA
330
3D
100
AcDbDictionary
280
     1
281
     1
  3
ACAD_XREC_ROUNDTRIP
360
2CB
  0
DICTIONARY
  5
2C8
330
3C
100
AcDbDictionary
280
     1
281
     1
  3
ACAD_XREC_ROUNDTRIP
360
2C9
  0
DICTIONARY
  5
2CC
330
3E
100
AcDbDictionary
280
     1
281
     1
  3
ACAD_XREC_ROUNDTRIP
360
2CD
  0
DICTIONARY
  5
2B0
330
2F
100
AcDbDictionary
280
     1
281
     1
  3
ACAD_XREC_ROUNDTRIP
360
2B1
  0
DICTIONARY
  5
2B4
330
31
100
AcDbDictionary
280
     1
281
     1
  3
ACAD_XREC_ROUNDTRIP
360
2B5
  0
DICTIONARY
  5
2B2
330
30
100
AcDbDictionary
280
     1
281
     1
  3
ACAD_XREC_ROUNDTRIP
360
2B3
  0
DICTIONARY
  5
2B6
330
32
100
AcDbDictionary
280
     1
281
     1
  3
ACAD_XREC_ROUNDTRIP
360
2B7
  0
DICTIONARY
  5
2BE
330
36
100
AcDbDictionary
280
     1
281
     1
  3
ACAD_XREC_ROUNDTRIP
360
2BF
  0
DICTIONARY
  5
2C6
330
3A
100
AcDbDictionary
280
     1
281
     1
  3
ACAD_XREC_ROUNDTRIP
360
2C7
  0
DICTIONARY
  5
2BA
330
34
100
AcDbDictionary
280
     1
281
     1
  3
ACAD_XREC_ROUNDTRIP
360
2BB
  0
DICTIONARY
  5
2BC
330
35
100
AcDbDictionary
280
     1
281
     1
  3
ACAD_XREC_ROUNDTRIP
360
2BD
  0
DICTIONARY
  5
2C4
330
39
100
AcDbDictionary
280
     1
281
     1
  3
ACAD_XREC_ROUNDTRIP
360
2C5
  0
DICTIONARY
  5
2A8
330
2B
100
AcDbDictionary
280
     1
281
     1
  3
ACAD_XREC_ROUNDTRIP
360
2A9
  0
DICTIONARY
  5
2AA
330
2C
100
AcDbDictionary
280
     1
281
     1
  3
ACAD_XREC_ROUNDTRIP
360
2AB
  0
DICTIONARY
  5
2AC
330
2D
100
AcDbDictionary
280
     1
281
     1
  3
ACAD_XREC_ROUNDTRIP
360
2AD
  0
DICTIONARY
  5
2AE
330
2E
100
AcDbDictionary
280
     1
281
     1
  3
ACAD_XREC_ROUNDTRIP
360
2AF
  0
DICTIONARY
  5
2C2
330
38
100
AcDbDictionary
280
     1
281
     1
  3
ACAD_XREC_ROUNDTRIP
360
2C3
  0
DICTIONARY
  5
2B8
330
33
100
AcDbDictionary
280
     1
281
     1
  3
ACAD_XREC_ROUNDTRIP
360
2B9
  0
DICTIONARY
  5
2C0
330
37
100
AcDbDictionary
280
     1
281
     1
  3
ACAD_XREC_ROUNDTRIP
360
2C1
  0
XRECORD
  5
2CB
102
{ACAD_REACTORS
330
2CA
102
}
330
2CA
100
AcDbXrecord
280
     1
102
MATERIAL
148
0.0
149
0.0
149
0.0
 93
        0
 94
      127
282
     0
 72
     1
 77
     1
171
     1
175
     1
179
     1
273
     0
  0
XRECORD
  5
2C9
102
{ACAD_REACTORS
330
2C8
102
}
330
2C8
100
AcDbXrecord
280
     1
102
MATERIAL
148
0.0
149
0.0
149
0.0
 93
        0
 94
      127
282
     0
 72
     1
 77
     1
171
     1
175
     1
179
     1
273
     0
  0
XRECORD
  5
2CD
102
{ACAD_REACTORS
330
2CC
102
}
330
2CC
100
AcDbXrecord
280
     1
102
MATERIAL
148
0.0
149
0.0
149
0.0
 93
        0
 94
      127
282
     0
 72
     1
 77
     1
171
     1
175
     1
179
     1
273
     0
  0
XRECORD
  5
2B1
102
{ACAD_REACTORS
330
2B0
102
}
330
2B0
100
AcDbXrecord
280
     1
102
RTVSPropertyOp0
 70
     1
102
RTVSPropertyOp1
 70
     1
102
RTVSPropertyOp2
 70
     1
102
RTVSPropertyOp3
 70
     1
102
RTVSPropertyOp4
 70
     1
102
RTVSPropertyOp5
 70
     1
102
RTVSPropertyOp6
 70
     1
102
RTVSPropertyOp7
 70
     1
102
RTVSPropertyOp8
 70
     1
102
RTVSPropertyOp9
 70
     1
102
RTVSPropertyOp10
 70
     1
102
RTVSPropertyOp11
 70
     1
102
RTVSPropertyOp12
 70
     1
102
RTVSPropertyOp13
 70
     1
102
RTVSPropertyOp14
 70
     1
102
RTVSPropertyOp15
 70
     1
102
RTVSPropertyOp16
 70
     1
102
RTVSPropertyOp17
 70
     1
102
RTVSPropertyOp18
 70
     1
102
RTVSPropertyOp19
 70
     1
102
RTVSPropertyOp20
 70
     1
102
RTVSPropertyOp21
 70
     1
102
RTVSPropertyOp22
 70
     1
102
RTVSPropertyOp23
 70
     1
102
RTVSPropertyOp24
 70
     1
102
RTVSPropertyOp25
 70
     1
102
RTVSPropertyOp26
 70
     1
102
RTVSPropertyOp27
 70
     1
102
RTVSPropertyOp28
 70
     1
102
RTVSPropertyOp29
 70
     1
102
RTVSPropertyOp30
 70
     1
102
RTVSPropertyOp31
 70
     1
102
RTVSPropertyOp32
 70
     1
  0
XRECORD
  5
2B5
102
{ACAD_REACTORS
330
2B4
102
}
330
2B4
100
AcDbXrecord
280
     1
102
RTVSPropertyOp0
 70
     1
102
RTVSPropertyOp1
 70
     1
102
RTVSPropertyOp2
 70
     1
102
RTVSPropertyOp3
 70
     1
102
RTVSPropertyOp4
 70
     1
102
RTVSPropertyOp5
 70
     1
102
RTVSPropertyOp6
 70
     1
102
RTVSPropertyOp7
 70
     1
102
RTVSPropertyOp8
 70
     1
102
RTVSPropertyOp9
 70
     1
102
RTVSPropertyOp10
 70
     1
102
RTVSPropertyOp11
 70
     1
102
RTVSPropertyOp12
 70
     1
102
RTVSPropertyOp13
 70
     1
102
RTVSPropertyOp14
 70
     1
102
RTVSPropertyOp15
 70
     1
102
RTVSPropertyOp16
 70
     1
102
RTVSPropertyOp17
 70
     1
102
RTVSPropertyOp18
 70
     1
102
RTVSPropertyOp19
 70
     1
102
RTVSPropertyOp20
 70
     1
102
RTVSPropertyOp21
 70
     1
102
RTVSPropertyOp22
 70
     1
102
RTVSPropertyOp23
 70
     1
102
RTVSPropertyOp24
 70
     1
102
RTVSPropertyOp25
 70
     1
102
RTVSPropertyOp26
 70
     1
102
RTVSPropertyOp27
 70
     1
102
RTVSPropertyOp28
 70
     1
102
RTVSPropertyOp29
 70
     1
102
RTVSPropertyOp30
 70
     1
102
RTVSPropertyOp31
 70
     1
102
RTVSPropertyOp32
 70
     1
  0
XRECORD
  5
2B3
102
{ACAD_REACTORS
330
2B2
102
}
330
2B2
100
AcDbXrecord
280
     1
102
RTVSPropertyOp0
 70
     1
102
RTVSPropertyOp1
 70
     1
102
RTVSPropertyOp2
 70
     1
102
RTVSPropertyOp3
 70
     1
102
RTVSPropertyOp4
 70
     1
102
RTVSPropertyOp5
 70
     1
102
RTVSPropertyOp6
 70
     1
102
RTVSPropertyOp7
 70
     1
102
RTVSPropertyOp8
 70
     1
102
RTVSPropertyOp9
 70
     1
102
RTVSPropertyOp10
 70
     1
102
RTVSPropertyOp11
 70
     1
102
RTVSPropertyOp12
 70
     1
102
RTVSPropertyOp13
 70
     1
102
RTVSPropertyOp14
 70
     1
102
RTVSPropertyOp15
 70
     1
102
RTVSPropertyOp16
 70
     1
102
RTVSPropertyOp17
 70
     1
102
RTVSPropertyOp18
 70
     1
102
RTVSPropertyOp19
 70
     1
102
RTVSPropertyOp20
 70
     1
102
RTVSPropertyOp21
 70
     1
102
RTVSPropertyOp22
 70
     1
102
RTVSPropertyOp23
 70
     1
102
RTVSPropertyOp24
 70
     1
102
RTVSPropertyOp25
 70
     1
102
RTVSPropertyOp26
 70
     1
102
RTVSPropertyOp27
 70
     1
102
RTVSPropertyOp28
 70
     1
102
RTVSPropertyOp29
 70
     1
102
RTVSPropertyOp30
 70
     1
102
RTVSPropertyOp31
 70
     1
102
RTVSPropertyOp32
 70
     1
  0
XRECORD
  5
2B7
102
{ACAD_REACTORS
330
2B6
102
}
330
2B6
100
AcDbXrecord
280
     1
102
RTVSPropertyOp0
 70
     1
102
RTVSPropertyOp1
 70
     1
102
RTVSPropertyOp2
 70
     1
102
RTVSPropertyOp3
 70
     1
102
RTVSPropertyOp4
 70
     1
102
RTVSPropertyOp5
 70
     1
102
RTVSPropertyOp6
 70
     1
102
RTVSPropertyOp7
 70
     1
102
RTVSPropertyOp8
 70
     1
102
RTVSPropertyOp9
 70
     1
102
RTVSPropertyOp10
 70
     1
102
RTVSPropertyOp11
 70
     1
102
RTVSPropertyOp12
 70
     1
102
RTVSPropertyOp13
 70
     1
102
RTVSPropertyOp14
 70
     1
102
RTVSPropertyOp15
 70
     1
102
RTVSPropertyOp16
 70
     1
102
RTVSPropertyOp17
 70
     1
102
RTVSPropertyOp18
 70
     1
102
RTVSPropertyOp19
 70
     1
102
RTVSPropertyOp20
 70
     1
102
RTVSPropertyOp21
 70
     1
102
RTVSPropertyOp22
 70
     1
102
RTVSPropertyOp23
 70
     1
102
RTVSPropertyOp24
 70
     1
102
RTVSPropertyOp25
 70
     1
102
RTVSPropertyOp26
 70
     1
102
RTVSPropertyOp27
 70
     1
102
RTVSPropertyOp28
 70
     1
102
RTVSPropertyOp29
 70
     1
102
RTVSPropertyOp30
 70
     1
102
RTVSPropertyOp31
 70
     1
102
RTVSPropertyOp32
 70
     1
  0
XRECORD
  5
2BF
102
{ACAD_REACTORS
330
2BE
102
}
330
2BE
100
AcDbXrecord
280
     1
102
RTVSPropertyOp0
 70
     1
102
RTVSPropertyOp1
 70
     1
102
RTVSPropertyOp2
 70
     1
102
RTVSPropertyOp3
 70
     1
102
RTVSPropertyOp4
 70
     1
102
RTVSPropertyOp5
 70
     1
102
RTVSPropertyOp6
 70
     1
102
RTVSPropertyOp7
 70
     1
102
RTVSPropertyOp8
 70
     1
102
RTVSPropertyOp9
 70
     1
102
RTVSPropertyOp10
 70
     1
102
RTVSPropertyOp11
 70
     1
102
RTVSPropertyOp12
 70
     1
102
RTVSPropertyOp13
 70
     1
102
RTVSPropertyOp14
 70
     1
102
RTVSPropertyOp15
 70
     1
102
RTVSPropertyOp16
 70
     1
102
RTVSPropertyOp17
 70
     1
102
RTVSPropertyOp18
 70
     1
102
RTVSPropertyOp19
 70
     1
102
RTVSPropertyOp20
 70
     1
102
RTVSPropertyOp21
 70
     1
102
RTVSPropertyOp22
 70
     1
102
RTVSPropertyOp23
 70
     1
102
RTVSPropertyOp24
 70
     1
102
RTVSPropertyOp25
 70
     1
102
RTVSPropertyOp26
 70
     1
102
RTVSPropertyOp27
 70
     1
102
RTVSPropertyOp28
 70
     1
102
RTVSPropertyOp29
 70
     1
102
RTVSPropertyOp30
 70
     1
102
RTVSPropertyOp31
 70
     1
102
RTVSPropertyOp32
 70
     1
  0
XRECORD
  5
2C7
102
{ACAD_REACTORS
330
2C6
102
}
330
2C6
100
AcDbXrecord
280
     1
102
RTVSPropertyOp0
 70
     1
102
RTVSPropertyOp1
 70
     1
102
RTVSPropertyOp2
 70
     1
102
RTVSPropertyOp3
 70
     1
102
RTVSPropertyOp4
 70
     1
102
RTVSPropertyOp5
 70
     1
102
RTVSPropertyOp6
 70
     1
102
RTVSPropertyOp7
 70
     1
102
RTVSPropertyOp8
 70
     1
102
RTVSPropertyOp9
 70
     1
102
RTVSPropertyOp10
 70
     1
102
RTVSPropertyOp11
 70
     1
102
RTVSPropertyOp12
 70
     1
102
RTVSPropertyOp13
 70
     1
102
RTVSPropertyOp14
 70
     1
102
RTVSPropertyOp15
 70
     1
102
RTVSPropertyOp16
 70
     1
102
RTVSPropertyOp17
 70
     1
102
RTVSPropertyOp18
 70
     1
102
RTVSPropertyOp19
 70
     1
102
RTVSPropertyOp20
 70
     1
102
RTVSPropertyOp21
 70
     1
102
RTVSPropertyOp22
 70
     1
102
RTVSPropertyOp23
 70
     1
102
RTVSPropertyOp24
 70
     1
102
RTVSPropertyOp25
 70
     1
102
RTVSPropertyOp26
 70
     1
102
RTVSPropertyOp27
 70
     1
102
RTVSPropertyOp28
 70
     1
102
RTVSPropertyOp29
 70
     1
102
RTVSPropertyOp30
 70
     1
102
RTVSPropertyOp31
 70
     1
102
RTVSPropertyOp32
 70
     1
  0
XRECORD
  5
2BB
102
{ACAD_REACTORS
330
2BA
102
}
330
2BA
100
AcDbXrecord
280
     1
102
RTVSPropertyOp0
 70
     1
102
RTVSPropertyOp1
 70
     1
102
RTVSPropertyOp2
 70
     1
102
RTVSPropertyOp3
 70
     1
102
RTVSPropertyOp4
 70
     1
102
RTVSPropertyOp5
 70
     1
102
RTVSPropertyOp6
 70
     1
102
RTVSPropertyOp7
 70
     1
102
RTVSPropertyOp8
 70
     1
102
RTVSPropertyOp9
 70
     1
102
RTVSPropertyOp10
 70
     1
102
RTVSPropertyOp11
 70
     1
102
RTVSPropertyOp12
 70
     1
102
RTVSPropertyOp13
 70
     1
102
RTVSPropertyOp14
 70
     1
102
RTVSPropertyOp15
 70
     1
102
RTVSPropertyOp16
 70
     1
102
RTVSPropertyOp17
 70
     1
102
RTVSPropertyOp18
 70
     1
102
RTVSPropertyOp19
 70
     1
102
RTVSPropertyOp20
 70
     1
102
RTVSPropertyOp21
 70
     1
102
RTVSPropertyOp22
 70
     1
102
RTVSPropertyOp23
 70
     1
102
RTVSPropertyOp24
 70
     1
102
RTVSPropertyOp25
 70
     1
102
RTVSPropertyOp26
 70
     1
102
RTVSPropertyOp27
 70
     1
102
RTVSPropertyOp28
 70
     1
102
RTVSPropertyOp29
 70
     1
102
RTVSPropertyOp30
 70
     1
102
RTVSPropertyOp31
 70
     1
102
RTVSPropertyOp32
 70
     1
  0
XRECORD
  5
2BD
102
{ACAD_REACTORS
330
2BC
102
}
330
2BC
100
AcDbXrecord
280
     1
102
RTVSPropertyOp0
 70
     1
102
RTVSPropertyOp1
 70
     1
102
RTVSPropertyOp2
 70
     1
102
RTVSPropertyOp3
 70
     1
102
RTVSPropertyOp4
 70
     1
102
RTVSPropertyOp5
 70
     1
102
RTVSPropertyOp6
 70
     1
102
RTVSPropertyOp7
 70
     1
102
RTVSPropertyOp8
 70
     1
102
RTVSPropertyOp9
 70
     1
102
RTVSPropertyOp10
 70
     1
102
RTVSPropertyOp11
 70
     1
102
RTVSPropertyOp12
 70
     1
102
RTVSPropertyOp13
 70
     1
102
RTVSPropertyOp14
 70
     1
102
RTVSPropertyOp15
 70
     1
102
RTVSPropertyOp16
 70
     1
102
RTVSPropertyOp17
 70
     1
102
RTVSPropertyOp18
 70
     1
102
RTVSPropertyOp19
 70
     1
102
RTVSPropertyOp20
 70
     1
102
RTVSPropertyOp21
 70
     1
102
RTVSPropertyOp22
 70
     1
102
RTVSPropertyOp23
 70
     1
102
RTVSPropertyOp24
 70
     1
102
RTVSPropertyOp25
 70
     1
102
RTVSPropertyOp26
 70
     1
102
RTVSPropertyOp27
 70
     1
102
RTVSPropertyOp28
 70
     1
102
RTVSPropertyOp29
 70
     1
102
RTVSPropertyOp30
 70
     1
102
RTVSPropertyOp31
 70
     1
102
RTVSPropertyOp32
 70
     1
  0
XRECORD
  5
2C5
102
{ACAD_REACTORS
330
2C4
102
}
330
2C4
100
AcDbXrecord
280
     1
102
RTVSPropertyOp0
 70
     1
102
RTVSPropertyOp1
 70
     1
102
RTVSPropertyOp2
 70
     1
102
RTVSPropertyOp3
 70
     1
102
RTVSPropertyOp4
 70
     1
102
RTVSPropertyOp5
 70
     1
102
RTVSPropertyOp6
 70
     1
102
RTVSPropertyOp7
 70
     1
102
RTVSPropertyOp8
 70
     1
102
RTVSPropertyOp9
 70
     1
102
RTVSPropertyOp10
 70
     1
102
RTVSPropertyOp11
 70
     1
102
RTVSPropertyOp12
 70
     1
102
RTVSPropertyOp13
 70
     1
102
RTVSPropertyOp14
 70
     1
102
RTVSPropertyOp15
 70
     1
102
RTVSPropertyOp16
 70
     1
102
RTVSPropertyOp17
 70
     1
102
RTVSPropertyOp18
 70
     1
102
RTVSPropertyOp19
 70
     1
102
RTVSPropertyOp20
 70
     1
102
RTVSPropertyOp21
 70
     1
102
RTVSPropertyOp22
 70
     1
102
RTVSPropertyOp23
 70
     1
102
RTVSPropertyOp24
 70
     1
102
RTVSPropertyOp25
 70
     1
102
RTVSPropertyOp26
 70
     1
102
RTVSPropertyOp27
 70
     1
102
RTVSPropertyOp28
 70
     1
102
RTVSPropertyOp29
 70
     1
102
RTVSPropertyOp30
 70
     1
102
RTVSPropertyOp31
 70
     1
102
RTVSPropertyOp32
 70
     1
  0
XRECORD
  5
2A9
102
{ACAD_REACTORS
330
2A8
102
}
330
2A8
100
AcDbXrecord
280
     1
102
RTVSPropertyOp0
 70
     1
102
RTVSPropertyOp1
 70
     1
102
RTVSPropertyOp2
 70
     1
102
RTVSPropertyOp3
 70
     1
102
RTVSPropertyOp4
 70
     1
102
RTVSPropertyOp5
 70
     1
102
RTVSPropertyOp6
 70
     1
102
RTVSPropertyOp7
 70
     1
102
RTVSPropertyOp8
 70
     1
102
RTVSPropertyOp9
 70
     1
102
RTVSPropertyOp10
 70
     1
102
RTVSPropertyOp11
 70
     1
102
RTVSPropertyOp12
 70
     1
102
RTVSPropertyOp13
 70
     1
102
RTVSPropertyOp14
 70
     1
102
RTVSPropertyOp15
 70
     1
102
RTVSPropertyOp16
 70
     1
102
RTVSPropertyOp17
 70
     1
102
RTVSPropertyOp18
 70
     1
102
RTVSPropertyOp19
 70
     1
102
RTVSPropertyOp20
 70
     1
102
RTVSPropertyOp21
 70
     1
102
RTVSPropertyOp22
 70
     1
102
RTVSPropertyOp23
 70
     1
102
RTVSPropertyOp24
 70
     1
102
RTVSPropertyOp25
 70
     1
102
RTVSPropertyOp26
 70
     1
102
RTVSPropertyOp27
 70
     1
102
RTVSPropertyOp28
 70
     1
102
RTVSPropertyOp29
 70
     1
102
RTVSPropertyOp30
 70
     1
102
RTVSPropertyOp31
 70
     1
102
RTVSPropertyOp32
 70
     1
  0
XRECORD
  5
2AB
102
{ACAD_REACTORS
330
2AA
102
}
330
2AA
100
AcDbXrecord
280
     1
102
RTVSPropertyOp0
 70
     1
102
RTVSPropertyOp1
 70
     1
102
RTVSPropertyOp2
 70
     1
102
RTVSPropertyOp3
 70
     1
102
RTVSPropertyOp4
 70
     1
102
RTVSPropertyOp5
 70
     1
102
RTVSPropertyOp6
 70
     1
102
RTVSPropertyOp7
 70
     1
102
RTVSPropertyOp8
 70
     1
102
RTVSPropertyOp9
 70
     1
102
RTVSPropertyOp10
 70
     1
102
RTVSPropertyOp11
 70
     1
102
RTVSPropertyOp12
 70
     1
102
RTVSPropertyOp13
 70
     1
102
RTVSPropertyOp14
 70
     1
102
RTVSPropertyOp15
 70
     1
102
RTVSPropertyOp16
 70
     1
102
RTVSPropertyOp17
 70
     1
102
RTVSPropertyOp18
 70
     1
102
RTVSPropertyOp19
 70
     1
102
RTVSPropertyOp20
 70
     1
102
RTVSPropertyOp21
 70
     1
102
RTVSPropertyOp22
 70
     1
102
RTVSPropertyOp23
 70
     1
102
RTVSPropertyOp24
 70
     1
102
RTVSPropertyOp25
 70
     1
102
RTVSPropertyOp26
 70
     1
102
RTVSPropertyOp27
 70
     1
102
RTVSPropertyOp28
 70
     1
102
RTVSPropertyOp29
 70
     1
102
RTVSPropertyOp30
 70
     1
102
RTVSPropertyOp31
 70
     1
102
RTVSPropertyOp32
 70
     1
  0
XRECORD
  5
2AD
102
{ACAD_REACTORS
330
2AC
102
}
330
2AC
100
AcDbXrecord
280
     1
102
RTVSPropertyOp0
 70
     1
102
RTVSPropertyOp1
 70
     1
102
RTVSPropertyOp2
 70
     1
102
RTVSPropertyOp3
 70
     1
102
RTVSPropertyOp4
 70
     1
102
RTVSPropertyOp5
 70
     1
102
RTVSPropertyOp6
 70
     1
102
RTVSPropertyOp7
 70
     1
102
RTVSPropertyOp8
 70
     1
102
RTVSPropertyOp9
 70
     1
102
RTVSPropertyOp10
 70
     1
102
RTVSPropertyOp11
 70
     1
102
RTVSPropertyOp12
 70
     1
102
RTVSPropertyOp13
 70
     1
102
RTVSPropertyOp14
 70
     1
102
RTVSPropertyOp15
 70
     1
102
RTVSPropertyOp16
 70
     1
102
RTVSPropertyOp17
 70
     1
102
RTVSPropertyOp18
 70
     1
102
RTVSPropertyOp19
 70
     1
102
RTVSPropertyOp20
 70
     1
102
RTVSPropertyOp21
 70
     1
102
RTVSPropertyOp22
 70
     1
102
RTVSPropertyOp23
 70
     1
102
RTVSPropertyOp24
 70
     1
102
RTVSPropertyOp25
 70
     1
102
RTVSPropertyOp26
 70
     1
102
RTVSPropertyOp27
 70
     1
102
RTVSPropertyOp28
 70
     1
102
RTVSPropertyOp29
 70
     1
102
RTVSPropertyOp30
 70
     1
102
RTVSPropertyOp31
 70
     1
102
RTVSPropertyOp32
 70
     1
  0
XRECORD
  5
2AF
102
{ACAD_REACTORS
330
2AE
102
}
330
2AE
100
AcDbXrecord
280
     1
102
RTVSPropertyOp0
 70
     1
102
RTVSPropertyOp1
 70
     1
102
RTVSPropertyOp2
 70
     1
102
RTVSPropertyOp3
 70
     1
102
RTVSPropertyOp4
 70
     1
102
RTVSPropertyOp5
 70
     1
102
RTVSPropertyOp6
 70
     1
102
RTVSPropertyOp7
 70
     1
102
RTVSPropertyOp8
 70
     1
102
RTVSPropertyOp9
 70
     1
102
RTVSPropertyOp10
 70
     1
102
RTVSPropertyOp11
 70
     1
102
RTVSPropertyOp12
 70
     1
102
RTVSPropertyOp13
 70
     1
102
RTVSPropertyOp14
 70
     1
102
RTVSPropertyOp15
 70
     1
102
RTVSPropertyOp16
 70
     1
102
RTVSPropertyOp17
 70
     1
102
RTVSPropertyOp18
 70
     1
102
RTVSPropertyOp19
 70
     1
102
RTVSPropertyOp20
 70
     1
102
RTVSPropertyOp21
 70
     1
102
RTVSPropertyOp22
 70
     1
102
RTVSPropertyOp23
 70
     1
102
RTVSPropertyOp24
 70
     1
102
RTVSPropertyOp25
 70
     1
102
RTVSPropertyOp26
 70
     1
102
RTVSPropertyOp27
 70
     1
102
RTVSPropertyOp28
 70
     1
102
RTVSPropertyOp29
 70
     1
102
RTVSPropertyOp30
 70
     1
102
RTVSPropertyOp31
 70
     1
102
RTVSPropertyOp32
 70
     1
  0
XRECORD
  5
2C3
102
{ACAD_REACTORS
330
2C2
102
}
330
2C2
100
AcDbXrecord
280
     1
102
RTVSPropertyOp0
 70
     1
102
RTVSPropertyOp1
 70
     1
102
RTVSPropertyOp2
 70
     1
102
RTVSPropertyOp3
 70
     1
102
RTVSPropertyOp4
 70
     1
102
RTVSPropertyOp5
 70
     1
102
RTVSPropertyOp6
 70
     1
102
RTVSPropertyOp7
 70
     1
102
RTVSPropertyOp8
 70
     1
102
RTVSPropertyOp9
 70
     1
102
RTVSPropertyOp10
 70
     1
102
RTVSPropertyOp11
 70
     1
102
RTVSPropertyOp12
 70
     1
102
RTVSPropertyOp13
 70
     1
102
RTVSPropertyOp14
 70
     1
102
RTVSPropertyOp15
 70
     1
102
RTVSPropertyOp16
 70
     1
102
RTVSPropertyOp17
 70
     1
102
RTVSPropertyOp18
 70
     1
102
RTVSPropertyOp19
 70
     1
102
RTVSPropertyOp20
 70
     1
102
RTVSPropertyOp21
 70
     1
102
RTVSPropertyOp22
 70
     1
102
RTVSPropertyOp23
 70
     1
102
RTVSPropertyOp24
 70
     1
102
RTVSPropertyOp25
 70
     1
102
RTVSPropertyOp26
 70
     1
102
RTVSPropertyOp27
 70
     1
102
RTVSPropertyOp28
 70
     1
102
RTVSPropertyOp29
 70
     1
102
RTVSPropertyOp30
 70
     1
102
RTVSPropertyOp31
 70
     1
102
RTVSPropertyOp32
 70
     1
  0
XRECORD
  5
2B9
102
{ACAD_REACTORS
330
2B8
102
}
330
2B8
100
AcDbXrecord
280
     1
102
RTVSPropertyOp0
 70
     1
102
RTVSPropertyOp1
 70
     1
102
RTVSPropertyOp2
 70
     1
102
RTVSPropertyOp3
 70
     1
102
RTVSPropertyOp4
 70
     1
102
RTVSPropertyOp5
 70
     1
102
RTVSPropertyOp6
 70
     1
102
RTVSPropertyOp7
 70
     1
102
RTVSPropertyOp8
 70
     1
102
RTVSPropertyOp9
 70
     1
102
RTVSPropertyOp10
 70
     1
102
RTVSPropertyOp11
 70
     1
102
RTVSPropertyOp12
 70
     1
102
RTVSPropertyOp13
 70
     1
102
RTVSPropertyOp14
 70
     1
102
RTVSPropertyOp15
 70
     1
102
RTVSPropertyOp16
 70
     1
102
RTVSPropertyOp17
 70
     1
102
RTVSPropertyOp18
 70
     1
102
RTVSPropertyOp19
 70
     1
102
RTVSPropertyOp20
 70
     1
102
RTVSPropertyOp21
 70
     1
102
RTVSPropertyOp22
 70
     1
102
RTVSPropertyOp23
 70
     1
102
RTVSPropertyOp24
 70
     1
102
RTVSPropertyOp25
 70
     1
102
RTVSPropertyOp26
 70
     1
102
RTVSPropertyOp27
 70
     1
102
RTVSPropertyOp28
 70
     1
102
RTVSPropertyOp29
 70
     1
102
RTVSPropertyOp30
 70
     1
102
RTVSPropertyOp31
 70
     1
102
RTVSPropertyOp32
 70
     1
  0
XRECORD
  5
2C1
102
{ACAD_REACTORS
330
2C0
102
}
330
2C0
100
AcDbXrecord
280
     1
102
RTVSPropertyOp0
 70
     1
102
RTVSPropertyOp1
 70
     1
102
RTVSPropertyOp2
 70
     1
102
RTVSPropertyOp3
 70
     1
102
RTVSPropertyOp4
 70
     1
102
RTVSPropertyOp5
 70
     1
102
RTVSPropertyOp6
 70
     1
102
RTVSPropertyOp7
 70
     1
102
RTVSPropertyOp8
 70
     1
102
RTVSPropertyOp9
 70
     1
102
RTVSPropertyOp10
 70
     1
102
RTVSPropertyOp11
 70
     1
102
RTVSPropertyOp12
 70
     1
102
RTVSPropertyOp13
 70
     1
102
RTVSPropertyOp14
 70
     1
102
RTVSPropertyOp15
 70
     1
102
RTVSPropertyOp16
 70
     1
102
RTVSPropertyOp17
 70
     1
102
RTVSPropertyOp18
 70
     1
102
RTVSPropertyOp19
 70
     1
102
RTVSPropertyOp20
 70
     1
102
RTVSPropertyOp21
 70
     1
102
RTVSPropertyOp22
 70
     1
102
RTVSPropertyOp23
 70
     1
102
RTVSPropertyOp24
 70
     1
102
RTVSPropertyOp25
 70
     1
102
RTVSPropertyOp26
 70
     1
102
RTVSPropertyOp27
 70
     1
102
RTVSPropertyOp28
 70
     1
102
RTVSPropertyOp29
 70
     1
102
RTVSPropertyOp30
 70
     1
102
RTVSPropertyOp31
 70
     1
102
RTVSPropertyOp32
 70
     1
  0
ENDSEC
  0
EOF
