  0
SECTION
  2
HEADER
  9
$ACADVER
  1
AC1015
  9
$ACADMAINTVER
 70
     6
  9
$DWGCODEPAGE
  3
ANSI_932
  9
$INSBASE
 10
0.0
 20
0.0
 30
0.0
  9
$EXTMIN
 10
0.0
 20
0.0
 30
0.0
  9
$EXTMAX
 10
420.0
 20
594.0
 30
0.0
  9
$LIMMIN
 10
0.0
 20
0.0
  9
$LIMMAX
 10
12.0
 20
9.0
  9
$ORTHOMODE
 70
     0
  9
$REGENMODE
 70
     1
  9
$FILLMODE
 70
     1
  9
$QTEXTMODE
 70
     0
  9
$MIRRTEXT
 70
     1
  9
$LTSCALE
 40
1.0
  9
$ATTMODE
 70
     1
  9
$TEXTSIZE
 40
0.2
  9
$TRACEWID
 40
0.05
  9
$TEXTSTYLE
  7
Standard
  9
$CLAYER
  8
0
  9
$CELTYPE
  6
ByLayer
  9
$CECOLOR
 62
   256
  9
$CELTSCALE
 40
1.0
  9
$DISPSILH
 70
     0
  9
$DIMSCALE
 40
1.0
  9
$DIMASZ
 40
0.18
  9
$DIMEXO
 40
0.0625
  9
$DIMDLI
 40
0.38
  9
$DIMRND
 40
0.0
  9
$DIMDLE
 40
0.0
  9
$DIMEXE
 40
0.18
  9
$DIMTP
 40
0.0
  9
$DIMTM
 40
0.0
  9
$DIMTXT
 40
0.18
  9
$DIMCEN
 40
0.09
  9
$DIMTSZ
 40
0.0
  9
$DIMTOL
 70
     0
  9
$DIMLIM
 70
     0
  9
$DIMTIH
 70
     1
  9
$DIMTOH
 70
     1
  9
$DIMSE1
 70
     0
  9
$DIMSE2
 70
     0
  9
$DIMTAD
 70
     0
  9
$DIMZIN
 70
     0
  9
$DIMBLK
  1

  9
$DIMASO
 70
     1
  9
$DIMSHO
 70
     1
  9
$DIMPOST
  1

  9
$DIMAPOST
  1

  9
$DIMALT
 70
     0
  9
$DIMALTD
 70
     2
  9
$DIMALTF
 40
25.4
  9
$DIMLFAC
 40
1.0
  9
$DIMTOFL
 70
     0
  9
$DIMTVP
 40
0.0
  9
$DIMTIX
 70
     0
  9
$DIMSOXD
 70
     0
  9
$DIMSAH
 70
     0
  9
$DIMBLK1
  1

  9
$DIMBLK2
  1

  9
$DIMSTYLE
  2
Standard
  9
$DIMCLRD
 70
     0
  9
$DIMCLRE
 70
     0
  9
$DIMCLRT
 70
     0
  9
$DIMTFAC
 40
1.0
  9
$DIMGAP
 40
0.09
  9
$DIMJUST
 70
     0
  9
$DIMSD1
 70
     0
  9
$DIMSD2
 70
     0
  9
$DIMTOLJ
 70
     1
  9
$DIMTZIN
 70
     0
  9
$DIMALTZ
 70
     0
  9
$DIMALTTZ
 70
     0
  9
$DIMUPT
 70
     0
  9
$DIMDEC
 70
     4
  9
$DIMTDEC
 70
     4
  9
$DIMALTU
 70
     2
  9
$DIMALTTD
 70
     2
  9
$DIMTXSTY
  7
Standard
  9
$DIMAUNIT
 70
     0
  9
$DIMADEC
 70
     0
  9
$DIMALTRND
 40
0.0
  9
$DIMAZIN
 70
     0
  9
$DIMDSEP
 70
    46
  9
$DIMATFIT
 70
     3
  9
$DIMFRAC
 70
     0
  9
$DIMLDRBLK
  1

  9
$DIMLUNIT
 70
     2
  9
$DIMLWD
 70
    -2
  9
$DIMLWE
 70
    -2
  9
$DIMTMOVE
 70
     0
  9
$LUNITS
 70
     2
  9
$LUPREC
 70
     4
  9
$SKETCHINC
 40
0.1
  9
$FILLETRAD
 40
0.5
  9
$AUNITS
 70
     0
  9
$AUPREC
 70
     0
  9
$MENU
  1
.
  9
$ELEVATION
 40
0.0
  9
$PELEVATION
 40
0.0
  9
$THICKNESS
 40
0.0
  9
$LIMCHECK
 70
     0
  9
$CHAMFERA
 40
0.5
  9
$CHAMFERB
 40
0.5
  9
$CHAMFERC
 40
1.0
  9
$CHAMFERD
 40
0.0
  9
$SKPOLY
 70
     0
  9
$TDCREATE
 40
2456673.490329595
  9
$TDUCREATE
 40
2456673.115329595
  9
$TDUPDATE
 40
2456673.490330683
  9
$TDUUPDATE
 40
2456673.115330683
  9
$TDINDWG
 40
0.0000000116
  9
$TDUSRTIMER
 40
0.0000000116
  9
$USRTIMER
 70
     1
  9
$ANGBASE
 50
0.0
  9
$ANGDIR
 70
     0
  9
$PDMODE
 70
     0
  9
$PDSIZE
 40
0.0
  9
$PLINEWID
 40
0.0
  9
$SPLFRAME
 70
     0
  9
$SPLINETYPE
 70
     6
  9
$SPLINESEGS
 70
     8
  9
$HANDSEED
  5
2FB
  9
$SURFTAB1
 70
     6
  9
$SURFTAB2
 70
     6
  9
$SURFTYPE
 70
     6
  9
$SURFU
 70
     6
  9
$SURFV
 70
     6
  9
$UCSBASE
  2

  9
$UCSNAME
  2

  9
$UCSORG
 10
0.0
 20
0.0
 30
0.0
  9
$UCSXDIR
 10
1.0
 20
0.0
 30
0.0
  9
$UCSYDIR
 10
0.0
 20
1.0
 30
0.0
  9
$UCSORTHOREF
  2

  9
$UCSORTHOVIEW
 70
     0
  9
$UCSORGTOP
 10
0.0
 20
0.0
 30
0.0
  9
$UCSORGBOTTOM
 10
0.0
 20
0.0
 30
0.0
  9
$UCSORGLEFT
 10
0.0
 20
0.0
 30
0.0
  9
$UCSORGRIGHT
 10
0.0
 20
0.0
 30
0.0
  9
$UCSORGFRONT
 10
0.0
 20
0.0
 30
0.0
  9
$UCSORGBACK
 10
0.0
 20
0.0
 30
0.0
  9
$PUCSBASE
  2

  9
$PUCSNAME
  2

  9
$PUCSORG
 10
0.0
 20
0.0
 30
0.0
  9
$PUCSXDIR
 10
1.0
 20
0.0
 30
0.0
  9
$PUCSYDIR
 10
0.0
 20
1.0
 30
0.0
  9
$PUCSORTHOREF
  2

  9
$PUCSORTHOVIEW
 70
     0
  9
$PUCSORGTOP
 10
0.0
 20
0.0
 30
0.0
  9
$PUCSORGBOTTOM
 10
0.0
 20
0.0
 30
0.0
  9
$PUCSORGLEFT
 10
0.0
 20
0.0
 30
0.0
  9
$PUCSORGRIGHT
 10
0.0
 20
0.0
 30
0.0
  9
$PUCSORGFRONT
 10
0.0
 20
0.0
 30
0.0
  9
$PUCSORGBACK
 10
0.0
 20
0.0
 30
0.0
  9
$USERI1
 70
     0
  9
$USERI2
 70
     0
  9
$USERI3
 70
     0
  9
$USERI4
 70
     0
  9
$USERI5
 70
     0
  9
$USERR1
 40
18.1
  9
$USERR2
 40
0.0
  9
$USERR3
 40
0.0
  9
$USERR4
 40
0.0
  9
$USERR5
 40
0.0
  9
$WORLDVIEW
 70
     1
  9
$SHADEDGE
 70
     3
  9
$SHADEDIF
 70
    70
  9
$TILEMODE
 70
     1
  9
$MAXACTVP
 70
    64
  9
$PINSBASE
 10
0.0
 20
0.0
 30
0.0
  9
$PLIMCHECK
 70
     0
  9
$PEXTMIN
 10
1.00000000000000E+20
 20
1.00000000000000E+20
 30
1.00000000000000E+20
  9
$PEXTMAX
 10
-1.00000000000000E+20
 20
-1.00000000000000E+20
 30
-1.00000000000000E+20
  9
$PLIMMIN
 10
0.0
 20
0.0
  9
$PLIMMAX
 10
12.0
 20
9.0
  9
$UNITMODE
 70
     0
  9
$VISRETAIN
 70
     1
  9
$PLINEGEN
 70
     0
  9
$PSLTSCALE
 70
     1
  9
$TREEDEPTH
 70
  3020
  9
$CMLSTYLE
  2
Standard
  9
$CMLJUST
 70
     0
  9
$CMLSCALE
 40
1.0
  9
$PROXYGRAPHICS
 70
     1
  9
$MEASUREMENT
 70
     1
  9
$CELWEIGHT
370
    -1
  9
$ENDCAPS
280
     0
  9
$JOINSTYLE
280
     0
  9
$LWDISPLAY
290
     0
  9
$INSUNITS
 70
     4
  9
$HYPERLINKBASE
  1

  9
$STYLESHEET
  1

  9
$XEDIT
290
     1
  9
$CEPSNTYPE
380
     0
  9
$PSTYLEMODE
290
     1
  9
$FINGERPRINTGUID
  2
{DBD993A3-969F-4B3E-9D03-0EE1199BBB5D}
  9
$VERSIONGUID
  2
{FAEB1C32-E019-11D5-929B-00C0DF256EC4}
  9
$EXTNAMES
290
     1
  9
$PSVPSCALE
 40
0.0
  9
$OLESTARTUP
290
     0
  0
ENDSEC
  0
SECTION
  2
CLASSES
  0
CLASS
  1
ACDBDICTIONARYWDFLT
  2
AcDbDictionaryWithDefault
  3
ObjectDBX Classes
 90
        0
280
     0
281
     0
  0
CLASS
  1
VISUALSTYLE
  2
AcDbVisualStyle
  3
ObjectDBX Classes
 90
     4095
280
     0
281
     0
  0
CLASS
  1
MATERIAL
  2
AcDbMaterial
  3
ObjectDBX Classes
 90
     1153
280
     0
281
     0
  0
CLASS
  1
DICTIONARYVAR
  2
AcDbDictionaryVar
  3
ObjectDBX Classes
 90
        0
280
     0
281
     0
  0
CLASS
  1
ACDBPLACEHOLDER
  2
AcDbPlaceHolder
  3
ObjectDBX Classes
 90
        0
280
     0
281
     0
  0
CLASS
  1
LAYOUT
  2
AcDbLayout
  3
ObjectDBX Classes
 90
        0
280
     0
281
     0
  0
ENDSEC
  0
SECTION
  2
TABLES
  0
TABLE
  2
VPORT
  5
8
330
0
100
AcDbSymbolTable
 70
     1
  0
VPORT
  5
29
330
8
100
AcDbSymbolTableRecord
100
AcDbViewportTableRecord
  2
*Active
 70
     0
 10
0.0
 20
0.0
 11
1.0
 21
1.0
 12
210.0
 22
297.0
 13
0.0
 23
0.0
 14
0.5
 24
0.5
 15
0.5
 25
0.5
 16
0.0
 26
0.0
 36
1.0
 17
0.0
 27
0.0
 37
0.0
 40
653.4000000000001
 41
1.60267857142857
 42
50.0
 43
0.0
 44
0.0
 50
0.0
 51
0.0
 71
     0
 72
   100
 73
     1
 74
     3
 75
     0
 76
     0
 77
     0
 78
     0
281
     0
 65
     1
110
0.0
120
0.0
130
0.0
111
1.0
121
0.0
131
0.0
112
0.0
122
1.0
132
0.0
 79
     0
146
0.0
  0
ENDTAB
  0
TABLE
  2
LTYPE
  5
5
330
0
100
AcDbSymbolTable
 70
     8
  0
LTYPE
  5
14
330
5
100
AcDbSymbolTableRecord
100
AcDbLinetypeTableRecord
  2
ByBlock
 70
     0
  3

 72
    65
 73
     0
 40
0.0
  0
LTYPE
  5
15
330
5
100
AcDbSymbolTableRecord
100
AcDbLinetypeTableRecord
  2
ByLayer
 70
     0
  3

 72
    65
 73
     0
 40
0.0
  0
LTYPE
  5
16
330
5
100
AcDbSymbolTableRecord
100
AcDbLinetypeTableRecord
  2
Continuous
 70
     0
  3
Solid line
 72
    65
 73
     0
 40
0.0
  0
LTYPE
  5
3F
330
5
100
AcDbSymbolTableRecord
100
AcDbLinetypeTableRecord
  2
DASHED
 70
     0
  3
Dashed
 72
    65
 73
     2
 40
15.0
 49
7.0
 74
     0
 49
-8.0
 74
     0
  0
LTYPE
  5
40
330
5
100
AcDbSymbolTableRecord
100
AcDbLinetypeTableRecord
  2
DOTTED
 70
     0
  3
Dotted
 72
    65
 73
     2
 40
1.0
 49
0.0
 74
     0
 49
-1.0
 74
     0
  0
LTYPE
  5
41
330
5
100
AcDbSymbolTableRecord
100
AcDbLinetypeTableRecord
  2
DOT_CENTER
 70
     0
  3
Dot_Center
 72
    65
 73
     4
 40
14.0
 49
12.0
 74
     0
 49
-1.0
 74
     0
 49
0.0
 74
     0
 49
-1.0
 74
     0
  0
LTYPE
  5
42
330
5
100
AcDbSymbolTableRecord
100
AcDbLinetypeTableRecord
  2
LONG_DASHED
 70
     0
  3
Long_Dashed
 72
    65
 73
     2
 40
15.0
 49
10.0
 74
     0
 49
-5.0
 74
     0
  0
LTYPE
  5
43
330
5
100
AcDbSymbolTableRecord
100
AcDbLinetypeTableRecord
  2
DASH_CENTER
 70
     0
  3
Dash_Center
 72
    65
 73
     4
 40
14.0
 49
11.0
 74
     0
 49
-1.0
 74
     0
 49
1.0
 74
     0
 49
-1.0
 74
     0
  0
LTYPE
  5
44
330
5
100
AcDbSymbolTableRecord
100
AcDbLinetypeTableRecord
  2
PHANTOM
 70
     0
  3
Phantom
 72
    65
 73
     6
 40
13.0
 49
10.0
 74
     0
 49
-1.0
 74
     0
 49
0.0
 74
     0
 49
-1.0
 74
     0
 49
0.0
 74
     0
 49
-1.0
 74
     0
  0
LTYPE
  5
45
330
5
100
AcDbSymbolTableRecord
100
AcDbLinetypeTableRecord
  2
CENTER_DASH_DASH
 70
     0
  3
Center_Dash_Dash
 72
    65
 73
     6
 40
14.0
 49
9.0
 74
     0
 49
-1.0
 74
     0
 49
1.0
 74
     0
 49
-1.0
 74
     0
 49
1.0
 74
     0
 49
-1.0
 74
     0
  0
ENDTAB
  0
TABLE
  2
LAYER
  5
2
330
0
100
AcDbSymbolTable
 70
     6
  0
LAYER
  5
10
330
2
100
AcDbSymbolTableRecord
100
AcDbLayerTableRecord
  2
0
 70
     0
 62
     7
  6
Continuous
370
    -3
390
F
  0
LAYER
  5
46
330
2
100
AcDbSymbolTableRecord
100
AcDbLayerTableRecord
  2
1
 70
     0
 62
     7
  6
Continuous
370
    -3
390
F
  0
LAYER
  5
47
330
2
100
AcDbSymbolTableRecord
100
AcDbLayerTableRecord
  2
2
 70
     0
 62
     7
  6
Continuous
370
    -3
390
F
  0
LAYER
  5
48
330
2
100
AcDbSymbolTableRecord
100
AcDbLayerTableRecord
  2
24
 70
     0
 62
     7
  6
Continuous
370
    -3
390
F
  0
LAYER
  5
49
330
2
100
AcDbSymbolTableRecord
100
AcDbLayerTableRecord
  2
___
 70
     0
 62
     7
  6
Continuous
370
    -3
390
F
  0
LAYER
  5
4A
330
2
100
AcDbSymbolTableRecord
100
AcDbLayerTableRecord
  2
______-2
 70
     0
 62
     7
  6
Continuous
370
    -3
390
F
  0
ENDTAB
  0
TABLE
  2
STYLE
  5
3
330
0
100
AcDbSymbolTable
 70
     3
  0
STYLE
  5
11
330
3
100
AcDbSymbolTableRecord
100
AcDbTextStyleTableRecord
  2
Standard
 70
     0
 40
0.0
 41
1.0
 50
0.0
 71
     0
 42
0.2
  3
txt
  4

  0
STYLE
  5
D2
330
3
100
AcDbSymbolTableRecord
100
AcDbTextStyleTableRecord
  2
CONVERTER_11
 70
     0
 40
0.0
 41
0.89
 50
0.0
 71
     0
 42
0.2
  3
MS Mincho.ttf
  4

1001
ACAD
1000
MS Mincho
1071
    32785
  0
STYLE
  5
260
330
3
100
AcDbSymbolTableRecord
100
AcDbTextStyleTableRecord
  2
CONVERTER_12
 70
     0
 40
0.0
 41
0.9
 50
0.0
 71
     0
 42
0.2
  3
txt.shx
  4

  0
ENDTAB
  0
TABLE
  2
VIEW
  5
6
330
0
100
AcDbSymbolTable
 70
     0
  0
ENDTAB
  0
TABLE
  2
UCS
  5
7
330
0
100
AcDbSymbolTable
 70
     0
  0
ENDTAB
  0
TABLE
  2
APPID
  5
9
330
0
100
AcDbSymbolTable
 70
     1
  0
APPID
  5
12
330
9
100
AcDbSymbolTableRecord
100
AcDbRegAppTableRecord
  2
ACAD
 70
     0
  0
ENDTAB
  0
TABLE
  2
DIMSTYLE
  5
A
330
0
100
AcDbSymbolTable
 70
    10
100
AcDbDimStyleTable
  0
DIMSTYLE
105
27
330
A
100
AcDbSymbolTableRecord
100
AcDbDimStyleTableRecord
  2
Standard
 70
     0
178
     0
340
11
  0
DIMSTYLE
105
273
102
{ACAD_REACTORS
330
274
102
}
330
A
100
AcDbSymbolTableRecord
100
AcDbDimStyleTableRecord
  2
ME10_DIM_10
 70
     0
 41
7.0
 42
0.0
 44
2.0
 73
     0
 74
     0
 77
     1
 78
     8
140
7.0
147
2.0
172
     1
173
     1
174
     1
175
     1
176
     2
177
     2
271
     2
178
     7
271
     2
340
260
344
270
  0
DIMSTYLE
105
27E
102
{ACAD_REACTORS
330
27F
102
}
330
A
100
AcDbSymbolTableRecord
100
AcDbDimStyleTableRecord
  2
ME10_DIM_11
 70
     0
 41
7.0
 42
0.0
 44
2.0
 73
     0
 74
     0
 77
     1
 78
     8
140
7.0
147
2.0
172
     1
173
     1
174
     1
175
     1
176
     2
177
     2
271
     2
178
     7
271
     2
340
260
  0
DIMSTYLE
105
289
102
{ACAD_REACTORS
330
28A
102
}
330
A
100
AcDbSymbolTableRecord
100
AcDbDimStyleTableRecord
  2
ME10_DIM_12
 70
     0
 41
7.0
 42
0.0
 44
2.0
 73
     0
 74
     0
 77
     1
 78
     8
140
7.0
147
2.0
172
     1
173
     1
174
     1
175
     1
176
     2
177
     2
271
     2
178
     7
271
     2
340
260
  0
DIMSTYLE
105
294
102
{ACAD_REACTORS
330
295
102
}
330
A
100
AcDbSymbolTableRecord
100
AcDbDimStyleTableRecord
  2
ME10_DIM_13
 70
     0
 41
7.0
 42
0.0
 44
2.0
 73
     0
 74
     0
 77
     1
 78
     8
140
7.0
147
2.0
172
     1
173
     1
174
     1
175
     1
176
     2
177
     2
271
     2
178
     7
271
     2
340
260
  0
DIMSTYLE
105
29F
102
{ACAD_REACTORS
330
2A0
102
}
330
A
100
AcDbSymbolTableRecord
100
AcDbDimStyleTableRecord
  2
ME10_DIM_14
 70
     0
 41
7.0
 42
0.0
 44
2.0
 73
     0
 74
     0
 77
     1
 78
     8
140
7.0
147
2.0
172
     1
173
     1
174
     1
175
     1
176
     2
177
     2
271
     2
178
     7
271
     2
340
260
  0
DIMSTYLE
105
2AB
102
{ACAD_REACTORS
330
2AC
102
}
330
A
100
AcDbSymbolTableRecord
100
AcDbDimStyleTableRecord
  2
ME10_DIM_15
 70
     0
 41
7.0
 42
0.0
 44
2.0
 73
     0
 74
     0
 77
     1
 78
     8
140
7.0
147
2.0
172
     1
173
     1
174
     1
175
     1
176
     2
177
     2
271
     2
178
     7
271
     2
340
260
  0
DIMSTYLE
105
2B6
102
{ACAD_REACTORS
330
2B7
102
}
330
A
100
AcDbSymbolTableRecord
100
AcDbDimStyleTableRecord
  2
ME10_DIM_16
 70
     0
 41
7.0
 42
0.0
 44
2.0
 73
     0
 74
     0
 77
     1
 78
     8
140
7.0
147
2.0
172
     1
173
     1
174
     1
175
     1
176
     2
177
     2
271
     2
178
     7
271
     2
340
260
  0
DIMSTYLE
105
2C3
102
{ACAD_REACTORS
330
2C4
102
}
330
A
100
AcDbSymbolTableRecord
100
AcDbDimStyleTableRecord
  2
ME10_DIM_17
 70
     0
 41
7.0
 42
0.0
 44
2.0
 73
     0
 74
     0
 77
     1
 78
     8
140
7.0
147
2.0
172
     1
173
     1
174
     1
175
     1
176
     2
177
     2
271
     2
178
     7
271
     2
340
260
  0
DIMSTYLE
105
2CE
102
{ACAD_REACTORS
330
2CF
102
}
330
A
100
AcDbSymbolTableRecord
100
AcDbDimStyleTableRecord
  2
ME10_DIM_18
 70
     0
 41
7.0
 42
0.0
 44
2.0
 77
     1
 78
     8
140
7.0
147
2.0
172
     1
173
     1
174
     1
175
     1
176
     2
177
     2
271
     2
178
     7
271
     2
340
260
  0
ENDTAB
  0
TABLE
  2
BLOCK_RECORD
  5
1
330
0
100
AcDbSymbolTable
 70
    26
  0
BLOCK_RECORD
  5
1F
330
1
100
AcDbSymbolTableRecord
100
AcDbBlockTableRecord
  2
*Model_Space
340
22
  0
BLOCK_RECORD
  5
1B
330
1
100
AcDbSymbolTableRecord
100
AcDbBlockTableRecord
  2
*Paper_Space
340
1E
  0
BLOCK_RECORD
  5
23
330
1
100
AcDbSymbolTableRecord
100
AcDbBlockTableRecord
  2
*Paper_Space0
340
26
  0
BLOCK_RECORD
  5
4B
330
1
100
AcDbSymbolTableRecord
100
AcDbBlockTableRecord
  2
開示A4
340
0
102
{BLKREFS
331
7D
102
}
  0
BLOCK_RECORD
  5
4E
330
1
100
AcDbSymbolTableRecord
100
AcDbBlockTableRecord
  2
37-292
340
0
102
{BLKREFS
331
52
102
}
  0
BLOCK_RECORD
  5
51
330
1
100
AcDbSymbolTableRecord
100
AcDbBlockTableRecord
  2
U1-76X-Y
340
0
102
{BLKREFS
331
7E
102
}
  0
BLOCK_RECORD
  5
55
330
1
100
AcDbSymbolTableRecord
100
AcDbBlockTableRecord
  2
30-201
340
0
102
{BLKREFS
331
59
102
}
  0
BLOCK_RECORD
  5
58
330
1
100
AcDbSymbolTableRecord
100
AcDbBlockTableRecord
  2
30-201X
340
0
102
{BLKREFS
331
7F
102
}
  0
BLOCK_RECORD
  5
5C
330
1
100
AcDbSymbolTableRecord
100
AcDbBlockTableRecord
  2
30-205
340
0
102
{BLKREFS
331
60
102
}
  0
BLOCK_RECORD
  5
5F
330
1
100
AcDbSymbolTableRecord
100
AcDbBlockTableRecord
  2
87-64set
340
0
102
{BLKREFS
331
80
102
}
  0
BLOCK_RECORD
  5
63
330
1
100
AcDbSymbolTableRecord
100
AcDbBlockTableRecord
  2
Y1966-0
340
0
102
{BLKREFS
331
81
102
}
  0
BLOCK_RECORD
  5
66
330
1
100
AcDbSymbolTableRecord
100
AcDbBlockTableRecord
  2
36-76-M1-115_
340
0
102
{BLKREFS
331
82
102
}
  0
BLOCK_RECORD
  5
69
330
1
100
AcDbSymbolTableRecord
100
AcDbBlockTableRecord
  2
31-76-M1-115
340
0
102
{BLKREFS
331
83
102
}
  0
BLOCK_RECORD
  5
6C
330
1
100
AcDbSymbolTableRecord
100
AcDbBlockTableRecord
  2
30-201K
340
0
102
{BLKREFS
331
73
102
}
  0
BLOCK_RECORD
  5
6F
330
1
100
AcDbSymbolTableRecord
100
AcDbBlockTableRecord
  2
36-175K
340
0
102
{BLKREFS
331
74
102
}
  0
BLOCK_RECORD
  5
72
330
1
100
AcDbSymbolTableRecord
100
AcDbBlockTableRecord
  2
30-201X_
340
0
102
{BLKREFS
331
84
102
}
  0
BLOCK_RECORD
  5
77
330
1
100
AcDbSymbolTableRecord
100
AcDbBlockTableRecord
  2
30-205_
340
0
102
{BLKREFS
331
85
102
}
  0
BLOCK_RECORD
  5
7A
330
1
100
AcDbSymbolTableRecord
100
AcDbBlockTableRecord
  2
Y1966-0_
340
0
102
{BLKREFS
331
86
102
}
  0
BLOCK_RECORD
  5
267
330
1
100
AcDbSymbolTableRecord
100
AcDbBlockTableRecord
  2
*D16
340
0
  0
BLOCK_RECORD
  5
270
330
1
100
AcDbSymbolTableRecord
100
AcDbBlockTableRecord
  2
_NONE
340
0
  0
BLOCK_RECORD
  5
275
330
1
100
AcDbSymbolTableRecord
100
AcDbBlockTableRecord
  2
*D18
340
0
  0
BLOCK_RECORD
  5
280
330
1
100
AcDbSymbolTableRecord
100
AcDbBlockTableRecord
  2
*D19
340
0
  0
BLOCK_RECORD
  5
28B
330
1
100
AcDbSymbolTableRecord
100
AcDbBlockTableRecord
  2
*D20
340
0
  0
BLOCK_RECORD
  5
296
330
1
100
AcDbSymbolTableRecord
100
AcDbBlockTableRecord
  2
*D21
340
0
  0
BLOCK_RECORD
  5
2A1
330
1
100
AcDbSymbolTableRecord
100
AcDbBlockTableRecord
  2
*D22
340
0
  0
BLOCK_RECORD
  5
2AD
330
1
100
AcDbSymbolTableRecord
100
AcDbBlockTableRecord
  2
*D23
340
0
  0
BLOCK_RECORD
  5
2B8
330
1
100
AcDbSymbolTableRecord
100
AcDbBlockTableRecord
  2
*D24
340
0
  0
BLOCK_RECORD
  5
2C5
330
1
100
AcDbSymbolTableRecord
100
AcDbBlockTableRecord
  2
*D25
340
0
  0
ENDTAB
  0
ENDSEC
  0
SECTION
  2
BLOCKS
  0
BLOCK
  5
20
330
1F
100
AcDbEntity
  8
0
100
AcDbBlockBegin
  2
*Model_Space
 70
     0
 10
0.0
 20
0.0
 30
0.0
  3
*Model_Space
  1

  0
ENDBLK
  5
21
330
1F
100
AcDbEntity
  8
0
100
AcDbBlockEnd
  0
BLOCK
  5
1C
330
1B
100
AcDbEntity
 67
     1
  8
0
100
AcDbBlockBegin
  2
*Paper_Space
 70
     0
 10
0.0
 20
0.0
 30
0.0
  3
*Paper_Space
  1

  0
ENDBLK
  5
1D
330
1B
100
AcDbEntity
 67
     1
  8
0
100
AcDbBlockEnd
  0
BLOCK
  5
24
330
23
100
AcDbEntity
  8
0
100
AcDbBlockBegin
  2
*Paper_Space0
 70
     0
 10
0.0
 20
0.0
 30
0.0
  3
*Paper_Space0
  1

  0
ENDBLK
  5
25
330
23
100
AcDbEntity
  8
0
100
AcDbBlockEnd
  0
BLOCK
  5
4C
330
4B
100
AcDbEntity
  8
0
100
AcDbBlockBegin
  2
開示A4
 70
     0
 10
0.0
 20
0.0
 30
0.0
  3
開示A4
  1

  0
POINT
  5
87
330
4B
100
AcDbEntity
  8
1
 62
     4
100
AcDbPoint
 10
34.0
 20
34.00000000000001
 30
0.0
  0
POINT
  5
88
330
4B
100
AcDbEntity
  8
1
 62
     4
100
AcDbPoint
 10
57.0
 20
12.25
 30
0.0
  0
POINT
  5
89
330
4B
100
AcDbEntity
  8
1
 62
     4
100
AcDbPoint
 10
57.0
 20
20.75000000000001
 30
0.0
  0
POINT
  5
8A
330
4B
100
AcDbEntity
  8
1
 62
     4
100
AcDbPoint
 10
57.0
 20
24.75000000000001
 30
0.0
  0
POINT
  5
8B
330
4B
100
AcDbEntity
  8
1
 62
     4
100
AcDbPoint
 10
57.0
 20
16.25
 30
0.0
  0
POINT
  5
8C
330
4B
100
AcDbEntity
  8
1
 62
     4
100
AcDbPoint
 10
157.5
 20
19.00000000000001
 30
0.0
  0
POINT
  5
8D
330
4B
100
AcDbEntity
  8
1
 62
     4
100
AcDbPoint
 10
47.5
 20
282.0000000000003
 30
0.0
  0
POINT
  5
8E
330
4B
100
AcDbEntity
  8
1
 62
     4
100
AcDbPoint
 10
57.0
 20
22.75000000000001
 30
0.0
  0
POINT
  5
8F
330
4B
100
AcDbEntity
  8
1
 62
     4
100
AcDbPoint
 10
57.0
 20
14.25
 30
0.0
  0
POINT
  5
90
330
4B
100
AcDbEntity
  8
1
 62
     4
100
AcDbPoint
 10
157.5
 20
12.5
 30
0.0
  0
POINT
  5
91
330
4B
100
AcDbEntity
  8
1
 62
     4
100
AcDbPoint
 10
163.25
 20
12.5
 30
0.0
  0
POINT
  5
92
330
4B
100
AcDbEntity
  8
1
 62
     4
100
AcDbPoint
 10
151.75
 20
12.5
 30
0.0
  0
POINT
  5
93
330
4B
100
AcDbEntity
  8
1
 62
     4
100
AcDbPoint
 10
134.75
 20
12.5
 30
0.0
  0
POINT
  5
94
330
4B
100
AcDbEntity
  8
1
 62
     4
100
AcDbPoint
 10
146.25
 20
12.5
 30
0.0
  0
POINT
  5
95
330
4B
100
AcDbEntity
  8
1
 62
     4
100
AcDbPoint
 10
140.5
 20
12.5
 30
0.0
  0
POINT
  5
96
330
4B
100
AcDbEntity
  8
1
 62
     4
100
AcDbPoint
 10
140.5
 20
19.00000000000001
 30
0.0
  0
POINT
  5
97
330
4B
100
AcDbEntity
  8
1
 62
     4
100
AcDbPoint
 10
117.75
 20
12.5
 30
0.0
  0
POINT
  5
98
330
4B
100
AcDbEntity
  8
1
 62
     4
100
AcDbPoint
 10
129.25
 20
12.5
 30
0.0
  0
POINT
  5
99
330
4B
100
AcDbEntity
  8
1
 62
     4
100
AcDbPoint
 10
123.5
 20
12.5
 30
0.0
  0
POINT
  5
9A
330
4B
100
AcDbEntity
  8
1
 62
     4
100
AcDbPoint
 10
123.5
 20
19.00000000000001
 30
0.0
  0
POINT
  5
9B
330
4B
100
AcDbEntity
  8
1
 62
     4
100
AcDbPoint
 10
100.75
 20
12.5
 30
0.0
  0
POINT
  5
9C
330
4B
100
AcDbEntity
  8
1
 62
     4
100
AcDbPoint
 10
112.25
 20
12.5
 30
0.0
  0
POINT
  5
9D
330
4B
100
AcDbEntity
  8
1
 62
     4
100
AcDbPoint
 10
106.5
 20
12.5
 30
0.0
  0
POINT
  5
9E
330
4B
100
AcDbEntity
  8
1
 62
     4
100
AcDbPoint
 10
106.5
 20
19.00000000000001
 30
0.0
  0
POINT
  5
9F
330
4B
100
AcDbEntity
  8
1
 62
     4
100
AcDbPoint
 10
85.25
 20
17.0
 30
0.0
  0
POINT
  5
A0
330
4B
100
AcDbEntity
  8
1
 62
     4
100
AcDbPoint
 10
93.75
 20
17.0
 30
0.0
  0
LINE
  5
A1
330
4B
100
AcDbEntity
  8
1
  6
Continuous
 62
     2
100
AcDbLine
 10
81.0
 20
27.00000000000001
 30
0.0
 11
81.0
 21
10.0
 31
0.0
  0
LINE
  5
A2
330
4B
100
AcDbEntity
  8
1
  6
DOT_CENTER
 62
     2
100
AcDbLine
 10
187.0
 20
26.50000000000001
 30
0.0
 11
187.0
 21
20.50000000000001
 31
0.0
  0
LINE
  5
A3
330
4B
100
AcDbEntity
  8
1
  6
DOT_CENTER
 62
     2
100
AcDbLine
 10
184.0
 20
23.50000000000001
 30
0.0
 11
197.0
 21
23.50000000000001
 31
0.0
  0
LINE
  5
A4
330
4B
100
AcDbEntity
  8
1
  6
Continuous
 62
     7
100
AcDbLine
 10
196.0
 20
21.50000000000001
 30
0.0
 11
191.0
 21
22.30000000000001
 31
0.0
  0
LINE
  5
A5
330
4B
100
AcDbEntity
  8
1
  6
Continuous
 62
     7
100
AcDbLine
 10
196.0
 20
25.50000000000001
 30
0.0
 11
196.0
 21
21.50000000000001
 31
0.0
  0
LINE
  5
A6
330
4B
100
AcDbEntity
  8
1
  6
Continuous
 62
     7
100
AcDbLine
 10
191.0
 20
24.70000000000001
 30
0.0
 11
196.0
 21
25.50000000000001
 31
0.0
  0
LINE
  5
A7
330
4B
100
AcDbEntity
  8
1
  6
Continuous
 62
     7
100
AcDbLine
 10
191.0
 20
24.70000000000001
 30
0.0
 11
191.0
 21
22.30000000000001
 31
0.0
  0
LINE
  5
A8
330
4B
100
AcDbEntity
  8
1
  6
Continuous
 62
     2
100
AcDbLine
 10
33.0
 20
27.0
 30
0.0
 11
33.0
 21
10.0
 31
0.0
  0
LINE
  5
A9
330
4B
100
AcDbEntity
  8
1
  6
Continuous
 62
     2
100
AcDbLine
 10
25.0
 20
18.50000000000001
 30
0.0
 11
81.0
 21
18.50000000000001
 31
0.0
  0
LINE
  5
AA
330
4B
100
AcDbEntity
  8
1
  6
Continuous
 62
     7
100
AcDbLine
 10
200.0
 20
287.0000000000003
 30
0.0
 11
105.0
 21
287.0000000000003
 31
0.0
  0
LINE
  5
AB
330
4B
100
AcDbEntity
  8
1
  6
Continuous
 62
     7
100
AcDbLine
 10
200.0
 20
10.0
 30
0.0
 11
200.0
 21
148.5
 31
0.0
  0
LINE
  5
AC
330
4B
100
AcDbEntity
  8
1
  6
Continuous
 62
     7
100
AcDbLine
 10
25.0
 20
10.0
 30
0.0
 11
105.0
 21
10.0
 31
0.0
  0
LINE
  5
AD
330
4B
100
AcDbEntity
  8
1
  6
PHANTOM
 62
     4
100
AcDbLine
 10
0.0
 20
297.0
 30
0.0
 11
0.0
 21
0.0
 31
0.0
  0
LINE
  5
AE
330
4B
100
AcDbEntity
  8
1
  6
PHANTOM
 62
     4
100
AcDbLine
 10
210.0
 20
297.0
 30
0.0
 11
0.0
 21
297.0
 31
0.0
  0
LINE
  5
AF
330
4B
100
AcDbEntity
  8
1
  6
PHANTOM
 62
     4
100
AcDbLine
 10
210.0
 20
0.0
 30
0.0
 11
210.0
 21
297.0
 31
0.0
  0
LINE
  5
B0
330
4B
100
AcDbEntity
  8
1
  6
PHANTOM
 62
     4
100
AcDbLine
 10
0.0
 20
0.0
 30
0.0
 11
210.0
 21
0.0
 31
0.0
  0
LINE
  5
B1
330
4B
100
AcDbEntity
  8
1
  6
Continuous
 62
     7
100
AcDbLine
 10
25.0
 20
41.0
 30
0.0
 11
200.0
 21
41.0
 31
0.0
  0
LINE
  5
B2
330
4B
100
AcDbEntity
  8
1
  6
Continuous
 62
     7
100
AcDbLine
 10
200.0
 20
27.00000000000001
 30
0.0
 11
25.0
 21
27.00000000000001
 31
0.0
  0
LINE
  5
B3
330
4B
100
AcDbEntity
  8
1
  6
Continuous
 62
     2
100
AcDbLine
 10
33.0
 20
41.00000000000001
 30
0.0
 11
33.0
 21
27.0
 31
0.0
  0
LINE
  5
B4
330
4B
100
AcDbEntity
  8
1
  6
Continuous
 62
     2
100
AcDbLine
 10
55.0
 20
287.0000000000003
 30
0.0
 11
55.0
 21
277.0000000000003
 31
0.0
  0
LINE
  5
B5
330
4B
100
AcDbEntity
  8
1
  6
Continuous
 62
     2
100
AcDbLine
 10
40.0
 20
287.0000000000003
 30
0.0
 11
40.0
 21
277.0000000000003
 31
0.0
  0
LINE
  5
B6
330
4B
100
AcDbEntity
  8
1
  6
Continuous
 62
     7
100
AcDbLine
 10
25.0
 20
10.0
 30
0.0
 11
25.0
 21
148.5
 31
0.0
  0
LINE
  5
B7
330
4B
100
AcDbEntity
  8
1
  6
Continuous
 62
     2
100
AcDbLine
 10
55.0
 20
277.0000000000003
 30
0.0
 11
25.0
 21
277.0000000000003
 31
0.0
  0
LINE
  5
B8
330
4B
100
AcDbEntity
  8
1
  6
Continuous
 62
     2
100
AcDbLine
 10
166.0
 20
27.00000000000001
 30
0.0
 11
166.0
 21
10.0
 31
0.0
  0
LINE
  5
B9
330
4B
100
AcDbEntity
  8
1
  6
Continuous
 62
     2
100
AcDbLine
 10
132.0
 20
27.00000000000001
 30
0.0
 11
132.0
 21
9.99999999999999
 31
0.0
  0
LINE
  5
BA
330
4B
100
AcDbEntity
  8
1
  6
Continuous
 62
     2
100
AcDbLine
 10
149.0
 20
27.00000000000001
 30
0.0
 11
149.0
 21
10.0
 31
0.0
  0
LINE
  5
BB
330
4B
100
AcDbEntity
  8
1
  6
Continuous
 62
     2
100
AcDbLine
 10
115.0
 20
27.00000000000001
 30
0.0
 11
115.0
 21
9.99999999999999
 31
0.0
  0
LINE
  5
BC
330
4B
100
AcDbEntity
  8
1
  6
Continuous
 62
     2
100
AcDbLine
 10
98.0
 20
27.00000000000001
 30
0.0
 11
98.0
 21
9.99999999999999
 31
0.0
  0
LINE
  5
BD
330
4B
100
AcDbEntity
  8
1
  6
Continuous
 62
     2
100
AcDbLine
 10
166.0
 20
20.00000000000001
 30
0.0
 11
200.0
 21
20.00000000000001
 31
0.0
  0
LINE
  5
BE
330
4B
100
AcDbEntity
  8
1
  6
Continuous
 62
     2
100
AcDbLine
 10
105.0
 20
287.0000000000003
 30
0.0
 11
105.0
 21
292.0000000000003
 31
0.0
  0
LINE
  5
BF
330
4B
100
AcDbEntity
  8
1
  6
Continuous
 62
     7
100
AcDbLine
 10
105.0
 20
287.0000000000003
 30
0.0
 11
25.0
 21
287.0000000000003
 31
0.0
  0
LINE
  5
C0
330
4B
100
AcDbEntity
  8
1
  6
Continuous
 62
     2
100
AcDbLine
 10
25.0
 20
148.5
 30
0.0
 11
20.0
 21
148.5
 31
0.0
  0
LINE
  5
C1
330
4B
100
AcDbEntity
  8
1
  6
Continuous
 62
     7
100
AcDbLine
 10
25.0
 20
148.5
 30
0.0
 11
25.0
 21
287.0000000000003
 31
0.0
  0
LINE
  5
C2
330
4B
100
AcDbEntity
  8
1
  6
Continuous
 62
     2
100
AcDbLine
 10
200.0
 20
148.5
 30
0.0
 11
205.0
 21
148.5
 31
0.0
  0
LINE
  5
C3
330
4B
100
AcDbEntity
  8
1
  6
Continuous
 62
     7
100
AcDbLine
 10
200.0
 20
148.5
 30
0.0
 11
200.0
 21
287.0000000000003
 31
0.0
  0
LINE
  5
C4
330
4B
100
AcDbEntity
  8
1
  6
Continuous
 62
     2
100
AcDbLine
 10
105.0
 20
10.0
 30
0.0
 11
105.0
 21
5.0
 31
0.0
  0
LINE
  5
C5
330
4B
100
AcDbEntity
  8
1
  6
Continuous
 62
     7
100
AcDbLine
 10
105.0
 20
10.0
 30
0.0
 11
200.0
 21
10.0
 31
0.0
  0
CIRCLE
  5
C6
330
4B
100
AcDbEntity
  8
1
  6
DOT_CENTER
 62
     7
100
AcDbCircle
 10
89.5
 20
18.0
 30
0.0
 40
0.1000000000000227
  0
CIRCLE
  5
C7
330
4B
100
AcDbEntity
  8
1
  6
DOT_CENTER
 62
     7
100
AcDbCircle
 10
89.5
 20
16.0
 30
0.0
 40
0.1000000000000227
  0
CIRCLE
  5
C8
330
4B
100
AcDbEntity
  8
1
  6
Continuous
 62
     7
100
AcDbCircle
 10
187.0
 20
23.50000000000001
 30
0.0
 40
2.0
  0
CIRCLE
  5
C9
330
4B
100
AcDbEntity
  8
1
  6
Continuous
 62
     7
100
AcDbCircle
 10
187.0
 20
23.50000000000001
 30
0.0
 40
1.200000000000102
  0
CIRCLE
  5
CA
330
4B
100
AcDbEntity
  8
1
  6
Continuous
 62
     7
100
AcDbCircle
 10
154.5
 20
12.5
 30
0.0
 40
0.3000000000000114
  0
CIRCLE
  5
CB
330
4B
100
AcDbEntity
  8
1
  6
Continuous
 62
     7
100
AcDbCircle
 10
160.5
 20
12.5
 30
0.0
 40
0.3000000000000114
  0
CIRCLE
  5
CC
330
4B
100
AcDbEntity
  8
1
  6
Continuous
 62
     7
100
AcDbCircle
 10
143.5
 20
12.5
 30
0.0
 40
0.3000000000000114
  0
CIRCLE
  5
CD
330
4B
100
AcDbEntity
  8
1
  6
Continuous
 62
     7
100
AcDbCircle
 10
137.5
 20
12.5
 30
0.0
 40
0.3000000000000114
  0
CIRCLE
  5
CE
330
4B
100
AcDbEntity
  8
1
  6
Continuous
 62
     7
100
AcDbCircle
 10
126.5
 20
12.5
 30
0.0
 40
0.2999999999999972
  0
CIRCLE
  5
CF
330
4B
100
AcDbEntity
  8
1
  6
Continuous
 62
     7
100
AcDbCircle
 10
120.5
 20
12.5
 30
0.0
 40
0.2999999999999972
  0
CIRCLE
  5
D0
330
4B
100
AcDbEntity
  8
1
  6
Continuous
 62
     7
100
AcDbCircle
 10
109.5
 20
12.5
 30
0.0
 40
0.2999999999999972
  0
CIRCLE
  5
D1
330
4B
100
AcDbEntity
  8
1
  6
Continuous
 62
     7
100
AcDbCircle
 10
103.5
 20
12.5
 30
0.0
 40
0.2999999999999972
  0
MTEXT
  5
D3
330
4B
100
AcDbEntity
  8
1
 62
   250
100
AcDbMText
 10
25.0
 20
5.0
 30
0.0
 40
3.5
 41
0.0
 71
     4
 72
     1
  1
備考欄の文字列 原点位置=4
  7
CONVERTER_11
 73
     1
 44
0.54545454545455
  0
MTEXT
  5
D4
330
4B
100
AcDbEntity
  8
1
 62
     2
100
AcDbMText
 10
89.5
 20
24.00000000000001
 30
0.0
 40
3.5
 41
0.0
 71
     5
 72
     1
  1
尺度
  7
CONVERTER_11
 73
     1
 44
0.54545454545455
  0
MTEXT
  5
D5
330
4B
100
AcDbEntity
  8
1
 62
     2
100
AcDbMText
 10
135.5
 20
25.00000000000001
 30
0.0
 40
3.0
 41
0.0
 71
     5
 72
     1
  1
製図
  7
CONVERTER_11
 73
     1
 44
0.59090909090909
  0
MTEXT
  5
D6
330
4B
100
AcDbEntity
  8
1
 62
     2
100
AcDbMText
 10
152.5
 20
25.00000000000001
 30
0.0
 40
3.0
 41
0.0
 71
     5
 72
     1
  1
設計
  7
CONVERTER_11
 73
     1
 44
0.59090909090909
  0
MTEXT
  5
D7
330
4B
100
AcDbEntity
  8
1
 62
     2
100
AcDbMText
 10
118.5
 20
25.00000000000001
 30
0.0
 40
3.0
 41
0.0
 71
     5
 72
     1
  1
検図
  7
CONVERTER_11
 73
     1
 44
0.59090909090909
  0
MTEXT
  5
D8
330
4B
100
AcDbEntity
  8
1
 62
     2
100
AcDbMText
 10
175.0
 20
23.50000000000001
 30
0.0
 40
3.5
 41
0.0
 71
     5
 72
     1
  1
第三角法
  7
CONVERTER_11
 73
     1
 44
0.54545454545455
  0
MTEXT
  5
D9
330
4B
100
AcDbEntity
  8
1
 62
     2
100
AcDbMText
 10
101.5
 20
25.00000000000001
 30
0.0
 40
3.0
 41
0.0
 71
     5
 72
     1
  1
承認
  7
CONVERTER_11
 73
     1
 44
0.59090909090909
  0
MTEXT
  5
DA
330
4B
100
AcDbEntity
  8
1
 62
     2
100
AcDbMText
 10
29.0
 20
14.25
 30
0.0
 40
3.5
 41
0.0
 71
     5
 72
     1
  1
品番
  7
CONVERTER_11
 73
     1
 44
0.72727272727273
  0
MTEXT
  5
DB
330
4B
100
AcDbEntity
  8
1
 62
     2
100
AcDbMText
 10
29.0
 20
22.75
 30
0.0
 40
3.5
 41
0.0
 71
     5
 72
     1
  1
品名
  7
CONVERTER_11
 73
     1
 44
0.72727272727273
  0
MTEXT
  5
DC
330
4B
100
AcDbEntity
  8
1
 62
     2
100
AcDbMText
 10
29.0
 20
34.00000000000001
 30
0.0
 40
3.5
 41
0.0
 71
     5
 72
     1
  1
備考
  7
CONVERTER_11
 73
     1
 44
0.45454545454545
  0
MTEXT
  5
DD
330
4B
100
AcDbEntity
  8
1
 62
     2
100
AcDbMText
 10
32.5
 20
282.0000000000003
 30
0.0
 40
5.0
 41
0.0
 71
     5
 72
     1
  1
図番
  7
CONVERTER_11
 73
     1
 44
0.45454545454545
  0
MTEXT
  5
DE
330
4B
100
AcDbEntity
  8
1
 62
     7
100
AcDbMText
 10
171.5
 20
15.0
 30
0.0
 40
2.5
 41
0.0
 71
     5
 72
     1
  1
株式会社
  7
CONVERTER_11
 73
     1
 44
1.0
  0
MTEXT
  5
DF
330
4B
100
AcDbEntity
  8
1
 62
     7
100
AcDbMText
 10
188.5
 20
15.0
 30
0.0
 40
3.0
 41
0.0
 71
     5
 72
     1
  1
三栄水栓製作所
  7
CONVERTER_11
 73
     1
 44
1.0
  0
ENDBLK
  5
4D
330
4B
100
AcDbEntity
  8
0
100
AcDbBlockEnd
  0
BLOCK
  5
4F
330
4E
100
AcDbEntity
  8
0
100
AcDbBlockBegin
  2
37-292
 70
     0
 10
89.23335956092143
 20
-77.8929515895045
 30
0.0
  3
37-292
  1

  0
LINE
  5
E0
330
4E
100
AcDbEntity
  8
1
  6
Continuous
 62
     7
100
AcDbLine
 10
111.3907665484682
 20
397.1460196577189
 30
0.0
 11
111.3907665484541
 21
398.4525412640917
 31
0.0
  0
LINE
  5
E1
330
4E
100
AcDbEntity
  8
1
  6
Continuous
 62
     7
100
AcDbLine
 10
143.3907665484681
 20
398.4525412640917
 30
0.0
 11
143.3907665484736
 21
398.1297642457549
 31
0.0
  0
LINE
  5
E2
330
4E
100
AcDbEntity
  8
1
  6
Continuous
 62
     7
100
AcDbLine
 10
143.3907665484541
 20
398.4525412640917
 30
0.0
 11
143.3907665484679
 21
397.1460196577189
 31
0.0
  0
LINE
  5
E3
330
4E
100
AcDbEntity
  8
1
  6
Continuous
 62
     7
100
AcDbLine
 10
229.4201077805913
 20
259.763758737749
 30
0.0
 11
221.63816335985
 21
265.212734883073
 31
0.0
  0
LINE
  5
E4
330
4E
100
AcDbEntity
  8
1
  6
Continuous
 62
     7
100
AcDbLine
 10
239.9926093230834
 20
291.4256003003206
 30
0.0
 11
247.7745537438253
 21
285.976624154997
 31
0.0
  0
SPLINE
  5
E5
330
4E
100
AcDbEntity
  8
1
  6
Continuous
 62
     7
100
AcDbSpline
210
0.0
220
0.0
230
1.0
 70
     8
 71
     3
 72
    45
 73
    41
 74
    39
 42
0.000000001
 43
0.0000000001
 44
0.00000001
 40
0.0
 40
0.0
 40
0.0
 40
0.0
 40
0.4030425784167066
 40
0.8085282394450187
 40
1.640298263108904
 40
2.47108078327083
 40
3.366929238628997
 40
4.261492287383946
 40
5.24745133133997
 40
6.232372547448196
 40
7.31907423115113
 40
8.405071419692925
 40
9.589927296615699
 40
10.77433271639426
 40
12.04470898447355
 40
13.31480769687153
 40
14.65093520560201
 40
15.9869031473782
 40
17.36427318908385
 40
18.74157039742681
 40
20.13295990478618
 40
21.52434941214558
 40
22.90164662048856
 40
24.27901666219428
 40
25.61498460397055
 40
26.95111211270113
 40
28.22121082509916
 40
29.49158709317844
 40
30.67599251295691
 40
31.86084838987964
 40
32.9468455784214
 40
34.03354726212444
 40
35.01846847823278
 40
36.00442752218876
 40
36.89899057094358
 40
37.7948390263017
 40
38.62562154646365
 40
39.45739157012755
 40
39.86287723114554
 40
40.26591980955177
 40
40.26591980955177
 40
40.26591980955177
 40
40.26591980955177
 10
143.3907665484541
 20
398.4525412640867
 30
0.0
 10
143.3877448837693
 20
398.5869328267545
 30
0.0
 10
143.3816832255087
 20
398.8565305791181
 30
0.0
 10
143.3151061956241
 20
399.3998955708837
 30
0.0
 10
143.1612075644924
 20
400.0745100528333
 30
0.0
 10
142.846058958095
 20
400.8699940774651
 30
0.0
 10
142.4199376809976
 20
401.6355528143954
 30
0.0
 10
141.8713416896963
 20
402.3834304926006
 30
0.0
 10
141.2235206713241
 20
403.0878299032905
 30
0.0
 10
140.4611145484686
 20
403.766385613929
 30
0.0
 10
139.6134205599589
 20
404.3926166928428
 30
0.0
 10
138.6614575758984
 20
404.9831343447215
 30
0.0
 10
137.638779231525
 20
405.5151862377794
 30
0.0
 10
136.5262678493755
 20
406.0011996535313
 30
0.0
 10
135.3580527548755
 20
406.4242487438647
 30
0.0
 10
134.1185705388485
 20
406.7920082097824
 30
0.0
 10
132.8388540556406
 20
407.0935243694403
 30
0.0
 10
131.5097527045876
 20
407.3326017145733
 30
0.0
 10
130.1563105854159
 20
407.5032534419287
 30
0.0
 10
128.7776131715434
 20
407.6069920986369
 30
0.0
 10
127.3907665484541
 20
407.6412082881086
 30
0.0
 10
126.0039199253648
 20
407.6069920986369
 30
0.0
 10
124.6252225114922
 20
407.5032534419286
 30
0.0
 10
123.2717803923205
 20
407.3326017145733
 30
0.0
 10
121.9426790412673
 20
407.0935243694406
 30
0.0
 10
120.6629625580593
 20
406.7920082097824
 30
0.0
 10
119.4234803420325
 20
406.4242487438646
 30
0.0
 10
118.2552652475324
 20
406.0011996535314
 30
0.0
 10
117.142753865383
 20
405.5151862377793
 30
0.0
 10
116.1200755210096
 20
404.9831343447215
 30
0.0
 10
115.1681125369492
 20
404.3926166928428
 30
0.0
 10
114.3204185484394
 20
403.7663856139289
 30
0.0
 10
113.558012425584
 20
403.0878299032904
 30
0.0
 10
112.9101914072116
 20
402.3834304926006
 30
0.0
 10
112.3615954159102
 20
401.6355528143954
 30
0.0
 10
111.9354741388129
 20
400.8699940774653
 30
0.0
 10
111.6203255324156
 20
400.0745100528333
 30
0.0
 10
111.4664269012849
 20
399.399895570887
 30
0.0
 10
111.3998498714007
 20
398.8565305791285
 30
0.0
 10
111.3937882131393
 20
398.5869328267717
 30
0.0
 10
111.3907665484541
 20
398.4525412641075
 30
0.0
 11
143.3907665484541
 21
398.4525412640867
 31
0.0
 11
143.3750531128872
 21
398.8552774237139
 31
0.0
 11
143.3279128061857
 21
399.258013583341
 31
0.0
 11
143.140841734155
 21
400.0684738121863
 31
0.0
 11
142.8383299182731
 21
400.8422219592752
 31
0.0
 11
142.4040279830205
 21
401.6257564400394
 31
0.0
 11
141.8772790654135
 21
402.3487907579325
 31
0.0
 11
141.2118089411447
 21
403.0762965990864
 31
0.0
 11
140.4775446850246
 21
403.7327459902243
 31
0.0
 11
139.6050410793018
 21
404.380556152429
 31
0.0
 11
138.6830214708424
 21
404.9543764501593
 31
0.0
 11
137.6329053322213
 21
405.5031382775794
 31
0.0
 11
136.5479976388356
 21
405.9783135020143
 31
0.0
 11
135.3540847226485
 21
406.4123962238183
 31
0.0
 11
134.1366578243005
 21
406.7743665049469
 31
0.0
 11
132.8363996605569
 21
407.0818814223954
 31
0.0
 11
131.5216003306256
 21
407.3187633758937
 31
0.0
 11
130.1551372777613
 21
407.4917574565013
 31
0.0
 11
128.7817249739287
 21
407.5951317152077
 31
0.0
 11
127.3907665484541
 21
407.6297642457256
 31
0.0
 11
125.9998081229795
 21
407.5951317152077
 31
0.0
 11
124.6263958191469
 21
407.4917574565013
 31
0.0
 11
123.2599327662825
 21
407.3187633758938
 31
0.0
 11
121.9451334363511
 21
407.0818814223956
 31
0.0
 11
120.6448752726074
 21
406.774366504947
 31
0.0
 11
119.4274483742594
 21
406.4123962238183
 31
0.0
 11
118.2335354580723
 21
405.9783135020143
 31
0.0
 11
117.1486277646867
 21
405.5031382775794
 31
0.0
 11
116.0985116260656
 21
404.9543764501593
 31
0.0
 11
115.1764920176063
 21
404.380556152429
 31
0.0
 11
114.3039884118834
 21
403.7327459902242
 31
0.0
 11
113.5697241557633
 21
403.0762965990862
 31
0.0
 11
112.9042540314943
 21
402.3487907579324
 31
0.0
 11
112.3775051138874
 21
401.6257564400395
 31
0.0
 11
111.9432031786348
 21
400.8422219592753
 31
0.0
 11
111.6406913627531
 21
400.0684738121863
 31
0.0
 11
111.4536202907225
 21
399.258013583341
 31
0.0
 11
111.4064799840219
 21
398.8552774237242
 31
0.0
 11
111.3907665484541
 21
398.4525412641075
 31
0.0
  0
ENDBLK
  5
50
330
4E
100
AcDbEntity
  8
0
100
AcDbBlockEnd
  0
BLOCK
  5
53
330
51
100
AcDbEntity
  8
0
100
AcDbBlockBegin
  2
U1-76X-Y
 70
     0
 10
338.8308575147246
 20
-239.2344806984146
 30
0.0
  3
U1-76X-Y
  1

  0
INSERT
  5
52
330
51
100
AcDbEntity
  8
1
100
AcDbBlockReference
  2
37-292
 10
89.23335956092143
 20
-77.8929515895045
 30
0.0
  0
ENDBLK
  5
54
330
51
100
AcDbEntity
  8
0
100
AcDbBlockEnd
  0
BLOCK
  5
56
330
55
100
AcDbEntity
  8
0
100
AcDbBlockBegin
  2
30-201
 70
     0
 10
255.4613225431139
 20
185.3738727740595
 30
0.0
  3
30-201
  1

  0
LINE
  5
E6
330
55
100
AcDbEntity
  8
1
  6
Continuous
 62
     7
100
AcDbLine
 10
296.0977241431006
 20
203.3093924209675
 30
0.0
 11
288.1109917112829
 21
208.9017626753903
 31
0.0
  0
LINE
  5
E7
330
55
100
AcDbEntity
  8
1
  6
Continuous
 62
     7
100
AcDbLine
 10
308.0170664088999
 20
199.8464774709984
 30
0.0
 11
306.8699135361982
 21
198.2081733824205
 31
0.0
  0
LINE
  5
E8
330
55
100
AcDbEntity
  8
1
  6
Continuous
 62
     7
100
AcDbLine
 10
287.619840495407
 20
211.6872196366704
 30
0.0
 11
288.7669933681083
 21
213.3255237252469
 31
0.0
  0
LINE
  5
E9
330
55
100
AcDbEntity
  8
1
  6
Continuous
 62
     7
100
AcDbLine
 10
304.0844565749183
 20
197.7170221665442
 30
0.0
 11
296.0977241431006
 21
203.3093924209675
 31
0.0
  0
LINE
  5
EA
330
55
100
AcDbEntity
  8
1
  6
PHANTOM
 62
     4
100
AcDbLine
 10
296.0977241431006
 20
203.3093924209675
 30
0.0
 11
307.569252870121
 21
219.6924333067473
 31
0.0
  0
ARC
  5
EB
330
55
100
AcDbEntity
  8
1
  6
Continuous
 62
     7
100
AcDbCircle
 10
305.2316094476201
 20
199.3553262551225
 30
0.0
 40
2.000000000000065
100
AcDbArc
 50
235.0000000000122
 51
325.0000000000052
  0
ARC
  5
EC
330
55
100
AcDbEntity
  8
1
  6
Continuous
 62
     7
100
AcDbCircle
 10
289.258144583985
 20
210.5400667639684
 30
0.0
 40
1.999999999999923
100
AcDbArc
 50
145.0000000000024
 51
235.0000000000027
  0
ENDBLK
  5
57
330
55
100
AcDbEntity
  8
0
100
AcDbBlockEnd
  0
BLOCK
  5
5A
330
58
100
AcDbEntity
  8
0
100
AcDbBlockBegin
  2
30-201X
 70
     0
 10
314.452170106334
 20
229.5222578382154
 30
0.0
  3
30-201X
  1

  0
INSERT
  5
59
330
58
100
AcDbEntity
  8
1
100
AcDbBlockReference
  2
30-201
 10
255.4613225431139
 20
185.3738727740595
 30
0.0
  0
ENDBLK
  5
5B
330
58
100
AcDbEntity
  8
0
100
AcDbBlockEnd
  0
BLOCK
  5
5D
330
5C
100
AcDbEntity
  8
0
100
AcDbBlockBegin
  2
30-205
 70
     0
 10
116.8647945783647
 20
91.38801639776744
 30
0.0
  3
30-205
  1

  0
LINE
  5
ED
330
5C
100
AcDbEntity
  8
1
  6
Continuous
 62
     2
100
AcDbLine
 10
241.0374862447434
 20
229.1900314976306
 30
0.0
 11
241.2995601902033
 21
228.6280121079067
 31
0.0
  0
LINE
  5
EE
330
5C
100
AcDbEntity
  8
1
  6
Continuous
 62
     7
100
AcDbLine
 10
217.4376935113663
 20
231.2547458233576
 30
0.0
 11
217.3908874360015
 21
230.7197499338506
 31
0.0
  0
LINE
  5
EF
330
5C
100
AcDbEntity
  8
1
  6
PHANTOM
 62
     4
100
AcDbLine
 10
229.6447815424357
 20
233.0978415348552
 30
0.0
 11
228.6860683722114
 21
222.139699855846
 31
0.0
  0
LINE
  5
F0
330
5C
100
AcDbEntity
  8
1
  6
Continuous
 62
     7
100
AcDbLine
 10
229.121847085957
 20
227.120673346303
 30
0.0
 11
241.0761834630508
 21
226.0748044333328
 31
0.0
  0
LINE
  5
F1
330
5C
100
AcDbEntity
  8
1
  6
Continuous
 62
     7
100
AcDbLine
 10
240.0799887649589
 20
226.1619601760804
 30
0.0
 11
239.6442100512207
 21
221.1809866856216
 31
0.0
  0
LINE
  5
F2
330
5C
100
AcDbEntity
  8
1
  6
Continuous
 62
     7
100
AcDbLine
 10
217.7279266932023
 20
223.0984130260702
 30
0.0
 11
228.6860683722114
 21
222.139699855846
 31
0.0
  0
LINE
  5
F3
330
5C
100
AcDbEntity
  8
1
  6
Continuous
 62
     7
100
AcDbLine
 10
241.2995601902033
 20
228.6280121079067
 30
0.0
 11
241.3463662655686
 21
229.163007997419
 31
0.0
  0
LINE
  5
F4
330
5C
100
AcDbEntity
  8
1
  6
Continuous
 62
     7
100
AcDbLine
 10
241.0761834630508
 20
226.0748044333328
 30
0.0
 11
241.2995601902033
 21
228.6280121079067
 31
0.0
  0
LINE
  5
F5
330
5C
100
AcDbEntity
  8
1
  6
Continuous
 62
     7
100
AcDbLine
 10
217.3908874360015
 20
230.7197499338506
 30
0.0
 11
217.1675107088487
 21
228.1665422592765
 31
0.0
  0
LINE
  5
F6
330
5C
100
AcDbEntity
  8
1
  6
Continuous
 62
     7
100
AcDbLine
 10
217.7279266932023
 20
223.0984130260702
 30
0.0
 11
218.1637054069405
 21
228.0793865165288
 31
0.0
  0
LINE
  5
F7
330
5C
100
AcDbEntity
  8
1
  6
Continuous
 62
     7
100
AcDbLine
 10
217.1675107088487
 20
228.1665422592765
 30
0.0
 11
229.121847085957
 21
227.120673346303
 31
0.0
  0
LINE
  5
F8
330
5C
100
AcDbEntity
  8
1
  6
Continuous
 62
     2
100
AcDbLine
 10
217.3908874360015
 20
230.7197499338506
 30
0.0
 11
217.7465735321886
 21
231.2277223231461
 31
0.0
  0
LINE
  5
F9
330
5C
100
AcDbEntity
  8
1
  6
Continuous
 62
     7
100
AcDbLine
 10
228.6860683722114
 20
222.139699855846
 30
0.0
 11
239.6442100512207
 21
221.1809866856216
 31
0.0
  0
ENDBLK
  5
5E
330
5C
100
AcDbEntity
  8
0
100
AcDbBlockEnd
  0
BLOCK
  5
61
330
5F
100
AcDbEntity
  8
0
100
AcDbBlockBegin
  2
87-64set
 70
     0
 10
85.43711180351539
 20
-97.2478619799477
 30
0.0
  3
87-64set
  1

  0
INSERT
  5
60
330
5F
100
AcDbEntity
  8
1
100
AcDbBlockReference
  2
30-205
 10
116.8647945783647
 20
91.38801639776744
 30
0.0
  0
LINE
  5
FA
330
5F
100
AcDbEntity
  8
1
  6
PHANTOM
 62
     4
100
AcDbLine
 10
228.6855148606708
 20
222.1333731899867
 30
0.0
 11
229.8975331964244
 21
235.9868061593189
 31
0.0
  0
ENDBLK
  5
62
330
5F
100
AcDbEntity
  8
0
100
AcDbBlockEnd
  0
BLOCK
  5
64
330
63
100
AcDbEntity
  8
0
100
AcDbBlockBegin
  2
Y1966-0
 70
     0
 10
15.0
 20
-73.7053053197531
 30
0.0
  3
Y1966-0
  1

  0
LINE
  5
FB
330
63
100
AcDbEntity
  8
24
  6
Continuous
 62
     7
100
AcDbLine
 10
144.105167294317
 20
396.6411696071051
 30
0.0
 11
144.5669347084693
 21
404.0930826203695
 31
0.0
  0
LINE
  5
FC
330
63
100
AcDbEntity
  8
1
  6
Continuous
 62
     2
100
AcDbLine
 10
118.0707665484698
 20
505.2564193271488
 30
0.0
 11
118.0707665484694
 21
517.2472403903695
 31
0.0
  0
LINE
  5
FD
330
63
100
AcDbEntity
  8
1
  6
Continuous
 62
     2
100
AcDbLine
 10
116.9107665484693
 20
503.2472403903695
 30
0.0
 11
118.0707665484698
 21
505.2564193271488
 31
0.0
  0
LINE
  5
FE
330
63
100
AcDbEntity
  8
1
  6
Continuous
 62
     2
100
AcDbLine
 10
136.7107665484687
 20
505.2564193271488
 30
0.0
 11
137.8707665484694
 21
503.2472403903695
 31
0.0
  0
LINE
  5
FF
330
63
100
AcDbEntity
  8
1
  6
Continuous
 62
     7
100
AcDbLine
 10
137.8707665484694
 20
505.2564193271488
 30
0.0
 11
116.9107665484696
 21
505.2564193271488
 31
0.0
  0
LINE
  5
100
330
63
100
AcDbEntity
  8
1
  6
Continuous
 62
     2
100
AcDbLine
 10
136.7107665484692
 20
517.2472403903695
 30
0.0
 11
136.7107665484687
 21
505.2564193271488
 31
0.0
  0
LINE
  5
101
330
63
100
AcDbEntity
  8
24
  6
Continuous
 62
     7
100
AcDbLine
 10
118.0707665484694
 20
517.2472403903695
 30
0.0
 11
116.9107665484693
 21
516.0872403903694
 31
0.0
  0
LINE
  5
102
330
63
100
AcDbEntity
  8
24
  6
Continuous
 62
     7
100
AcDbLine
 10
136.7107665484692
 20
517.2472403903695
 30
0.0
 11
137.8707665484694
 21
516.0872403903694
 31
0.0
  0
LINE
  5
103
330
63
100
AcDbEntity
  8
24
  6
Continuous
 62
     7
100
AcDbLine
 10
107.5071655984692
 20
398.5299654003694
 30
0.0
 11
107.3872949384693
 21
399.3527653803696
 31
0.0
  0
LINE
  5
104
330
63
100
AcDbEntity
  8
24
  6
Continuous
 62
     7
100
AcDbLine
 10
107.3872949384693
 20
399.3527653803696
 30
0.0
 11
107.3550676284692
 21
399.9048739003694
 31
0.0
  0
LINE
  5
105
330
63
100
AcDbEntity
  8
24
  6
Continuous
 62
     7
100
AcDbLine
 10
149.8490366984693
 20
503.2472403903695
 30
0.0
 11
147.4264654784693
 21
399.9048739003694
 31
0.0
  0
LINE
  5
106
330
63
100
AcDbEntity
  8
24
  6
Continuous
 62
     7
100
AcDbLine
 10
147.4264654784693
 20
399.9048739003694
 30
0.0
 11
147.3637582684693
 21
399.0774707803695
 31
0.0
  0
LINE
  5
107
330
63
100
AcDbEntity
  8
24
  6
Continuous
 62
     7
100
AcDbLine
 10
147.3637582684693
 20
399.0774707803695
 30
0.0
 11
147.2743674984694
 21
398.5299654003694
 31
0.0
  0
LINE
  5
108
330
63
100
AcDbEntity
  8
24
  6
Continuous
 62
     7
100
AcDbLine
 10
137.8707665484694
 20
503.2472403903695
 30
0.0
 11
137.8707665484694
 21
516.0872403903694
 31
0.0
  0
LINE
  5
109
330
63
100
AcDbEntity
  8
24
  6
Continuous
 62
     7
100
AcDbLine
 10
116.9107665484693
 20
503.2472403903695
 30
0.0
 11
116.9107665484693
 21
516.0872403903694
 31
0.0
  0
LINE
  5
10A
330
63
100
AcDbEntity
  8
24
  6
Continuous
 62
     7
100
AcDbLine
 10
147.2743674984694
 20
398.5299654003694
 30
0.0
 11
146.4535130330469
 21
394.3976069033815
 31
0.0
  0
LINE
  5
10B
330
63
100
AcDbEntity
  8
24
  6
Continuous
 62
     7
100
AcDbLine
 10
107.3550676284692
 20
399.9048739003694
 30
0.0
 11
104.9324964084693
 21
503.2472403903695
 31
0.0
  0
LINE
  5
10C
330
63
100
AcDbEntity
  8
24
  6
Continuous
 62
     7
100
AcDbLine
 10
107.5071655984692
 20
398.5299654003694
 30
0.0
 11
108.3280200638918
 21
394.3976069033816
 31
0.0
  0
LINE
  5
10D
330
63
100
AcDbEntity
  8
24
  6
Continuous
 62
     7
100
AcDbLine
 10
144.5669347084693
 20
404.0930826203695
 30
0.0
 11
145.1151614084694
 21
412.1474020803695
 31
0.0
  0
LINE
  5
10E
330
63
100
AcDbEntity
  8
24
  6
Continuous
 62
     7
100
AcDbLine
 10
145.1151614084694
 20
412.1474020803695
 30
0.0
 11
145.4094991784692
 21
416.2119458603694
 31
0.0
  0
LINE
  5
10F
330
63
100
AcDbEntity
  8
24
  6
Continuous
 62
     7
100
AcDbLine
 10
149.8490366984693
 20
503.2472403903695
 30
0.0
 11
104.9324964084693
 21
503.2472403903695
 31
0.0
  0
LINE
  5
110
330
63
100
AcDbEntity
  8
24
  6
Continuous
 62
     7
100
AcDbLine
 10
108.0758257584694
 20
441.5058219303695
 30
0.0
 11
108.2238026184692
 21
436.5983071403695
 31
0.0
  0
LINE
  5
111
330
63
100
AcDbEntity
  8
24
  6
Continuous
 62
     7
100
AcDbLine
 10
108.2238026184692
 20
436.5983071403695
 30
0.0
 11
108.4800223184694
 21
430.6171349103694
 31
0.0
  0
LINE
  5
112
330
63
100
AcDbEntity
  8
24
  6
Continuous
 62
     7
100
AcDbLine
 10
108.4800223184694
 20
430.6171349103694
 30
0.0
 11
108.8249489484692
 21
424.3343507503695
 31
0.0
  0
LINE
  5
113
330
63
100
AcDbEntity
  8
24
  6
Continuous
 62
     7
100
AcDbLine
 10
108.8249489484692
 20
424.3343507503695
 30
0.0
 11
109.2530023384694
 21
417.8499190503695
 31
0.0
  0
LINE
  5
114
330
63
100
AcDbEntity
  8
24
  6
Continuous
 62
     7
100
AcDbLine
 10
109.2530023384694
 20
417.8499190503695
 30
0.0
 11
109.3720339284694
 21
416.2119458603694
 31
0.0
  0
LINE
  5
115
330
63
100
AcDbEntity
  8
24
  6
Continuous
 62
     7
100
AcDbLine
 10
106.6192394684692
 20
503.2472403903695
 30
0.0
 11
108.0758257584694
 21
441.5058219303695
 31
0.0
  0
LINE
  5
116
330
63
100
AcDbEntity
  8
24
  6
Continuous
 62
     7
100
AcDbLine
 10
118.0707665484694
 20
517.2472403903695
 30
0.0
 11
136.7107665484692
 21
517.2472403903695
 31
0.0
  0
LINE
  5
117
330
63
100
AcDbEntity
  8
24
  6
Continuous
 62
     7
100
AcDbLine
 10
109.3720339284694
 20
416.2119458603694
 30
0.0
 11
109.9470566884693
 21
408.1050317903695
 31
0.0
  0
LINE
  5
118
330
63
100
AcDbEntity
  8
24
  6
Continuous
 62
     7
100
AcDbLine
 10
109.9470566884693
 20
408.1050317903695
 30
0.0
 11
110.6833407844242
 21
396.6463647379892
 31
0.0
  0
LINE
  5
119
330
63
100
AcDbEntity
  8
24
  6
Continuous
 62
     7
100
AcDbLine
 10
145.4094991784692
 20
416.2119458603694
 30
0.0
 11
145.8698443884692
 21
422.9297667203695
 31
0.0
  0
LINE
  5
11A
330
63
100
AcDbEntity
  8
24
  6
Continuous
 62
     7
100
AcDbLine
 10
145.8698443884692
 20
422.9297667203695
 30
0.0
 11
146.2433849684694
 21
429.4579732903695
 31
0.0
  0
LINE
  5
11B
330
63
100
AcDbEntity
  8
24
  6
Continuous
 62
     7
100
AcDbLine
 10
146.2433849684694
 20
429.4579732903695
 30
0.0
 11
146.5237647384693
 21
435.6884046703696
 31
0.0
  0
LINE
  5
11C
330
63
100
AcDbEntity
  8
24
  6
Continuous
 62
     7
100
AcDbLine
 10
146.5237647384693
 20
435.6884046703696
 30
0.0
 11
146.7057073484692
 21
441.5058219303695
 31
0.0
  0
LINE
  5
11D
330
63
100
AcDbEntity
  8
24
  6
Continuous
 62
     7
100
AcDbLine
 10
146.7057073484692
 20
441.5058219303695
 30
0.0
 11
148.1622936384694
 21
503.2472403903695
 31
0.0
  0
LINE
  5
11E
330
63
100
AcDbEntity
  8
24
  6
Continuous
 62
     7
100
AcDbLine
 10
116.9107665484693
 20
516.0872403903694
 30
0.0
 11
137.8707665484694
 21
516.0872403903694
 31
0.0
  0
LINE
  5
11F
330
63
100
AcDbEntity
  8
1
  6
Continuous
 62
     7
100
AcDbLine
 10
345.4012088252477
 20
210.406000598148
 30
0.0
 11
345.4012088252473
 21
191.7660005981489
 31
0.0
  0
LINE
  5
120
330
63
100
AcDbEntity
  8
______-2
  6
Continuous
 62
     7
100
AcDbLine
 10
341.818453452117
 20
176.1784914613961
 30
0.0
 11
280.6647472677651
 21
218.9987775211368
 31
0.0
  0
LINE
  5
121
330
63
100
AcDbEntity
  8
___
  6
Continuous
 62
     7
100
AcDbLine
 10
343.3920298884679
 20
225.476819254927
 30
0.0
 11
343.3920298884673
 21
211.5660005981476
 31
0.0
  0
LINE
  5
122
330
63
100
AcDbEntity
  8
______-2
  6
Continuous
 62
     7
100
AcDbLine
 10
213.3694286073369
 20
231.6106728826796
 30
0.0
 11
256.3437125875806
 21
227.850910211274
 31
0.0
  0
LINE
  5
123
330
63
100
AcDbEntity
  8
______-2
  6
Continuous
 62
     7
100
AcDbLine
 10
238.5973307621914
 20
272.8701914463829
 30
0.0
 11
211.905436004253
 21
234.7502151515649
 31
0.0
  0
LINE
  5
124
330
63
100
AcDbEntity
  8
___
  6
Continuous
 62
     7
100
AcDbLine
 10
343.3920298884673
 20
190.6060005981479
 30
0.0
 11
343.3920298884673
 21
176.9976435056852
 31
0.0
  0
LINE
  5
125
330
63
100
AcDbEntity
  8
1
  6
Continuous
 62
     7
100
AcDbLine
 10
345.4012088252477
 20
210.406000598148
 30
0.0
 11
345.4012088252479
 21
211.5660005981476
 31
0.0
  0
LINE
  5
126
330
63
100
AcDbEntity
  8
1
  6
Continuous
 62
     7
100
AcDbLine
 10
247.9179478529116
 20
286.1814121660681
 30
0.0
 11
247.7745537438253
 21
285.976624154997
 31
0.0
  0
LINE
  5
127
330
63
100
AcDbEntity
  8
1
  6
PHANTOM
 62
     4
100
AcDbLine
 10
229.3920298884678
 20
230.208876910385
 30
0.0
 11
230.0456979590755
 21
237.6803371460755
 31
0.0
  0
LINE
  5
128
330
63
100
AcDbEntity
  8
1
  6
PHANTOM
 62
     4
100
AcDbLine
 10
238.5973307621914
 20
272.8701914463829
 30
0.0
 11
341.1157798377338
 21
201.0860005981479
 31
0.0
  0
LINE
  5
129
330
63
100
AcDbEntity
  8
___
  6
PHANTOM
 62
     4
100
AcDbLine
 10
313.3050172336282
 20
227.8839537496388
 30
0.0
 11
298.3920298884679
 21
206.5860005981479
 31
0.0
  0
LINE
  5
12A
330
63
100
AcDbEntity
  8
______-2
  6
Continuous
 62
     7
100
AcDbLine
 10
248.9434328676373
 20
287.6459565457939
 30
0.0
 11
238.5973307622134
 21
272.8701914463683
 31
0.0
  0
LINE
  5
12B
330
63
100
AcDbEntity
  8
1
  6
Continuous
 62
     2
100
AcDbLine
 10
345.4012088252477
 20
210.406000598148
 30
0.0
 11
357.3920298884678
 21
210.406000598148
 31
0.0
  0
LINE
  5
12C
330
63
100
AcDbEntity
  8
1
  6
Continuous
 62
     7
100
AcDbLine
 10
357.3920298884661
 20
201.0860005981479
 30
0.0
 11
357.392029888468
 21
191.766000598148
 31
0.0
  0
LINE
  5
12D
330
63
100
AcDbEntity
  8
1
  6
Continuous
 62
     7
100
AcDbLine
 10
356.2320298884676
 20
211.5660005981488
 30
0.0
 11
357.3920298884678
 21
210.406000598148
 31
0.0
  0
LINE
  5
12E
330
63
100
AcDbEntity
  8
1
  6
Continuous
 62
     7
100
AcDbLine
 10
343.3920298884673
 20
211.5660005981476
 30
0.0
 11
356.2320298884676
 21
211.5660005981488
 31
0.0
  0
LINE
  5
12F
330
63
100
AcDbEntity
  8
1
  6
Continuous
 62
     7
100
AcDbLine
 10
357.3920298884678
 20
210.406000598148
 30
0.0
 11
357.3920298884681
 21
201.0860005981479
 31
0.0
  0
LINE
  5
130
330
63
100
AcDbEntity
  8
1
  6
Continuous
 62
     7
100
AcDbLine
 10
345.4012088252479
 20
190.6060005981478
 30
0.0
 11
345.4012088252473
 21
191.7660005981489
 31
0.0
  0
LINE
  5
131
330
63
100
AcDbEntity
  8
1
  6
Continuous
 62
     2
100
AcDbLine
 10
343.3920298884673
 20
211.5660005981476
 30
0.0
 11
345.4012088252477
 21
210.406000598148
 31
0.0
  0
LINE
  5
132
330
63
100
AcDbEntity
  8
1
  6
Continuous
 62
     2
100
AcDbLine
 10
357.392029888468
 20
191.766000598148
 30
0.0
 11
345.4012088252473
 21
191.7660005981489
 31
0.0
  0
LINE
  5
133
330
63
100
AcDbEntity
  8
1
  6
Continuous
 62
     7
100
AcDbLine
 10
357.392029888468
 20
191.766000598148
 30
0.0
 11
356.2320298884678
 21
190.6060005981478
 31
0.0
  0
LINE
  5
134
330
63
100
AcDbEntity
  8
1
  6
Continuous
 62
     7
100
AcDbLine
 10
356.2320298884678
 20
190.6060005981478
 30
0.0
 11
343.3920298884673
 21
190.6060005981479
 31
0.0
  0
LINE
  5
135
330
63
100
AcDbEntity
  8
1
  6
Continuous
 62
     2
100
AcDbLine
 10
345.4012088252473
 20
191.7660005981489
 30
0.0
 11
343.3920298884673
 21
190.6060005981479
 31
0.0
  0
LINE
  5
136
330
63
100
AcDbEntity
  8
1
  6
Continuous
 62
     7
100
AcDbLine
 10
342.5075201064273
 20
227.136843825117
 30
0.0
 11
251.6972271741757
 21
288.1588282432838
 31
0.0
  0
LINE
  5
137
330
63
100
AcDbEntity
  8
1
  6
PHANTOM
 62
     4
100
AcDbLine
 10
343.392029888468
 20
226.5424779179659
 30
0.0
 11
342.5075201064273
 21
227.136843825117
 31
0.0
  0
LINE
  5
138
330
63
100
AcDbEntity
  8
___
  6
PHANTOM
 62
     4
100
AcDbLine
 10
343.392029888468
 20
226.5424779179659
 30
0.0
 11
343.3920298884679
 21
225.476819254927
 31
0.0
  0
LINE
  5
139
330
63
100
AcDbEntity
  8
______-2
  6
PHANTOM
 62
     4
100
AcDbLine
 10
250.0687707252678
 20
289.2531055640831
 30
0.0
 11
248.9434328676373
 21
287.6459565457939
 31
0.0
  0
LINE
  5
13A
330
63
100
AcDbEntity
  8
1
  6
PHANTOM
 62
     4
100
AcDbLine
 10
251.6972271741757
 20
288.1588282432838
 30
0.0
 11
250.0687707252678
 21
289.2531055640831
 31
0.0
  0
LINE
  5
13B
330
63
100
AcDbEntity
  8
______-2
  6
PHANTOM
 62
     4
100
AcDbLine
 10
211.905436004253
 20
234.7502151515649
 30
0.0
 11
209.9185089446893
 21
231.9125892319
 31
0.0
  0
LINE
  5
13C
330
63
100
AcDbEntity
  8
______-2
  6
PHANTOM
 62
     4
100
AcDbLine
 10
209.9185089446893
 20
231.9125892319
 30
0.0
 11
213.3694286073369
 21
231.6106728826796
 31
0.0
  0
LINE
  5
13D
330
63
100
AcDbEntity
  8
______-2
  6
PHANTOM
 62
     4
100
AcDbLine
 10
343.3920298884673
 20
175.0766613787141
 30
0.0
 11
341.818453452117
 21
176.1784914613961
 31
0.0
  0
LINE
  5
13E
330
63
100
AcDbEntity
  8
___
  6
PHANTOM
 62
     4
100
AcDbLine
 10
343.3920298884673
 20
176.9976435056852
 30
0.0
 11
343.3920298884673
 21
175.0766613787141
 31
0.0
  0
LINE
  5
13F
330
63
100
AcDbEntity
  8
1
  6
Continuous
 62
     7
100
AcDbLine
 10
229.4201077805913
 20
259.763758737749
 30
0.0
 11
229.2767136715035
 21
259.5589707266759
 31
0.0
  0
LINE
  5
140
330
63
100
AcDbEntity
  8
1
  6
Continuous
 62
     7
100
AcDbLine
 10
356.2320298884676
 20
211.5660005981488
 30
0.0
 11
356.2320298884678
 21
190.6060005981478
 31
0.0
  0
LINE
  5
141
330
63
100
AcDbEntity
  8
1
  6
Continuous
 62
     7
100
AcDbLine
 10
343.3920298884673
 20
211.5660005981476
 30
0.0
 11
343.3920298884673
 21
190.6060005981479
 31
0.0
  0
ARC
  5
142
330
63
100
AcDbEntity
  8
1
  6
Continuous
 62
     7
100
AcDbCircle
 10
213.5437400928317
 20
233.6030622788639
 30
0.0
 40
1.999999999999974
100
AcDbArc
 50
145.0000000000372
 51
235.0000000000003
  0
ARC
  5
143
330
63
100
AcDbEntity
  8
1
  6
Continuous
 62
     7
100
AcDbCircle
 10
251.9859254502153
 20
178.0411753066856
 30
0.0
 40
49.99999999999988
100
AcDbArc
 50
55.00000000000338
 51
85.00000000002017
  0
ARC
  5
144
330
63
100
AcDbEntity
  8
1
  6
Continuous
 62
     7
100
AcDbCircle
 10
342.3920298884679
 20
176.9976435056851
 30
0.0
 40
0.9999999999999043
100
AcDbArc
 50
235.0000000000071
 51
269.9999999999642
  0
ARC
  5
145
330
63
100
AcDbEntity
  8
1
  6
Continuous
 62
     7
100
AcDbCircle
 10
342.3920298884679
 20
176.9976435056851
 30
0.0
 40
0.9999999999998863
100
AcDbArc
 50
269.9999999999642
 51
0.00000000000651
  0
ARC
  5
146
330
63
100
AcDbEntity
  8
1
  6
Continuous
 62
     7
100
AcDbCircle
 10
213.5437400928317
 20
233.6030622788639
 30
0.0
 40
1.999999999999869
100
AcDbArc
 50
235.0000000000003
 51
265.0000000000168
  0
ARC
  5
147
330
63
100
AcDbEntity
  8
1
  6
Continuous
 62
     7
100
AcDbCircle
 10
341.392029888468
 20
225.476819254927
 30
0.0
 40
1.999999999999886
100
AcDbArc
 50
0.0
 51
56.09999999999067
  0
ARC
  5
148
330
63
100
AcDbEntity
  8
1
  6
Continuous
 62
     7
100
AcDbCircle
 10
250.5817369562163
 20
286.4988036730928
 30
0.0
 40
2.000000000000197
100
AcDbArc
 50
56.10000000000296
 51
145.0000000000398
  0
ENDBLK
  5
65
330
63
100
AcDbEntity
  8
0
100
AcDbBlockEnd
  0
BLOCK
  5
67
330
66
100
AcDbEntity
  8
0
100
AcDbBlockBegin
  2
36-76-M1-115_
 70
     0
 10
388.9345042104128
 20
-270.1828031095212
 30
0.0
  3
36-76-M1-115_
  1

  0
LINE
  5
149
330
66
100
AcDbEntity
  8
2
  6
Continuous
 62
     7
100
AcDbLine
 10
431.2762656790875
 20
-255.4308408294355
 30
0.0
 11
433.565031270413
 21
-237.336690219521
 31
0.0
  0
LINE
  5
14A
330
66
100
AcDbEntity
  8
2
  6
Continuous
 62
     7
100
AcDbLine
 10
389.0457818104131
 20
-237.336690219521
 30
0.0
 11
391.3345474017386
 21
-255.4308408294355
 31
0.0
  0
LINE
  5
14B
330
66
100
AcDbEntity
  8
1
  6
PHANTOM
 62
     4
100
AcDbLine
 10
411.305406540413
 20
-216.6684660937696
 30
0.0
 11
411.305406540413
 21
-270.1825208505683
 31
0.0
  0
ARC
  5
14C
330
66
100
AcDbEntity
  8
2
  6
Continuous
 62
     7
100
AcDbCircle
 10
417.2630091304127
 20
-235.4286853495211
 30
0.0
 40
16.41329974000046
100
AcDbArc
 50
353.3244159374769
 51
38.63670231044824
  0
ARC
  5
14D
330
66
100
AcDbEntity
  8
2
  6
Continuous
 62
     7
100
AcDbCircle
 10
412.7756538204131
 20
-239.1611121595209
 30
0.0
 40
22.24920903999999
100
AcDbArc
 50
38.92939990630742
 51
65.7436466712686
  0
ARC
  5
14E
330
66
100
AcDbEntity
  8
2
  6
Continuous
 62
     7
100
AcDbCircle
 10
411.3015853404129
 20
-243.289492619521
 30
0.0
 40
26.62102680000003
100
AcDbArc
 50
66.50146019548485
 51
89.99177572544144
  0
ARC
  5
14F
330
66
100
AcDbEntity
  8
2
  6
Continuous
 62
     7
100
AcDbCircle
 10
411.414308490413
 20
-226.993781239521
 30
0.0
 40
24.33236371999972
100
AcDbArc
 50
269.7435660990968
 51
297.3164190691564
  0
ARC
  5
150
330
66
100
AcDbEntity
  8
2
  6
Continuous
 62
     7
100
AcDbCircle
 10
413.786392800413
 20
-231.5162120895212
 30
0.0
 40
19.22571584999999
100
AcDbArc
 50
297.2204556733466
 51
323.445658794135
  0
ARC
  5
151
330
66
100
AcDbEntity
  8
2
  6
Continuous
 62
     7
100
AcDbCircle
 10
417.3133833804127
 20
-234.119086429521
 30
0.0
 40
14.84228179000011
100
AcDbArc
 50
323.4080077779365
 51
358.3438714099283
  0
ARC
  5
152
330
66
100
AcDbEntity
  8
2
  6
Continuous
 62
     7
100
AcDbCircle
 10
417.459176400413
 20
-234.3306718295211
 30
0.0
 40
14.69189699000045
100
AcDbArc
 50
359.1522668231385
 51
34.49842631226515
  0
ARC
  5
153
330
66
100
AcDbEntity
  8
2
  6
Continuous
 62
     7
100
AcDbCircle
 10
414.0441118004131
 20
-236.7010455295209
 30
0.0
 40
18.84894494999949
100
AcDbArc
 50
34.55705468022137
 51
60.45101638346991
  0
ARC
  5
154
330
66
100
AcDbEntity
  8
2
  6
Continuous
 62
     7
100
AcDbCircle
 10
411.4616582304131
 20
-241.2752751495211
 30
0.0
 40
24.10180849999997
100
AcDbArc
 50
60.47311536676794
 51
90.37145034536921
  0
ARC
  5
155
330
66
100
AcDbEntity
  8
2
  6
Continuous
 62
     7
100
AcDbCircle
 10
411.4207194904131
 20
-227.660521459521
 30
0.0
 40
26.11872273000012
100
AcDbArc
 50
269.7470409678813
 51
297.5541096609257
  0
ARC
  5
156
330
66
100
AcDbEntity
  8
2
  6
Continuous
 62
     7
100
AcDbCircle
 10
413.9472565404131
 20
-232.476202699521
 30
0.0
 40
20.68052593999987
100
AcDbArc
 50
297.5200438786298
 51
322.2517431804517
  0
ARC
  5
157
330
66
100
AcDbEntity
  8
2
  6
Continuous
 62
     7
100
AcDbCircle
 10
417.510375220413
 20
-235.1988696495209
 30
0.0
 40
16.19636556999976
100
AcDbArc
 50
322.1509859539027
 51
352.4151751863456
  0
ARC
  5
158
330
66
100
AcDbEntity
  8
2
  6
Continuous
 62
     7
100
AcDbCircle
 10
411.3259744604127
 20
-263.1137148595211
 30
0.0
 40
4.342529700000324
100
AcDbArc
 50
69.19534331234291
 51
90.27137624770066
  0
ARC
  5
159
330
66
100
AcDbEntity
  8
2
  6
Continuous
 62
     7
100
AcDbCircle
 10
412.5037057704131
 20
-260.114407149521
 30
0.0
 40
1.12104291000028
100
AcDbArc
 50
24.00975237268362
 51
71.01701114661373
  0
ARC
  5
15A
330
66
100
AcDbEntity
  8
2
  6
Continuous
 62
     7
100
AcDbCircle
 10
412.8182820504128
 20
-259.8418690195209
 30
0.0
 40
0.7328426000001833
100
AcDbArc
 50
315.8216201340279
 51
14.5093901935601
  0
ARC
  5
15B
330
66
100
AcDbEntity
  8
2
  6
Continuous
 62
     7
100
AcDbCircle
 10
411.5589081404129
 20
-258.4955852895209
 30
0.0
 40
2.575749319999933
100
AcDbArc
 50
274.2544614667555
 51
313.8666686081179
  0
ARC
  5
15C
330
66
100
AcDbEntity
  8
2
  6
Continuous
 62
     7
100
AcDbCircle
 10
411.2917047104129
 20
-257.7731876995209
 30
0.0
 40
3.322804999999807
100
AcDbArc
 50
270.236264016535
 51
277.9276265589543
  0
ARC
  5
15D
330
66
100
AcDbEntity
  8
2
  6
Continuous
 62
     7
100
AcDbCircle
 10
411.420265060413
 20
-246.8132002295209
 30
0.0
 40
23.36960288000052
100
AcDbArc
 50
269.7183976567399
 51
298.1703662520016
  0
ARC
  5
15E
330
66
100
AcDbEntity
  8
2
  6
Continuous
 62
     7
100
AcDbCircle
 10
413.8397337304129
 20
-251.2754054495209
 30
0.0
 40
18.2937560600007
100
AcDbArc
 50
298.0880173182549
 51
323.0224243269449
  0
ARC
  5
15F
330
66
100
AcDbEntity
  8
2
  6
Continuous
 62
     7
100
AcDbCircle
 10
416.9637335604129
 20
-253.538316959521
 30
0.0
 40
14.43711267000053
100
AcDbArc
 50
322.7393830753489
 51
352.4675652627088
  0
ARC
  5
160
330
66
100
AcDbEntity
  8
2
  6
Continuous
 62
     7
100
AcDbCircle
 10
411.149154850413
 20
-241.2752751495211
 30
0.0
 40
24.10180850000007
100
AcDbArc
 50
89.62854965463106
 51
119.5268846332322
  0
ARC
  5
161
330
66
100
AcDbEntity
  8
2
  6
Continuous
 62
     7
100
AcDbCircle
 10
408.566701280413
 20
-236.7010455295209
 30
0.0
 40
18.84894494999968
100
AcDbArc
 50
119.5489836165301
 51
145.4429453197793
  0
ARC
  5
162
330
66
100
AcDbEntity
  8
2
  6
Continuous
 62
     7
100
AcDbCircle
 10
411.3092277404128
 20
-243.289492619521
 30
0.0
 40
26.62102680000021
100
AcDbArc
 50
90.00822427455783
 51
113.4985398045151
  0
ARC
  5
163
330
66
100
AcDbEntity
  8
2
  6
Continuous
 62
     7
100
AcDbCircle
 10
409.835159260413
 20
-239.1611121595209
 30
0.0
 40
22.24920904000023
100
AcDbArc
 50
114.2563533287323
 51
141.0706000936927
  0
ARC
  5
164
330
66
100
AcDbEntity
  8
2
  6
Continuous
 62
     7
100
AcDbCircle
 10
405.6470795204131
 20
-253.538316959521
 30
0.0
 40
14.43711267000041
100
AcDbArc
 50
187.5324347372912
 51
217.2606169246513
  0
ARC
  5
165
330
66
100
AcDbEntity
  8
2
  6
Continuous
 62
     7
100
AcDbCircle
 10
408.7710793504131
 20
-251.2754054495209
 30
0.0
 40
18.29375606000043
100
AcDbArc
 50
216.9775756730553
 51
241.9119826817451
  0
ARC
  5
166
330
66
100
AcDbEntity
  8
2
  6
Continuous
 62
     7
100
AcDbCircle
 10
411.1905480204131
 20
-246.8132002295209
 30
0.0
 40
23.36960288000045
100
AcDbArc
 50
241.8296337479983
 51
270.28160234326
  0
ARC
  5
167
330
66
100
AcDbEntity
  8
2
  6
Continuous
 62
     7
100
AcDbCircle
 10
411.3191083704128
 20
-257.7731876995209
 30
0.0
 40
3.322804999999529
100
AcDbArc
 50
262.0723734410457
 51
269.763735983471
  0
ARC
  5
168
330
66
100
AcDbEntity
  8
2
  6
Continuous
 62
     7
100
AcDbCircle
 10
411.0519049404132
 20
-258.4955852895209
 30
0.0
 40
2.575749320000022
100
AcDbArc
 50
226.133331391883
 51
265.7455385332356
  0
ARC
  5
169
330
66
100
AcDbEntity
  8
2
  6
Continuous
 62
     7
100
AcDbCircle
 10
409.792531030413
 20
-259.8418690195209
 30
0.0
 40
0.7328425999998446
100
AcDbArc
 50
165.4906098064332
 51
224.1783798659907
  0
ARC
  5
16A
330
66
100
AcDbEntity
  8
2
  6
Continuous
 62
     7
100
AcDbCircle
 10
410.107107310413
 20
-260.114407149521
 30
0.0
 40
1.121042910000307
100
AcDbArc
 50
108.9829888534083
 51
155.9902476273164
  0
ARC
  5
16B
330
66
100
AcDbEntity
  8
2
  6
Continuous
 62
     7
100
AcDbCircle
 10
411.284838620413
 20
-263.1137148595211
 30
0.0
 40
4.342529700000408
100
AcDbArc
 50
89.72862375229487
 51
110.8046566876571
  0
ARC
  5
16C
330
66
100
AcDbEntity
  8
2
  6
Continuous
 62
     7
100
AcDbCircle
 10
411.190093590413
 20
-227.660521459521
 30
0.0
 40
26.11872273000031
100
AcDbArc
 50
242.445890339074
 51
270.2529590321184
  0
ARC
  5
16D
330
66
100
AcDbEntity
  8
2
  6
Continuous
 62
     7
100
AcDbCircle
 10
411.1965045904131
 20
-226.993781239521
 30
0.0
 40
24.33236371999984
100
AcDbArc
 50
242.6835809308434
 51
270.2564339009029
  0
ARC
  5
16E
330
66
100
AcDbEntity
  8
2
  6
Continuous
 62
     7
100
AcDbCircle
 10
405.1004378604131
 20
-235.1988696495209
 30
0.0
 40
16.19636556999981
100
AcDbArc
 50
187.5848248136543
 51
217.8490140460972
  0
ARC
  5
16F
330
66
100
AcDbEntity
  8
2
  6
Continuous
 62
     7
100
AcDbCircle
 10
405.297429700413
 20
-234.119086429521
 30
0.0
 40
14.8422817899999
100
AcDbArc
 50
181.6561285900718
 51
216.5919922220644
  0
ARC
  5
170
330
66
100
AcDbEntity
  8
2
  6
Continuous
 62
     7
100
AcDbCircle
 10
408.824420280413
 20
-231.5162120895212
 30
0.0
 40
19.22571584999993
100
AcDbArc
 50
216.5543412058651
 51
242.7795443266536
  0
ARC
  5
171
330
66
100
AcDbEntity
  8
2
  6
Continuous
 62
     7
100
AcDbCircle
 10
408.663556540413
 20
-232.476202699521
 30
0.0
 40
20.68052593999975
100
AcDbArc
 50
217.7482568195481
 51
242.4799561213699
  0
ARC
  5
172
330
66
100
AcDbEntity
  8
2
  6
Continuous
 62
     7
100
AcDbCircle
 10
405.347803950413
 20
-235.4286853495211
 30
0.0
 40
16.41329974000015
100
AcDbArc
 50
141.363297689551
 51
186.6755840625231
  0
ARC
  5
173
330
66
100
AcDbEntity
  8
2
  6
Continuous
 62
     7
100
AcDbCircle
 10
405.151636680413
 20
-234.3306718295211
 30
0.0
 40
14.69189699000036
100
AcDbArc
 50
145.5015736877356
 51
180.8477331768615
  0
ENDBLK
  5
68
330
66
100
AcDbEntity
  8
0
100
AcDbBlockEnd
  0
BLOCK
  5
6A
330
69
100
AcDbEntity
  8
0
100
AcDbBlockBegin
  2
31-76-M1-115
 70
     0
 10
1060.79907825418
 20
1351.420088083496
 30
0.0
  3
31-76-M1-115
  1

  0
LINE
  5
174
330
69
100
AcDbEntity
  8
1
  6
Continuous
 62
     7
100
AcDbLine
 10
388.9254065404118
 20
-172.7069510673519
 30
0.0
 11
390.5404116244708
 21
-142.2106093937151
 31
0.0
  0
LINE
  5
175
330
69
100
AcDbEntity
  8
1
  6
Continuous
 62
     7
100
AcDbLine
 10
433.6854065404118
 20
-172.7069510673519
 30
0.0
 11
432.1054065404118
 21
-142.8716147455366
 31
0.0
  0
LINE
  5
176
330
69
100
AcDbEntity
  8
1
  6
Continuous
 62
     7
100
AcDbLine
 10
525.6279786240862
 20
-238.7762898350412
 30
0.0
 11
525.3633022561721
 21
-237.2752355616091
 31
0.0
  0
LINE
  5
177
330
69
100
AcDbEntity
  8
1
  6
Continuous
 62
     7
100
AcDbLine
 10
474.892644564853
 20
-253.7652126727135
 30
0.0
 11
502.3310197693144
 21
-270.1687438859365
 31
0.0
  0
LINE
  5
178
330
69
100
AcDbEntity
  8
1
  6
Continuous
 62
     7
100
AcDbLine
 10
514.730026333415
 20
-254.340178676532
 30
0.0
 11
503.8320740427461
 21
-269.9040675180231
 31
0.0
  0
LINE
  5
179
330
69
100
AcDbEntity
  8
1
  6
Continuous
 62
     7
100
AcDbLine
 10
514.730026333415
 20
-254.340178676532
 30
0.0
 11
525.6279786240862
 21
-238.7762898350412
 31
0.0
  0
LINE
  5
17A
330
69
100
AcDbEntity
  8
1
  6
Continuous
 62
     7
100
AcDbLine
 10
502.3310197693144
 20
-270.1687438859365
 30
0.0
 11
503.8320740427461
 21
-269.9040675180231
 31
0.0
  0
LINE
  5
17B
330
69
100
AcDbEntity
  8
1
  6
Continuous
 62
     7
100
AcDbLine
 10
525.3633022561721
 20
-237.2752355616091
 30
0.0
 11
500.5645480002217
 21
-217.1019349522155
 31
0.0
  0
LINE
  5
17C
330
69
100
AcDbEntity
  8
1
  6
Continuous
 62
     7
100
AcDbLine
 10
525.3633022561721
 20
-237.2752355616091
 30
0.0
 11
502.3310197693144
 21
-270.1687438859365
 31
0.0
  0
LINE
  5
17D
330
69
100
AcDbEntity
  8
1
  6
Continuous
 62
     7
100
AcDbLine
 10
499.6860928417264
 20
-218.356498935833
 30
0.0
 11
487.7285962825376
 21
-235.4335738124643
 31
0.0
  0
LINE
  5
17E
330
69
100
AcDbEntity
  8
1
  6
Continuous
 62
     7
100
AcDbLine
 10
487.7285962825376
 20
-235.4335738124643
 30
0.0
 11
475.7710997233486
 21
-252.5106486890954
 31
0.0
  0
ARC
  5
17F
330
69
100
AcDbEntity
  8
1
  6
Continuous
 62
     7
100
AcDbCircle
 10
557.7355086769369
 20
-284.45294159781
 30
0.0
 40
89.9999999999999
100
AcDbArc
 50
144.9999999999998
 51
158.3934215303451
  0
ARC
  5
180
330
69
100
AcDbEntity
  8
1
  6
Continuous
 62
     7
100
AcDbCircle
 10
557.7355086769369
 20
-284.45294159781
 30
0.0
 40
90.0000000000002
100
AcDbArc
 50
131.6065784696546
 51
144.9999999999998
  0
SPLINE
  5
181
330
69
100
AcDbEntity
  8
1
  6
Continuous
 62
     7
100
AcDbSpline
210
0.0
220
0.0
230
1.0
 70
     8
 71
     3
 72
    45
 73
    41
 74
    39
 42
0.000000001
 43
0.0000000001
 44
0.00000001
 40
0.0
 40
0.0
 40
0.0
 40
0.0
 40
0.5061467419675881
 40
1.015600918877879
 40
2.063516266781577
 40
3.109982025781697
 40
4.246352613584038
 40
5.380893748873422
 40
6.640786817700921
 40
7.899264630297264
 40
9.296407625512472
 40
10.6926210678765
 40
12.22281914017645
 40
13.75243592215507
 40
15.39813696335275
 40
17.04348515813312
 40
18.77776883161996
 40
20.51185155161572
 40
22.30161542950044
 40
24.09128805980768
 40
25.89989977032375
 40
27.70851148094955
 40
29.49818411153748
 40
31.28794798977851
 40
33.02203071011559
 40
34.75631438390142
 40
36.4016625789175
 40
38.04736362030808
 40
39.5769804024334
 40
41.10717847485522
 40
42.50339191731234
 40
43.90053491260622
 40
45.15901272526142
 40
46.4189057941346
 40
47.55344692945015
 40
48.68981751724894
 40
49.73628327627089
 40
50.78419862502972
 40
50.96133725459705
 40
51.13782253917883
 40
51.13782253917883
 40
51.13782253917883
 40
51.13782253917883
 10
432.1054065404118
 20
-142.8716147455366
 30
0.0
 10
432.1014682023913
 20
-142.702838951465
 30
0.0
 10
432.0935657788006
 20
-142.3641844923611
 30
0.0
 10
432.0065364944272
 20
-141.680972449056
 30
0.0
 10
431.8060462455501
 20
-140.8329109139951
 30
0.0
 10
431.3950420297536
 20
-139.8334162360715
 30
0.0
 10
430.8404659325794
 20
-138.8730631718905
 30
0.0
 10
430.1263093352175
 20
-137.9342237903677
 30
0.0
 10
429.2842030084289
 20
-137.0514455935478
 30
0.0
 10
428.2925868842702
 20
-136.2000274390006
 30
0.0
 10
427.1911933793088
 20
-135.4153034869697
 30
0.0
 10
425.9534764150202
 20
-134.6744640994467
 30
0.0
 10
424.6247851906306
 20
-134.0076114262745
 30
0.0
 10
423.1785368313741
 20
-133.3978995710966
 30
0.0
 10
421.6606176356989
 20
-132.8675340778122
 30
0.0
 10
420.0494216180218
 20
-132.4061757374968
 30
0.0
 10
418.3864417516371
 20
-132.0281004847708
 30
0.0
 10
416.6588325719374
 20
-131.7281745605301
 30
0.0
 10
414.899886195491
 20
-131.5141692221305
 30
0.0
 10
413.1078930304899
 20
-131.3840211000748
 30
0.0
 10
411.3054065416462
 20
-131.3411245601529
 30
0.0
 10
409.5029200526947
 20
-131.3840210995458
 30
0.0
 10
407.7109268874143
 20
-131.5141692211988
 30
0.0
 10
405.9519805106025
 20
-131.7281745593812
 30
0.0
 10
404.2243713305728
 20
-132.0281004834926
 30
0.0
 10
402.5613914637944
 20
-132.4061757363484
 30
0.0
 10
400.9501954461961
 20
-132.867534076195
 30
0.0
 10
399.432276249164
 20
-133.3978995713093
 30
0.0
 10
397.9860278938198
 20
-134.0076114202874
 30
0.0
 10
396.657336654811
 20
-134.6744641157389
 30
0.0
 10
395.4196197400349
 20
-135.4153034271285
 30
0.0
 10
394.3182260593657
 20
-136.2000276486923
 30
0.0
 10
393.3266105290647
 20
-137.0514448916492
 30
0.0
 10
392.4845021053603
 20
-137.9342263065872
 30
0.0
 10
391.7703526003722
 20
-138.8730548026804
 30
0.0
 10
391.2157512779688
 20
-139.8334465816041
 30
0.0
 10
390.8048342112784
 20
-140.8328075048148
 30
0.0
 10
390.6297003504834
 20
-141.5729897736248
 30
0.0
 10
390.5604280120933
 20
-142.0350268688521
 30
0.0
 10
390.5470755262015
 20
-142.1521540184252
 30
0.0
 10
390.5404116244705
 20
-142.2106093937191
 30
0.0
 11
432.1054065404118
 21
-142.8716147455366
 31
0.0
 11
432.0849156089766
 21
-142.3658829445897
 31
0.0
 11
432.0234428146709
 21
-141.8601511436428
 31
0.0
 11
431.7796041839108
 21
-140.8409998823311
 31
0.0
 11
431.3864337725279
 21
-139.8712021663687
 31
0.0
 11
430.8202055556355
 21
-138.8859490429092
 31
0.0
 11
430.1364687451885
 21
-137.9805830615685
 31
0.0
 11
429.2695544309101
 21
-137.066367487976
 31
0.0
 11
428.3166277805946
 21
-136.2443594572753
 31
0.0
 11
427.1808449973238
 21
-135.4307219355565
 31
0.0
 11
425.9839019070391
 21
-134.711876184521
 31
0.0
 11
424.6175920005263
 21
-134.0228889726892
 31
0.0
 11
423.2086701631949
 21
-133.4273499276486
 31
0.0
 11
421.6557850798768
 21
-132.8824831249369
 31
0.0
 11
420.0742627821582
 21
-132.4286572758768
 31
0.0
 11
418.3834629555613
 21
-132.042735259016
 31
0.0
 11
416.6750171067951
 21
-131.7456567213681
 31
0.0
 11
414.8984649272594
 21
-131.5285920151415
 31
0.0
 11
413.1134963954096
 21
-131.3989175855342
 31
0.0
 11
411.3054065404118
 21
-131.3554735021076
 31
0.0
 11
409.4973166854139
 21
-131.3989175855342
 31
0.0
 11
407.7123481535641
 21
-131.5285920151415
 31
0.0
 11
405.9357959740285
 21
-131.745656721368
 31
0.0
 11
404.2273501252622
 21
-132.042735259016
 31
0.0
 11
402.5365502986654
 21
-132.4286572758768
 31
0.0
 11
400.9550280009469
 21
-132.8824831249369
 31
0.0
 11
399.4021429176285
 21
-133.4273499276486
 31
0.0
 11
397.9932210802971
 21
-134.0228889726892
 31
0.0
 11
396.6269111737844
 21
-134.711876184521
 31
0.0
 11
395.4299680834997
 21
-135.4307219355566
 31
0.0
 11
394.294185300229
 21
-136.2443594572753
 31
0.0
 11
393.3412586499134
 21
-137.066367487976
 31
0.0
 11
392.474344335635
 21
-137.9805830615684
 31
0.0
 11
391.7906075251879
 21
-138.8859490429092
 31
0.0
 11
391.2243793082956
 21
-139.8712021663689
 31
0.0
 11
390.8312088969128
 21
-140.8409998823312
 31
0.0
 11
390.5873702661527
 21
-141.8601511436429
 31
0.0
 11
390.5614309529522
 21
-142.035380268681
 31
0.0
 11
390.5404116244705
 21
-142.2106093937191
 31
0.0
  0
SPLINE
  5
182
330
69
100
AcDbEntity
  8
1
  6
Continuous
 62
     7
100
AcDbSpline
210
0.0
220
0.0
230
1.0
 70
     8
 71
     3
 72
    19
 73
    15
 74
    13
 42
0.000000001
 43
0.0000000001
 44
0.00000001
 40
0.0
 40
0.0
 40
0.0
 40
0.0
 40
0.881686268302303
 40
1.764147492479255
 40
3.156573042167382
 40
4.549926485602926
 40
5.745251785138253
 40
6.942338706797102
 40
7.950267525550011
 40
8.961769152763935
 40
9.82748982171371
 40
10.69702799301548
 40
11.10634120686966
 40
11.51052769493602
 40
11.51052769493602
 40
11.51052769493602
 40
11.51052769493602
 10
425.4316519428351
 20
-179.7803762896504
 30
0.0
 10
425.7096490609543
 20
-179.6849720214941
 30
0.0
 10
426.2658876409298
 20
-179.4940796267047
 30
0.0
 10
427.2486048543677
 20
-179.1173817480311
 30
0.0
 10
428.3685851374912
 20
-178.6248857177869
 30
0.0
 10
429.5468632755624
 20
-178.0114799734307
 30
0.0
 10
430.615980262909
 20
-177.3386012260713
 30
0.0
 10
431.5190345999693
 20
-176.650075407874
 30
0.0
 10
432.2942576485846
 20
-175.9058688614187
 30
0.0
 10
432.8963447430049
 20
-175.1516331472221
 30
0.0
 10
433.3516696290185
 20
-174.3515724148864
 30
0.0
 10
433.5725471857183
 20
-173.6666153396176
 30
0.0
 10
433.6722435060101
 20
-173.1131541042151
 30
0.0
 10
433.6810373398571
 20
-172.8417820120334
 30
0.0
 10
433.6854065404118
 20
-172.7069510673519
 30
0.0
 11
425.4316519428351
 21
-179.7803762896504
 31
0.0
 11
426.2638905842245
 21
-179.489258612081
 31
0.0
 11
427.0877847171703
 21
-179.1731316286824
 31
0.0
 11
428.361794072193
 21
-178.6112160879868
 31
0.0
 11
429.5953011604601
 21
-177.9632237412423
 31
0.0
 11
430.605433388967
 21
-177.3241341916403
 31
0.0
 11
431.5533065855803
 21
-176.5930025340869
 31
0.0
 11
432.2771330072558
 21
-175.8915784010391
 31
0.0
 11
432.9033762123255
 21
-175.0972516489441
 31
0.0
 11
433.3239241234951
 21
-174.3405405216785
 31
0.0
 11
433.5940764979733
 21
-173.5140332162918
 31
0.0
 11
433.6625740298022
 21
-173.1104921418218
 31
0.0
 11
433.6854065404118
 21
-172.7069510673519
 31
0.0
  0
SPLINE
  5
183
330
69
100
AcDbEntity
  8
1
  6
Continuous
 62
     7
100
AcDbSpline
210
0.0
220
0.0
230
1.0
 70
     8
 71
     3
 72
     9
 73
     5
 74
     3
 42
0.000000001
 43
0.0000000001
 44
0.00000001
 40
0.0
 40
0.0
 40
0.0
 40
0.0
 40
0.4385806560503226
 40
0.8807940213118481
 40
0.8807940213118481
 40
0.8807940213118481
 40
0.8807940213118481
 10
391.2254065404118
 20
-172.7069510673559
 30
0.0
 10
391.2287943509016
 20
-172.8532912401548
 30
0.0
 10
391.2355980526139
 20
-173.1471837019076
 30
0.0
 10
391.2820703862477
 20
-173.4374621422991
 30
0.0
 10
391.3054023972767
 20
-173.5831999673574
 30
0.0
 11
391.2254065404118
 21
-172.7069510673559
 31
0.0
 11
391.2454055046281
 21
-173.1450755173567
 31
0.0
 11
391.3054023972767
 21
-173.5831999673574
 31
0.0
  0
SPLINE
  5
184
330
69
100
AcDbEntity
  8
1
  6
Continuous
 62
     7
100
AcDbSpline
210
0.0
220
0.0
230
1.0
 70
     8
 71
     3
 72
     9
 73
     5
 74
     3
 42
0.000000001
 43
0.0000000001
 44
0.00000001
 40
0.0
 40
0.0
 40
0.0
 40
0.0
 40
0.6110086601557412
 40
1.224487510854112
 40
1.224487510854112
 40
1.224487510854112
 40
1.224487510854112
 10
431.3854065391406
 20
-172.7067949095169
 30
0.0
 10
431.3821368127441
 20
-172.5030240910277
 30
0.0
 10
431.375584121116
 20
-172.0946586487577
 30
0.0
 10
431.3303041499817
 20
-171.6887571717545
 30
0.0
 10
431.3076184822021
 20
-171.4853970162363
 30
0.0
 11
431.3854065391406
 21
-172.7067949095169
 31
0.0
 11
431.3659545535083
 21
-172.0960959628766
 31
0.0
 11
431.3076184822021
 21
-171.4853970162363
 31
0.0
  0
SPLINE
  5
185
330
69
100
AcDbEntity
  8
1
  6
Continuous
 62
     7
100
AcDbSpline
210
0.0
220
0.0
230
1.0
 70
     8
 71
     3
 72
    43
 73
    39
 74
    37
 42
0.000000001
 43
0.0000000001
 44
0.00000001
 40
0.0
 40
0.0
 40
0.0
 40
0.0
 40
0.9185445441095563
 40
1.835097372239557
 40
2.854478429607817
 40
3.871588678983261
 40
5.028589183322821
 40
6.184069459204371
 40
7.491131162355167
 40
8.797286823428244
 40
10.2476576861427
 40
11.697496717329
 40
13.27095483759187
 40
14.84410330467703
 40
16.51130233757201
 40
18.1783294843504
 40
19.90399567334674
 40
21.62958490912484
 40
23.37508058187693
 40
25.12057625451002
 40
26.84616548995624
 40
28.57183167846171
 40
30.2388588246772
 40
31.90605785698212
 40
33.47920632352395
 40
35.05266444328012
 40
36.50250347404006
 40
37.95287433636761
 40
39.25902999712258
 40
40.56609169997542
 40
41.72157197560015
 40
42.87857247965989
 40
43.89568272869202
 40
44.91506378517446
 40
45.83161661262632
 40
46.75016116584201
 40
47.19245285930868
 40
47.63111117873969
 40
47.63111117873969
 40
47.63111117873969
 40
47.63111117873969
 10
391.3054023972767
 20
-173.5831999673574
 30
0.0
 10
391.3740935378042
 20
-173.8823959152657
 30
0.0
 10
391.5113268892711
 20
-174.4801390474028
 30
0.0
 10
391.9204027363247
 20
-175.3459757702801
 30
0.0
 10
392.4552226250847
 20
-176.1749253142037
 30
0.0
 10
393.1480276980666
 20
-176.9868559789912
 30
0.0
 10
393.9602607124224
 20
-177.7462279952172
 30
0.0
 10
394.9187342150682
 20
-178.4816580136551
 30
0.0
 10
395.9799437377732
 20
-179.1567341851498
 30
0.0
 10
397.1751021817425
 20
-179.7964589244307
 30
0.0
 10
398.4554332283209
 20
-180.3706812880545
 30
0.0
 10
399.8514819247461
 20
-180.8971699483357
 30
0.0
 10
401.31471563482
 20
-181.3542688662855
 30
0.0
 10
402.8697492324852
 20
-181.7526666092128
 30
0.0
 10
404.4733961458282
 20
-182.0787146292375
 30
0.0
 10
406.1406026264374
 20
-182.3377176745052
 30
0.0
 10
407.8372609320451
 20
-182.5223349155019
 30
0.0
 10
409.5663997811891
 20
-182.634741411549
 30
0.0
 10
411.3054065432801
 20
-182.6717192647544
 30
0.0
 10
413.0444133053115
 20
-182.6347414107338
 30
0.0
 10
414.7735521538871
 20
-182.5223349139255
 30
0.0
 10
416.4702104597096
 20
-182.3377176724964
 30
0.0
 10
418.1374169370237
 20
-182.0787146263826
 30
0.0
 10
419.7410638594847
 20
-181.7526666078438
 30
0.0
 10
421.29609742217
 20
-181.3542688588414
 30
0.0
 10
422.7593312551965
 20
-180.8971699624037
 30
0.0
 10
424.1553795248122
 20
-180.3706812278993
 30
0.0
 10
425.43571208292
 20
-179.7964591277496
 30
0.0
 10
426.630865415624
 20
-179.1567334981627
 30
0.0
 10
427.6920928703231
 20
-178.4816604508193
 30
0.0
 10
428.6505067713101
 20
-177.7462200490793
 30
0.0
 10
429.4629477728844
 20
-176.9868842673741
 30
0.0
 10
430.1550647629749
 20
-176.1748337291828
 30
0.0
 10
430.6923014982043
 20
-175.3463052349184
 30
0.0
 10
431.0932089212793
 20
-174.4790454544149
 30
0.0
 10
431.2882012796275
 20
-173.7415356000707
 30
0.0
 10
431.3738727359474
 20
-173.1468702865735
 30
0.0
 10
431.3815725251769
 20
-172.8530828048614
 30
0.0
 10
431.3854065378712
 20
-172.7067949095156
 30
0.0
 11
391.3054023972767
 21
-173.5831999673574
 31
0.0
 11
391.5429828113645
 21
-174.4704877670193
 31
0.0
 11
391.9220681940874
 21
-175.3049716531103
 31
0.0
 11
392.4739189284359
 21
-176.1620588736575
 31
0.0
 11
393.1305274721039
 21
-176.9388332795955
 31
0.0
 11
393.9727078166491
 21
-177.7321695463835
 31
0.0
 11
394.8876924495112
 21
-178.4378166166178
 31
0.0
 11
395.9883897039289
 21
-179.1427108269326
 31
0.0
 11
397.1390397965324
 21
-179.7608103117805
 31
0.0
 11
398.4611653187417
 21
-180.3570986147026
 31
0.0
 11
399.8172726483335
 21
-180.8699398417213
 31
0.0
 11
401.31850902838
 21
-181.3411720391325
 31
0.0
 11
402.8422291209742
 21
-181.7324177101619
 31
0.0
 11
404.4757126510024
 21
-182.0660105275978
 31
0.0
 11
406.1229157640666
 21
-182.3223333857846
 31
0.0
 11
407.8383605388009
 21
-182.5098780883899
 31
0.0
 11
409.5603139514861
 21
-182.6218363398333
 31
0.0
 11
411.3054065404118
 21
-182.6593462682364
 31
0.0
 11
413.0504991293374
 21
-182.6218363398334
 31
0.0
 11
414.7724525420224
 21
-182.5098780883901
 31
0.0
 11
416.4878973167569
 21
-182.3223333857847
 31
0.0
 11
418.1351004298209
 21
-182.0660105275979
 31
0.0
 11
419.7685839598493
 21
-181.7324177101619
 31
0.0
 11
421.2923040524433
 21
-181.3411720391327
 31
0.0
 11
422.7935404324899
 21
-180.8699398417214
 31
0.0
 11
424.1496477620817
 21
-180.3570986147028
 31
0.0
 11
425.471773284291
 21
-179.7608103117807
 31
0.0
 11
426.6224233768945
 21
-179.1427108269327
 31
0.0
 11
427.7231206313122
 21
-178.437816616618
 31
0.0
 11
428.6381052641744
 21
-177.7321695463838
 31
0.0
 11
429.4802856087196
 21
-176.9388332795957
 31
0.0
 11
430.1368941523876
 21
-176.1620588736577
 31
0.0
 11
430.6887448867361
 21
-175.3049716531105
 31
0.0
 11
431.067830269459
 21
-174.4704877670196
 31
0.0
 11
431.3054106835469
 21
-173.5831999673577
 31
0.0
 11
431.3654147036606
 21
-173.1449974384367
 31
0.0
 11
431.3854065378712
 21
-172.7067949095156
 31
0.0
  0
SPLINE
  5
186
330
69
100
AcDbEntity
  8
1
  6
Continuous
 62
     7
100
AcDbSpline
210
0.0
220
0.0
230
1.0
 70
     8
 71
     3
 72
    43
 73
    39
 74
    37
 42
0.000000001
 43
0.0000000001
 44
0.00000001
 40
0.0
 40
0.0
 40
0.0
 40
0.0
 40
1.243196775699343
 40
2.48581714764819
 40
3.782047576262029
 40
5.077402769752496
 40
6.450861725779962
 40
7.823449633718069
 40
9.286215930616578
 40
10.74827067544896
 40
12.3006097448729
 40
13.85242654067986
 40
15.48458365595347
 40
17.11638608795341
 40
18.81089219343997
 40
20.50518101724563
 40
22.23918432105638
 40
23.97308483147414
 40
25.7205685243415
 40
27.46805221518823
 40
29.20195271966956
 40
30.93595601925278
 40
32.63024484174218
 40
34.32475094684862
 40
35.95655337874803
 40
37.58871049401218
 40
39.14052728984397
 40
40.69286635931015
 40
42.15492110419503
 40
43.61768740116437
 40
44.99027530920429
 40
46.36373426542658
 40
47.6590894594022
 40
48.9553198896443
 40
50.19794026653965
 40
51.4411370473372
 40
52.05469409279466
 40
52.66578062768848
 40
52.66578062768848
 40
52.66578062768848
 40
52.66578062768848
 10
431.3076184822021
 20
-171.4853970162363
 30
0.0
 10
431.2409782269857
 20
-171.0758245726823
 30
0.0
 10
431.1077286005827
 20
-170.2568695850941
 30
0.0
 10
430.7103369722844
 20
-169.0555488066167
 30
0.0
 10
430.1809756910765
 20
-167.8899146306648
 30
0.0
 10
429.4975607359468
 20
-166.7553472023266
 30
0.0
 10
428.6851793512785
 20
-165.6778218848611
 30
0.0
 10
427.7318709803721
 20
-164.6456700986985
 30
0.0
 10
426.6655316964157
 20
-163.6862058210366
 30
0.0
 10
425.472462286961
 20
-162.786846036865
 30
0.0
 10
424.1849681115352
 20
-161.9719370126825
 30
0.0
 10
422.7890753354334
 20
-161.2313562717071
 30
0.0
 10
421.3186116599938
 20
-160.5839953446551
 30
0.0
 10
419.7624271672867
 20
-160.02348414374
 30
0.0
 10
418.1523649687234
 20
-159.5625011969655
 30
0.0
 10
416.4829588876515
 20
-159.198084302887
 30
0.0
 10
414.7809728352423
 20
-158.9373134479222
 30
0.0
 10
413.0486413626857
 20
-158.7792354677104
 30
0.0
 10
411.3054065333666
 20
-158.7268439519721
 30
0.0
 10
409.5621717058447
 20
-158.7792354635135
 30
0.0
 10
407.8298402372019
 20
-158.9373134415421
 30
0.0
 10
406.1278541885622
 20
-159.1980842992103
 30
0.0
 10
404.4584481116074
 20
-159.5625011947654
 30
0.0
 10
402.8483859073837
 20
-160.0234841414959
 30
0.0
 10
401.2922014384313
 20
-160.5839953456995
 30
0.0
 10
399.8217376778258
 20
-161.2313562625393
 30
0.0
 10
398.4258452051979
 20
-161.97193704079
 30
0.0
 10
397.1383499308455
 20
-162.7868459304336
 30
0.0
 10
395.9452843957975
 20
-163.6862061890162
 30
0.0
 10
394.8789311233849
 20
-164.6456687536235
 30
0.0
 10
393.925671906043
 20
-165.6778265587714
 30
0.0
 10
393.1131128896399
 20
-166.7553301240992
 30
0.0
 10
392.4303251983075
 20
-167.8899743645562
 30
0.0
 10
391.8986825122316
 20
-169.0553291710965
 30
0.0
 10
391.5094727818597
 20
-170.2576518720496
 30
0.0
 10
391.3181701684015
 20
-171.2756623948983
 30
0.0
 10
391.2366692638976
 20
-172.0949138352914
 30
0.0
 10
391.229155724954
 20
-172.5032132147357
 30
0.0
 10
391.2254065404118
 20
-172.7069510673607
 30
0.0
 11
431.3076184822021
 21
-171.4853970162363
 31
0.0
 11
431.0756971260458
 21
-170.2640245417929
 31
0.0
 11
430.6959059387867
 21
-169.0808660340586
 31
0.0
 11
430.158618838691
 21
-167.9012322350698
 31
0.0
 11
429.4930067757144
 21
-166.7899691430435
 31
0.0
 11
428.6674952311946
 21
-165.6922805743191
 31
0.0
 11
427.7379225686745
 21
-164.6823834359311
 31
0.0
 11
426.6519356203427
 21
-163.7024254840777
 31
0.0
 11
425.4855422809244
 21
-162.8208753410448
 31
0.0
 11
424.1749150920959
 21
-161.9890021785793
 31
0.0
 11
422.8047198870978
 21
-161.2605102650933
 31
0.0
 11
421.3115651605126
 21
-160.6014004021631
 31
0.0
 11
419.7766248411375
 21
-160.047561623495
 31
0.0
 11
418.1479007950302
 21
-159.5800052932914
 31
0.0
 11
416.4926986729736
 21
-159.2181758457475
 31
0.0
 11
414.7788098618807
 21
-158.9548270544295
 31
0.0
 11
413.0520918911415
 21
-158.7971691717054
 31
0.0
 11
411.3054065404118
 21
-158.7443531498585
 31
0.0
 11
409.558721189682
 21
-158.7971691717053
 31
0.0
 11
407.8320032189429
 21
-158.9548270544294
 31
0.0
 11
406.11811440785
 21
-159.2181758457474
 31
0.0
 11
404.4629122857935
 21
-159.5800052932914
 31
0.0
 11
402.8341882396861
 21
-160.047561623495
 31
0.0
 11
401.2992479203108
 21
-160.6014004021631
 31
0.0
 11
399.8060931937256
 21
-161.2605102650934
 31
0.0
 11
398.4358979887276
 21
-161.9890021785796
 31
0.0
 11
397.1252707998991
 21
-162.8208753410449
 31
0.0
 11
395.9588774604809
 21
-163.7024254840776
 31
0.0
 11
394.872890512149
 21
-164.6823834359311
 31
0.0
 11
393.9433178496291
 21
-165.6922805743191
 31
0.0
 11
393.1178063051091
 21
-166.7899691430434
 31
0.0
 11
392.4521942421325
 21
-167.9012322350697
 31
0.0
 11
391.9149071420369
 21
-169.0808660340587
 31
0.0
 11
391.5351159547777
 21
-170.2640245417932
 31
0.0
 11
391.3031945986215
 21
-171.4853970162363
 31
0.0
 11
391.2448535549639
 21
-172.0961740417985
 31
0.0
 11
391.2254065404118
 21
-172.7069510673607
 31
0.0
  0
SPLINE
  5
187
330
69
100
AcDbEntity
  8
1
  6
Continuous
 62
     7
100
AcDbSpline
210
0.0
220
0.0
230
1.0
 70
     8
 71
     3
 72
     9
 73
     5
 74
     3
 42
0.000000001
 43
0.0000000001
 44
0.00000001
 40
0.0
 40
0.0
 40
0.0
 40
0.0
 40
0.4041864939329609
 40
0.8134997116502203
 40
0.8134997116502203
 40
0.8134997116502203
 40
0.8134997116502203
 10
388.9254065404118
 20
-172.7069510673429
 30
0.0
 10
388.9293069856021
 20
-172.8418833064246
 30
0.0
 10
388.9371573693212
 20
-173.1134592708769
 30
0.0
 10
388.9900989580304
 20
-173.3799487578638
 30
0.0
 10
389.0167365828503
 20
-173.5140332162918
 30
0.0
 11
388.9254065404118
 21
-172.7069510673429
 31
0.0
 11
388.9482390510208
 21
-173.1104921418174
 31
0.0
 11
389.0167365828503
 21
-173.5140332162918
 31
0.0
  0
SPLINE
  5
188
330
69
100
AcDbEntity
  8
1
  6
Continuous
 62
     7
100
AcDbSpline
210
0.0
220
0.0
230
1.0
 70
     8
 71
     3
 72
     9
 73
     5
 74
     3
 42
0.000000001
 43
0.0000000001
 44
0.00000001
 40
0.0
 40
0.0
 40
0.0
 40
0.0
 40
0.7237996632992187
 40
1.450172629044704
 40
1.450172629044704
 40
1.450172629044704
 40
1.450172629044704
 10
433.6854065404118
 20
-172.7069510673594
 30
0.0
 10
433.6817814187137
 20
-172.4655787403667
 30
0.0
 10
433.6745182670708
 20
-171.9819759437419
 30
0.0
 10
433.6242126439729
 20
-171.5009407451428
 30
0.0
 10
433.5990151892785
 20
-171.2599963528979
 30
0.0
 11
433.6854065404118
 21
-172.7069510673594
 31
0.0
 11
433.6638087026286
 21
-171.9834737101287
 31
0.0
 11
433.5990151892785
 21
-171.2599963528979
 31
0.0
  0
SPLINE
  5
189
330
69
100
AcDbEntity
  8
1
  6
Continuous
 62
     7
100
AcDbSpline
210
0.0
220
0.0
230
1.0
 70
     8
 71
     3
 72
    17
 73
    13
 74
    11
 42
0.000000001
 43
0.0000000001
 44
0.00000001
 40
0.0
 40
0.0
 40
0.0
 40
0.0
 40
0.869538166671255
 40
1.735258828361395
 40
2.746760454281627
 40
3.754689273230218
 40
4.951776195089638
 40
6.147101494711683
 40
7.540454938159275
 40
8.932880487744958
 40
9.81534171203638
 40
10.6970279801958
 40
10.6970279801958
 40
10.6970279801958
 40
10.6970279801958
 10
389.0167365828503
 20
-173.5140332162918
 30
0.0
 10
389.0953665205978
 20
-173.7941171157292
 30
0.0
 10
389.2522812037525
 20
-174.3530552664764
 30
0.0
 10
389.7166501334245
 20
-175.1511616873562
 30
0.0
 10
390.3159389549605
 20
-175.9060020744764
 30
0.0
 10
391.0919781523652
 20
-176.6500322613031
 30
0.0
 10
391.9947758724171
 20
-177.3386135318862
 30
0.0
 10
393.063967907364
 20
-178.0114760625405
 30
0.0
 10
394.2422227100466
 20
-178.6248868493149
 30
0.0
 10
395.3622090648269
 20
-179.1173815676557
 30
0.0
 10
396.344925271548
 20
-179.4940796620781
 30
0.0
 10
396.901163963659
 20
-179.6849720336611
 30
0.0
 10
397.17916113798
 20
-179.7803762896477
 30
0.0
 11
389.0167365828503
 21
-173.5140332162918
 31
0.0
 11
389.2868889573284
 21
-174.3405405216787
 31
0.0
 11
389.7074368684979
 21
-175.0972516489442
 31
0.0
 11
390.3336800735677
 21
-175.8915784010391
 31
0.0
 11
391.0575064952433
 21
-176.5930025340868
 31
0.0
 11
392.0053796918565
 21
-177.3241341916402
 31
0.0
 11
393.0155119203635
 21
-177.9632237412423
 31
0.0
 11
394.2490190086305
 21
-178.6112160879869
 31
0.0
 11
395.5230283636532
 21
-179.1731316286824
 31
0.0
 11
396.3469224965948
 21
-179.4892586120795
 31
0.0
 11
397.17916113798
 21
-179.7803762896477
 31
0.0
  0
SPLINE
  5
18A
330
69
100
AcDbEntity
  8
1
  6
Continuous
 62
     7
100
AcDbSpline
210
0.0
220
0.0
230
1.0
 70
     8
 71
     3
 72
    43
 73
    39
 74
    37
 42
0.000000001
 43
0.0000000001
 44
0.00000001
 40
0.0
 40
0.0
 40
0.0
 40
0.0
 40
1.467189323776611
 40
2.933902434505905
 40
4.450314777661609
 40
5.965971716390744
 40
7.554779499173273
 40
9.142789385818698
 40
10.8162119526706
 40
12.4889429672337
 40
14.24806686483725
 40
16.00665750246097
 40
17.84276765111274
 40
19.67850195598828
 40
21.57511007333876
 40
23.47148202363506
 40
25.40656303381564
 40
27.34153066039075
 40
29.28976338624831
 40
31.23799611181941
 40
33.17296373767324
 40
35.108044746977
 40
37.00441669649979
 40
38.90102481326751
 40
40.73675911776672
 40
42.57286926619581
 40
44.33145990371688
 40
46.09058380130278
 40
47.76331481591755
 40
49.43673738289084
 40
51.02474726974024
 40
52.61355505287683
 40
54.12921199227637
 40
55.64562433696974
 40
57.11233745144582
 40
58.57952677959115
 40
59.30589974238674
 40
60.02969939952961
 40
60.02969939952961
 40
60.02969939952961
 40
60.02969939952961
 10
433.5990151892785
 20
-171.2599963528979
 30
0.0
 10
433.5250262519493
 20
-170.775972862804
 30
0.0
 10
433.3770723791031
 20
-169.8080829870215
 30
0.0
 10
432.9361504904881
 20
-168.3865307621278
 30
0.0
 10
432.3471728571988
 20
-167.0049157746549
 30
0.0
 10
431.5876470289801
 20
-165.6613622396409
 30
0.0
 10
430.6826267902926
 20
-164.3824416508563
 30
0.0
 10
429.6217796237206
 20
-163.1592265360363
 30
0.0
 10
428.4327229363861
 20
-162.0195892367314
 30
0.0
 10
427.10395539526
 20
-160.9531979416594
 30
0.0
 10
425.6676704083641
 20
-159.9850665501776
 30
0.0
 10
424.1122238873906
 20
-159.1066820454935
 30
0.0
 10
422.4716746363953
 20
-158.3376704563153
 30
0.0
 10
420.7370725064348
 20
-157.6727500428558
 30
0.0
 10
418.9409124228338
 20
-157.1252374079708
 30
0.0
 10
417.079707524186
 20
-156.6929009375423
 30
0.0
 10
415.181259306971
 20
-156.3832174174348
 30
0.0
 10
413.2495660649929
 20
-156.1956957133857
 30
0.0
 10
411.3054065375984
 20
-156.1334229672406
 30
0.0
 10
409.3612470103668
 20
-156.1956957125186
 30
0.0
 10
407.4295537690911
 20
-156.3832174159815
 30
0.0
 10
405.5311055521277
 20
-156.6929009357792
 30
0.0
 10
403.6699006560684
 20
-157.1252374064194
 30
0.0
 10
401.8737405663872
 20
-157.67275004066
 30
0.0
 10
400.1391384612292
 20
-158.3376704570811
 30
0.0
 10
398.4985891216912
 20
-159.1066820361901
 30
0.0
 10
396.9431429192597
 20
-159.9850665776166
 30
0.0
 10
395.5068567741992
 20
-160.9531978359578
 30
0.0
 10
394.1780933538593
 20
-162.0195896050837
 30
0.0
 10
392.9890217047982
 20
-163.1592251834433
 30
0.0
 10
391.9282276708902
 20
-164.3824464099505
 30
0.0
 10
391.0230142611979
 20
-165.6613447791786
 30
0.0
 10
390.2641779144388
 20
-167.0049776229416
 30
0.0
 10
389.6726794404028
 20
-168.386302649605
 30
0.0
 10
389.2408740239571
 20
-169.8089035087646
 30
0.0
 10
389.0281836717752
 20
-171.0131897614978
 30
0.0
 10
388.9379217460834
 20
-171.9821630888854
 30
0.0
 10
388.9295733334491
 20
-172.4656410487484
 30
0.0
 10
388.9254065404119
 20
-172.7069510673593
 30
0.0
 11
433.5990151892785
 21
-171.2599963528979
 31
0.0
 11
433.3413550136679
 21
-169.8156086757824
 31
0.0
 11
432.9181114596247
 21
-168.4112895330713
 31
0.0
 11
432.3217064156826
 21
-167.0170845901596
 31
0.0
 11
431.5785830115283
 21
-165.6961063298263
 31
0.0
 11
430.6619290357257
 21
-164.3983946281909
 31
0.0
 11
429.6232464251546
 21
-163.1971811436604
 31
0.0
 11
428.4164137272018
 21
-162.0379150279519
 31
0.0
 11
427.1130343705931
 21
-160.9894727070615
 31
0.0
 11
425.6553717163324
 21
-160.0047207212173
 31
0.0
 11
424.1247891940077
 21
-159.1387194666946
 31
0.0
 11
422.462928184475
 21
-158.3580028330083
 31
0.0
 11
420.7491717369603
 21
-157.700006423428
 31
0.0
 11
418.9353167055227
 21
-157.1458834471854
 31
0.0
 11
417.0882518165106
 21
-156.7162581855949
 31
0.0
 11
415.1785327431554
 21
-156.4039897575104
 31
0.0
 11
413.2526308890052
 21
-156.2169021901426
 31
0.0
 11
411.3054065404118
 21
-156.154227758058
 31
0.0
 11
409.3581821918183
 21
-156.2169021901426
 31
0.0
 11
407.432280337668
 21
-156.4039897575104
 31
0.0
 11
405.5225612643129
 21
-156.7162581855949
 31
0.0
 11
403.6754963753008
 21
-157.1458834471853
 31
0.0
 11
401.8616413438633
 21
-157.7000064234279
 31
0.0
 11
400.1478848963486
 21
-158.3580028330083
 31
0.0
 11
398.4860238868158
 21
-159.1387194666946
 31
0.0
 11
396.955441364491
 21
-160.0047207212173
 31
0.0
 11
395.4977787102305
 21
-160.9894727070615
 31
0.0
 11
394.1943993536218
 21
-162.0379150279519
 31
0.0
 11
392.9875666556689
 21
-163.1971811436604
 31
0.0
 11
391.9488840450978
 21
-164.398394628191
 31
0.0
 11
391.0322300692952
 21
-165.6961063298263
 31
0.0
 11
390.289106665141
 21
-167.0170845901597
 31
0.0
 11
389.6927016211989
 21
-168.4112895330713
 31
0.0
 11
389.2694580671557
 21
-169.8156086757824
 31
0.0
 11
389.011797891545
 21
-171.2599963528978
 31
0.0
 11
388.9470043781949
 21
-171.9834737101286
 31
0.0
 11
388.9254065404119
 21
-172.7069510673593
 31
0.0
  0
SPLINE
  5
18B
330
69
100
AcDbEntity
  8
1
  6
Continuous
 62
     7
100
AcDbSpline
210
0.0
220
0.0
230
1.0
 70
     8
 71
     3
 72
    25
 73
    21
 74
    19
 42
0.000000001
 43
0.0000000001
 44
0.00000001
 40
0.0
 40
0.0
 40
0.0
 40
0.0
 40
0.0289753663266456
 40
0.0579532565498216
 40
1.566525072853265
 40
3.074767293633593
 40
4.661418709614392
 40
6.247880639432531
 40
7.883507562340302
 40
9.519047995014894
 40
11.1713230322921
 40
12.82359806956918
 40
14.45913850224378
 40
16.09476542515162
 40
17.68122735496982
 40
19.26787877095055
 40
20.77612099173096
 40
22.28469280803438
 40
22.31367069824733
 40
22.34264606456354
 40
22.34264606456354
 40
22.34264606456354
 40
22.34264606456354
 10
422.2334391416744
 20
-133.073387040239
 30
0.0
 10
422.224473031151
 20
-133.0697961146064
 30
0.0
 10
422.2065400237957
 20
-133.0626139638403
 30
0.0
 10
421.7214426914113
 20
-132.8693620728398
 30
0.0
 10
420.7667197778303
 20
-132.5218476910714
 30
0.0
 10
419.2946281708707
 20
-132.0857738948773
 30
0.0
 10
417.7750229127925
 20
-131.7275433129005
 30
0.0
 10
416.1966991407933
 20
-131.4436883620124
 30
0.0
 10
414.5894910121378
 20
-131.2410257911116
 30
0.0
 10
412.9522866668692
 20
-131.1178399047139
 30
0.0
 10
411.305406540412
 20
-131.0772069116041
 30
0.0
 10
409.6585264139541
 20
-131.1178399047139
 30
0.0
 10
408.021322068686
 20
-131.2410257911116
 30
0.0
 10
406.4141139400301
 20
-131.4436883620126
 30
0.0
 10
404.8357901680311
 20
-131.7275433129005
 30
0.0
 10
403.3161849099527
 20
-132.0857738948775
 30
0.0
 10
401.844093302994
 20
-132.5218476910705
 30
0.0
 10
400.8893703894137
 20
-132.8693620728404
 30
0.0
 10
400.4042730570374
 20
-133.0626139638364
 30
0.0
 10
400.3863400496884
 20
-133.0697961146001
 30
0.0
 10
400.3773739391683
 20
-133.0733870402314
 30
0.0
 11
422.2334391416744
 21
-133.073387040239
 31
0.0
 11
422.2065375429494
 21
-133.0626224763603
 31
0.0
 11
422.17961846024
 21
-133.0518948923473
 31
0.0
 11
420.7618468722678
 21
-132.536421660206
 31
0.0
 11
419.3161524304796
 21
-132.1065819513665
 31
0.0
 11
417.772095861034
 21
-131.7414079868969
 31
0.0
 11
416.2107716567405
 21
-131.4601106671182
 31
0.0
 11
414.5880967814642
 21
-131.2546801963973
 31
0.0
 11
412.9571696706629
 21
-131.1319232641836
 31
0.0
 11
411.3054065404118
 21
-131.0907971341937
 31
0.0
 11
409.6536434101607
 21
-131.1319232641835
 31
0.0
 11
408.0227162993594
 21
-131.2546801963972
 31
0.0
 11
406.400041424083
 21
-131.4601106671183
 31
0.0
 11
404.8387172197895
 21
-131.741407986897
 31
0.0
 11
403.2946606503439
 21
-132.1065819513665
 31
0.0
 11
401.8489662085557
 21
-132.536421660206
 31
0.0
 11
400.4311946205835
 21
-133.0518948923473
 31
0.0
 11
400.4042755378836
 21
-133.0626224763565
 31
0.0
 11
400.3773739391683
 21
-133.0733870402314
 31
0.0
  0
ARC
  5
18C
330
69
100
AcDbEntity
  8
1
  6
Continuous
 62
     7
100
AcDbCircle
 10
475.9188979164186
 20
-252.0485868956736
 30
0.0
 40
1.999999999999375
100
AcDbArc
 50
180.0
 51
239.1276786037129
  0
ARC
  5
18D
330
69
100
AcDbEntity
  8
1
  6
Continuous
 62
     7
100
AcDbCircle
 10
499.3024467432772
 20
-218.6534182480381
 30
0.0
 40
1.999999999999687
100
AcDbArc
 50
90.0
 51
131.6065784696657
  0
ARC
  5
18E
330
69
100
AcDbEntity
  8
1
  6
Continuous
 62
     7
100
AcDbCircle
 10
475.9188979164186
 20
-252.0485868956736
 30
0.0
 40
2.000000000000103
100
AcDbArc
 50
158.393421530326
 51
180.0
  0
ARC
  5
18F
330
69
100
AcDbEntity
  8
1
  6
Continuous
 62
     7
100
AcDbCircle
 10
499.3024467432772
 20
-218.6534182480381
 30
0.0
 40
1.999999999999369
100
AcDbArc
 50
50.87232139628229
 51
90.0
  0
ENDBLK
  5
6B
330
69
100
AcDbEntity
  8
0
100
AcDbBlockEnd
  0
BLOCK
  5
6D
330
6C
100
AcDbEntity
  8
0
100
AcDbBlockBegin
  2
30-201K
 70
     0
 10
115.6407665476508
 20
197.3643453154367
 30
0.0
  3
30-201K
  1

  0
LINE
  5
190
330
6C
100
AcDbEntity
  8
2
  6
Continuous
 62
     7
100
AcDbLine
 10
139.1407665484681
 20
204.9303460551645
 30
0.0
 11
139.1407665484681
 21
206.9614336587142
 31
0.0
  0
LINE
  5
191
330
6C
100
AcDbEntity
  8
1
  6
PHANTOM
 62
     4
100
AcDbLine
 10
127.3907665484681
 20
211.6698692887143
 30
0.0
 11
127.3907665484681
 21
197.6009414920301
 31
0.0
  0
LINE
  5
192
330
6C
100
AcDbEntity
  8
2
  6
Continuous
 62
     7
100
AcDbLine
 10
126.3907665484681
 20
197.3643453154367
 30
0.0
 11
126.3907665484681
 21
200.8429990018506
 31
0.0
  0
LINE
  5
193
330
6C
100
AcDbEntity
  8
2
  6
Continuous
 62
     7
100
AcDbLine
 10
115.6407665484681
 20
206.9614336587142
 30
0.0
 11
115.6407665484681
 21
204.9303460551645
 31
0.0
  0
LINE
  5
194
330
6C
100
AcDbEntity
  8
2
  6
Continuous
 62
     7
100
AcDbLine
 10
128.3907665484681
 20
200.8429990018506
 30
0.0
 11
128.3907665484681
 21
197.3643453154367
 31
0.0
  0
LINE
  5
195
330
6C
100
AcDbEntity
  8
2
  6
Continuous
 62
     7
100
AcDbLine
 10
128.3907665484681
 20
210.8453635057325
 30
0.0
 11
128.3907665484681
 21
206.8475915232571
 31
0.0
  0
LINE
  5
196
330
6C
100
AcDbEntity
  8
2
  6
Continuous
 62
     7
100
AcDbLine
 10
126.3907665484681
 20
206.8475915232571
 30
0.0
 11
126.3907665484681
 21
210.8453635057325
 31
0.0
  0
ARC
  5
197
330
6C
100
AcDbEntity
  8
2
  6
Continuous
 62
     7
100
AcDbCircle
 10
133.688327368468
 20
204.9590453787142
 30
0.0
 40
5.452514710000621
100
AcDbArc
 50
328.6551176131566
 51
359.6984237735439
  0
ARC
  5
198
330
6C
100
AcDbEntity
  8
2
  6
Continuous
 62
     7
100
AcDbCircle
 10
132.1326878084681
 20
205.853319728714
 30
0.0
 40
7.246444869999738
100
AcDbArc
 50
309.8868479010012
 51
329.0146319744708
  0
ARC
  5
199
330
6C
100
AcDbEntity
  8
2
  6
Continuous
 62
     7
100
AcDbCircle
 10
130.0620754384681
 20
208.2797916687142
 30
0.0
 40
10.43618715000029
100
AcDbArc
 50
292.3394869815864
 51
310.0667826370095
  0
ARC
  5
19A
330
6C
100
AcDbEntity
  8
2
  6
Continuous
 62
     7
100
AcDbCircle
 10
127.671199038468
 20
213.7979247287141
 30
0.0
 40
16.44932551000016
100
AcDbArc
 50
272.5071752407476
 51
292.7366713182203
  0
ARC
  5
19B
330
6C
100
AcDbEntity
  8
2
  6
Continuous
 62
     7
100
AcDbCircle
 10
127.392029888468
 20
177.1233375987142
 30
0.0
 40
33.73681233000004
100
AcDbArc
 50
88.30358136777518
 51
90.00214555096059
  0
ARC
  5
19C
330
6C
100
AcDbEntity
  8
2
  6
Continuous
 62
     7
100
AcDbCircle
 10
127.391099408468
 20
214.3078330787142
 30
0.0
 40
16.70689158999997
100
AcDbArc
 50
269.9988584666955
 51
273.4303772720852
  0
ARC
  5
19D
330
6C
100
AcDbEntity
  8
2
  6
Continuous
 62
     7
100
AcDbCircle
 10
127.3907665484681
 20
196.396181258714
 30
0.0
 40
12.04161267999973
100
AcDbArc
 50
85.23636548662631
 51
94.76363451337369
  0
ARC
  5
19E
330
6C
100
AcDbEntity
  8
2
  6
Continuous
 62
     7
100
AcDbCircle
 10
127.3907665484681
 20
191.487720838714
 30
0.0
 40
20.1821484500004
100
AcDbArc
 50
80.15074006397494
 51
99.84925993602532
  0
ARC
  5
19F
330
6C
100
AcDbEntity
  8
2
  6
Continuous
 62
     7
100
AcDbCircle
 10
128.835347038468
 20
197.8615259987142
 30
0.0
 40
13.65924037000029
100
AcDbArc
 50
53.53626872791113
 51
81.54772917712889
  0
ARC
  5
1A0
330
6C
100
AcDbEntity
  8
2
  6
Continuous
 62
     7
100
AcDbCircle
 10
134.046866678468
 20
204.6542294187141
 30
0.0
 40
5.101377889999809
100
AcDbArc
 50
3.10270321862194
 51
55.2693154976359
  0
ARC
  5
1A1
330
6C
100
AcDbEntity
  8
2
  6
Continuous
 62
     7
100
AcDbCircle
 10
129.875911368468
 20
202.2705356187141
 30
0.0
 40
4.080379639999598
100
AcDbArc
 50
34.37648333756665
 51
66.1854700378332
  0
ARC
  5
1A2
330
6C
100
AcDbEntity
  8
2
  6
Continuous
 62
     7
100
AcDbCircle
 10
131.527369998468
 20
203.2920420687141
 30
0.0
 40
2.14244913000002
100
AcDbArc
 50
333.2895068231015
 51
36.76706813672293
  0
ARC
  5
1A3
330
6C
100
AcDbEntity
  8
2
  6
Continuous
 62
     7
100
AcDbCircle
 10
129.875911368468
 20
204.3135485187141
 30
0.0
 40
4.080379640000602
100
AcDbArc
 50
300.2194996653911
 51
330.8989220241934
  0
ARC
  5
1A4
330
6C
100
AcDbEntity
  8
2
  6
Continuous
 62
     7
100
AcDbCircle
 10
127.674062648468
 20
208.6317493187141
 30
0.0
 40
8.924082940000247
100
AcDbArc
 50
274.6064543204643
 51
298.4806914486427
  0
ARC
  5
1A5
330
6C
100
AcDbEntity
  8
2
  6
Continuous
 62
     7
100
AcDbCircle
 10
127.697361888468
 20
194.4855665487141
 30
0.0
 40
14.38607451000008
100
AcDbArc
 50
62.80260524820125
 51
87.23728944944854
  0
ARC
  5
1A6
330
6C
100
AcDbEntity
  8
2
  6
Continuous
 62
     7
100
AcDbCircle
 10
131.073185558468
 20
201.5333929587142
 30
0.0
 40
6.578166140000225
100
AcDbArc
 50
30.18604631175247
 51
60.89756345009314
  0
ARC
  5
1A7
330
6C
100
AcDbEntity
  8
2
  6
Continuous
 62
     7
100
AcDbCircle
 10
133.805142398468
 20
203.2920420687141
 30
0.0
 40
3.335624149999717
100
AcDbArc
 50
322.1271162942276
 51
27.66851048894999
  0
ARC
  5
1A8
330
6C
100
AcDbEntity
  8
2
  6
Continuous
 62
     7
100
AcDbCircle
 10
131.073185558468
 20
205.050691188714
 30
0.0
 40
6.5781661399998
100
AcDbArc
 50
292.0852786897581
 51
324.6446531625658
  0
ARC
  5
1A9
330
6C
100
AcDbEntity
  8
2
  6
Continuous
 62
     7
100
AcDbCircle
 10
127.697361888468
 20
212.0985175987141
 30
0.0
 40
14.38607450999966
100
AcDbArc
 50
272.7627105505516
 51
293.9903204878502
  0
ARC
  5
1AA
330
6C
100
AcDbEntity
  8
2
  6
Continuous
 62
     7
100
AcDbCircle
 10
134.046866678468
 20
206.6853168519235
 30
0.0
 40
5.101377889999839
100
AcDbArc
 50
3.10270338820369
 51
55.26931549765618
  0
ARC
  5
1AB
330
6C
100
AcDbEntity
  8
2
  6
Continuous
 62
     7
100
AcDbCircle
 10
128.835347038468
 20
199.8926134319236
 30
0.0
 40
13.65924037000019
100
AcDbArc
 50
53.5362687279187
 51
66.06421708699465
  0
ARC
  5
1AC
330
6C
100
AcDbEntity
  8
2
  6
Continuous
 62
     7
100
AcDbCircle
 10
125.9461860584682
 20
199.8926134319236
 30
0.0
 40
13.65924037000015
100
AcDbArc
 50
113.9357829130054
 51
126.4637312720814
  0
ARC
  5
1AD
330
6C
100
AcDbEntity
  8
2
  6
Continuous
 62
     7
100
AcDbCircle
 10
120.7346664184682
 20
206.6853168519235
 30
0.0
 40
5.101377889999883
100
AcDbArc
 50
124.730684502344
 51
176.8972966117963
  0
ARC
  5
1AE
330
6C
100
AcDbEntity
  8
2
  6
Continuous
 62
     7
100
AcDbCircle
 10
127.0841712084681
 20
212.0985175987141
 30
0.0
 40
14.38607450999968
100
AcDbArc
 50
246.0096795121502
 51
267.2372894494488
  0
ARC
  5
1AF
330
6C
100
AcDbEntity
  8
2
  6
Continuous
 62
     7
100
AcDbCircle
 10
123.7083475384682
 20
205.050691188714
 30
0.0
 40
6.578166139999833
100
AcDbArc
 50
215.3553468374342
 51
247.9147213102419
  0
ARC
  5
1B0
330
6C
100
AcDbEntity
  8
2
  6
Continuous
 62
     7
100
AcDbCircle
 10
120.9763906984681
 20
203.2920420687141
 30
0.0
 40
3.335624149999722
100
AcDbArc
 50
152.33148951105
 51
217.8728837057733
  0
ARC
  5
1B1
330
6C
100
AcDbEntity
  8
2
  6
Continuous
 62
     7
100
AcDbCircle
 10
123.7083475384682
 20
201.5333929587142
 30
0.0
 40
6.578166140000272
100
AcDbArc
 50
119.102436549907
 51
149.813953688248
  0
ARC
  5
1B2
330
6C
100
AcDbEntity
  8
2
  6
Continuous
 62
     7
100
AcDbCircle
 10
127.0841712084681
 20
194.4855665487141
 30
0.0
 40
14.38607450999997
100
AcDbArc
 50
92.76271055055115
 51
117.1973947517985
  0
ARC
  5
1B3
330
6C
100
AcDbEntity
  8
2
  6
Continuous
 62
     7
100
AcDbCircle
 10
127.1074704484682
 20
208.6317493187141
 30
0.0
 40
8.924082940000472
100
AcDbArc
 50
241.5193085513573
 51
265.3935456795356
  0
ARC
  5
1B4
330
6C
100
AcDbEntity
  8
2
  6
Continuous
 62
     7
100
AcDbCircle
 10
124.9056217284681
 20
204.3135485187141
 30
0.0
 40
4.080379640000419
100
AcDbArc
 50
209.1010779758066
 51
239.7805003346099
  0
ARC
  5
1B5
330
6C
100
AcDbEntity
  8
2
  6
Continuous
 62
     7
100
AcDbCircle
 10
123.2541630984681
 20
203.2920420687141
 30
0.0
 40
2.142449130000012
100
AcDbArc
 50
143.2329318632771
 51
206.7104931768985
  0
ARC
  5
1B6
330
6C
100
AcDbEntity
  8
2
  6
Continuous
 62
     7
100
AcDbCircle
 10
124.9056217284681
 20
202.2705356187141
 30
0.0
 40
4.080379639999575
100
AcDbArc
 50
113.8145299621668
 51
145.6235166624333
  0
ARC
  5
1B7
330
6C
100
AcDbEntity
  8
2
  6
Continuous
 62
     7
100
AcDbCircle
 10
120.7346664184682
 20
204.6542294187141
 30
0.0
 40
5.101377889999972
100
AcDbArc
 50
124.730684502365
 51
176.8972967813781
  0
ARC
  5
1B8
330
6C
100
AcDbEntity
  8
2
  6
Continuous
 62
     7
100
AcDbCircle
 10
125.9461860584682
 20
197.8615259987142
 30
0.0
 40
13.65924037000021
100
AcDbArc
 50
98.45227082287153
 51
126.4637312720892
  0
ARC
  5
1B9
330
6C
100
AcDbEntity
  8
2
  6
Continuous
 62
     7
100
AcDbCircle
 10
127.1103340584681
 20
213.7979247287141
 30
0.0
 40
16.44932551000034
100
AcDbArc
 50
247.26332868178
 51
267.4928247592528
  0
ARC
  5
1BA
330
6C
100
AcDbEntity
  8
2
  6
Continuous
 62
     7
100
AcDbCircle
 10
124.7194576584681
 20
208.2797916687142
 30
0.0
 40
10.43618715000004
100
AcDbArc
 50
229.9332173629909
 51
247.6605130184136
  0
ARC
  5
1BB
330
6C
100
AcDbEntity
  8
2
  6
Continuous
 62
     7
100
AcDbCircle
 10
122.6488452884681
 20
205.853319728714
 30
0.0
 40
7.246444869999868
100
AcDbArc
 50
210.9853680255288
 51
230.1131520989996
  0
ARC
  5
1BC
330
6C
100
AcDbEntity
  8
2
  6
Continuous
 62
     7
100
AcDbCircle
 10
121.0932057284681
 20
204.9590453787142
 30
0.0
 40
5.452514710000518
100
AcDbArc
 50
180.301576226456
 51
211.3448823868434
  0
ARC
  5
1BD
330
6C
100
AcDbEntity
  8
2
  6
Continuous
 62
     7
100
AcDbCircle
 10
127.3895032084682
 20
177.1233375987142
 30
0.0
 40
33.73681232999981
100
AcDbArc
 50
89.99785444903944
 51
91.69641863222485
  0
ARC
  5
1BE
330
6C
100
AcDbEntity
  8
2
  6
Continuous
 62
     7
100
AcDbCircle
 10
127.3904336884681
 20
214.3078330787142
 30
0.0
 40
16.70689159000058
100
AcDbArc
 50
266.5696227279152
 51
270.0011415333049
  0
ARC
  5
1BF
330
6C
100
AcDbEntity
  8
2
  6
Continuous
 62
     7
100
AcDbCircle
 10
127.674062648468
 20
197.9523348187141
 30
0.0
 40
8.924082939999556
100
AcDbArc
 50
64.44666182111351
 51
85.39354567953539
  0
ARC
  5
1C0
330
6C
100
AcDbEntity
  8
2
  6
Continuous
 62
     7
100
AcDbCircle
 10
127.1074704484682
 20
197.9523348187141
 30
0.0
 40
8.924082939999652
100
AcDbArc
 50
94.6064543204647
 51
115.5533381788871
  0
ENDBLK
  5
6E
330
6C
100
AcDbEntity
  8
0
100
AcDbBlockEnd
  0
BLOCK
  5
70
330
6F
100
AcDbEntity
  8
0
100
AcDbBlockBegin
  2
36-175K
 70
     0
 10
123.3907665457974
 20
200.7503464087142
 30
0.0
  3
36-175K
  1

  0
LINE
  5
1C1
330
6F
100
AcDbEntity
  8
2
  6
Continuous
 62
     7
100
AcDbLine
 10
130.2955040572917
 20
202.042707698714
 30
0.0
 11
124.486029038468
 21
202.042707698714
 31
0.0
  0
LINE
  5
1C2
330
6F
100
AcDbEntity
  8
2
  6
Continuous
 62
     7
100
AcDbLine
 10
124.486029038468
 20
202.9030723587142
 30
0.0
 11
130.2955040544613
 21
202.9030723587142
 31
0.0
  0
LINE
  5
1C3
330
6F
100
AcDbEntity
  8
2
  6
Continuous
 62
     7
100
AcDbLine
 10
131.3907665484681
 20
204.7488467257065
 30
0.0
 11
131.3907665484681
 21
206.0656182748567
 31
0.0
  0
LINE
  5
1C4
330
6F
100
AcDbEntity
  8
2
  6
Continuous
 62
     7
100
AcDbLine
 10
129.7609323204724
 20
206.5686154770046
 30
0.0
 11
129.4030952594363
 21
206.7073164035148
 31
0.0
  0
LINE
  5
1C5
330
6F
100
AcDbEntity
  8
2
  6
Continuous
 62
     7
100
AcDbLine
 10
131.2586841023046
 20
204.1387774164547
 30
0.0
 11
130.2959155984458
 21
202.0435183413563
 31
0.0
  0
LINE
  5
1C6
330
6F
100
AcDbEntity
  8
1
  6
PHANTOM
 62
     4
100
AcDbLine
 10
127.3907665484681
 20
208.4377939387139
 30
0.0
 11
127.3907665484681
 21
200.7521607115028
 31
0.0
  0
LINE
  5
1C7
330
6F
100
AcDbEntity
  8
2
  6
Continuous
 62
     7
100
AcDbLine
 10
124.4856174984904
 20
202.0435183413563
 30
0.0
 11
123.5228489946316
 21
204.1387774164547
 31
0.0
  0
LINE
  5
1C8
330
6F
100
AcDbEntity
  8
2
  6
Continuous
 62
     7
100
AcDbLine
 10
125.3784378374999
 20
206.7073164035148
 30
0.0
 11
125.0206007764638
 21
206.5686154770046
 31
0.0
  0
LINE
  5
1C9
330
6F
100
AcDbEntity
  8
2
  6
Continuous
 62
     7
100
AcDbLine
 10
123.3907665484681
 20
206.0656182748567
 30
0.0
 11
123.3907665484681
 21
204.7488467257065
 31
0.0
  0
ARC
  5
1CA
330
6F
100
AcDbEntity
  8
2
  6
Continuous
 62
     7
100
AcDbCircle
 10
127.3907665484681
 20
199.3607033387141
 30
0.0
 40
4.832916000000009
100
AcDbArc
 50
65.0386466705886
 51
113.1667172422947
  0
ARC
  5
1CB
330
6F
100
AcDbEntity
  8
2
  6
Continuous
 62
     7
100
AcDbCircle
 10
128.5602051184681
 20
201.9794247787141
 30
0.0
 40
1.965804479999904
100
AcDbArc
 50
28.02503383508652
 51
63.72945965359315
  0
ARC
  5
1CC
330
6F
100
AcDbEntity
  8
2
  6
Continuous
 62
     7
100
AcDbCircle
 10
-234.9660977715321
 20
370.4219652787143
 30
0.0
 40
401.8440210500004
100
AcDbArc
 50
335.36252407918
 51
335.5956630021705
  0
ARC
  5
1CD
330
6F
100
AcDbEntity
  8
2
  6
Continuous
 62
     7
100
AcDbCircle
 10
127.401262808468
 20
161.1518690287141
 30
0.0
 40
42.5288301299996
100
AcDbArc
 50
85.18088820241528
 51
85.69150434470566
  0
ARC
  5
1CE
330
6F
100
AcDbEntity
  8
2
  6
Continuous
 62
     7
100
AcDbCircle
 10
129.7750274984681
 20
203.9605374787141
 30
0.0
 40
1.273922680000072
100
AcDbArc
 50
340.2642130849561
 51
19.73578661217982
  0
ARC
  5
1CF
330
6F
100
AcDbEntity
  8
2
  6
Continuous
 62
     7
100
AcDbCircle
 10
129.9969621584681
 20
204.731278108714
 30
0.0
 40
1.393915110000006
100
AcDbArc
 50
334.845396334438
 51
38.3480148146338
  0
ARC
  5
1D0
330
6F
100
AcDbEntity
  8
2
  6
Continuous
 62
     7
100
AcDbCircle
 10
128.6956046784681
 20
202.8554316787141
 30
0.0
 40
1.794491100000266
100
AcDbArc
 50
301.1502431421799
 51
333.099166577089
  0
ARC
  5
1D1
330
6F
100
AcDbEntity
  8
2
  6
Continuous
 62
     7
100
AcDbCircle
 10
127.514111148468
 20
204.9440185287143
 30
0.0
 40
4.193672120000133
100
AcDbArc
 50
268.314569158763
 51
300.2040205933918
  0
ARC
  5
1D2
330
6F
100
AcDbEntity
  8
2
  6
Continuous
 62
     7
100
AcDbCircle
 10
128.6957092984681
 20
203.7180274387142
 30
0.0
 40
3.043115550000167
100
AcDbArc
 50
38.10897206538869
 51
69.51002010877002
  0
ARC
  5
1D3
330
6F
100
AcDbEntity
  8
2
  6
Continuous
 62
     7
100
AcDbCircle
 10
127.3907665484681
 20
200.118306848714
 30
0.0
 40
6.899490670000251
100
AcDbArc
 50
81.66629747000025
 51
98.33370253101114
  0
ARC
  5
1D4
330
6F
100
AcDbEntity
  8
2
  6
Continuous
 62
     7
100
AcDbCircle
 10
-234.9660977815321
 20
369.561600638714
 30
0.0
 40
401.8440210699999
100
AcDbArc
 50
335.3625240593247
 51
335.5956630008348
  0
ARC
  5
1D5
330
6F
100
AcDbEntity
  8
2
  6
Continuous
 62
     7
100
AcDbCircle
 10
489.7476308784682
 20
369.561600638714
 30
0.0
 40
401.84402107
100
AcDbArc
 50
204.4043369991652
 51
204.6374759406752
  0
ARC
  5
1D6
330
6F
100
AcDbEntity
  8
2
  6
Continuous
 62
     7
100
AcDbCircle
 10
126.0858237984681
 20
203.7180274387142
 30
0.0
 40
3.043115550000104
100
AcDbArc
 50
110.4899798912302
 51
141.8910279346115
  0
ARC
  5
1D7
330
6F
100
AcDbEntity
  8
2
  6
Continuous
 62
     7
100
AcDbCircle
 10
126.0859284184681
 20
202.8554316787141
 30
0.0
 40
1.794491100000039
100
AcDbArc
 50
206.9008334229108
 51
238.8497568578174
  0
ARC
  5
1D8
330
6F
100
AcDbEntity
  8
2
  6
Continuous
 62
     7
100
AcDbCircle
 10
124.7845709384681
 20
204.731278108714
 30
0.0
 40
1.393915110000047
100
AcDbArc
 50
141.6519851853666
 51
205.1546036655623
  0
ARC
  5
1D9
330
6F
100
AcDbEntity
  8
2
  6
Continuous
 62
     7
100
AcDbCircle
 10
125.0065055984681
 20
203.9605374787141
 30
0.0
 40
1.273922680000125
100
AcDbArc
 50
160.2642133878215
 51
199.7357869150424
  0
ARC
  5
1DA
330
6F
100
AcDbEntity
  8
2
  6
Continuous
 62
     7
100
AcDbCircle
 10
127.380270288468
 20
161.1518690287141
 30
0.0
 40
42.5288301299996
100
AcDbArc
 50
94.30849565529424
 51
94.81911179758461
  0
ARC
  5
1DB
330
6F
100
AcDbEntity
  8
2
  6
Continuous
 62
     7
100
AcDbCircle
 10
489.7476308684682
 20
370.4219652787143
 30
0.0
 40
401.8440210500002
100
AcDbArc
 50
204.4043369978295
 51
204.63747592082
  0
ARC
  5
1DC
330
6F
100
AcDbEntity
  8
2
  6
Continuous
 62
     7
100
AcDbCircle
 10
126.2213279784681
 20
201.9794247787141
 30
0.0
 40
1.965804479999822
100
AcDbArc
 50
111.8575302253152
 51
151.9749661649137
  0
ARC
  5
1DD
330
6F
100
AcDbEntity
  8
2
  6
Continuous
 62
     7
100
AcDbCircle
 10
127.2674219484682
 20
204.9440185287143
 30
0.0
 40
4.193672120000292
100
AcDbArc
 50
239.7959794066071
 51
271.6854308412368
  0
ENDBLK
  5
71
330
6F
100
AcDbEntity
  8
0
100
AcDbBlockEnd
  0
BLOCK
  5
75
330
72
100
AcDbEntity
  8
0
100
AcDbBlockBegin
  2
30-201X_
 70
     0
 10
115.6407665476508
 20
197.3643453154367
 30
0.0
  3
30-201X_
  1

  0
INSERT
  5
73
330
72
100
AcDbEntity
  8
1
100
AcDbBlockReference
  2
30-201K
 10
115.6407665476508
 20
197.3643453154367
 30
0.0
  0
INSERT
  5
74
330
72
100
AcDbEntity
  8
1
100
AcDbBlockReference
  2
36-175K
 10
123.3907665457974
 20
200.7503464087142
 30
0.0
  0
ENDBLK
  5
76
330
72
100
AcDbEntity
  8
0
100
AcDbBlockEnd
  0
BLOCK
  5
78
330
77
100
AcDbEntity
  8
0
100
AcDbBlockBegin
  2
30-205_
 70
     0
 10
115.3906928384682
 20
221.1662428687138
 30
0.0
  3
30-205_
  1

  0
LINE
  5
1DE
330
77
100
AcDbEntity
  8
2
  6
Continuous
 62
     7
100
AcDbLine
 10
139.3907665484681
 20
227.1385216035732
 30
0.0
 11
139.3907665484681
 21
230.631841198714
 31
0.0
  0
LINE
  5
1DF
330
77
100
AcDbEntity
  8
2
  6
Continuous
 62
     7
100
AcDbLine
 10
138.3907665484681
 20
222.1196394438746
 30
0.0
 11
138.3907665484681
 21
227.1068963822937
 31
0.0
  0
LINE
  5
1E0
330
77
100
AcDbEntity
  8
2
  6
Continuous
 62
     7
100
AcDbLine
 10
123.9629392484681
 20
228.1091874287141
 30
0.0
 11
130.8185938484681
 21
228.1091874287141
 31
0.0
  0
LINE
  5
1E1
330
77
100
AcDbEntity
  8
2
  6
Continuous
 62
     7
100
AcDbLine
 10
135.8912968883335
 20
222.2683414125381
 30
0.0
 11
136.5227242438196
 21
222.506154976499
 31
0.0
  0
LINE
  5
1E2
330
77
100
AcDbEntity
  8
2
  6
Continuous
 62
     7
100
AcDbLine
 10
130.8185938484681
 20
231.2201066987141
 30
0.0
 11
130.8185938484681
 21
228.1091874287141
 31
0.0
  0
LINE
  5
1E3
330
77
100
AcDbEntity
  8
1
  6
PHANTOM
 62
     4
100
AcDbLine
 10
127.3907665484681
 20
231.2693837403079
 30
0.0
 11
127.3907665484681
 21
221.1662790458092
 31
0.0
  0
LINE
  5
1E4
330
77
100
AcDbEntity
  8
2
  6
Continuous
 62
     7
100
AcDbLine
 10
123.9629392484681
 20
228.1091874287141
 30
0.0
 11
123.9629392484681
 21
231.2201066987141
 31
0.0
  0
LINE
  5
1E5
330
77
100
AcDbEntity
  8
2
  6
Continuous
 62
     7
100
AcDbLine
 10
118.2588088531165
 20
222.506154976499
 30
0.0
 11
118.8902362086026
 21
222.2683414125381
 31
0.0
  0
LINE
  5
1E6
330
77
100
AcDbEntity
  8
2
  6
Continuous
 62
     7
100
AcDbLine
 10
116.3907665484681
 20
227.1068963822937
 30
0.0
 11
116.3907665484681
 21
222.1196394438746
 31
0.0
  0
LINE
  5
1E7
330
77
100
AcDbEntity
  8
2
  6
Continuous
 62
     7
100
AcDbLine
 10
115.3907665484681
 20
230.631841198714
 30
0.0
 11
115.3907665484681
 21
227.1385216035732
 31
0.0
  0
ARC
  5
1E8
330
77
100
AcDbEntity
  8
2
  6
Continuous
 62
     7
100
AcDbCircle
 10
129.6111058384681
 20
157.9461222787141
 30
0.0
 40
70.17345465999963
100
AcDbArc
 50
83.72360532340097
 51
89.014051942299
  0
ARC
  5
1E9
330
77
100
AcDbEntity
  8
2
  6
Continuous
 62
     7
100
AcDbCircle
 10
136.197893868468
 20
217.281703208714
 30
0.0
 40
10.47360162999978
100
AcDbArc
 50
72.90278247347158
 51
84.05433620028116
  0
ARC
  5
1EA
330
77
100
AcDbEntity
  8
2
  6
Continuous
 62
     7
100
AcDbCircle
 10
138.197430378468
 20
228.780867218714
 30
0.0
 40
2.100870049999876
100
AcDbArc
 50
275.2802133699944
 51
302.1513265886923
  0
ARC
  5
1EB
330
77
100
AcDbEntity
  8
2
  6
Continuous
 62
     7
100
AcDbCircle
 10
127.4553597884681
 20
124.4540451187141
 30
0.0
 40
103.6168424999999
100
AcDbArc
 50
85.67062989841476
 51
90.03571736203772
  0
ARC
  5
1EC
330
77
100
AcDbEntity
  8
2
  6
Continuous
 62
     7
100
AcDbCircle
 10
134.1400062784681
 20
210.8819856187141
 30
0.0
 40
16.93148334999982
100
AcDbArc
 50
77.21090685796001
 51
86.14824184415366
  0
ARC
  5
1ED
330
77
100
AcDbEntity
  8
2
  6
Continuous
 62
     7
100
AcDbCircle
 10
137.681736278468
 20
226.3168351887142
 30
0.0
 40
1.096171709999475
100
AcDbArc
 50
53.89388202527643
 51
79.15372671583626
  0
ARC
  5
1EE
330
77
100
AcDbEntity
  8
2
  6
Continuous
 62
     7
100
AcDbCircle
 10
138.2766728484681
 20
227.1001903287141
 30
0.0
 40
0.1142906100005553
100
AcDbArc
 50
3.36378798310836
 51
63.48758696112169
  0
ARC
  5
1EF
330
77
100
AcDbEntity
  8
2
  6
Continuous
 62
     7
100
AcDbCircle
 10
127.4553597884681
 20
119.4730716187142
 30
0.0
 40
103.6168424999995
100
AcDbArc
 50
85.67063056026716
 51
90.03571736203772
  0
ARC
  5
1F0
330
77
100
AcDbEntity
  8
2
  6
Continuous
 62
     7
100
AcDbCircle
 10
134.1400062784681
 20
205.9010121287141
 30
0.0
 40
16.93148334999987
100
AcDbArc
 50
77.21090685796457
 51
86.14824589212658
  0
ARC
  5
1F1
330
77
100
AcDbEntity
  8
2
  6
Continuous
 62
     7
100
AcDbCircle
 10
137.681736278468
 20
221.3358616987142
 30
0.0
 40
1.096171709999593
100
AcDbArc
 50
51.67478887375839
 51
79.15372671590644
  0
ARC
  5
1F2
330
77
100
AcDbEntity
  8
2
  6
Continuous
 62
     7
100
AcDbCircle
 10
137.022052688468
 20
224.5342648987141
 30
0.0
 40
2.834247080000001
100
AcDbArc
 50
276.701697596048
 51
297.7375418335781
  0
ARC
  5
1F3
330
77
100
AcDbEntity
  8
2
  6
Continuous
 62
     7
100
AcDbCircle
 10
131.552709548468
 20
259.0473915887139
 30
0.0
 40
37.77593594999924
100
AcDbArc
 50
271.9804470973139
 51
278.8321048086842
  0
ARC
  5
1F4
330
77
100
AcDbEntity
  8
2
  6
Continuous
 62
     7
100
AcDbCircle
 10
127.481266108468
 20
334.3617830287141
 30
0.0
 40
113.1955401600001
100
AcDbArc
 50
269.95419215827
 51
272.7226412274005
  0
ARC
  5
1F5
330
77
100
AcDbEntity
  8
2
  6
Continuous
 62
     7
100
AcDbCircle
 10
127.536166548468
 20
130.2915988587141
 30
0.0
 40
92.72352073999988
100
AcDbArc
 50
85.23298206425247
 51
90.08984570138065
  0
ARC
  5
1F6
330
77
100
AcDbEntity
  8
2
  6
Continuous
 62
     7
100
AcDbCircle
 10
133.968308348468
 20
209.575557638714
 30
0.0
 40
13.18049270999985
100
AcDbArc
 50
75.83781284236585
 51
84.45511207087632
  0
ARC
  5
1F7
330
77
100
AcDbEntity
  8
2
  6
Continuous
 62
     7
100
AcDbCircle
 10
137.388844028468
 20
222.1356612587142
 30
0.0
 40
0.1492360100001138
100
AcDbArc
 50
305.0907516209438
 51
347.0920830270578
  0
ARC
  5
1F8
330
77
100
AcDbEntity
  8
2
  6
Continuous
 62
     7
100
AcDbCircle
 10
135.942227318468
 20
225.4650813087139
 30
0.0
 40
3.776419479999605
100
AcDbArc
 50
279.4152032797273
 51
293.9402308852523
  0
ARC
  5
1F9
330
77
100
AcDbEntity
  8
2
  6
Continuous
 62
     7
100
AcDbCircle
 10
130.2267467184681
 20
266.7227039787142
 30
0.0
 40
45.42681642000014
100
AcDbArc
 50
271.2608627838292
 51
278.0140942163063
  0
ARC
  5
1FA
330
77
100
AcDbEntity
  8
2
  6
Continuous
 62
     7
100
AcDbCircle
 10
127.4833477084681
 20
322.9631995687142
 30
0.0
 40
101.7251981600006
100
AcDbArc
 50
269.9478545084339
 51
272.1086807319825
  0
ARC
  5
1FB
330
77
100
AcDbEntity
  8
2
  6
Continuous
 62
     7
100
AcDbCircle
 10
127.9057905084681
 20
289.092528108714
 30
0.0
 40
66.81283884999972
100
AcDbArc
 50
269.5583335100008
 51
275.3100720863217
  0
ARC
  5
1FC
330
77
100
AcDbEntity
  8
2
  6
Continuous
 62
     7
100
AcDbCircle
 10
132.5172201284681
 20
237.2467237987141
 30
0.0
 40
14.76420969000005
100
AcDbArc
 50
276.111323418938
 51
280.0127643606129
  0
ARC
  5
1FD
330
77
100
AcDbEntity
  8
2
  6
Continuous
 62
     7
100
AcDbCircle
 10
133.8727598984681
 20
228.5840731087139
 30
0.0
 40
6.630456879999729
100
AcDbArc
 50
274.345668268359
 51
287.7241195952471
  0
ARC
  5
1FE
330
77
100
AcDbEntity
  8
2
  6
Continuous
 62
     7
100
AcDbCircle
 10
127.943991918468
 20
288.8680270387142
 30
0.0
 40
67.20377783000015
100
AcDbArc
 50
269.5283325100007
 51
275.4914215769275
  0
ARC
  5
1FF
330
77
100
AcDbEntity
  8
1
  6
Continuous
 62
     7
100
AcDbCircle
 10
136.9974130278331
 20
221.5797704235642
 30
0.0
 40
0.7999999999938491
100
AcDbArc
 50
51.11591182373947
 51
75.83781284237155
  0
ARC
  5
200
330
77
100
AcDbEntity
  8
1
  6
Continuous
 62
     7
100
AcDbCircle
 10
138.2770075419946
 20
222.1196394438746
 30
0.0
 40
0.1137590063468188
100
AcDbArc
 50
304.3366851057943
 51
42.03610263505888
  0
ARC
  5
201
330
77
100
AcDbEntity
  8
1
  6
Continuous
 62
     7
100
AcDbCircle
 10
139.2297231762912
 20
227.1385216035732
 30
0.0
 40
0.1610433721729498
100
AcDbArc
 50
302.1513265887331
 51
72.90278247346475
  0
ARC
  5
202
330
77
100
AcDbEntity
  8
1
  6
Continuous
 62
     7
100
AcDbCircle
 10
115.5518099206449
 20
227.1385216035732
 30
0.0
 40
0.1610433721759514
100
AcDbArc
 50
107.0972175265401
 51
237.8486734112669
  0
ARC
  5
203
330
77
100
AcDbEntity
  8
1
  6
Continuous
 62
     7
100
AcDbCircle
 10
116.5045255549415
 20
222.1196394438746
 30
0.0
 40
0.1137590063465041
100
AcDbArc
 50
137.9638973649076
 51
235.6633148942116
  0
ARC
  5
204
330
77
100
AcDbEntity
  8
1
  6
Continuous
 62
     7
100
AcDbCircle
 10
117.784120069103
 20
221.5797704235642
 30
0.0
 40
0.799999999993807
100
AcDbArc
 50
104.1621871576275
 51
128.8840881762605
  0
ARC
  5
205
330
77
100
AcDbEntity
  8
2
  6
Continuous
 62
     7
100
AcDbCircle
 10
120.908773198468
 20
228.5840731087139
 30
0.0
 40
6.630456879999651
100
AcDbArc
 50
252.2758804047529
 51
265.654331731641
  0
ARC
  5
206
330
77
100
AcDbEntity
  8
2
  6
Continuous
 62
     7
100
AcDbCircle
 10
122.2643129684681
 20
237.2467237987141
 30
0.0
 40
14.76420969000018
100
AcDbArc
 50
259.9872356393871
 51
263.8886765810616
  0
ARC
  5
207
330
77
100
AcDbEntity
  8
2
  6
Continuous
 62
     7
100
AcDbCircle
 10
124.5547863784681
 20
266.7227039787142
 30
0.0
 40
45.42681642000026
100
AcDbArc
 50
261.9859057836936
 51
268.7391372161708
  0
ARC
  5
208
330
77
100
AcDbEntity
  8
2
  6
Continuous
 62
     7
100
AcDbCircle
 10
118.8393057784681
 20
225.4650813087139
 30
0.0
 40
3.776419479999667
100
AcDbArc
 50
246.0597691147474
 51
260.5847967202724
  0
ARC
  5
209
330
77
100
AcDbEntity
  8
2
  6
Continuous
 62
     7
100
AcDbCircle
 10
117.3926890684682
 20
222.1356612587142
 30
0.0
 40
0.1492360100000235
100
AcDbArc
 50
192.9079169729361
 51
234.9092483790295
  0
ARC
  5
20A
330
77
100
AcDbEntity
  8
2
  6
Continuous
 62
     7
100
AcDbCircle
 10
120.8132247484681
 20
209.575557638714
 30
0.0
 40
13.18049270999989
100
AcDbArc
 50
95.54488792912376
 51
104.1621871576342
  0
ARC
  5
20B
330
77
100
AcDbEntity
  8
2
  6
Continuous
 62
     7
100
AcDbCircle
 10
123.2288235484681
 20
259.0473915887139
 30
0.0
 40
37.77593594999932
100
AcDbArc
 50
261.1678951913159
 51
268.0195529026863
  0
ARC
  5
20C
330
77
100
AcDbEntity
  8
2
  6
Continuous
 62
     7
100
AcDbCircle
 10
117.7594804084682
 20
224.5342648987141
 30
0.0
 40
2.834247080000103
100
AcDbArc
 50
242.2624581664204
 51
263.2983024039518
  0
ARC
  5
20D
330
77
100
AcDbEntity
  8
2
  6
Continuous
 62
     7
100
AcDbCircle
 10
117.0997968184682
 20
221.3358616987142
 30
0.0
 40
1.09617170999963
100
AcDbArc
 50
100.8462732840994
 51
128.3252111262422
  0
ARC
  5
20E
330
77
100
AcDbEntity
  8
2
  6
Continuous
 62
     7
100
AcDbCircle
 10
120.6415268184681
 20
205.9010121287141
 30
0.0
 40
16.93148334999985
100
AcDbArc
 50
93.85175410787372
 51
102.7890931420357
  0
ARC
  5
20F
330
77
100
AcDbEntity
  8
2
  6
Continuous
 62
     7
100
AcDbCircle
 10
116.5048602484681
 20
227.1001903287141
 30
0.0
 40
0.1142906100004022
100
AcDbArc
 50
116.5124130389293
 51
176.6362120168925
  0
ARC
  5
210
330
77
100
AcDbEntity
  8
2
  6
Continuous
 62
     7
100
AcDbCircle
 10
117.0997968184682
 20
226.3168351887142
 30
0.0
 40
1.096171709999569
100
AcDbArc
 50
100.8462732841696
 51
126.1061179747284
  0
ARC
  5
211
330
77
100
AcDbEntity
  8
2
  6
Continuous
 62
     7
100
AcDbCircle
 10
120.6415268184681
 20
210.8819856187141
 30
0.0
 40
16.93148335000007
100
AcDbArc
 50
93.85175815584662
 51
102.7890931420403
  0
ARC
  5
212
330
77
100
AcDbEntity
  8
2
  6
Continuous
 62
     7
100
AcDbCircle
 10
116.5841027184681
 20
228.780867218714
 30
0.0
 40
2.100870050000097
100
AcDbArc
 50
237.8486734113077
 51
264.7197866300056
  0
ARC
  5
213
330
77
100
AcDbEntity
  8
2
  6
Continuous
 62
     7
100
AcDbCircle
 10
118.5836392284681
 20
217.281703208714
 30
0.0
 40
10.47360162999985
100
AcDbArc
 50
95.94566379971879
 51
107.0972175265284
  0
ARC
  5
214
330
77
100
AcDbEntity
  8
2
  6
Continuous
 62
     7
100
AcDbCircle
 10
125.1704272584681
 20
157.9461222787141
 30
0.0
 40
70.17345465999985
100
AcDbArc
 50
90.98594805770098
 51
96.27639467659911
  0
ARC
  5
215
330
77
100
AcDbEntity
  8
2
  6
Continuous
 62
     7
100
AcDbCircle
 10
127.3261733084681
 20
124.4540451187141
 30
0.0
 40
103.6168424999997
100
AcDbArc
 50
89.96428263796228
 51
94.3293701015853
  0
ARC
  5
216
330
77
100
AcDbEntity
  8
2
  6
Continuous
 62
     7
100
AcDbCircle
 10
127.3261733084681
 20
119.4730716187142
 30
0.0
 40
103.6168424999994
100
AcDbArc
 50
89.96428263796228
 51
94.32936943973291
  0
ARC
  5
217
330
77
100
AcDbEntity
  8
2
  6
Continuous
 62
     7
100
AcDbCircle
 10
127.2453665484682
 20
130.2915988587141
 30
0.0
 40
92.72352073999984
100
AcDbArc
 50
89.91015429861937
 51
94.7670179357476
  0
ARC
  5
218
330
77
100
AcDbEntity
  8
2
  6
Continuous
 62
     7
100
AcDbCircle
 10
126.8757425884681
 20
289.092528108714
 30
0.0
 40
66.81283885000026
100
AcDbArc
 50
264.6899279136782
 51
270.4416664899992
  0
ARC
  5
219
330
77
100
AcDbEntity
  8
2
  6
Continuous
 62
     7
100
AcDbCircle
 10
126.8375411784681
 20
288.8680270387142
 30
0.0
 40
67.20377782999981
100
AcDbArc
 50
264.5085784230725
 51
270.4716674899993
  0
ARC
  5
21A
330
77
100
AcDbEntity
  8
2
  6
Continuous
 62
     7
100
AcDbCircle
 10
127.2981853884681
 20
322.9631995687142
 30
0.0
 40
101.7251981600006
100
AcDbArc
 50
267.8913192680175
 51
270.0521454915661
  0
ARC
  5
21B
330
77
100
AcDbEntity
  8
2
  6
Continuous
 62
     7
100
AcDbCircle
 10
127.3002669884682
 20
334.3617830287141
 30
0.0
 40
113.1955401600002
100
AcDbArc
 50
267.2773587725994
 51
270.0458078417299
  0
ARC
  5
21C
330
77
100
AcDbEntity
  8
1
  6
Continuous
 62
     7
100
AcDbCircle
 10
137.4368358610779
 20
222.1246626822855
 30
0.0
 40
0.0999999999999995
100
AcDbArc
 50
347.0920830271324
 51
51.11591182377443
  0
ARC
  5
21D
330
77
100
AcDbEntity
  8
1
  6
Continuous
 62
     7
100
AcDbCircle
 10
117.3446972358582
 20
222.1246626822855
 30
0.0
 40
0.1000000000000854
100
AcDbArc
 50
128.8840881762319
 51
192.9079169728694
  0
ENDBLK
  5
79
330
77
100
AcDbEntity
  8
0
100
AcDbBlockEnd
  0
BLOCK
  5
7B
330
7A
100
AcDbEntity
  8
0
100
AcDbBlockBegin
  2
Y1966-0_
 70
     0
 10
104.932486928468
 20
175.0628844126921
 30
0.0
  3
Y1966-0_
  1

  0
LINE
  5
21E
330
7A
100
AcDbEntity
  8
2
  6
Continuous
 62
     7
100
AcDbLine
 10
145.2398355857768
 20
224.062884418714
 30
0.0
 11
146.8855091397961
 21
175.2189254816213
 31
0.0
  0
LINE
  5
21F
330
7A
100
AcDbEntity
  8
2
  6
Continuous
 62
     7
100
AcDbLine
 10
104.9512113926742
 20
200.2288719786087
 30
0.0
 11
107.360791658468
 21
272.1813797587141
 31
0.0
  0
LINE
  5
220
330
7A
100
AcDbEntity
  8
2
  6
Continuous
 62
     7
100
AcDbLine
 10
147.4207414419691
 20
272.1813796541691
 30
0.0
 11
149.8302752486453
 21
200.2302588917781
 31
0.0
  0
LINE
  5
221
330
7A
100
AcDbEntity
  8
2
  6
Continuous
 62
     7
100
AcDbLine
 10
107.360791658468
 20
272.1813797587141
 30
0.0
 11
107.4261084484681
 21
273.1182957587142
 31
0.0
  0
LINE
  5
222
330
7A
100
AcDbEntity
  8
2
  6
Continuous
 62
     7
100
AcDbLine
 10
107.4261084484681
 20
273.1182957587142
 30
0.0
 11
107.553037158468
 21
274.0513564687142
 31
0.0
  0
LINE
  5
223
330
7A
100
AcDbEntity
  8
2
  6
Continuous
 62
     7
100
AcDbLine
 10
107.553037158468
 20
274.0513564687142
 30
0.0
 11
107.738381748468
 21
274.9766082487141
 31
0.0
  0
LINE
  5
224
330
7A
100
AcDbEntity
  8
2
  6
Continuous
 62
     7
100
AcDbLine
 10
107.738381748468
 20
274.9766082487141
 30
0.0
 11
107.8110380084679
 21
275.2830535287141
 31
0.0
  0
LINE
  5
225
330
7A
100
AcDbEntity
  8
2
  6
Continuous
 62
     7
100
AcDbLine
 10
146.198774358468
 20
175.0628844187141
 30
0.0
 11
108.582758738468
 21
175.0628844187141
 31
0.0
  0
LINE
  5
226
330
7A
100
AcDbEntity
  8
2
  6
Continuous
 62
     7
100
AcDbLine
 10
121.4673587583832
 20
231.9125892319
 30
0.0
 11
133.3141743385529
 21
231.9125892319
 31
0.0
  0
LINE
  5
227
330
7A
100
AcDbEntity
  8
2
  6
Continuous
 62
     7
100
AcDbLine
 10
106.619239458468
 20
177.228093318714
 30
0.0
 11
105.0452236259984
 21
196.3659706082017
 31
0.0
  0
LINE
  5
228
330
7A
100
AcDbEntity
  8
2
  6
Continuous
 62
     7
100
AcDbLine
 10
107.4820503523858
 20
269.8732662583122
 30
0.0
 11
111.5627072296093
 21
240.5349542680739
 31
0.0
  0
LINE
  5
229
330
7A
100
AcDbEntity
  8
2
  6
Continuous
 62
     7
100
AcDbLine
 10
107.8957757205726
 20
175.2115577648083
 30
0.0
 11
109.5416975111595
 21
224.062884418714
 31
0.0
  0
LINE
  5
22A
330
7A
100
AcDbEntity
  8
2
  6
Continuous
 62
     7
100
AcDbLine
 10
148.1622936006316
 20
177.2280929802616
 30
0.0
 11
149.7366704687836
 21
196.3703598477097
 31
0.0
  0
LINE
  5
22B
330
7A
100
AcDbEntity
  8
2
  6
Continuous
 62
     7
100
AcDbLine
 10
143.2188258673269
 20
240.5349542680739
 30
0.0
 11
147.2994760292669
 21
269.8732179780764
 31
0.0
  0
LINE
  5
22C
330
7A
100
AcDbEntity
  8
2
  6
Continuous
 62
     7
100
AcDbLine
 10
113.9129400135075
 20
265.4201247925412
 30
0.0
 11
112.167218858468
 21
268.200481098714
 31
0.0
  0
LINE
  5
22D
330
7A
100
AcDbEntity
  8
2
  6
Continuous
 62
     7
100
AcDbLine
 10
139.5696914768062
 20
230.135709052088
 30
0.0
 11
139.3907665484681
 21
229.9881265087141
 31
0.0
  0
LINE
  5
22E
330
7A
100
AcDbEntity
  8
1
  6
PHANTOM
 62
     4
100
AcDbLine
 10
127.3907665484681
 20
175.0628844187141
 30
0.0
 11
127.3907665484681
 21
289.2531055640829
 31
0.0
  0
ARC
  5
22F
330
7A
100
AcDbEntity
  8
1
  6
Continuous
 62
     7
100
AcDbCircle
 10
132.247207995471
 20
223.6251307212687
 30
0.0
 40
13.0000000000001
100
AcDbArc
 50
1.92970628494481
 51
34.89923338535426
  0
ARC
  5
230
330
7A
100
AcDbEntity
  8
1
  6
Continuous
 62
     7
100
AcDbCircle
 10
122.5343251014652
 20
223.6251307212687
 30
0.0
 40
12.9999999999999
100
AcDbArc
 50
145.1007666146458
 51
178.0702937150552
  0
ARC
  5
231
330
7A
100
AcDbEntity
  8
2
  6
Continuous
 62
     7
100
AcDbCircle
 10
132.595230698468
 20
271.6117686887141
 30
0.0
 40
14.83644921999984
100
AcDbArc
 50
2.20027897254143
 51
14.32504050999877
  0
ARC
  5
232
330
7A
100
AcDbEntity
  8
2
  6
Continuous
 62
     7
100
AcDbCircle
 10
138.3800886884681
 20
199.109842828714
 30
0.0
 40
33.44760176000011
100
AcDbArc
 50
180.0
 51
184.7055441470193
  0
ARC
  5
233
330
7A
100
AcDbEntity
  8
2
  6
Continuous
 62
     7
100
AcDbCircle
 10
115.537927548468
 20
230.352076628714
 30
0.0
 40
0.3925761699999659
100
AcDbArc
 50
176.5257963179291
 51
247.9843556799854
  0
ARC
  5
234
330
7A
100
AcDbEntity
  8
2
  6
Continuous
 62
     7
100
AcDbCircle
 10
115.5843321984681
 20
230.2155610787141
 30
0.0
 40
0.4666573099999237
100
AcDbArc
 50
108.4535094268159
 51
159.9086260438155
  0
ARC
  5
235
330
7A
100
AcDbEntity
  8
2
  6
Continuous
 62
     7
100
AcDbCircle
 10
116.877690968468
 20
225.5644851887142
 30
0.0
 40
5.293661909999959
100
AcDbArc
 50
95.4645199972487
 51
105.7967672347322
  0
ARC
  5
236
330
7A
100
AcDbEntity
  8
2
  6
Continuous
 62
     7
100
AcDbCircle
 10
149.5963896184681
 20
-539.022304011286
 30
0.0
 40
770.5729176900004
100
AcDbArc
 50
92.37677871159619
 51
92.47104071567966
  0
ARC
  5
237
330
7A
100
AcDbEntity
  8
2
  6
Continuous
 62
     7
100
AcDbCircle
 10
116.376204418468
 20
261.9235995087141
 30
0.0
 40
31.06162223000015
100
AcDbArc
 50
272.3321488761055
 51
273.7810070302647
  0
ARC
  5
238
330
7A
100
AcDbEntity
  8
2
  6
Continuous
 62
     7
100
AcDbCircle
 10
133.939753488468
 20
271.732372868714
 30
0.0
 40
13.48846333999956
100
AcDbArc
 50
352.0775314080852
 51
1.90762671000197
  0
ARC
  5
239
330
7A
100
AcDbEntity
  8
2
  6
Continuous
 62
     7
100
AcDbCircle
 10
146.126490008468
 20
176.9701830287141
 30
0.0
 40
1.908667870000351
100
AcDbArc
 50
272.1704031985016
 51
333.9018548728606
  0
ARC
  5
23A
330
7A
100
AcDbEntity
  8
2
  6
Continuous
 62
     7
100
AcDbCircle
 10
145.403234138468
 20
177.4409585787142
 30
0.0
 40
2.767258729999629
100
AcDbArc
 50
331.7354300492368
 51
355.5882837190444
  0
ARC
  5
23B
330
7A
100
AcDbEntity
  8
2
  6
Continuous
 62
     7
100
AcDbCircle
 10
139.901864358468
 20
284.6951270787142
 30
0.0
 40
53.88067511000069
100
AcDbArc
 50
265.4254439628513
 51
268.1260186056588
  0
ARC
  5
23C
330
7A
100
AcDbEntity
  8
2
  6
Continuous
 62
     7
100
AcDbCircle
 10
137.9535245284681
 20
225.1309890987141
 30
0.0
 40
5.715319420000232
100
AcDbArc
 50
78.36799860817648
 51
88.13130977706753
  0
ARC
  5
23D
330
7A
100
AcDbEntity
  8
2
  6
Continuous
 62
     7
100
AcDbCircle
 10
109.1087145484681
 20
177.3665757387142
 30
0.0
 40
2.493323799999822
100
AcDbArc
 50
183.1839182170276
 51
233.3192723512464
  0
ARC
  5
23E
330
7A
100
AcDbEntity
  8
2
  6
Continuous
 62
     7
100
AcDbCircle
 10
108.5942487984681
 20
176.7775037187141
 30
0.0
 40
1.714657799999719
100
AcDbArc
 50
235.3481423913404
 51
269.6160534920355
  0
ARC
  5
23F
330
7A
100
AcDbEntity
  8
2
  6
Continuous
 62
     7
100
AcDbCircle
 10
116.4014444084681
 20
199.109842828714
 30
0.0
 40
33.4476017599999
100
AcDbArc
 50
0.0
 51
1.91963309403625
  0
ARC
  5
240
330
7A
100
AcDbEntity
  8
2
  6
Continuous
 62
     7
100
AcDbCircle
 10
127.411224398468
 20
112.2628598587141
 30
0.0
 40
119.00652564
100
AcDbArc
 50
88.28714548281471
 51
94.33078526729302
  0
ARC
  5
241
330
7A
100
AcDbEntity
  8
2
  6
Continuous
 62
     7
100
AcDbCircle
 10
128.870466668468
 20
142.1320335887143
 30
0.0
 40
89.10887680999998
100
AcDbArc
 50
85.66594979538114
 51
88.65094037564414
  0
ARC
  5
242
330
7A
100
AcDbEntity
  8
2
  6
Continuous
 62
     7
100
AcDbCircle
 10
121.544681518468
 20
272.8635169587141
 30
0.0
 40
12.19211263999995
100
AcDbArc
 50
185.9937353299987
 51
187.9191071600013
  0
ARC
  5
243
330
7A
100
AcDbEntity
  8
2
  6
Continuous
 62
     7
100
AcDbCircle
 10
133.2364998384681
 20
272.8635598687142
 30
0.0
 40
12.19246694000011
100
AcDbArc
 50
352.080920819998
 51
354.0062366899988
  0
ARC
  5
244
330
7A
100
AcDbEntity
  8
2
  6
Continuous
 62
     7
100
AcDbCircle
 10
127.888146468468
 20
277.301232468714
 30
0.0
 40
17.6979172799999
100
AcDbArc
 50
280.7234231471054
 51
305.8330008644849
  0
ARC
  5
245
330
7A
100
AcDbEntity
  8
2
  6
Continuous
 62
     7
100
AcDbCircle
 10
127.409159268468
 20
279.102901168714
 30
0.0
 40
19.5577160600003
100
AcDbArc
 50
247.3027551041565
 51
281.1200587795248
  0
ARC
  5
246
330
7A
100
AcDbEntity
  8
2
  6
Continuous
 62
     7
100
AcDbCircle
 10
125.857231828468
 20
275.4787681887141
 30
0.0
 40
15.6154543299997
100
AcDbArc
 50
220.1017281766729
 51
247.4250374112036
  0
ARC
  5
247
330
7A
100
AcDbEntity
  8
2
  6
Continuous
 62
     7
100
AcDbCircle
 10
120.8413962084681
 20
271.732352728714
 30
0.0
 40
13.48808082000007
100
AcDbArc
 50
178.0921450053107
 51
187.9224012730618
  0
ARC
  5
248
330
7A
100
AcDbEntity
  8
2
  6
Continuous
 62
     7
100
AcDbCircle
 10
130.354982528468
 20
273.9596037387141
 30
0.0
 40
13.54469296000033
100
AcDbArc
 50
305.6483219648927
 51
334.8370542399995
  0
ARC
  5
249
330
7A
100
AcDbEntity
  8
2
  6
Continuous
 62
     7
100
AcDbCircle
 10
135.2469271084681
 20
206.6061864787142
 30
0.0
 40
4.387150029999749
100
AcDbArc
 50
332.196019890003
 51
44.54845037213914
  0
ARC
  5
24A
330
7A
100
AcDbEntity
  8
2
  6
Continuous
 62
     7
100
AcDbCircle
 10
129.757629958468
 20
201.211229648714
 30
0.0
 40
12.08376806000027
100
AcDbArc
 50
44.5197533418032
 51
79.61956839462822
  0
ARC
  5
24B
330
7A
100
AcDbEntity
  8
2
  6
Continuous
 62
     7
100
AcDbCircle
 10
135.273975658468
 20
207.0282117987142
 30
0.0
 40
4.368814489999951
100
AcDbArc
 50
332.2625104500032
 51
356.0491688276932
  0
ARC
  5
24C
330
7A
100
AcDbEntity
  8
2
  6
Continuous
 62
     7
100
AcDbCircle
 10
127.3907665484681
 20
192.7525508587141
 30
0.0
 40
20.84598412000022
100
AcDbArc
 50
77.40916703200375
 51
102.5908329679962
  0
ARC
  5
24D
330
7A
100
AcDbEntity
  8
2
  6
Continuous
 62
     7
100
AcDbCircle
 10
138.9910899484681
 20
229.9158364287142
 30
0.0
 40
0.8211576500003461
100
AcDbArc
 50
50.50574423483395
 51
81.96456634467698
  0
ARC
  5
24E
330
7A
100
AcDbEntity
  8
2
  6
Continuous
 62
     7
100
AcDbCircle
 10
139.367795548468
 20
230.3189570687142
 30
0.0
 40
0.2726569299999357
100
AcDbArc
 50
317.7719840914927
 51
57.73566865692004
  0
ARC
  5
24F
330
7A
100
AcDbEntity
  8
2
  6
Continuous
 62
     7
100
AcDbCircle
 10
119.5075574384681
 20
207.0282117987142
 30
0.0
 40
4.368814489999801
100
AcDbArc
 50
183.9508311723067
 51
207.7374895499974
  0
ARC
  5
250
330
7A
100
AcDbEntity
  8
2
  6
Continuous
 62
     7
100
AcDbCircle
 10
125.0239031384681
 20
201.211229648714
 30
0.0
 40
12.08376806000027
100
AcDbArc
 50
100.3804316053712
 51
135.4802466581964
  0
ARC
  5
251
330
7A
100
AcDbEntity
  8
2
  6
Continuous
 62
     7
100
AcDbCircle
 10
119.534605988468
 20
206.6061864787142
 30
0.0
 40
4.387150029999427
100
AcDbArc
 50
135.4515496278598
 51
207.803980109997
  0
ARC
  5
252
330
7A
100
AcDbEntity
  8
2
  6
Continuous
 62
     7
100
AcDbCircle
 10
116.4014444084681
 20
199.109842828714
 30
0.0
 40
33.44760175999991
100
AcDbArc
 50
355.3020000124226
 51
0.0
  0
ARC
  5
253
330
7A
100
AcDbEntity
  8
2
  6
Continuous
 62
     7
100
AcDbCircle
 10
138.3800886884681
 20
199.109842828714
 30
0.0
 40
33.44760176000007
100
AcDbArc
 50
178.0827440221815
 51
180.0
  0
ARC
  5
254
330
7A
100
AcDbEntity
  8
1
  6
Continuous
 62
     7
100
AcDbCircle
 10
133.3141743385529
 20
241.9125892319
 30
0.0
 40
10.0
100
AcDbArc
 50
270.0
 51
352.0815499821526
  0
ARC
  5
255
330
7A
100
AcDbEntity
  8
1
  6
Continuous
 62
     7
100
AcDbCircle
 10
121.4673587583832
 20
241.9125892319
 30
0.0
 40
9.999999999999961
100
AcDbArc
 50
187.9184500178475
 51
270.0
  0
ENDBLK
  5
7C
330
7A
100
AcDbEntity
  8
0
100
AcDbBlockEnd
  0
BLOCK
  5
26E
330
267
100
AcDbEntity
  8
0
100
AcDbBlockBegin
  2
*D16
 70
     1
 10
0.0
 20
0.0
 30
0.0
  3
*D16
  1

  0
LINE
  5
268
330
267
100
AcDbEntity
  8
1
  6
Continuous
 62
     2
100
AcDbLine
 10
343.3920298884673
 20
123.0766613787141
 30
0.0
 11
357.392029888468
 21
123.0766613787141
 31
0.0
  0
LINE
  5
269
330
267
100
AcDbEntity
  8
1
  6
Continuous
 62
     2
100
AcDbLine
 10
357.392029888468
 20
123.0766613787141
 30
0.0
 11
371.392029888468
 21
123.0766613787141
 31
0.0
  0
LINE
  5
26A
330
267
100
AcDbEntity
  8
1
  6
Continuous
 62
     2
100
AcDbLine
 10
343.3920298884673
 20
175.0766613787141
 30
0.0
 11
343.3920298884673
 21
121.0766613787141
 31
0.0
  0
LINE
  5
26B
330
267
100
AcDbEntity
  8
1
  6
Continuous
 62
     2
100
AcDbLine
 10
357.392029888468
 20
191.766000598148
 30
0.0
 11
357.392029888468
 21
121.0766613787141
 31
0.0
  0
SOLID
  5
26C
330
267
100
AcDbEntity
  8
1
 62
     2
100
AcDbTrace
 10
364.392029888468
 20
123.9982288618259
 30
0.0
 11
364.392029888468
 21
122.1550938956023
 31
0.0
 12
357.392029888468
 22
123.0766613787141
 32
0.0
 13
357.392029888468
 23
123.0766613787141
 33
0.0
  0
MTEXT
  5
26D
330
267
100
AcDbEntity
  8
1
 62
     7
100
AcDbMText
 10
347.596017367261
 20
125.0766613787141
 30
0.0
 40
7.0
 41
0.0
 71
     7
 72
     1
  1
14
  7
CONVERTER_12
 11
0.9999999999970619
 21
2.424068405545306E-6
 31
0.0
 73
     1
 44
0.60024009603842
  0
ENDBLK
  5
26F
330
267
100
AcDbEntity
  8
0
100
AcDbBlockEnd
  0
BLOCK
  5
271
330
270
100
AcDbEntity
  8
0
100
AcDbBlockBegin
  2
_NONE
 70
     0
 10
0.0
 20
0.0
 30
0.0
  3
_NONE
  1

  0
ENDBLK
  5
272
330
270
100
AcDbEntity
  8
0
100
AcDbBlockEnd
  0
BLOCK
  5
27C
330
275
100
AcDbEntity
  8
0
100
AcDbBlockBegin
  2
*D18
 70
     1
 10
0.0
 20
0.0
 30
0.0
  3
*D18
  1

  0
LINE
  5
276
330
275
100
AcDbEntity
  8
1
  6
Continuous
 62
     2
100
AcDbLine
 10
296.0977241431006
 20
155.0766613787141
 30
0.0
 11
343.3920298884673
 21
155.0766613787141
 31
0.0
  0
LINE
  5
277
330
275
100
AcDbEntity
  8
1
  6
Continuous
 62
     2
100
AcDbLine
 10
343.3920298884673
 20
175.0766613787141
 30
0.0
 11
343.3920298884673
 21
153.0766613787141
 31
0.0
  0
LINE
  5
278
330
275
100
AcDbEntity
  8
1
  6
Continuous
 62
     2
100
AcDbLine
 10
296.0977241431006
 20
203.3093924209675
 30
0.0
 11
296.0977241431006
 21
153.0766613787141
 31
0.0
  0
SOLID
  5
279
330
275
100
AcDbEntity
  8
1
 62
     2
100
AcDbTrace
 10
303.0977241431006
 20
155.9982288618259
 30
0.0
 11
303.0977241431006
 21
154.1550938956023
 31
0.0
 12
296.0977241431006
 22
155.0766613787141
 32
0.0
 13
296.0977241431006
 23
155.0766613787141
 33
0.0
  0
SOLID
  5
27A
330
275
100
AcDbEntity
  8
1
 62
     2
100
AcDbTrace
 10
336.3920298884673
 20
154.1550938956023
 30
0.0
 11
336.3920298884673
 21
155.9982288618259
 31
0.0
 12
343.3920298884673
 22
155.0766613787141
 32
0.0
 13
343.3920298884673
 23
155.0766613787141
 33
0.0
  0
MTEXT
  5
27B
330
275
100
AcDbEntity
  8
1
 62
     7
100
AcDbMText
 10
314.4948770157839
 20
157.0766613787141
 30
0.0
 40
7.0
 41
0.0
 71
     7
 72
     1
  1
48
  7
CONVERTER_12
 11
0.9999999999970619
 21
2.424068405545306E-6
 31
0.0
 73
     1
 44
0.60024009603842
  0
ENDBLK
  5
27D
330
275
100
AcDbEntity
  8
0
100
AcDbBlockEnd
  0
BLOCK
  5
287
330
280
100
AcDbEntity
  8
0
100
AcDbBlockBegin
  2
*D19
 70
     1
 10
0.0
 20
0.0
 30
0.0
  3
*D19
  1

  0
LINE
  5
281
330
280
100
AcDbEntity
  8
1
  6
Continuous
 62
     2
100
AcDbLine
 10
228.6855148606708
 20
139.0766613787141
 30
0.0
 11
343.3920298884673
 21
139.0766613787141
 31
0.0
  0
LINE
  5
282
330
280
100
AcDbEntity
  8
1
  6
Continuous
 62
     2
100
AcDbLine
 10
343.3920298884673
 20
176.9976435056852
 30
0.0
 11
343.3920298884673
 21
137.0766613787141
 31
0.0
  0
LINE
  5
283
330
280
100
AcDbEntity
  8
1
  6
Continuous
 62
     2
100
AcDbLine
 10
228.6855148606708
 20
222.1333731899867
 30
0.0
 11
228.6855148606708
 21
137.0766613787141
 31
0.0
  0
SOLID
  5
284
330
280
100
AcDbEntity
  8
1
 62
     2
100
AcDbTrace
 10
235.6855148606708
 20
139.9982288618259
 30
0.0
 11
235.6855148606708
 21
138.1550938956023
 31
0.0
 12
228.6855148606708
 22
139.0766613787141
 32
0.0
 13
228.6855148606708
 23
139.0766613787141
 33
0.0
  0
SOLID
  5
285
330
280
100
AcDbEntity
  8
1
 62
     2
100
AcDbTrace
 10
336.3920298884673
 20
138.1550938956023
 30
0.0
 11
336.3920298884673
 21
139.9982288618259
 31
0.0
 12
343.3920298884673
 22
139.0766613787141
 32
0.0
 13
343.3920298884673
 23
139.0766613787141
 33
0.0
  0
MTEXT
  5
286
330
280
100
AcDbEntity
  8
1
 62
     7
100
AcDbMText
 10
279.7390491303393
 20
141.0766613787141
 30
0.0
 40
7.0
 41
0.0
 71
     7
 72
     1
  1
115
  7
CONVERTER_12
 11
0.9999999999970619
 21
2.424068405545306E-6
 31
0.0
 73
     1
 44
0.60024009603842
  0
ENDBLK
  5
288
330
280
100
AcDbEntity
  8
0
100
AcDbBlockEnd
  0
BLOCK
  5
292
330
28B
100
AcDbEntity
  8
0
100
AcDbBlockBegin
  2
*D20
 70
     1
 10
0.0
 20
0.0
 30
0.0
  3
*D20
  1

  0
LINE
  5
28C
330
28B
100
AcDbEntity
  8
1
  6
Continuous
 62
     2
100
AcDbLine
 10
258.156115969731
 20
222.1396998558461
 30
0.0
 11
258.156115969731
 21
201.0860005981479
 31
0.0
  0
LINE
  5
28D
330
28B
100
AcDbEntity
  8
1
  6
Continuous
 62
     2
100
AcDbLine
 10
337.642029888468
 20
201.0860005981479
 30
0.0
 11
256.156115969731
 21
201.0860005981479
 31
0.0
  0
LINE
  5
28E
330
28B
100
AcDbEntity
  8
1
  6
Continuous
 62
     2
100
AcDbLine
 10
228.6860683722114
 20
222.1396998558461
 30
0.0
 11
260.156115969731
 21
222.1396998558461
 31
0.0
  0
SOLID
  5
28F
330
28B
100
AcDbEntity
  8
1
 62
     2
100
AcDbTrace
 10
259.0776834528427
 20
215.1396998558461
 30
0.0
 11
257.2345484866192
 21
215.1396998558461
 31
0.0
 12
258.156115969731
 22
222.1396998558461
 32
0.0
 13
258.156115969731
 23
222.1396998558461
 33
0.0
  0
SOLID
  5
290
330
28B
100
AcDbEntity
  8
1
 62
     2
100
AcDbTrace
 10
257.2345484866192
 20
208.0860005981479
 30
0.0
 11
259.0776834528427
 21
208.0860005981479
 31
0.0
 12
258.156115969731
 22
201.0860005981479
 32
0.0
 13
258.156115969731
 23
201.0860005981479
 33
0.0
  0
MTEXT
  5
291
330
28B
100
AcDbEntity
  8
1
 62
     7
100
AcDbMText
 10
256.156115969731
 20
207.412850226997
 30
0.0
 40
7.0
 41
0.0
 71
     7
 72
     1
  1
21
  7
CONVERTER_12
 11
0.0
 21
1.0
 31
0.0
 73
     1
 44
0.60024009603842
  0
ENDBLK
  5
293
330
28B
100
AcDbEntity
  8
0
100
AcDbBlockEnd
  0
BLOCK
  5
29D
330
296
100
AcDbEntity
  8
0
100
AcDbBlockBegin
  2
*D21
 70
     1
 10
0.0
 20
0.0
 30
0.0
  3
*D21
  1

  0
LINE
  5
297
330
296
100
AcDbEntity
  8
1
  6
Continuous
 62
     2
100
AcDbLine
 10
343.3920298884673
 20
123.0766613787141
 30
0.0
 11
190.0042579244742
 21
123.0766613787141
 31
0.0
  0
LINE
  5
298
330
296
100
AcDbEntity
  8
1
  6
Continuous
 62
     2
100
AcDbLine
 10
343.3920298884673
 20
176.9976435056852
 30
0.0
 11
343.3920298884673
 21
121.0766613787141
 31
0.0
  0
LINE
  5
299
330
296
100
AcDbEntity
  8
1
  6
Continuous
 62
     2
100
AcDbLine
 10
190.0042579244742
 20
280.6107593725615
 30
0.0
 11
190.0042579244742
 21
121.0766613787141
 31
0.0
  0
SOLID
  5
29A
330
296
100
AcDbEntity
  8
1
 62
     2
100
AcDbTrace
 10
336.3920298884673
 20
122.1550938956023
 30
0.0
 11
336.3920298884673
 21
123.9982288618259
 31
0.0
 12
343.3920298884673
 22
123.0766613787141
 32
0.0
 13
343.3920298884673
 23
123.0766613787141
 33
0.0
  0
SOLID
  5
29B
330
296
100
AcDbEntity
  8
1
 62
     2
100
AcDbTrace
 10
197.0042579244742
 20
123.9982288618259
 30
0.0
 11
197.0042579244742
 21
122.1550938956023
 31
0.0
 12
190.0042579244742
 22
123.0766613787141
 32
0.0
 13
190.0042579244742
 23
123.0766613787141
 33
0.0
  0
MTEXT
  5
29C
330
296
100
AcDbEntity
  8
1
 62
     7
100
AcDbMText
 10
261.972077228431
 20
125.0766613787141
 30
0.0
 40
7.0
 41
0.0
 71
     7
 72
     1
  1
153
  7
CONVERTER_12
 11
0.9999999999970619
 21
2.424068405545306E-6
 31
0.0
 73
     1
 44
0.60024009603842
  0
ENDBLK
  5
29E
330
296
100
AcDbEntity
  8
0
100
AcDbBlockEnd
  0
BLOCK
  5
2A9
330
2A1
100
AcDbEntity
  8
0
100
AcDbBlockBegin
  2
*D22
 70
     1
 10
0.0
 20
0.0
 30
0.0
  3
*D22
  1

  0
LINE
  5
2A2
330
2A1
100
AcDbEntity
  8
1
  6
Continuous
 62
     2
100
AcDbLine
 10
377.392029888468
 20
201.0860005981479
 30
0.0
 11
377.392029888468
 21
229.0
 31
0.0
  0
LINE
  5
2A3
330
2A1
100
AcDbEntity
  8
1
  6
Continuous
 62
     2
100
AcDbLine
 10
377.392029888468
 20
248.0
 30
0.0
 11
377.392029888468
 21
316.0059280201966
 31
0.0
  0
LINE
  5
2A4
330
2A1
100
AcDbEntity
  8
1
  6
Continuous
 62
     2
100
AcDbLine
 10
360.3920298884679
 20
201.0860005981479
 30
0.0
 11
379.392029888468
 21
201.0860005981479
 31
0.0
  0
LINE
  5
2A5
330
2A1
100
AcDbEntity
  8
1
  6
Continuous
 62
     2
100
AcDbLine
 10
215.3878067513321
 20
316.0059280201966
 30
0.0
 11
379.392029888468
 21
316.0059280201966
 31
0.0
  0
SOLID
  5
2A6
330
2A1
100
AcDbEntity
  8
1
 62
     2
100
AcDbTrace
 10
376.4704624053563
 20
208.0860005981479
 30
0.0
 11
378.3135973715798
 21
208.0860005981479
 31
0.0
 12
377.392029888468
 22
201.0860005981479
 32
0.0
 13
377.392029888468
 23
201.0860005981479
 33
0.0
  0
SOLID
  5
2A7
330
2A1
100
AcDbEntity
  8
1
 62
     2
100
AcDbTrace
 10
378.3135973715798
 20
309.0059280201966
 30
0.0
 11
376.4704624053563
 21
309.0059280201966
 31
0.0
 12
377.392029888468
 22
316.0059280201966
 32
0.0
 13
377.392029888468
 23
316.0059280201966
 33
0.0
  0
MTEXT
  5
2A8
330
2A1
100
AcDbEntity
  8
1
 62
     7
100
AcDbMText
 10
375.392029888468
 20
260.158965074301
 30
0.0
 40
7.0
 41
0.0
 71
     7
 72
     1
  1
115
  7
CONVERTER_12
 11
0.0
 21
1.0
 31
0.0
 73
     1
 44
0.60024009603842
  0
ENDBLK
  5
2AA
330
2A1
100
AcDbEntity
  8
0
100
AcDbBlockEnd
  0
BLOCK
  5
2B4
330
2AD
100
AcDbEntity
  8
0
100
AcDbBlockBegin
  2
*D23
 70
     1
 10
0.0
 20
0.0
 30
0.0
  3
*D23
  1

  0
LINE
  5
2AE
330
2AD
100
AcDbEntity
  8
1
  6
Continuous
 62
     2
100
AcDbLine
 10
105.0452236259984
 20
123.0766613787141
 30
0.0
 11
149.8302752486453
 21
123.0766613787141
 31
0.0
  0
LINE
  5
2AF
330
2AD
100
AcDbEntity
  8
1
  6
Continuous
 62
     2
100
AcDbLine
 10
105.0452236259984
 20
196.3659706082017
 30
0.0
 11
105.0452236259984
 21
121.0766613787141
 31
0.0
  0
LINE
  5
2B0
330
2AD
100
AcDbEntity
  8
1
  6
Continuous
 62
     2
100
AcDbLine
 10
149.8302752486453
 20
200.2302588917781
 30
0.0
 11
149.8302752486453
 21
121.0766613787141
 31
0.0
  0
SOLID
  5
2B1
330
2AD
100
AcDbEntity
  8
1
 62
     2
100
AcDbTrace
 10
112.0452236259984
 20
123.9982288618259
 30
0.0
 11
112.0452236259984
 21
122.1550938956023
 31
0.0
 12
105.0452236259984
 22
123.0766613787141
 32
0.0
 13
105.0452236259984
 23
123.0766613787141
 33
0.0
  0
SOLID
  5
2B2
330
2AD
100
AcDbEntity
  8
1
 62
     2
100
AcDbTrace
 10
142.8302752486453
 20
122.1550938956023
 30
0.0
 11
142.8302752486453
 21
123.9982288618259
 31
0.0
 12
149.8302752486453
 22
123.0766613787141
 32
0.0
 13
149.8302752486453
 23
123.0766613787141
 33
0.0
  0
MTEXT
  5
2B3
330
2AD
100
AcDbEntity
  8
1
 62
     7
100
AcDbMText
 10
122.214966367676
 20
125.0766613787141
 30
0.0
 40
7.0
 41
0.0
 71
     7
 72
     1
  1
45
  7
CONVERTER_12
 11
0.9999999999970619
 21
2.424068405545306E-6
 31
0.0
 73
     1
 44
0.60024009603842
  0
ENDBLK
  5
2B5
330
2AD
100
AcDbEntity
  8
0
100
AcDbBlockEnd
  0
BLOCK
  5
2C1
330
2B8
100
AcDbEntity
  8
0
100
AcDbBlockBegin
  2
*D24
 70
     1
 10
0.0
 20
0.0
 30
0.0
  3
*D24
  1

  0
LINE
  5
2B9
330
2B8
100
AcDbEntity
  8
1
  6
Continuous
 62
     2
100
AcDbLine
 10
226.7971177729504
 20
200.5488957089727
 30
0.0
 11
226.622806287455
 21
198.5565063127892
 31
0.0
  0
LINE
  5
2BA
330
2B8
100
AcDbEntity
  8
1
  6
Continuous
 62
     2
100
AcDbLine
 10
228.6860683722114
 20
200.4664223447013
 30
0.0
 11
228.6860683722114
 21
198.4664223447013
 31
0.0
  0
LINE
  5
2BB
330
2B8
100
AcDbEntity
  8
1
  6
Continuous
 62
     2
100
AcDbLine
 10
228.4240476324277
 20
219.1447890957118
 30
0.0
 11
226.7971177729504
 21
200.5488957089727
 31
0.0
  0
LINE
  5
2BC
330
2B8
100
AcDbEntity
  8
1
  6
Continuous
 62
     2
100
AcDbLine
 10
228.6860683722114
 20
222.139699855846
 30
0.0
 11
228.6860683722114
 21
200.4664223447013
 31
0.0
  0
ARC
  5
2BD
330
2B8
100
AcDbEntity
  8
1
  6
Continuous
 62
     2
100
AcDbCircle
 10
228.6860683722114
 20
222.1396998558461
 30
0.0
 40
21.6732775111448
100
AcDbArc
 50
237.2420531653292
 51
297.757946834668
  0
SOLID
  5
2BE
330
2B8
100
AcDbEntity
  8
1
 62
     2
100
AcDbTrace
 10
219.7856929086028
 20
201.3790812289242
 30
0.0
 11
220.2394692409235
 21
203.1654836315036
 31
0.0
 12
226.7971177729504
 22
200.5488957089727
 32
0.0
 13
226.7971177729504
 23
200.5488957089727
 33
0.0
  0
SOLID
  5
2BF
330
2B8
100
AcDbEntity
  8
1
 62
     2
100
AcDbTrace
 10
235.4468137356185
 20
202.5015166317304
 30
0.0
 11
235.7431680837528
 21
200.6823628163377
 31
0.0
 12
228.6860683722114
 22
200.4664223447013
 32
0.0
 13
228.6860683722114
 23
200.4664223447013
 33
0.0
  0
MTEXT
  5
2C0
330
2B8
100
AcDbEntity
  8
1
 62
     7
100
AcDbMText
 10
214.2854761281279
 20
207.9847257813323
 30
0.0
 40
7.0
 41
0.0
 71
     7
 72
     1
  1
5{\Fgdt;~}
  7
CONVERTER_12
 11
0.8436678624108237
 21
-0.5368654747095882
 31
0.0
 73
     1
 44
0.60024009603842
  0
ENDBLK
  5
2C2
330
2B8
100
AcDbEntity
  8
0
100
AcDbBlockEnd
  0
BLOCK
  5
2CC
330
2C5
100
AcDbEntity
  8
0
100
AcDbBlockBegin
  2
*D25
 70
     1
 10
0.0
 20
0.0
 30
0.0
  3
*D25
  1

  0
LINE
  5
2C6
330
2C5
100
AcDbEntity
  8
1
  6
Continuous
 62
     2
100
AcDbLine
 10
313.6932701431843
 20
201.0860005981479
 30
0.0
 11
311.6932701431843
 21
201.0860005981479
 31
0.0
  0
LINE
  5
2C7
330
2C5
100
AcDbEntity
  8
1
  6
Continuous
 62
     2
100
AcDbLine
 10
337.642029888468
 20
201.0860005981479
 30
0.0
 11
313.6932701431843
 21
201.0860005981479
 31
0.0
  0
ARC
  5
2C8
330
2C5
100
AcDbEntity
  8
1
  6
Continuous
 62
     2
100
AcDbCircle
 10
341.1157798377338
 20
201.0860005981479
 30
0.0
 40
27.42250969454948
100
AcDbArc
 50
120.4323815378632
 51
201.9383889946054
  0
SOLID
  5
2C9
330
2C5
100
AcDbEntity
  8
1
 62
     2
100
AcDbTrace
 10
322.6833373242591
 20
222.6116500192745
 30
0.0
 11
324.0463001831091
 21
221.370892690418
 31
0.0
 12
318.652574961906
 22
216.8149059845455
 32
0.0
 13
318.652574961906
 23
216.8149059845455
 33
0.0
  0
SOLID
  5
2CA
330
2C5
100
AcDbEntity
  8
1
 62
     2
100
AcDbTrace
 10
315.4983445656501
 20
194.2602410832449
 30
0.0
 11
313.6702015864713
 21
194.0256355603032
 31
0.0
 12
313.6932701431843
 22
201.0860005981479
 32
0.0
 13
313.6932701431843
 23
201.0860005981479
 33
0.0
  0
MTEXT
  5
2CB
330
2C5
100
AcDbEntity
  8
1
 62
     7
100
AcDbMText
 10
316.7398325196329
 20
225.972695115679
 30
0.0
 40
7.0
 41
0.0
 71
     7
 72
     1
  1
35{\Fgdt;~}
  7
CONVERTER_12
 73
     1
 44
0.60024009603842
  0
ENDBLK
  5
2CD
330
2C5
100
AcDbEntity
  8
0
100
AcDbBlockEnd
  0
ENDSEC
  0
SECTION
  2
ENTITIES
  0
INSERT
  5
7D
330
1F
100
AcDbEntity
  8
1
100
AcDbBlockReference
  2
開示A4
 10
0.0
 20
0.0
 30
0.0
 41
2.0
 42
2.0
 43
2.0
  0
INSERT
  5
7E
330
1F
100
AcDbEntity
  8
1
100
AcDbBlockReference
  2
U1-76X-Y
 10
338.8308575147246
 20
-239.2344806984146
 30
0.0
  0
INSERT
  5
7F
330
1F
100
AcDbEntity
  8
1
100
AcDbBlockReference
  2
30-201X
 10
314.452170106334
 20
229.5222578382154
 30
0.0
  0
INSERT
  5
80
330
1F
100
AcDbEntity
  8
1
100
AcDbBlockReference
  2
87-64set
 10
85.43711180351539
 20
-97.2478619799477
 30
0.0
  0
INSERT
  5
81
330
1F
100
AcDbEntity
  8
1
100
AcDbBlockReference
  2
Y1966-0
 10
15.0
 20
-73.7053053197531
 30
0.0
  0
INSERT
  5
82
330
1F
100
AcDbEntity
  8
1
100
AcDbBlockReference
  2
36-76-M1-115_
 10
105.0198642184678
 20
262.4765431587138
 30
0.0
  0
INSERT
  5
83
330
1F
100
AcDbEntity
  8
1
100
AcDbBlockReference
  2
31-76-M1-115
 10
776.8844382622349
 20
1884.079434351731
 30
0.0
  0
INSERT
  5
84
330
1F
100
AcDbEntity
  8
1
100
AcDbBlockReference
  2
30-201X_
 10
115.6407665476508
 20
197.3643453154367
 30
0.0
  0
INSERT
  5
85
330
1F
100
AcDbEntity
  8
1
100
AcDbBlockReference
  2
30-205_
 10
115.3906928384682
 20
221.1662428687138
 30
0.0
  0
INSERT
  5
86
330
1F
100
AcDbEntity
  8
1
100
AcDbBlockReference
  2
Y1966-0_
 10
104.932486928468
 20
175.0628844126921
 30
0.0
  0
LINE
  5
256
330
1F
100
AcDbEntity
  8
1
  6
DASH_CENTER
 62
     2
100
AcDbLine
 10
360.3920298884679
 20
201.0860005981479
 30
0.0
 11
341.1157798377338
 21
201.0860005981479
 31
0.0
  0
LINE
  5
257
330
1F
100
AcDbEntity
  8
1
  6
DASH_CENTER
 62
     2
100
AcDbLine
 10
230.3071651873186
 20
240.6689212403508
 30
0.0
 11
228.4240476324277
 21
219.1447890957118
 31
0.0
  0
LINE
  5
258
330
1F
100
AcDbEntity
  8
1
  6
DASH_CENTER
 62
     2
100
AcDbLine
 10
311.5842879244918
 20
225.4264976166377
 30
0.0
 11
294.3887531509677
 21
200.8687289050479
 31
0.0
  0
LINE
  5
259
330
1F
100
AcDbEntity
  8
1
  6
PHANTOM
 62
     4
100
AcDbLine
 10
228.6860683722114
 20
222.139699855846
 30
0.0
 11
228.6860683722114
 21
227.139699855846
 31
0.0
  0
LINE
  5
25A
330
1F
100
AcDbEntity
  8
1
  6
DASH_CENTER
 62
     2
100
AcDbLine
 10
127.3907665484668
 20
523.2472403903695
 30
0.0
 11
127.3907665484668
 21
343.9999999999987
 31
0.0
  0
LINE
  5
25B
330
1F
100
AcDbEntity
  8
1
  6
DASH_CENTER
 62
     2
100
AcDbLine
 10
127.390766548468
 20
321.9908801744654
 30
0.0
 11
127.3907665484681
 21
169.0628844187141
 31
0.0
  0
LINE
  5
25C
330
1F
100
AcDbEntity
  8
1
  6
DASH_CENTER
 62
     2
100
AcDbLine
 10
195.182272433242
 20
303.2697425601164
 30
0.0
 11
341.1157798377338
 21
201.0860005981479
 31
0.0
  0
LINE
  5
25D
330
1F
100
AcDbEntity
  8
1
  6
DASH_CENTER
 62
     2
100
AcDbLine
 10
341.1157798377338
 20
201.0860005981479
 30
0.0
 11
337.642029888468
 21
201.0860005981479
 31
0.0
  0
SOLID
  5
25E
330
1F
100
AcDbEntity
  8
1
 62
     2
100
AcDbTrace
 10
352.513929036791
 20
218.0889621661952
 30
0.0
 11
354.110130740144
 21
217.1673946830834
 31
0.0
 12
349.8120298884675
 22
211.5660005981482
 32
0.0
 13
349.8120298884675
 23
211.5660005981482
 33
0.0
  0
LEADER
  5
25F
330
1F
100
AcDbEntity
  8
1
  6
Continuous
 62
     2
100
AcDbLeader
  3
Standard
 71
     0
 76
     3
 10
349.8120298884675
 20
211.5660005981482
 30
0.0
 10
363.0998257880418
 20
234.5811382168164
 30
0.0
 10
388.015130894438
 20
234.5811382168164
 30
0.0
  0
MTEXT
  5
261
330
1F
100
AcDbEntity
  8
1
 62
     7
100
AcDbMText
 10
375.5574783412399
 20
240.5811382168164
 30
0.0
 40
7.0
 41
0.0
 71
     5
 72
     1
  1
PJ1/2
  7
CONVERTER_12
 73
     1
 44
0.7202881152461
  0
MTEXT
  5
262
330
1F
100
AcDbEntity
  8
1
 62
     7
100
AcDbMText
 10
72.80587665929181
 20
69.62995022123914
 30
0.0
 40
7.0
 41
0.0
 71
     5
 72
     1
  1
JIS
  7
CONVERTER_12
 73
     1
 44
0.7202881152461
  0
MTEXT
  5
263
330
1F
100
AcDbEntity
  8
0
 62
     7
100
AcDbMText
 10
114.0
 20
45.50000000000002
 30
0.0
 40
7.0
 41
0.0
 71
     5
 72
     1
  1
自閉式横水栓
  7
CONVERTER_11
 73
     1
 44
1.0
  0
MTEXT
  5
264
330
1F
100
AcDbEntity
  8
0
 62
     7
100
AcDbMText
 10
114.0
 20
28.5
 30
0.0
 40
7.0
 41
0.0
 71
     5
 72
     1
  1
Y1966-13
  7
CONVERTER_12
 73
     1
 44
0.90036014405762
  0
MTEXT
  5
265
330
1F
100
AcDbEntity
  8
0
 62
     7
100
AcDbMText
 10
170.5
 20
34.0
 30
0.0
 40
7.0
 41
0.0
 71
     5
 72
     1
  1
1
  7
CONVERTER_12
 73
     1
 44
1.32052821128451
  0
MTEXT
  5
266
330
1F
100
AcDbEntity
  8
0
 62
     7
100
AcDbMText
 10
187.5
 20
34.0
 30
0.0
 40
7.0
 41
0.0
 71
     5
 72
     1
  1
2
  7
CONVERTER_12
 73
     1
 44
1.32052821128451
  0
DIMENSION
  5
274
330
1F
100
AcDbEntity
  8
1
100
AcDbDimension
  2
*D16
 10
343.3920298884673
 20
123.0766613787141
 30
0.0
 11
351.796017367261
 21
128.5766613787141
 31
0.0
 70
    32
  1
<>
 71
     5
 42
-1.0
 53
0.00013888888889
  3
ME10_DIM_10
100
AcDbAlignedDimension
 13
357.392029888468
 23
191.766000598148
 33
0.0
 14
343.3920298884673
 24
175.0766613787141
 34
0.0
100
AcDbRotatedDimension
  0
DIMENSION
  5
27F
330
1F
100
AcDbEntity
  8
1
100
AcDbDimension
  2
*D18
 10
296.0977241431006
 20
155.0766613787141
 30
0.0
 11
319.7448770157839
 21
160.5766613787141
 31
0.0
 70
    32
  1
48
 71
     5
 42
-1.0
 53
0.00013888888889
  3
ME10_DIM_11
100
AcDbAlignedDimension
 13
343.3920298884673
 23
175.0766613787141
 33
0.0
 14
296.0977241431006
 24
203.3093924209675
 34
0.0
100
AcDbRotatedDimension
  0
DIMENSION
  5
28A
330
1F
100
AcDbEntity
  8
1
100
AcDbDimension
  2
*D19
 10
228.6855148606708
 20
139.0766613787141
 30
0.0
 11
286.0390491303393
 21
144.5766613787141
 31
0.0
 70
    32
  1
115
 71
     5
 42
-1.0
 53
0.00013888888889
  3
ME10_DIM_12
100
AcDbAlignedDimension
 13
343.3920298884673
 23
176.9976435056852
 33
0.0
 14
228.6855148606708
 24
222.1333731899867
 34
0.0
100
AcDbRotatedDimension
  0
DIMENSION
  5
295
330
1F
100
AcDbEntity
  8
1
100
AcDbDimension
  2
*D20
 10
258.156115969731
 20
222.1396998558461
 30
0.0
 11
252.656115969731
 21
211.612850226997
 31
0.0
 70
    32
  1
21
 71
     5
 42
-1.0
 53
90.0
  3
ME10_DIM_13
100
AcDbAlignedDimension
 13
337.642029888468
 23
201.0860005981479
 33
0.0
 14
228.6860683722114
 24
222.139699855846
 34
0.0
 50
90.0
100
AcDbRotatedDimension
  0
DIMENSION
  5
2A0
330
1F
100
AcDbEntity
  8
1
100
AcDbDimension
  2
*D21
 10
343.3920298884673
 20
123.0766613787141
 30
0.0
 11
269.322077228431
 21
128.5766613787141
 31
0.0
 70
    32
  1
153
 71
     5
 42
-1.0
 53
0.00013888888889
  3
ME10_DIM_14
100
AcDbAlignedDimension
 13
190.0042579244742
 23
280.6107593725615
 33
0.0
 14
343.3920298884673
 24
176.9976435056852
 34
0.0
100
AcDbRotatedDimension
  0
DIMENSION
  5
2AC
330
1F
100
AcDbEntity
  8
1
100
AcDbDimension
  2
*D22
 10
377.392029888468
 20
201.0860005981479
 30
0.0
 11
371.892029888468
 21
266.458965074301
 31
0.0
 70
    32
  1
115
 71
     5
 42
-1.0
 53
90.0
  3
ME10_DIM_15
100
AcDbAlignedDimension
 13
215.3878067513322
 23
316.0059280201966
 33
0.0
 14
360.3920298884679
 24
201.0860005981479
 34
0.0
 50
90.0
100
AcDbRotatedDimension
  0
DIMENSION
  5
2B7
330
1F
100
AcDbEntity
  8
1
100
AcDbDimension
  2
*D23
 10
105.0452236259984
 20
123.0766613787141
 30
0.0
 11
127.464966367676
 21
128.5766613787141
 31
0.0
 70
    32
  1
45
 71
     5
 42
-1.0
 53
0.00013888888889
  3
ME10_DIM_16
100
AcDbAlignedDimension
 13
149.8302752486453
 23
200.2302588917781
 33
0.0
 14
105.0452236259984
 24
196.3659706082017
 34
0.0
100
AcDbRotatedDimension
  0
DIMENSION
  5
2C4
330
1F
100
AcDbEntity
  8
1
100
AcDbDimension
  2
*D24
 10
227.7406932849758
 20
200.4870505024868
 30
0.0
 11
220.0031940635807
 21
208.4948253898415
 31
0.0
 70
    37
  1
<>
 71
     5
 42
-1.0
  3
ME10_DIM_17
100
AcDb3PointAngularDimension
 13
228.4240476324277
 23
219.1447890957118
 33
0.0
 14
228.6860683722114
 24
219.9723721047316
 34
0.0
 15
228.6860683722114
 25
222.1396998558461
 35
0.0
  0
DIMENSION
  5
2CF
330
1F
100
AcDbEntity
  8
1
100
AcDbDimension
  2
*D25
 10
314.9624675099836
 20
209.3321083002587
 30
0.0
 11
324.4398325196329
 21
229.472695115679
 31
0.0
 70
    37
  1
<>
 71
     5
 42
-1.0
  3
ME10_DIM_18
100
AcDb3PointAngularDimension
 13
318.652574961906
 23
216.8149059845455
 33
0.0
 14
337.642029888468
 24
201.0860005981479
 34
0.0
 15
341.1157798377338
 25
201.0860005981479
 35
0.0
  0
ENDSEC
  0
SECTION
  2
OBJECTS
  0
DICTIONARY
  5
C
330
0
100
AcDbDictionary
281
     1
  3
ACAD_GROUP
350
D
  3
ACAD_LAYOUT
350
1A
  3
ACAD_MATERIAL
350
3B
  3
ACAD_MLEADERSTYLE
350
2D2
  3
ACAD_MLINESTYLE
350
17
  3
ACAD_PLOTSETTINGS
350
19
  3
ACAD_PLOTSTYLENAME
350
E
  3
ACAD_VISUALSTYLE
350
2A
  3
AcDbVariableDictionary
350
2D0
  0
DICTIONARY
  5
D
102
{ACAD_REACTORS
330
C
102
}
330
C
100
AcDbDictionary
281
     1
  0
DICTIONARY
  5
1A
102
{ACAD_REACTORS
330
C
102
}
330
C
100
AcDbDictionary
281
     1
  3
Layout1
350
1E
  3
Layout2
350
26
  3
Model
350
22
  0
DICTIONARY
  5
3B
102
{ACAD_REACTORS
330
C
102
}
330
C
100
AcDbDictionary
281
     1
  3
ByBlock
350
3D
  3
ByLayer
350
3C
  3
Global
350
3E
  0
DICTIONARY
  5
2D2
102
{ACAD_REACTORS
330
C
102
}
330
C
100
AcDbDictionary
281
     1
  0
DICTIONARY
  5
17
102
{ACAD_REACTORS
330
C
102
}
330
C
100
AcDbDictionary
281
     1
  3
Standard
350
18
  0
DICTIONARY
  5
19
102
{ACAD_REACTORS
330
C
102
}
330
C
100
AcDbDictionary
281
     1
  0
ACDBDICTIONARYWDFLT
  5
E
102
{ACAD_REACTORS
330
C
102
}
330
C
100
AcDbDictionary
281
     1
  3
Normal
350
F
100
AcDbDictionaryWithDefault
340
F
  0
DICTIONARY
  5
2A
102
{ACAD_REACTORS
330
C
102
}
330
C
100
AcDbDictionary
281
     1
  3
2dWireframe
350
2F
  3
3D Hidden
350
31
  3
3dWireframe
350
30
  3
Basic
350
32
  3
Brighten
350
36
  3
ColorChange
350
3A
  3
Conceptual
350
34
  3
Dim
350
35
  3
Facepattern
350
39
  3
Flat
350
2B
  3
FlatWithEdges
350
2C
  3
Gouraud
350
2D
  3
GouraudWithEdges
350
2E
  3
Linepattern
350
38
  3
Realistic
350
33
  3
Thicken
350
37
  0
DICTIONARY
  5
2D0
102
{ACAD_REACTORS
330
C
102
}
330
C
100
AcDbDictionary
281
     1
  3
DIMASSOC
350
2D3
  3
HIDETEXT
350
2D4
  0
LAYOUT
  5
1E
102
{ACAD_REACTORS
330
1A
102
}
330
1A
100
AcDbPlotSettings
  1

  2
none_device
  4

  6

 40
0.0
 41
0.0
 42
0.0
 43
0.0
 44
0.0
 45
0.0
 46
0.0
 47
0.0
 48
0.0
 49
0.0
140
0.0
141
0.0
142
1.0
143
1.0
 70
   688
 72
     0
 73
     0
 74
     5
  7

 75
    16
147
1.0
148
0.0
149
0.0
100
AcDbLayout
  1
Layout1
 70
     1
 71
     1
 10
0.0
 20
0.0
 11
12.0
 21
9.0
 12
0.0
 22
0.0
 32
0.0
 14
1.00000000000000E+20
 24
1.00000000000000E+20
 34
1.00000000000000E+20
 15
-1.00000000000000E+20
 25
-1.00000000000000E+20
 35
-1.00000000000000E+20
146
0.0
 13
0.0
 23
0.0
 33
0.0
 16
1.0
 26
0.0
 36
0.0
 17
0.0
 27
1.0
 37
0.0
 76
     0
330
1B
  0
LAYOUT
  5
26
102
{ACAD_REACTORS
330
1A
102
}
330
1A
100
AcDbPlotSettings
  1

  2
none_device
  4

  6

 40
0.0
 41
0.0
 42
0.0
 43
0.0
 44
0.0
 45
0.0
 46
0.0
 47
0.0
 48
0.0
 49
0.0
140
0.0
141
0.0
142
1.0
143
1.0
 70
   688
 72
     0
 73
     0
 74
     5
  7

 75
    16
147
1.0
148
0.0
149
0.0
100
AcDbLayout
  1
Layout2
 70
     1
 71
     2
 10
0.0
 20
0.0
 11
0.0
 21
0.0
 12
0.0
 22
0.0
 32
0.0
 14
0.0
 24
0.0
 34
0.0
 15
0.0
 25
0.0
 35
0.0
146
0.0
 13
0.0
 23
0.0
 33
0.0
 16
1.0
 26
0.0
 36
0.0
 17
0.0
 27
1.0
 37
0.0
 76
     0
330
23
  0
LAYOUT
  5
22
102
{ACAD_REACTORS
330
1A
102
}
330
1A
100
AcDbPlotSettings
  1

  2
none_device
  4

  6

 40
0.0
 41
0.0
 42
0.0
 43
0.0
 44
0.0
 45
0.0
 46
0.0
 47
0.0
 48
0.0
 49
0.0
140
0.0
141
0.0
142
1.0
143
1.0
 70
  1712
 72
     0
 73
     0
 74
     0
  7

 75
     0
147
1.0
148
0.0
149
0.0
100
AcDbLayout
  1
Model
 70
     1
 71
     0
 10
0.0
 20
0.0
 11
12.0
 21
9.0
 12
0.0
 22
0.0
 32
0.0
 14
0.0
 24
0.0
 34
0.0
 15
420.0
 25
594.0
 35
0.0
146
0.0
 13
0.0
 23
0.0
 33
0.0
 16
1.0
 26
0.0
 36
0.0
 17
0.0
 27
1.0
 37
0.0
 76
     0
330
1F
331
29
  0
MATERIAL
  5
3D
102
{ACAD_REACTORS
330
3B
102
}
102
{ACAD_XDICTIONARY
360
2F7
102
}
330
3B
100
AcDbMaterial
  1
ByBlock
  0
MATERIAL
  5
3C
102
{ACAD_REACTORS
330
3B
102
}
102
{ACAD_XDICTIONARY
360
2F5
102
}
330
3B
100
AcDbMaterial
  1
ByLayer
  0
MATERIAL
  5
3E
102
{ACAD_REACTORS
330
3B
102
}
102
{ACAD_XDICTIONARY
360
2F9
102
}
330
3B
100
AcDbMaterial
  1
Global
  0
MLINESTYLE
  5
18
102
{ACAD_REACTORS
330
17
102
}
330
17
100
AcDbMlineStyle
  2
Standard
 70
     0
  3

 62
   256
 51
90.0
 52
90.0
 71
     2
 49
0.5
 62
   256
  6
BYLAYER
 49
-0.5
 62
   256
  6
BYLAYER
  0
ACDBPLACEHOLDER
  5
F
102
{ACAD_REACTORS
330
E
102
}
330
E
  0
VISUALSTYLE
  5
2F
102
{ACAD_REACTORS
330
2A
102
}
102
{ACAD_XDICTIONARY
360
2DD
102
}
330
2A
100
AcDbVisualStyle
  2
2dWireframe
 70
     4
 71
     0
 72
     2
 73
     0
 90
        0
 40
-0.6
 41
-30.0
 62
     5
 63
     7
 74
     1
 91
        4
 64
     7
 65
   257
 75
     1
175
     1
 42
1.0
 92
        0
 66
   257
 43
1.0
 76
     1
 77
     6
 78
     2
 67
     7
 79
     5
170
     0
171
     0
290
     0
174
     0
 93
        1
 44
0.0
173
     0
291
     0
 45
0.0
1001
ACAD
1000
AcDbSavedByObjectVersion
1070
     0
  0
VISUALSTYLE
  5
31
102
{ACAD_REACTORS
330
2A
102
}
102
{ACAD_XDICTIONARY
360
2E1
102
}
330
2A
100
AcDbVisualStyle
  2
3D Hidden
 70
     6
 71
     1
 72
     2
 73
     2
 90
        0
 40
-0.6
 41
-30.0
 62
     5
 63
     7
 74
     2
 91
        2
 64
     7
 65
   257
 75
     2
175
     1
 42
40.0
 92
        0
 66
   257
 43
1.0
 76
     1
 77
     6
 78
     2
 67
     7
 79
     3
170
     0
171
     0
290
     0
174
     0
 93
        1
 44
0.0
173
     0
291
     0
 45
0.0
1001
ACAD
1000
AcDbSavedByObjectVersion
1070
     0
  0
VISUALSTYLE
  5
30
102
{ACAD_REACTORS
330
2A
102
}
102
{ACAD_XDICTIONARY
360
2DF
102
}
330
2A
100
AcDbVisualStyle
  2
3dWireframe
 70
     5
 71
     0
 72
     2
 73
     0
 90
        0
 40
-0.6
 41
-30.0
 62
     5
 63
     7
 74
     1
 91
        4
 64
     7
 65
   257
 75
     1
175
     1
 42
1.0
 92
        0
 66
   257
 43
1.0
 76
     1
 77
     6
 78
     2
 67
     7
 79
     5
170
     0
171
     0
290
     0
174
     0
 93
        1
 44
0.0
173
     0
291
     0
 45
0.0
1001
ACAD
1000
AcDbSavedByObjectVersion
1070
     0
  0
VISUALSTYLE
  5
32
102
{ACAD_REACTORS
330
2A
102
}
102
{ACAD_XDICTIONARY
360
2E3
102
}
330
2A
100
AcDbVisualStyle
  2
Basic
 70
     7
 71
     1
 72
     0
 73
     1
 90
        0
 40
-0.6
 41
-30.0
 62
     5
 63
     7
 74
     0
 91
        4
 64
     7
 65
   257
 75
     1
175
     1
 42
1.0
 92
        8
 66
     7
 43
1.0
 76
     1
 77
     6
 78
     2
 67
     7
 79
     5
170
     0
171
     0
290
     0
174
     0
 93
        1
 44
0.0
173
     0
291
     1
 45
0.0
1001
ACAD
1000
AcDbSavedByObjectVersion
1070
     0
  0
VISUALSTYLE
  5
36
102
{ACAD_REACTORS
330
2A
102
}
102
{ACAD_XDICTIONARY
360
2EB
102
}
330
2A
100
AcDbVisualStyle
  2
Brighten
 70
    12
 71
     2
 72
     2
 73
     0
 90
        0
 40
-0.6
 41
-30.0
 62
     5
 63
     7
 74
     1
 91
        4
 64
     7
 65
   257
 75
     1
175
     1
 42
1.0
 92
        8
 66
     7
 43
1.0
 76
     1
 77
     6
 78
     2
 67
     7
 79
     5
170
     0
171
     0
290
     0
174
     0
 93
        1
 44
50.0
173
     0
291
     1
 45
0.0
1001
ACAD
1000
AcDbSavedByObjectVersion
1070
     0
  0
VISUALSTYLE
  5
3A
102
{ACAD_REACTORS
330
2A
102
}
102
{ACAD_XDICTIONARY
360
2F3
102
}
330
2A
100
AcDbVisualStyle
  2
ColorChange
 70
    16
 71
     2
 72
     2
 73
     3
 90
        0
 40
-0.6
 41
-30.0
 62
     5
 63
     8
 74
     1
 91
        4
 64
     7
 65
   257
 75
     1
175
     1
 42
1.0
 92
        8
 66
     8
 43
1.0
 76
     1
 77
     6
 78
     2
 67
     7
 79
     5
170
     0
171
     0
290
     0
174
     0
 93
        1
 44
0.0
173
     0
291
     1
 45
0.0
1001
ACAD
1000
AcDbSavedByObjectVersion
1070
     0
  0
VISUALSTYLE
  5
34
102
{ACAD_REACTORS
330
2A
102
}
102
{ACAD_XDICTIONARY
360
2E7
102
}
330
2A
100
AcDbVisualStyle
  2
Conceptual
 70
     9
 71
     3
 72
     2
 73
     0
 90
        0
 40
-0.6
 41
-30.0
 62
     5
 63
     7
 74
     2
 91
        2
 64
     7
 65
   257
 75
     1
175
     1
 42
40.0
 92
        8
 66
     7
 43
1.0
 76
     1
 77
     6
 78
     2
 67
     7
 79
     3
170
     0
171
     0
290
     0
174
     0
 93
        1
 44
0.0
173
     0
291
     0
 45
0.0
1001
ACAD
1000
AcDbSavedByObjectVersion
1070
     0
  0
VISUALSTYLE
  5
35
102
{ACAD_REACTORS
330
2A
102
}
102
{ACAD_XDICTIONARY
360
2E9
102
}
330
2A
100
AcDbVisualStyle
  2
Dim
 70
    11
 71
     2
 72
     2
 73
     0
 90
        0
 40
-0.6
 41
-30.0
 62
     5
 63
     7
 74
     1
 91
        4
 64
     7
 65
   257
 75
     1
175
     1
 42
1.0
 92
        8
 66
     7
 43
1.0
 76
     1
 77
     6
 78
     2
 67
     7
 79
     5
170
     0
171
     0
290
     0
174
     0
 93
        1
 44
-50.0
173
     0
291
     1
 45
0.0
1001
ACAD
1000
AcDbSavedByObjectVersion
1070
     0
  0
VISUALSTYLE
  5
39
102
{ACAD_REACTORS
330
2A
102
}
102
{ACAD_XDICTIONARY
360
2F1
102
}
330
2A
100
AcDbVisualStyle
  2
Facepattern
 70
    15
 71
     2
 72
     2
 73
     0
 90
        0
 40
-0.6
 41
-30.0
 62
     5
 63
     7
 74
     1
 91
        4
 64
     7
 65
   257
 75
     1
175
     1
 42
1.0
 92
        8
 66
     7
 43
1.0
 76
     1
 77
     6
 78
     2
 67
     7
 79
     5
170
     0
171
     0
290
     0
174
     0
 93
        1
 44
0.0
173
     0
291
     1
 45
0.0
1001
ACAD
1000
AcDbSavedByObjectVersion
1070
     0
  0
VISUALSTYLE
  5
2B
102
{ACAD_REACTORS
330
2A
102
}
102
{ACAD_XDICTIONARY
360
2D5
102
}
330
2A
100
AcDbVisualStyle
  2
Flat
 70
     0
 71
     2
 72
     1
 73
     1
 90
        2
 40
-0.6
 41
30.0
 62
     5
 63
     7
 74
     0
 91
        4
 64
     7
 65
   257
 75
     1
175
     1
 42
1.0
 92
        8
 66
     7
 43
1.0
 76
     1
 77
     6
 78
     2
 67
     7
 79
     5
170
     0
171
     0
290
     0
174
     0
 93
       13
 44
0.0
173
     0
291
     1
 45
0.0
1001
ACAD
1000
AcDbSavedByObjectVersion
1070
     0
  0
VISUALSTYLE
  5
2C
102
{ACAD_REACTORS
330
2A
102
}
102
{ACAD_XDICTIONARY
360
2D7
102
}
330
2A
100
AcDbVisualStyle
  2
FlatWithEdges
 70
     1
 71
     2
 72
     1
 73
     1
 90
        2
 40
-0.6
 41
30.0
 62
     5
 63
     7
 74
     1
 91
        4
 64
     7
 65
   257
 75
     1
175
     1
 42
1.0
 92
        0
 66
   257
 43
1.0
 76
     1
 77
     6
 78
     2
 67
     7
 79
     5
170
     0
171
     0
290
     0
174
     0
 93
       13
 44
0.0
173
     0
291
     1
 45
0.0
1001
ACAD
1000
AcDbSavedByObjectVersion
1070
     0
  0
VISUALSTYLE
  5
2D
102
{ACAD_REACTORS
330
2A
102
}
102
{ACAD_XDICTIONARY
360
2D9
102
}
330
2A
100
AcDbVisualStyle
  2
Gouraud
 70
     2
 71
     2
 72
     2
 73
     1
 90
        2
 40
-0.6
 41
30.0
 62
     5
 63
     7
 74
     0
 91
        4
 64
     7
 65
   257
 75
     1
175
     1
 42
1.0
 92
        0
 66
     7
 43
1.0
 76
     1
 77
     6
 78
     2
 67
     7
 79
     5
170
     0
171
     0
290
     0
174
     0
 93
       13
 44
0.0
173
     0
291
     1
 45
0.0
1001
ACAD
1000
AcDbSavedByObjectVersion
1070
     0
  0
VISUALSTYLE
  5
2E
102
{ACAD_REACTORS
330
2A
102
}
102
{ACAD_XDICTIONARY
360
2DB
102
}
330
2A
100
AcDbVisualStyle
  2
GouraudWithEdges
 70
     3
 71
     2
 72
     2
 73
     1
 90
        2
 40
-0.6
 41
30.0
 62
     5
 63
     7
 74
     1
 91
        4
 64
     7
 65
   257
 75
     1
175
     1
 42
1.0
 92
        0
 66
   257
 43
1.0
 76
     1
 77
     6
 78
     2
 67
     7
 79
     5
170
     0
171
     0
290
     0
174
     0
 93
       13
 44
0.0
173
     0
291
     1
 45
0.0
1001
ACAD
1000
AcDbSavedByObjectVersion
1070
     0
  0
VISUALSTYLE
  5
38
102
{ACAD_REACTORS
330
2A
102
}
102
{ACAD_XDICTIONARY
360
2EF
102
}
330
2A
100
AcDbVisualStyle
  2
Linepattern
 70
    14
 71
     2
 72
     2
 73
     0
 90
        0
 40
-0.6
 41
-30.0
 62
     5
 63
     7
 74
     1
 91
        4
 64
     7
 65
   257
 75
     7
175
     7
 42
1.0
 92
        8
 66
     7
 43
1.0
 76
     1
 77
     6
 78
     2
 67
     7
 79
     5
170
     0
171
     0
290
     0
174
     0
 93
        1
 44
0.0
173
     0
291
     1
 45
0.0
1001
ACAD
1000
AcDbSavedByObjectVersion
1070
     0
  0
VISUALSTYLE
  5
33
102
{ACAD_REACTORS
330
2A
102
}
102
{ACAD_XDICTIONARY
360
2E5
102
}
330
2A
100
AcDbVisualStyle
  2
Realistic
 70
     8
 71
     2
 72
     2
 73
     0
 90
        0
 40
-0.6
 41
-30.0
 62
     5
 63
     7
 74
     1
 91
        0
 64
     7
 65
   257
 75
     1
175
     1
 42
1.0
 92
        8
 66
     8
 43
1.0
 76
     1
 77
     6
 78
     2
 67
     7
 79
     5
170
     0
171
     0
290
     0
174
     0
 93
       13
 44
0.0
173
     0
291
     0
 45
0.0
1001
ACAD
1000
AcDbSavedByObjectVersion
1070
     0
  0
VISUALSTYLE
  5
37
102
{ACAD_REACTORS
330
2A
102
}
102
{ACAD_XDICTIONARY
360
2ED
102
}
330
2A
100
AcDbVisualStyle
  2
Thicken
 70
    13
 71
     2
 72
     2
 73
     0
 90
        0
 40
-0.6
 41
-30.0
 62
     5
 63
     7
 74
     1
 91
        4
 64
     7
 65
   257
 75
     1
175
     1
 42
1.0
 92
       12
 66
     7
 43
1.0
 76
     1
 77
     6
 78
     2
 67
     7
 79
     5
170
     0
171
     0
290
     0
174
     0
 93
        1
 44
0.0
173
     0
291
     1
 45
0.0
1001
ACAD
1000
AcDbSavedByObjectVersion
1070
     0
  0
DICTIONARYVAR
  5
2D3
102
{ACAD_REACTORS
330
2D0
102
}
330
2D0
100
DictionaryVariables
280
     0
  1
2
  0
DICTIONARYVAR
  5
2D4
102
{ACAD_REACTORS
330
2D0
102
}
330
2D0
100
DictionaryVariables
280
     0
  1
1
  0
DICTIONARY
  5
2F7
330
3D
100
AcDbDictionary
280
     1
281
     1
  3
ACAD_XREC_ROUNDTRIP
360
2F8
  0
DICTIONARY
  5
2F5
330
3C
100
AcDbDictionary
280
     1
281
     1
  3
ACAD_XREC_ROUNDTRIP
360
2F6
  0
DICTIONARY
  5
2F9
330
3E
100
AcDbDictionary
280
     1
281
     1
  3
ACAD_XREC_ROUNDTRIP
360
2FA
  0
DICTIONARY
  5
2DD
330
2F
100
AcDbDictionary
280
     1
281
     1
  3
ACAD_XREC_ROUNDTRIP
360
2DE
  0
DICTIONARY
  5
2E1
330
31
100
AcDbDictionary
280
     1
281
     1
  3
ACAD_XREC_ROUNDTRIP
360
2E2
  0
DICTIONARY
  5
2DF
330
30
100
AcDbDictionary
280
     1
281
     1
  3
ACAD_XREC_ROUNDTRIP
360
2E0
  0
DICTIONARY
  5
2E3
330
32
100
AcDbDictionary
280
     1
281
     1
  3
ACAD_XREC_ROUNDTRIP
360
2E4
  0
DICTIONARY
  5
2EB
330
36
100
AcDbDictionary
280
     1
281
     1
  3
ACAD_XREC_ROUNDTRIP
360
2EC
  0
DICTIONARY
  5
2F3
330
3A
100
AcDbDictionary
280
     1
281
     1
  3
ACAD_XREC_ROUNDTRIP
360
2F4
  0
DICTIONARY
  5
2E7
330
34
100
AcDbDictionary
280
     1
281
     1
  3
ACAD_XREC_ROUNDTRIP
360
2E8
  0
DICTIONARY
  5
2E9
330
35
100
AcDbDictionary
280
     1
281
     1
  3
ACAD_XREC_ROUNDTRIP
360
2EA
  0
DICTIONARY
  5
2F1
330
39
100
AcDbDictionary
280
     1
281
     1
  3
ACAD_XREC_ROUNDTRIP
360
2F2
  0
DICTIONARY
  5
2D5
330
2B
100
AcDbDictionary
280
     1
281
     1
  3
ACAD_XREC_ROUNDTRIP
360
2D6
  0
DICTIONARY
  5
2D7
330
2C
100
AcDbDictionary
280
     1
281
     1
  3
ACAD_XREC_ROUNDTRIP
360
2D8
  0
DICTIONARY
  5
2D9
330
2D
100
AcDbDictionary
280
     1
281
     1
  3
ACAD_XREC_ROUNDTRIP
360
2DA
  0
DICTIONARY
  5
2DB
330
2E
100
AcDbDictionary
280
     1
281
     1
  3
ACAD_XREC_ROUNDTRIP
360
2DC
  0
DICTIONARY
  5
2EF
330
38
100
AcDbDictionary
280
     1
281
     1
  3
ACAD_XREC_ROUNDTRIP
360
2F0
  0
DICTIONARY
  5
2E5
330
33
100
AcDbDictionary
280
     1
281
     1
  3
ACAD_XREC_ROUNDTRIP
360
2E6
  0
DICTIONARY
  5
2ED
330
37
100
AcDbDictionary
280
     1
281
     1
  3
ACAD_XREC_ROUNDTRIP
360
2EE
  0
XRECORD
  5
2F8
102
{ACAD_REACTORS
330
2F7
102
}
330
2F7
100
AcDbXrecord
280
     1
102
MATERIAL
148
0.0
149
0.0
149
0.0
 93
        0
 94
      127
282
     0
 72
     1
 77
     1
171
     1
175
     1
179
     1
273
     0
  0
XRECORD
  5
2F6
102
{ACAD_REACTORS
330
2F5
102
}
330
2F5
100
AcDbXrecord
280
     1
102
MATERIAL
148
0.0
149
0.0
149
0.0
 93
        0
 94
      127
282
     0
 72
     1
 77
     1
171
     1
175
     1
179
     1
273
     0
  0
XRECORD
  5
2FA
102
{ACAD_REACTORS
330
2F9
102
}
330
2F9
100
AcDbXrecord
280
     1
102
MATERIAL
148
0.0
149
0.0
149
0.0
 93
        0
 94
      127
282
     0
 72
     1
 77
     1
171
     1
175
     1
179
     1
273
     0
  0
XRECORD
  5
2DE
102
{ACAD_REACTORS
330
2DD
102
}
330
2DD
100
AcDbXrecord
280
     1
102
RTVSPropertyOp0
 70
     1
102
RTVSPropertyOp1
 70
     1
102
RTVSPropertyOp2
 70
     1
102
RTVSPropertyOp3
 70
     1
102
RTVSPropertyOp4
 70
     1
102
RTVSPropertyOp5
 70
     1
102
RTVSPropertyOp6
 70
     1
102
RTVSPropertyOp7
 70
     1
102
RTVSPropertyOp8
 70
     1
102
RTVSPropertyOp9
 70
     1
102
RTVSPropertyOp10
 70
     1
102
RTVSPropertyOp11
 70
     1
102
RTVSPropertyOp12
 70
     1
102
RTVSPropertyOp13
 70
     1
102
RTVSPropertyOp14
 70
     1
102
RTVSPropertyOp15
 70
     1
102
RTVSPropertyOp16
 70
     1
102
RTVSPropertyOp17
 70
     1
102
RTVSPropertyOp18
 70
     1
102
RTVSPropertyOp19
 70
     1
102
RTVSPropertyOp20
 70
     1
102
RTVSPropertyOp21
 70
     1
102
RTVSPropertyOp22
 70
     1
102
RTVSPropertyOp23
 70
     1
102
RTVSPropertyOp24
 70
     1
102
RTVSPropertyOp25
 70
     1
102
RTVSPropertyOp26
 70
     1
102
RTVSPropertyOp27
 70
     1
102
RTVSPropertyOp28
 70
     1
102
RTVSPropertyOp29
 70
     1
102
RTVSPropertyOp30
 70
     1
102
RTVSPropertyOp31
 70
     1
102
RTVSPropertyOp32
 70
     1
  0
XRECORD
  5
2E2
102
{ACAD_REACTORS
330
2E1
102
}
330
2E1
100
AcDbXrecord
280
     1
102
RTVSPropertyOp0
 70
     1
102
RTVSPropertyOp1
 70
     1
102
RTVSPropertyOp2
 70
     1
102
RTVSPropertyOp3
 70
     1
102
RTVSPropertyOp4
 70
     1
102
RTVSPropertyOp5
 70
     1
102
RTVSPropertyOp6
 70
     1
102
RTVSPropertyOp7
 70
     1
102
RTVSPropertyOp8
 70
     1
102
RTVSPropertyOp9
 70
     1
102
RTVSPropertyOp10
 70
     1
102
RTVSPropertyOp11
 70
     1
102
RTVSPropertyOp12
 70
     1
102
RTVSPropertyOp13
 70
     1
102
RTVSPropertyOp14
 70
     1
102
RTVSPropertyOp15
 70
     1
102
RTVSPropertyOp16
 70
     1
102
RTVSPropertyOp17
 70
     1
102
RTVSPropertyOp18
 70
     1
102
RTVSPropertyOp19
 70
     1
102
RTVSPropertyOp20
 70
     1
102
RTVSPropertyOp21
 70
     1
102
RTVSPropertyOp22
 70
     1
102
RTVSPropertyOp23
 70
     1
102
RTVSPropertyOp24
 70
     1
102
RTVSPropertyOp25
 70
     1
102
RTVSPropertyOp26
 70
     1
102
RTVSPropertyOp27
 70
     1
102
RTVSPropertyOp28
 70
     1
102
RTVSPropertyOp29
 70
     1
102
RTVSPropertyOp30
 70
     1
102
RTVSPropertyOp31
 70
     1
102
RTVSPropertyOp32
 70
     1
  0
XRECORD
  5
2E0
102
{ACAD_REACTORS
330
2DF
102
}
330
2DF
100
AcDbXrecord
280
     1
102
RTVSPropertyOp0
 70
     1
102
RTVSPropertyOp1
 70
     1
102
RTVSPropertyOp2
 70
     1
102
RTVSPropertyOp3
 70
     1
102
RTVSPropertyOp4
 70
     1
102
RTVSPropertyOp5
 70
     1
102
RTVSPropertyOp6
 70
     1
102
RTVSPropertyOp7
 70
     1
102
RTVSPropertyOp8
 70
     1
102
RTVSPropertyOp9
 70
     1
102
RTVSPropertyOp10
 70
     1
102
RTVSPropertyOp11
 70
     1
102
RTVSPropertyOp12
 70
     1
102
RTVSPropertyOp13
 70
     1
102
RTVSPropertyOp14
 70
     1
102
RTVSPropertyOp15
 70
     1
102
RTVSPropertyOp16
 70
     1
102
RTVSPropertyOp17
 70
     1
102
RTVSPropertyOp18
 70
     1
102
RTVSPropertyOp19
 70
     1
102
RTVSPropertyOp20
 70
     1
102
RTVSPropertyOp21
 70
     1
102
RTVSPropertyOp22
 70
     1
102
RTVSPropertyOp23
 70
     1
102
RTVSPropertyOp24
 70
     1
102
RTVSPropertyOp25
 70
     1
102
RTVSPropertyOp26
 70
     1
102
RTVSPropertyOp27
 70
     1
102
RTVSPropertyOp28
 70
     1
102
RTVSPropertyOp29
 70
     1
102
RTVSPropertyOp30
 70
     1
102
RTVSPropertyOp31
 70
     1
102
RTVSPropertyOp32
 70
     1
  0
XRECORD
  5
2E4
102
{ACAD_REACTORS
330
2E3
102
}
330
2E3
100
AcDbXrecord
280
     1
102
RTVSPropertyOp0
 70
     1
102
RTVSPropertyOp1
 70
     1
102
RTVSPropertyOp2
 70
     1
102
RTVSPropertyOp3
 70
     1
102
RTVSPropertyOp4
 70
     1
102
RTVSPropertyOp5
 70
     1
102
RTVSPropertyOp6
 70
     1
102
RTVSPropertyOp7
 70
     1
102
RTVSPropertyOp8
 70
     1
102
RTVSPropertyOp9
 70
     1
102
RTVSPropertyOp10
 70
     1
102
RTVSPropertyOp11
 70
     1
102
RTVSPropertyOp12
 70
     1
102
RTVSPropertyOp13
 70
     1
102
RTVSPropertyOp14
 70
     1
102
RTVSPropertyOp15
 70
     1
102
RTVSPropertyOp16
 70
     1
102
RTVSPropertyOp17
 70
     1
102
RTVSPropertyOp18
 70
     1
102
RTVSPropertyOp19
 70
     1
102
RTVSPropertyOp20
 70
     1
102
RTVSPropertyOp21
 70
     1
102
RTVSPropertyOp22
 70
     1
102
RTVSPropertyOp23
 70
     1
102
RTVSPropertyOp24
 70
     1
102
RTVSPropertyOp25
 70
     1
102
RTVSPropertyOp26
 70
     1
102
RTVSPropertyOp27
 70
     1
102
RTVSPropertyOp28
 70
     1
102
RTVSPropertyOp29
 70
     1
102
RTVSPropertyOp30
 70
     1
102
RTVSPropertyOp31
 70
     1
102
RTVSPropertyOp32
 70
     1
  0
XRECORD
  5
2EC
102
{ACAD_REACTORS
330
2EB
102
}
330
2EB
100
AcDbXrecord
280
     1
102
RTVSPropertyOp0
 70
     1
102
RTVSPropertyOp1
 70
     1
102
RTVSPropertyOp2
 70
     1
102
RTVSPropertyOp3
 70
     1
102
RTVSPropertyOp4
 70
     1
102
RTVSPropertyOp5
 70
     1
102
RTVSPropertyOp6
 70
     1
102
RTVSPropertyOp7
 70
     1
102
RTVSPropertyOp8
 70
     1
102
RTVSPropertyOp9
 70
     1
102
RTVSPropertyOp10
 70
     1
102
RTVSPropertyOp11
 70
     1
102
RTVSPropertyOp12
 70
     1
102
RTVSPropertyOp13
 70
     1
102
RTVSPropertyOp14
 70
     1
102
RTVSPropertyOp15
 70
     1
102
RTVSPropertyOp16
 70
     1
102
RTVSPropertyOp17
 70
     1
102
RTVSPropertyOp18
 70
     1
102
RTVSPropertyOp19
 70
     1
102
RTVSPropertyOp20
 70
     1
102
RTVSPropertyOp21
 70
     1
102
RTVSPropertyOp22
 70
     1
102
RTVSPropertyOp23
 70
     1
102
RTVSPropertyOp24
 70
     1
102
RTVSPropertyOp25
 70
     1
102
RTVSPropertyOp26
 70
     1
102
RTVSPropertyOp27
 70
     1
102
RTVSPropertyOp28
 70
     1
102
RTVSPropertyOp29
 70
     1
102
RTVSPropertyOp30
 70
     1
102
RTVSPropertyOp31
 70
     1
102
RTVSPropertyOp32
 70
     1
  0
XRECORD
  5
2F4
102
{ACAD_REACTORS
330
2F3
102
}
330
2F3
100
AcDbXrecord
280
     1
102
RTVSPropertyOp0
 70
     1
102
RTVSPropertyOp1
 70
     1
102
RTVSPropertyOp2
 70
     1
102
RTVSPropertyOp3
 70
     1
102
RTVSPropertyOp4
 70
     1
102
RTVSPropertyOp5
 70
     1
102
RTVSPropertyOp6
 70
     1
102
RTVSPropertyOp7
 70
     1
102
RTVSPropertyOp8
 70
     1
102
RTVSPropertyOp9
 70
     1
102
RTVSPropertyOp10
 70
     1
102
RTVSPropertyOp11
 70
     1
102
RTVSPropertyOp12
 70
     1
102
RTVSPropertyOp13
 70
     1
102
RTVSPropertyOp14
 70
     1
102
RTVSPropertyOp15
 70
     1
102
RTVSPropertyOp16
 70
     1
102
RTVSPropertyOp17
 70
     1
102
RTVSPropertyOp18
 70
     1
102
RTVSPropertyOp19
 70
     1
102
RTVSPropertyOp20
 70
     1
102
RTVSPropertyOp21
 70
     1
102
RTVSPropertyOp22
 70
     1
102
RTVSPropertyOp23
 70
     1
102
RTVSPropertyOp24
 70
     1
102
RTVSPropertyOp25
 70
     1
102
RTVSPropertyOp26
 70
     1
102
RTVSPropertyOp27
 70
     1
102
RTVSPropertyOp28
 70
     1
102
RTVSPropertyOp29
 70
     1
102
RTVSPropertyOp30
 70
     1
102
RTVSPropertyOp31
 70
     1
102
RTVSPropertyOp32
 70
     1
  0
XRECORD
  5
2E8
102
{ACAD_REACTORS
330
2E7
102
}
330
2E7
100
AcDbXrecord
280
     1
102
RTVSPropertyOp0
 70
     1
102
RTVSPropertyOp1
 70
     1
102
RTVSPropertyOp2
 70
     1
102
RTVSPropertyOp3
 70
     1
102
RTVSPropertyOp4
 70
     1
102
RTVSPropertyOp5
 70
     1
102
RTVSPropertyOp6
 70
     1
102
RTVSPropertyOp7
 70
     1
102
RTVSPropertyOp8
 70
     1
102
RTVSPropertyOp9
 70
     1
102
RTVSPropertyOp10
 70
     1
102
RTVSPropertyOp11
 70
     1
102
RTVSPropertyOp12
 70
     1
102
RTVSPropertyOp13
 70
     1
102
RTVSPropertyOp14
 70
     1
102
RTVSPropertyOp15
 70
     1
102
RTVSPropertyOp16
 70
     1
102
RTVSPropertyOp17
 70
     1
102
RTVSPropertyOp18
 70
     1
102
RTVSPropertyOp19
 70
     1
102
RTVSPropertyOp20
 70
     1
102
RTVSPropertyOp21
 70
     1
102
RTVSPropertyOp22
 70
     1
102
RTVSPropertyOp23
 70
     1
102
RTVSPropertyOp24
 70
     1
102
RTVSPropertyOp25
 70
     1
102
RTVSPropertyOp26
 70
     1
102
RTVSPropertyOp27
 70
     1
102
RTVSPropertyOp28
 70
     1
102
RTVSPropertyOp29
 70
     1
102
RTVSPropertyOp30
 70
     1
102
RTVSPropertyOp31
 70
     1
102
RTVSPropertyOp32
 70
     1
  0
XRECORD
  5
2EA
102
{ACAD_REACTORS
330
2E9
102
}
330
2E9
100
AcDbXrecord
280
     1
102
RTVSPropertyOp0
 70
     1
102
RTVSPropertyOp1
 70
     1
102
RTVSPropertyOp2
 70
     1
102
RTVSPropertyOp3
 70
     1
102
RTVSPropertyOp4
 70
     1
102
RTVSPropertyOp5
 70
     1
102
RTVSPropertyOp6
 70
     1
102
RTVSPropertyOp7
 70
     1
102
RTVSPropertyOp8
 70
     1
102
RTVSPropertyOp9
 70
     1
102
RTVSPropertyOp10
 70
     1
102
RTVSPropertyOp11
 70
     1
102
RTVSPropertyOp12
 70
     1
102
RTVSPropertyOp13
 70
     1
102
RTVSPropertyOp14
 70
     1
102
RTVSPropertyOp15
 70
     1
102
RTVSPropertyOp16
 70
     1
102
RTVSPropertyOp17
 70
     1
102
RTVSPropertyOp18
 70
     1
102
RTVSPropertyOp19
 70
     1
102
RTVSPropertyOp20
 70
     1
102
RTVSPropertyOp21
 70
     1
102
RTVSPropertyOp22
 70
     1
102
RTVSPropertyOp23
 70
     1
102
RTVSPropertyOp24
 70
     1
102
RTVSPropertyOp25
 70
     1
102
RTVSPropertyOp26
 70
     1
102
RTVSPropertyOp27
 70
     1
102
RTVSPropertyOp28
 70
     1
102
RTVSPropertyOp29
 70
     1
102
RTVSPropertyOp30
 70
     1
102
RTVSPropertyOp31
 70
     1
102
RTVSPropertyOp32
 70
     1
  0
XRECORD
  5
2F2
102
{ACAD_REACTORS
330
2F1
102
}
330
2F1
100
AcDbXrecord
280
     1
102
RTVSPropertyOp0
 70
     1
102
RTVSPropertyOp1
 70
     1
102
RTVSPropertyOp2
 70
     1
102
RTVSPropertyOp3
 70
     1
102
RTVSPropertyOp4
 70
     1
102
RTVSPropertyOp5
 70
     1
102
RTVSPropertyOp6
 70
     1
102
RTVSPropertyOp7
 70
     1
102
RTVSPropertyOp8
 70
     1
102
RTVSPropertyOp9
 70
     1
102
RTVSPropertyOp10
 70
     1
102
RTVSPropertyOp11
 70
     1
102
RTVSPropertyOp12
 70
     1
102
RTVSPropertyOp13
 70
     1
102
RTVSPropertyOp14
 70
     1
102
RTVSPropertyOp15
 70
     1
102
RTVSPropertyOp16
 70
     1
102
RTVSPropertyOp17
 70
     1
102
RTVSPropertyOp18
 70
     1
102
RTVSPropertyOp19
 70
     1
102
RTVSPropertyOp20
 70
     1
102
RTVSPropertyOp21
 70
     1
102
RTVSPropertyOp22
 70
     1
102
RTVSPropertyOp23
 70
     1
102
RTVSPropertyOp24
 70
     1
102
RTVSPropertyOp25
 70
     1
102
RTVSPropertyOp26
 70
     1
102
RTVSPropertyOp27
 70
     1
102
RTVSPropertyOp28
 70
     1
102
RTVSPropertyOp29
 70
     1
102
RTVSPropertyOp30
 70
     1
102
RTVSPropertyOp31
 70
     1
102
RTVSPropertyOp32
 70
     1
  0
XRECORD
  5
2D6
102
{ACAD_REACTORS
330
2D5
102
}
330
2D5
100
AcDbXrecord
280
     1
102
RTVSPropertyOp0
 70
     1
102
RTVSPropertyOp1
 70
     1
102
RTVSPropertyOp2
 70
     1
102
RTVSPropertyOp3
 70
     1
102
RTVSPropertyOp4
 70
     1
102
RTVSPropertyOp5
 70
     1
102
RTVSPropertyOp6
 70
     1
102
RTVSPropertyOp7
 70
     1
102
RTVSPropertyOp8
 70
     1
102
RTVSPropertyOp9
 70
     1
102
RTVSPropertyOp10
 70
     1
102
RTVSPropertyOp11
 70
     1
102
RTVSPropertyOp12
 70
     1
102
RTVSPropertyOp13
 70
     1
102
RTVSPropertyOp14
 70
     1
102
RTVSPropertyOp15
 70
     1
102
RTVSPropertyOp16
 70
     1
102
RTVSPropertyOp17
 70
     1
102
RTVSPropertyOp18
 70
     1
102
RTVSPropertyOp19
 70
     1
102
RTVSPropertyOp20
 70
     1
102
RTVSPropertyOp21
 70
     1
102
RTVSPropertyOp22
 70
     1
102
RTVSPropertyOp23
 70
     1
102
RTVSPropertyOp24
 70
     1
102
RTVSPropertyOp25
 70
     1
102
RTVSPropertyOp26
 70
     1
102
RTVSPropertyOp27
 70
     1
102
RTVSPropertyOp28
 70
     1
102
RTVSPropertyOp29
 70
     1
102
RTVSPropertyOp30
 70
     1
102
RTVSPropertyOp31
 70
     1
102
RTVSPropertyOp32
 70
     1
  0
XRECORD
  5
2D8
102
{ACAD_REACTORS
330
2D7
102
}
330
2D7
100
AcDbXrecord
280
     1
102
RTVSPropertyOp0
 70
     1
102
RTVSPropertyOp1
 70
     1
102
RTVSPropertyOp2
 70
     1
102
RTVSPropertyOp3
 70
     1
102
RTVSPropertyOp4
 70
     1
102
RTVSPropertyOp5
 70
     1
102
RTVSPropertyOp6
 70
     1
102
RTVSPropertyOp7
 70
     1
102
RTVSPropertyOp8
 70
     1
102
RTVSPropertyOp9
 70
     1
102
RTVSPropertyOp10
 70
     1
102
RTVSPropertyOp11
 70
     1
102
RTVSPropertyOp12
 70
     1
102
RTVSPropertyOp13
 70
     1
102
RTVSPropertyOp14
 70
     1
102
RTVSPropertyOp15
 70
     1
102
RTVSPropertyOp16
 70
     1
102
RTVSPropertyOp17
 70
     1
102
RTVSPropertyOp18
 70
     1
102
RTVSPropertyOp19
 70
     1
102
RTVSPropertyOp20
 70
     1
102
RTVSPropertyOp21
 70
     1
102
RTVSPropertyOp22
 70
     1
102
RTVSPropertyOp23
 70
     1
102
RTVSPropertyOp24
 70
     1
102
RTVSPropertyOp25
 70
     1
102
RTVSPropertyOp26
 70
     1
102
RTVSPropertyOp27
 70
     1
102
RTVSPropertyOp28
 70
     1
102
RTVSPropertyOp29
 70
     1
102
RTVSPropertyOp30
 70
     1
102
RTVSPropertyOp31
 70
     1
102
RTVSPropertyOp32
 70
     1
  0
XRECORD
  5
2DA
102
{ACAD_REACTORS
330
2D9
102
}
330
2D9
100
AcDbXrecord
280
     1
102
RTVSPropertyOp0
 70
     1
102
RTVSPropertyOp1
 70
     1
102
RTVSPropertyOp2
 70
     1
102
RTVSPropertyOp3
 70
     1
102
RTVSPropertyOp4
 70
     1
102
RTVSPropertyOp5
 70
     1
102
RTVSPropertyOp6
 70
     1
102
RTVSPropertyOp7
 70
     1
102
RTVSPropertyOp8
 70
     1
102
RTVSPropertyOp9
 70
     1
102
RTVSPropertyOp10
 70
     1
102
RTVSPropertyOp11
 70
     1
102
RTVSPropertyOp12
 70
     1
102
RTVSPropertyOp13
 70
     1
102
RTVSPropertyOp14
 70
     1
102
RTVSPropertyOp15
 70
     1
102
RTVSPropertyOp16
 70
     1
102
RTVSPropertyOp17
 70
     1
102
RTVSPropertyOp18
 70
     1
102
RTVSPropertyOp19
 70
     1
102
RTVSPropertyOp20
 70
     1
102
RTVSPropertyOp21
 70
     1
102
RTVSPropertyOp22
 70
     1
102
RTVSPropertyOp23
 70
     1
102
RTVSPropertyOp24
 70
     1
102
RTVSPropertyOp25
 70
     1
102
RTVSPropertyOp26
 70
     1
102
RTVSPropertyOp27
 70
     1
102
RTVSPropertyOp28
 70
     1
102
RTVSPropertyOp29
 70
     1
102
RTVSPropertyOp30
 70
     1
102
RTVSPropertyOp31
 70
     1
102
RTVSPropertyOp32
 70
     1
  0
XRECORD
  5
2DC
102
{ACAD_REACTORS
330
2DB
102
}
330
2DB
100
AcDbXrecord
280
     1
102
RTVSPropertyOp0
 70
     1
102
RTVSPropertyOp1
 70
     1
102
RTVSPropertyOp2
 70
     1
102
RTVSPropertyOp3
 70
     1
102
RTVSPropertyOp4
 70
     1
102
RTVSPropertyOp5
 70
     1
102
RTVSPropertyOp6
 70
     1
102
RTVSPropertyOp7
 70
     1
102
RTVSPropertyOp8
 70
     1
102
RTVSPropertyOp9
 70
     1
102
RTVSPropertyOp10
 70
     1
102
RTVSPropertyOp11
 70
     1
102
RTVSPropertyOp12
 70
     1
102
RTVSPropertyOp13
 70
     1
102
RTVSPropertyOp14
 70
     1
102
RTVSPropertyOp15
 70
     1
102
RTVSPropertyOp16
 70
     1
102
RTVSPropertyOp17
 70
     1
102
RTVSPropertyOp18
 70
     1
102
RTVSPropertyOp19
 70
     1
102
RTVSPropertyOp20
 70
     1
102
RTVSPropertyOp21
 70
     1
102
RTVSPropertyOp22
 70
     1
102
RTVSPropertyOp23
 70
     1
102
RTVSPropertyOp24
 70
     1
102
RTVSPropertyOp25
 70
     1
102
RTVSPropertyOp26
 70
     1
102
RTVSPropertyOp27
 70
     1
102
RTVSPropertyOp28
 70
     1
102
RTVSPropertyOp29
 70
     1
102
RTVSPropertyOp30
 70
     1
102
RTVSPropertyOp31
 70
     1
102
RTVSPropertyOp32
 70
     1
  0
XRECORD
  5
2F0
102
{ACAD_REACTORS
330
2EF
102
}
330
2EF
100
AcDbXrecord
280
     1
102
RTVSPropertyOp0
 70
     1
102
RTVSPropertyOp1
 70
     1
102
RTVSPropertyOp2
 70
     1
102
RTVSPropertyOp3
 70
     1
102
RTVSPropertyOp4
 70
     1
102
RTVSPropertyOp5
 70
     1
102
RTVSPropertyOp6
 70
     1
102
RTVSPropertyOp7
 70
     1
102
RTVSPropertyOp8
 70
     1
102
RTVSPropertyOp9
 70
     1
102
RTVSPropertyOp10
 70
     1
102
RTVSPropertyOp11
 70
     1
102
RTVSPropertyOp12
 70
     1
102
RTVSPropertyOp13
 70
     1
102
RTVSPropertyOp14
 70
     1
102
RTVSPropertyOp15
 70
     1
102
RTVSPropertyOp16
 70
     1
102
RTVSPropertyOp17
 70
     1
102
RTVSPropertyOp18
 70
     1
102
RTVSPropertyOp19
 70
     1
102
RTVSPropertyOp20
 70
     1
102
RTVSPropertyOp21
 70
     1
102
RTVSPropertyOp22
 70
     1
102
RTVSPropertyOp23
 70
     1
102
RTVSPropertyOp24
 70
     1
102
RTVSPropertyOp25
 70
     1
102
RTVSPropertyOp26
 70
     1
102
RTVSPropertyOp27
 70
     1
102
RTVSPropertyOp28
 70
     1
102
RTVSPropertyOp29
 70
     1
102
RTVSPropertyOp30
 70
     1
102
RTVSPropertyOp31
 70
     1
102
RTVSPropertyOp32
 70
     1
  0
XRECORD
  5
2E6
102
{ACAD_REACTORS
330
2E5
102
}
330
2E5
100
AcDbXrecord
280
     1
102
RTVSPropertyOp0
 70
     1
102
RTVSPropertyOp1
 70
     1
102
RTVSPropertyOp2
 70
     1
102
RTVSPropertyOp3
 70
     1
102
RTVSPropertyOp4
 70
     1
102
RTVSPropertyOp5
 70
     1
102
RTVSPropertyOp6
 70
     1
102
RTVSPropertyOp7
 70
     1
102
RTVSPropertyOp8
 70
     1
102
RTVSPropertyOp9
 70
     1
102
RTVSPropertyOp10
 70
     1
102
RTVSPropertyOp11
 70
     1
102
RTVSPropertyOp12
 70
     1
102
RTVSPropertyOp13
 70
     1
102
RTVSPropertyOp14
 70
     1
102
RTVSPropertyOp15
 70
     1
102
RTVSPropertyOp16
 70
     1
102
RTVSPropertyOp17
 70
     1
102
RTVSPropertyOp18
 70
     1
102
RTVSPropertyOp19
 70
     1
102
RTVSPropertyOp20
 70
     1
102
RTVSPropertyOp21
 70
     1
102
RTVSPropertyOp22
 70
     1
102
RTVSPropertyOp23
 70
     1
102
RTVSPropertyOp24
 70
     1
102
RTVSPropertyOp25
 70
     1
102
RTVSPropertyOp26
 70
     1
102
RTVSPropertyOp27
 70
     1
102
RTVSPropertyOp28
 70
     1
102
RTVSPropertyOp29
 70
     1
102
RTVSPropertyOp30
 70
     1
102
RTVSPropertyOp31
 70
     1
102
RTVSPropertyOp32
 70
     1
  0
XRECORD
  5
2EE
102
{ACAD_REACTORS
330
2ED
102
}
330
2ED
100
AcDbXrecord
280
     1
102
RTVSPropertyOp0
 70
     1
102
RTVSPropertyOp1
 70
     1
102
RTVSPropertyOp2
 70
     1
102
RTVSPropertyOp3
 70
     1
102
RTVSPropertyOp4
 70
     1
102
RTVSPropertyOp5
 70
     1
102
RTVSPropertyOp6
 70
     1
102
RTVSPropertyOp7
 70
     1
102
RTVSPropertyOp8
 70
     1
102
RTVSPropertyOp9
 70
     1
102
RTVSPropertyOp10
 70
     1
102
RTVSPropertyOp11
 70
     1
102
RTVSPropertyOp12
 70
     1
102
RTVSPropertyOp13
 70
     1
102
RTVSPropertyOp14
 70
     1
102
RTVSPropertyOp15
 70
     1
102
RTVSPropertyOp16
 70
     1
102
RTVSPropertyOp17
 70
     1
102
RTVSPropertyOp18
 70
     1
102
RTVSPropertyOp19
 70
     1
102
RTVSPropertyOp20
 70
     1
102
RTVSPropertyOp21
 70
     1
102
RTVSPropertyOp22
 70
     1
102
RTVSPropertyOp23
 70
     1
102
RTVSPropertyOp24
 70
     1
102
RTVSPropertyOp25
 70
     1
102
RTVSPropertyOp26
 70
     1
102
RTVSPropertyOp27
 70
     1
102
RTVSPropertyOp28
 70
     1
102
RTVSPropertyOp29
 70
     1
102
RTVSPropertyOp30
 70
     1
102
RTVSPropertyOp31
 70
     1
102
RTVSPropertyOp32
 70
     1
  0
ENDSEC
  0
EOF
