  0
SECTION
  2
HEADER
  9
$ACADVER
  1
AC1015
  9
$ACADMAINTVER
 70
     6
  9
$DWGCODEPAGE
  3
DOS932
  9
$INSBASE
 10
0.0
 20
0.0
 30
0.0
  9
$EXTMIN
 10
0.0
 20
0.0
 30
0.0
  9
$EXTMAX
 10
420.0
 20
594.0
 30
0.0
  9
$LIMMIN
 10
0.0
 20
0.0
  9
$LIMMAX
 10
12.0
 20
9.0
  9
$ORTHOMODE
 70
     0
  9
$REGENMODE
 70
     1
  9
$FILLMODE
 70
     1
  9
$QTEXTMODE
 70
     0
  9
$MIRRTEXT
 70
     1
  9
$LTSCALE
 40
1.0
  9
$ATTMODE
 70
     1
  9
$TEXTSIZE
 40
0.2
  9
$TRACEWID
 40
0.05
  9
$TEXTSTYLE
  7
Standard
  9
$CLAYER
  8
0
  9
$CELTYPE
  6
ByLayer
  9
$CECOLOR
 62
   256
  9
$CELTSCALE
 40
1.0
  9
$DISPSILH
 70
     0
  9
$DIMSCALE
 40
1.0
  9
$DIMASZ
 40
0.18
  9
$DIMEXO
 40
0.0625
  9
$DIMDLI
 40
0.38
  9
$DIMRND
 40
0.0
  9
$DIMDLE
 40
0.0
  9
$DIMEXE
 40
0.18
  9
$DIMTP
 40
0.0
  9
$DIMTM
 40
0.0
  9
$DIMTXT
 40
0.18
  9
$DIMCEN
 40
0.09
  9
$DIMTSZ
 40
0.0
  9
$DIMTOL
 70
     0
  9
$DIMLIM
 70
     0
  9
$DIMTIH
 70
     1
  9
$DIMTOH
 70
     1
  9
$DIMSE1
 70
     0
  9
$DIMSE2
 70
     0
  9
$DIMTAD
 70
     0
  9
$DIMZIN
 70
     0
  9
$DIMBLK
  1

  9
$DIMASO
 70
     1
  9
$DIMSHO
 70
     1
  9
$DIMPOST
  1

  9
$DIMAPOST
  1

  9
$DIMALT
 70
     0
  9
$DIMALTD
 70
     2
  9
$DIMALTF
 40
25.4
  9
$DIMLFAC
 40
1.0
  9
$DIMTOFL
 70
     0
  9
$DIMTVP
 40
0.0
  9
$DIMTIX
 70
     0
  9
$DIMSOXD
 70
     0
  9
$DIMSAH
 70
     0
  9
$DIMBLK1
  1

  9
$DIMBLK2
  1

  9
$DIMSTYLE
  2
Standard
  9
$DIMCLRD
 70
     0
  9
$DIMCLRE
 70
     0
  9
$DIMCLRT
 70
     0
  9
$DIMTFAC
 40
1.0
  9
$DIMGAP
 40
0.09
  9
$DIMJUST
 70
     0
  9
$DIMSD1
 70
     0
  9
$DIMSD2
 70
     0
  9
$DIMTOLJ
 70
     1
  9
$DIMTZIN
 70
     0
  9
$DIMALTZ
 70
     0
  9
$DIMALTTZ
 70
     0
  9
$DIMUPT
 70
     0
  9
$DIMDEC
 70
     4
  9
$DIMTDEC
 70
     4
  9
$DIMALTU
 70
     2
  9
$DIMALTTD
 70
     2
  9
$DIMTXSTY
  7
Standard
  9
$DIMAUNIT
 70
     0
  9
$DIMADEC
 70
     0
  9
$DIMALTRND
 40
0.0
  9
$DIMAZIN
 70
     0
  9
$DIMDSEP
 70
    46
  9
$DIMATFIT
 70
     3
  9
$DIMFRAC
 70
     0
  9
$DIMLDRBLK
  1

  9
$DIMLUNIT
 70
     2
  9
$DIMLWD
 70
    -2
  9
$DIMLWE
 70
    -2
  9
$DIMTMOVE
 70
     0
  9
$LUNITS
 70
     2
  9
$LUPREC
 70
     4
  9
$SKETCHINC
 40
0.1
  9
$FILLETRAD
 40
0.5
  9
$AUNITS
 70
     0
  9
$AUPREC
 70
     0
  9
$MENU
  1
.
  9
$ELEVATION
 40
0.0
  9
$PELEVATION
 40
0.0
  9
$THICKNESS
 40
0.0
  9
$LIMCHECK
 70
     0
  9
$CHAMFERA
 40
0.5
  9
$CHAMFERB
 40
0.5
  9
$CHAMFERC
 40
1.0
  9
$CHAMFERD
 40
0.0
  9
$SKPOLY
 70
     0
  9
$TDCREATE
 40
2456143.59094419
  9
$TDUCREATE
 40
2456143.21594419
  9
$TDUPDATE
 40
2456143.590944201
  9
$TDUUPDATE
 40
2456143.215944201
  9
$TDINDWG
 40
0.0000000116
  9
$TDUSRTIMER
 40
0.0000000116
  9
$USRTIMER
 70
     1
  9
$ANGBASE
 50
0.0
  9
$ANGDIR
 70
     0
  9
$PDMODE
 70
     0
  9
$PDSIZE
 40
0.0
  9
$PLINEWID
 40
0.0
  9
$SPLFRAME
 70
     0
  9
$SPLINETYPE
 70
     6
  9
$SPLINESEGS
 70
     8
  9
$HANDSEED
  5
57F
  9
$SURFTAB1
 70
     6
  9
$SURFTAB2
 70
     6
  9
$SURFTYPE
 70
     6
  9
$SURFU
 70
     6
  9
$SURFV
 70
     6
  9
$UCSBASE
  2

  9
$UCSNAME
  2

  9
$UCSORG
 10
0.0
 20
0.0
 30
0.0
  9
$UCSXDIR
 10
1.0
 20
0.0
 30
0.0
  9
$UCSYDIR
 10
0.0
 20
1.0
 30
0.0
  9
$UCSORTHOREF
  2

  9
$UCSORTHOVIEW
 70
     0
  9
$UCSORGTOP
 10
0.0
 20
0.0
 30
0.0
  9
$UCSORGBOTTOM
 10
0.0
 20
0.0
 30
0.0
  9
$UCSORGLEFT
 10
0.0
 20
0.0
 30
0.0
  9
$UCSORGRIGHT
 10
0.0
 20
0.0
 30
0.0
  9
$UCSORGFRONT
 10
0.0
 20
0.0
 30
0.0
  9
$UCSORGBACK
 10
0.0
 20
0.0
 30
0.0
  9
$PUCSBASE
  2

  9
$PUCSNAME
  2

  9
$PUCSORG
 10
0.0
 20
0.0
 30
0.0
  9
$PUCSXDIR
 10
1.0
 20
0.0
 30
0.0
  9
$PUCSYDIR
 10
0.0
 20
1.0
 30
0.0
  9
$PUCSORTHOREF
  2

  9
$PUCSORTHOVIEW
 70
     0
  9
$PUCSORGTOP
 10
0.0
 20
0.0
 30
0.0
  9
$PUCSORGBOTTOM
 10
0.0
 20
0.0
 30
0.0
  9
$PUCSORGLEFT
 10
0.0
 20
0.0
 30
0.0
  9
$PUCSORGRIGHT
 10
0.0
 20
0.0
 30
0.0
  9
$PUCSORGFRONT
 10
0.0
 20
0.0
 30
0.0
  9
$PUCSORGBACK
 10
0.0
 20
0.0
 30
0.0
  9
$USERI1
 70
     0
  9
$USERI2
 70
     0
  9
$USERI3
 70
     0
  9
$USERI4
 70
     0
  9
$USERI5
 70
     0
  9
$USERR1
 40
13.2
  9
$USERR2
 40
0.0
  9
$USERR3
 40
0.0
  9
$USERR4
 40
0.0
  9
$USERR5
 40
0.0
  9
$WORLDVIEW
 70
     1
  9
$SHADEDGE
 70
     3
  9
$SHADEDIF
 70
    70
  9
$TILEMODE
 70
     1
  9
$MAXACTVP
 70
    64
  9
$PINSBASE
 10
0.0
 20
0.0
 30
0.0
  9
$PLIMCHECK
 70
     0
  9
$PEXTMIN
 10
1.00000000000000E+20
 20
1.00000000000000E+20
 30
1.00000000000000E+20
  9
$PEXTMAX
 10
-1.00000000000000E+20
 20
-1.00000000000000E+20
 30
-1.00000000000000E+20
  9
$PLIMMIN
 10
0.0
 20
0.0
  9
$PLIMMAX
 10
12.0
 20
9.0
  9
$UNITMODE
 70
     0
  9
$VISRETAIN
 70
     1
  9
$PLINEGEN
 70
     0
  9
$PSLTSCALE
 70
     1
  9
$TREEDEPTH
 70
  3020
  9
$CMLSTYLE
  2
Standard
  9
$CMLJUST
 70
     0
  9
$CMLSCALE
 40
1.0
  9
$PROXYGRAPHICS
 70
     1
  9
$MEASUREMENT
 70
     1
  9
$CELWEIGHT
370
    -1
  9
$ENDCAPS
280
     0
  9
$JOINSTYLE
280
     0
  9
$LWDISPLAY
290
     0
  9
$INSUNITS
 70
     1
  9
$HYPERLINKBASE
  1

  9
$STYLESHEET
  1

  9
$XEDIT
290
     1
  9
$CEPSNTYPE
380
     0
  9
$PSTYLEMODE
290
     0
  9
$FINGERPRINTGUID
  2
{FAEB1C30-E019-11D5-929B-00C0DF256EC4}
  9
$VERSIONGUID
  2
{FAEB1C32-E019-11D5-929B-00C0DF256EC4}
  9
$EXTNAMES
290
     1
  9
$PSVPSCALE
 40
0.0
  9
$OLESTARTUP
290
     0
  0
ENDSEC
  0
SECTION
  2
CLASSES
  0
CLASS
  1
ACDBDICTIONARYWDFLT
  2
AcDbDictionaryWithDefault
  3
ObjectDBX Classes
 90
        0
280
     0
281
     0
  0
CLASS
  1
TABLESTYLE
  2
AcDbTableStyle
  3
ObjectDBX Classes
 90
     2047
280
     0
281
     0
  0
CLASS
  1
DICTIONARYVAR
  2
AcDbDictionaryVar
  3
ObjectDBX Classes
 90
        0
280
     0
281
     0
  0
CLASS
  1

  2
exOdDbCircle
  3

 90
        0
280
     0
281
     1
  0
CLASS
  1

  2
exOdDbSpline
  3

 90
        0
280
     0
281
     1
  0
CLASS
  1
ACDBPLACEHOLDER
  2
AcDbPlaceHolder
  3
ObjectDBX Classes
 90
        0
280
     0
281
     0
  0
CLASS
  1
LAYOUT
  2
AcDbLayout
  3
ObjectDBX Classes
 90
        0
280
     0
281
     0
  0
ENDSEC
  0
SECTION
  2
TABLES
  0
TABLE
  2
VPORT
  5
8
330
0
100
AcDbSymbolTable
 70
     2
  0
VPORT
  5
29
330
8
100
AcDbSymbolTableRecord
100
AcDbViewportTableRecord
  2
*Active
 70
     0
 10
0.0
 20
0.0
 11
1.0
 21
1.0
 12
210.0
 22
297.0
 13
0.0
 23
0.0
 14
0.5
 24
0.5
 15
0.5
 25
0.5
 16
0.0
 26
0.0
 36
1.0
 17
0.0
 27
0.0
 37
0.0
 40
653.4000000000001
 41
1.60267857142857
 42
50.0
 43
0.0
 44
0.0
 50
0.0
 51
0.0
 71
     0
 72
   100
 73
     1
 74
     3
 75
     0
 76
     0
 77
     0
 78
     0
281
     0
 65
     1
110
0.0
120
0.0
130
0.0
111
1.0
121
0.0
131
0.0
112
0.0
122
1.0
132
0.0
 79
     0
146
0.0
  0
ENDTAB
  0
TABLE
  2
LTYPE
  5
5
330
0
100
AcDbSymbolTable
 70
     8
  0
LTYPE
  5
14
330
5
100
AcDbSymbolTableRecord
100
AcDbLinetypeTableRecord
  2
ByBlock
 70
     0
  3

 72
    65
 73
     0
 40
0.0
  0
LTYPE
  5
15
330
5
100
AcDbSymbolTableRecord
100
AcDbLinetypeTableRecord
  2
ByLayer
 70
     0
  3

 72
    65
 73
     0
 40
0.0
  0
LTYPE
  5
16
330
5
100
AcDbSymbolTableRecord
100
AcDbLinetypeTableRecord
  2
Continuous
 70
     0
  3
Solid line
 72
    65
 73
     0
 40
0.0
  0
LTYPE
  5
2E
330
5
100
AcDbSymbolTableRecord
100
AcDbLinetypeTableRecord
  2
DASHED
 70
     0
  3
Dashed
 72
    65
 73
     2
 40
15.0
 49
7.0
 74
     0
 49
-8.0
 74
     0
  0
LTYPE
  5
2F
330
5
100
AcDbSymbolTableRecord
100
AcDbLinetypeTableRecord
  2
DOTTED
 70
     0
  3
Dotted
 72
    65
 73
     2
 40
1.0
 49
0.0
 74
     0
 49
-1.0
 74
     0
  0
LTYPE
  5
30
330
5
100
AcDbSymbolTableRecord
100
AcDbLinetypeTableRecord
  2
DOT_CENTER
 70
     0
  3
Dot_Center
 72
    65
 73
     4
 40
14.0
 49
12.0
 74
     0
 49
-1.0
 74
     0
 49
0.0
 74
     0
 49
-1.0
 74
     0
  0
LTYPE
  5
31
330
5
100
AcDbSymbolTableRecord
100
AcDbLinetypeTableRecord
  2
LONG_DASHED
 70
     0
  3
Long_Dashed
 72
    65
 73
     2
 40
15.0
 49
10.0
 74
     0
 49
-5.0
 74
     0
  0
LTYPE
  5
32
330
5
100
AcDbSymbolTableRecord
100
AcDbLinetypeTableRecord
  2
DASH_CENTER
 70
     0
  3
Dash_Center
 72
    65
 73
     4
 40
14.0
 49
11.0
 74
     0
 49
-1.0
 74
     0
 49
1.0
 74
     0
 49
-1.0
 74
     0
  0
LTYPE
  5
33
330
5
100
AcDbSymbolTableRecord
100
AcDbLinetypeTableRecord
  2
PHANTOM
 70
     0
  3
Phantom
 72
    65
 73
     6
 40
13.0
 49
10.0
 74
     0
 49
-1.0
 74
     0
 49
0.0
 74
     0
 49
-1.0
 74
     0
 49
0.0
 74
     0
 49
-1.0
 74
     0
  0
LTYPE
  5
34
330
5
100
AcDbSymbolTableRecord
100
AcDbLinetypeTableRecord
  2
CENTER_DASH_DASH
 70
     0
  3
Center_Dash_Dash
 72
    65
 73
     6
 40
14.0
 49
9.0
 74
     0
 49
-1.0
 74
     0
 49
1.0
 74
     0
 49
-1.0
 74
     0
 49
1.0
 74
     0
 49
-1.0
 74
     0
  0
ENDTAB
  0
TABLE
  2
LAYER
  5
2
330
0
100
AcDbSymbolTable
 70
     6
  0
LAYER
  5
10
330
2
100
AcDbSymbolTableRecord
100
AcDbLayerTableRecord
  2
0
 70
     0
 62
     7
  6
Continuous
370
    -3
390
F
  0
LAYER
  5
35
330
2
100
AcDbSymbolTableRecord
100
AcDbLayerTableRecord
  2
1
 70
     0
 62
     7
  6
Continuous
370
    -3
390
F
  0
LAYER
  5
36
330
2
100
AcDbSymbolTableRecord
100
AcDbLayerTableRecord
  2
2
 70
     0
 62
     7
  6
Continuous
370
    -3
390
F
  0
LAYER
  5
37
330
2
100
AcDbSymbolTableRecord
100
AcDbLayerTableRecord
  2
3
 70
     0
 62
     7
  6
Continuous
370
    -3
390
F
  0
LAYER
  5
38
330
2
100
AcDbSymbolTableRecord
100
AcDbLayerTableRecord
  2
80
 70
     0
 62
     7
  6
Continuous
370
    -3
390
F
  0
LAYER
  5
39
330
2
100
AcDbSymbolTableRecord
100
AcDbLayerTableRecord
  2
______-2
 70
     0
 62
     7
  6
Continuous
370
    -3
390
F
  0
ENDTAB
  0
TABLE
  2
STYLE
  5
3
330
0
100
AcDbSymbolTable
 70
     3
  0
STYLE
  5
11
330
3
100
AcDbSymbolTableRecord
100
AcDbTextStyleTableRecord
  2
Standard
 70
     0
 40
0.0
 41
1.0
 50
0.0
 71
     0
 42
0.2
  3
txt
  4

  0
STYLE
  5
1C3
330
3
100
AcDbSymbolTableRecord
100
AcDbTextStyleTableRecord
  2
CONVERTER_1
 70
     0
 40
0.0
 41
0.89
 50
0.0
 71
     0
 42
0.2
  3
msmincho.ttc
  4

1001
ACAD
1000
MS Mincho
1071
    32785
  0
STYLE
  5
50F
330
3
100
AcDbSymbolTableRecord
100
AcDbTextStyleTableRecord
  2
CONVERTER_2
 70
     0
 40
0.0
 41
0.9
 50
0.0
 71
     0
 42
0.2
  3
txt.shx
  4

  0
ENDTAB
  0
TABLE
  2
VIEW
  5
6
330
0
100
AcDbSymbolTable
 70
     0
  0
ENDTAB
  0
TABLE
  2
UCS
  5
7
330
0
100
AcDbSymbolTable
 70
     0
  0
ENDTAB
  0
TABLE
  2
APPID
  5
9
330
0
100
AcDbSymbolTable
 70
     1
  0
APPID
  5
12
330
9
100
AcDbSymbolTableRecord
100
AcDbRegAppTableRecord
  2
ACAD
 70
     0
  0
ENDTAB
  0
TABLE
  2
DIMSTYLE
  5
A
330
0
100
AcDbSymbolTable
 70
    10
100
AcDbDimStyleTable
  0
DIMSTYLE
105
27
330
A
100
AcDbSymbolTableRecord
100
AcDbDimStyleTableRecord
  2
Standard
 70
     0
340
11
  0
DIMSTYLE
105
51F
102
{ACAD_REACTORS
330
520
102
}
330
A
100
AcDbSymbolTableRecord
100
AcDbDimStyleTableRecord
  2
ME10_DIM_0
 70
     0
  3
{\Fgdt;n}<>
 41
7.0
 42
0.0
 44
2.0
 73
     0
 74
     0
 77
     1
 78
     8
140
7.0
147
0.625
172
     1
173
     1
176
     2
177
     2
178
     7
271
     2
340
50F
  0
DIMSTYLE
105
52D
102
{ACAD_REACTORS
330
52E
102
}
330
A
100
AcDbSymbolTableRecord
100
AcDbDimStyleTableRecord
  2
ME10_DIM_1
 70
     0
 41
7.0
 42
0.0
 44
2.0
 73
     0
 74
     0
 77
     1
 78
     8
140
7.0
147
0.625
172
     1
173
     1
176
     2
177
     2
178
     7
271
     2
340
50F
343
52A
  0
DIMSTYLE
105
53A
102
{ACAD_REACTORS
330
53B
102
}
330
A
100
AcDbSymbolTableRecord
100
AcDbDimStyleTableRecord
  2
ME10_DIM_2
 70
     0
 41
7.0
 42
0.0
 44
2.0
 73
     0
 74
     0
 77
     1
 78
     8
140
7.0
147
0.625
172
     1
173
     1
176
     2
177
     2
178
     7
271
     2
340
50F
  0
DIMSTYLE
105
545
102
{ACAD_REACTORS
330
546
102
}
330
A
100
AcDbSymbolTableRecord
100
AcDbDimStyleTableRecord
  2
ME10_DIM_3
 70
     0
 41
7.0
 42
0.0
 44
2.0
 73
     0
 74
     0
 77
     1
 78
     8
140
7.0
147
0.625
172
     1
173
     1
176
     2
177
     2
178
     7
271
     2
340
50F
  0
DIMSTYLE
105
550
102
{ACAD_REACTORS
330
551
102
}
330
A
100
AcDbSymbolTableRecord
100
AcDbDimStyleTableRecord
  2
ME10_DIM_4
 70
     0
 41
7.0
 42
0.0
 44
2.0
 73
     0
 74
     0
 77
     1
 78
     8
140
7.0
147
0.625
172
     1
173
     1
176
     2
177
     2
178
     7
271
     2
340
50F
  0
DIMSTYLE
105
55B
102
{ACAD_REACTORS
330
55C
102
}
330
A
100
AcDbSymbolTableRecord
100
AcDbDimStyleTableRecord
  2
ME10_DIM_5
 70
     0
 41
7.0
 42
0.0
 44
2.0
 73
     0
 74
     0
 77
     1
 78
     8
140
7.0
147
0.625
172
     1
173
     1
176
     2
177
     2
178
     7
271
     2
340
50F
  0
DIMSTYLE
105
566
102
{ACAD_REACTORS
330
567
102
}
330
A
100
AcDbSymbolTableRecord
100
AcDbDimStyleTableRecord
  2
ME10_DIM_6
 70
     0
  3
{\Fgdt;n}<>
 41
7.0
 42
0.0
 44
2.0
 73
     0
 74
     0
 77
     1
 78
     8
140
7.0
147
0.625
172
     1
173
     1
176
     2
177
     2
178
     7
271
     2
340
50F
  0
DIMSTYLE
105
571
102
{ACAD_REACTORS
330
572
102
}
330
A
100
AcDbSymbolTableRecord
100
AcDbDimStyleTableRecord
  2
ME10_DIM_7
 70
     0
 41
7.0
 42
0.0
 44
2.0
 73
     0
 74
     0
 77
     1
 78
     8
140
7.0
147
0.625
172
     1
173
     1
176
     2
177
     2
178
     7
271
     2
340
50F
  0
DIMSTYLE
105
57D
102
{ACAD_REACTORS
330
57E
102
}
330
A
100
AcDbSymbolTableRecord
100
AcDbDimStyleTableRecord
  2
ME10_DIM_8
 70
     0
 41
7.0
 42
0.0
 44
2.0
 73
     0
 74
     0
 77
     1
 78
     8
140
7.0
147
0.625
172
     1
173
     1
176
     2
177
     2
178
     7
271
     2
340
50F
343
52A
  0
ENDTAB
  0
TABLE
  2
BLOCK_RECORD
  5
1
330
0
100
AcDbSymbolTable
 70
    21
  0
BLOCK_RECORD
  5
1F
330
1
100
AcDbSymbolTableRecord
100
AcDbBlockTableRecord
  2
*Model_Space
340
22
  0
BLOCK_RECORD
  5
1B
330
1
100
AcDbSymbolTableRecord
100
AcDbBlockTableRecord
  2
*Paper_Space
340
1E
  0
BLOCK_RECORD
  5
23
330
1
100
AcDbSymbolTableRecord
100
AcDbBlockTableRecord
  2
*Paper_Space0
340
26
  0
BLOCK_RECORD
  5
3A
330
1
100
AcDbSymbolTableRecord
100
AcDbBlockTableRecord
  2
Y196-0A
340
0
102
{BLKREFS
331
5C
102
}
  0
BLOCK_RECORD
  5
3D
330
1
100
AcDbSymbolTableRecord
100
AcDbBlockTableRecord
  2
30-205
340
0
102
{BLKREFS
331
5D
102
}
  0
BLOCK_RECORD
  5
40
330
1
100
AcDbSymbolTableRecord
100
AcDbBlockTableRecord
  2
_J__A4
340
0
102
{BLKREFS
331
5E
102
}
  0
BLOCK_RECORD
  5
43
330
1
100
AcDbSymbolTableRecord
100
AcDbBlockTableRecord
  2
37-292
340
0
102
{BLKREFS
331
4A
102
}
  0
BLOCK_RECORD
  5
46
330
1
100
AcDbSymbolTableRecord
100
AcDbBlockTableRecord
  2
31-76
340
0
102
{BLKREFS
331
4B
102
}
  0
BLOCK_RECORD
  5
49
330
1
100
AcDbSymbolTableRecord
100
AcDbBlockTableRecord
  2
U1-76X-Y
340
0
102
{BLKREFS
331
5F
102
}
  0
BLOCK_RECORD
  5
4E
330
1
100
AcDbSymbolTableRecord
100
AcDbBlockTableRecord
  2
P82A-15
340
0
102
{BLKREFS
331
60
102
}
  0
BLOCK_RECORD
  5
51
330
1
100
AcDbSymbolTableRecord
100
AcDbBlockTableRecord
  2
36-14A
340
0
102
{BLKREFS
331
58
102
}
  0
BLOCK_RECORD
  5
54
330
1
100
AcDbSymbolTableRecord
100
AcDbBlockTableRecord
  2
30-11
340
0
102
{BLKREFS
331
59
102
}
  0
BLOCK_RECORD
  5
57
330
1
100
AcDbSymbolTableRecord
100
AcDbBlockTableRecord
  2
30-11X
340
0
102
{BLKREFS
331
61
102
}
  0
BLOCK_RECORD
  5
516
330
1
100
AcDbSymbolTableRecord
100
AcDbBlockTableRecord
  2
*D011
340
0
  0
BLOCK_RECORD
  5
521
330
1
100
AcDbSymbolTableRecord
100
AcDbBlockTableRecord
  2
*D112
340
0
  0
BLOCK_RECORD
  5
52A
330
1
100
AcDbSymbolTableRecord
100
AcDbBlockTableRecord
  2
_None
340
0
  0
BLOCK_RECORD
  5
52F
330
1
100
AcDbSymbolTableRecord
100
AcDbBlockTableRecord
  2
*D214
340
0
  0
BLOCK_RECORD
  5
53C
330
1
100
AcDbSymbolTableRecord
100
AcDbBlockTableRecord
  2
*D315
340
0
  0
BLOCK_RECORD
  5
547
330
1
100
AcDbSymbolTableRecord
100
AcDbBlockTableRecord
  2
*D416
340
0
  0
BLOCK_RECORD
  5
552
330
1
100
AcDbSymbolTableRecord
100
AcDbBlockTableRecord
  2
*D517
340
0
  0
BLOCK_RECORD
  5
55D
330
1
100
AcDbSymbolTableRecord
100
AcDbBlockTableRecord
  2
*D618
340
0
  0
BLOCK_RECORD
  5
568
330
1
100
AcDbSymbolTableRecord
100
AcDbBlockTableRecord
  2
*D719
340
0
  0
BLOCK_RECORD
  5
573
330
1
100
AcDbSymbolTableRecord
100
AcDbBlockTableRecord
  2
*D820
340
0
  0
ENDTAB
  0
ENDSEC
  0
SECTION
  2
BLOCKS
  0
BLOCK
  5
20
330
1F
100
AcDbEntity
  8
0
100
AcDbBlockBegin
  2
*Model_Space
 70
     0
 71
     0
 10
0.0
 20
0.0
 30
0.0
  3
*Model_Space
  1

  0
ENDBLK
  5
21
330
1F
100
AcDbEntity
  8
0
100
AcDbBlockEnd
  0
BLOCK
  5
1C
330
1B
100
AcDbEntity
 67
     1
  8
0
100
AcDbBlockBegin
  2
*Paper_Space
 70
     0
 71
     0
 10
0.0
 20
0.0
 30
0.0
  3
*Paper_Space
  1

  0
ENDBLK
  5
1D
330
1B
100
AcDbEntity
 67
     1
  8
0
100
AcDbBlockEnd
  0
BLOCK
  5
24
330
23
100
AcDbEntity
  8
0
100
AcDbBlockBegin
  2
*Paper_Space0
 70
     0
 71
     0
 10
0.0
 20
0.0
 30
0.0
  3
*Paper_Space0
  1

  0
ENDBLK
  5
25
330
23
100
AcDbEntity
  8
0
100
AcDbBlockEnd
  0
BLOCK
  5
3B
330
3A
100
AcDbEntity
  8
0
100
AcDbBlockBegin
  2
Y196-0A
 70
     0
 71
     0
 10
-416.4736629667
 20
362.8249243188704
 30
0.0
  3
Y196-0A
  1

  0
LINE
  5
62
330
3A
100
AcDbEntity
  8
1
  6
Continuous
 62
     7
100
AcDbLine
 10
108.5691245461235
 20
233.3818260035991
 30
0.0
 11
108.5691245461235
 21
254.3368260035993
 31
0.0
  0
LINE
  5
63
330
3A
100
AcDbEntity
  8
1
  6
Continuous
 62
     7
100
AcDbLine
 10
205.9120527890912
 20
263.2159936387257
 30
0.0
 11
221.100996342936
 21
213.0880462831976
 31
0.0
  0
LINE
  5
64
102
{ACAD_REACTORS
330
12B
330
12B
102
}
330
3A
100
AcDbEntity
  8
1
  6
Continuous
 62
     2
100
AcDbLine
 10
123.7542069556896
 20
263.8593260035995
 30
0.0
 11
126.2542069556896
 21
263.8593260035995
 31
0.0
  0
LINE
  5
65
102
{ACAD_REACTORS
330
12B
330
12B
102
}
330
3A
100
AcDbEntity
  8
1
  6
Continuous
 62
     2
100
AcDbLine
 10
123.7542069556896
 20
263.8593260035995
 30
0.0
 11
123.7542069556896
 21
266.3593260035995
 31
0.0
  0
LINE
  5
66
330
3A
100
AcDbEntity
  8
1
  6
PHANTOM
 62
     4
100
AcDbLine
 10
171.4576622101195
 20
216.7961061246223
 30
0.0
 11
191.4331849761004
 21
271.6784038659569
 31
0.0
  0
LINE
  5
67
330
3A
100
AcDbEntity
  8
1
  6
PHANTOM
 62
     4
100
AcDbLine
 10
328.835031883915
 20
243.8593260035992
 30
0.0
 11
380.835031883915
 21
243.8593260035991
 31
0.0
  0
LINE
  5
68
330
3A
100
AcDbEntity
  8
1
  6
Continuous
 62
     7
100
AcDbLine
 10
366.835031883702
 20
210.3050844962513
 30
0.0
 11
368.835031883915
 21
210.3050844962513
 31
0.0
  0
LINE
  5
69
330
3A
100
AcDbEntity
  8
1
  6
Continuous
 62
     7
100
AcDbLine
 10
338.335031883915
 20
268.859326002937
 30
0.0
 11
338.335031883915
 21
212.8050844962513
 31
0.0
  0
LINE
  5
6A
330
3A
100
AcDbEntity
  8
1
  6
PHANTOM
 62
     4
100
AcDbLine
 10
335.335031883915
 20
268.859326002937
 30
0.0
 11
371.335031883915
 21
268.859326002937
 31
0.0
  0
LINE
  5
6B
330
3A
100
AcDbEntity
  8
1
  6
Continuous
 62
     7
100
AcDbLine
 10
371.335031883915
 20
212.8050844962513
 30
0.0
 11
371.335031883915
 21
268.859326002937
 31
0.0
  0
LINE
  5
6C
330
3A
100
AcDbEntity
  8
1
  6
PHANTOM
 62
     4
100
AcDbLine
 10
371.335031883915
 20
268.859326002937
 30
0.0
 11
374.335031883915
 21
268.859326002937
 31
0.0
  0
LINE
  5
6D
330
3A
100
AcDbEntity
  8
1
  6
PHANTOM
 62
     4
100
AcDbLine
 10
354.8350318832295
 20
207.3050844962513
 30
0.0
 11
354.8350318992684
 21
277.5026583735993
 31
0.0
  0
LINE
  5
6E
330
3A
100
AcDbEntity
  8
1
  6
Continuous
 62
     7
100
AcDbLine
 10
221.100996342936
 20
213.0880462831976
 30
0.0
 11
221.1009963429744
 21
213.0880462830712
 31
0.0
  0
LINE
  5
6F
330
3A
100
AcDbEntity
  8
1
  6
Continuous
 62
     7
100
AcDbLine
 10
171.4576622101195
 20
216.7961061246223
 30
0.0
 11
189.2915975632604
 21
210.3050844962513
 31
0.0
  0
LINE
  5
70
330
3A
100
AcDbEntity
  8
1
  6
Continuous
 62
     7
100
AcDbLine
 10
121.4071245461237
 20
220.8593260035991
 30
0.0
 11
160.2940573423512
 21
220.8593260035991
 31
0.0
  0
LINE
  5
71
330
3A
100
AcDbEntity
  8
1
  6
PHANTOM
 62
     4
100
AcDbLine
 10
190.4071245461234
 20
269.3593260035991
 30
0.0
 11
190.4071245461234
 21
268.8593260035991
 31
0.0
  0
LINE
  5
72
330
3A
100
AcDbEntity
  8
______-2
  6
Continuous
 62
     7
100
AcDbLine
 10
218.3739253852489
 20
212.8494584896398
 30
0.0
 11
218.3739253852482
 21
212.8494584896425
 31
0.0
  0
LINE
  5
73
330
3A
100
AcDbEntity
  8
1
  6
PHANTOM
 62
     4
100
AcDbLine
 10
206.4071245461234
 20
211.8024990775454
 30
0.0
 11
206.6685917743664
 21
208.8139149832698
 31
0.0
  0
LINE
  5
74
330
3A
100
AcDbEntity
  8
1
  6
Continuous
 62
     7
100
AcDbLine
 10
121.4071245461237
 20
233.3818260035991
 30
0.0
 11
121.4071245461237
 21
220.8593260035991
 31
0.0
  0
LINE
  5
75
330
3A
100
AcDbEntity
  8
1
  6
Continuous
 62
     7
100
AcDbLine
 10
108.5691245461235
 20
233.3818260035991
 30
0.0
 11
121.4071245461237
 21
233.3818260035991
 31
0.0
  0
LINE
  5
76
330
3A
100
AcDbEntity
  8
1
  6
Continuous
 62
     7
100
AcDbLine
 10
107.4071245461237
 20
234.5438260035992
 30
0.0
 11
108.5691245461235
 21
233.3818260035991
 31
0.0
  0
LINE
  5
77
330
3A
100
AcDbEntity
  8
1
  6
Continuous
 62
     7
100
AcDbLine
 10
108.5691245461235
 20
254.3368260035993
 30
0.0
 11
107.4071245461237
 21
253.1748260035992
 31
0.0
  0
LINE
  5
78
330
3A
100
AcDbEntity
  8
1
  6
Continuous
 62
     7
100
AcDbLine
 10
121.4071245461237
 20
254.3368260035992
 30
0.0
 11
108.5691245461235
 21
254.3368260035993
 31
0.0
  0
LINE
  5
79
330
3A
100
AcDbEntity
  8
1
  6
Continuous
 62
     7
100
AcDbLine
 10
121.4071245461237
 20
266.8593260035992
 30
0.0
 11
121.4071245461237
 21
233.3818260035991
 31
0.0
  0
LINE
  5
7A
330
3A
100
AcDbEntity
  8
1
  6
Continuous
 62
     7
100
AcDbLine
 10
123.7542069556896
 20
266.8593260035992
 30
0.0
 11
121.4071245461237
 21
266.8593260035992
 31
0.0
  0
LINE
  5
7B
330
3A
100
AcDbEntity
  8
1
  6
Continuous
 62
     7
100
AcDbLine
 10
126.2542069556896
 20
263.8593260035995
 30
0.0
 11
167.5273024378914
 21
263.8593260035995
 31
0.0
  0
LINE
  5
7C
330
3A
100
AcDbEntity
  8
1
  6
Continuous
 62
     7
100
AcDbLine
 10
123.7542069556896
 20
266.3593260035995
 30
0.0
 11
123.7542069556896
 21
266.8593260035992
 31
0.0
  0
LINE
  5
7D
330
3A
100
AcDbEntity
  8
1
  6
Continuous
 62
     7
100
AcDbLine
 10
203.3278980819296
 20
264.1565490328712
 30
0.0
 11
204.0326675475194
 21
263.9000339253769
 31
0.0
  0
LINE
  5
7E
330
3A
100
AcDbEntity
  8
1
  6
Continuous
 62
     7
100
AcDbLine
 10
205.9120527890912
 20
263.2159936387257
 30
0.0
 11
204.0326675475194
 21
263.9000339253769
 31
0.0
  0
LINE
  5
7F
330
3A
100
AcDbEntity
  8
1
  6
Continuous
 62
     2
100
AcDbLine
 10
121.4071245461237
 20
254.3368260035992
 30
0.0
 11
119.3944815077284
 21
253.1748260035992
 31
0.0
  0
LINE
  5
80
330
3A
100
AcDbEntity
  8
1
  6
Continuous
 62
     2
100
AcDbLine
 10
119.3944815077284
 20
253.1748260035992
 30
0.0
 11
107.4071245461237
 21
253.1748260035992
 31
0.0
  0
LINE
  5
81
330
3A
100
AcDbEntity
  8
1
  6
Continuous
 62
     7
100
AcDbLine
 10
119.3944815077284
 20
234.5438260035992
 30
0.0
 11
119.3944815077284
 21
254.3368260035992
 31
0.0
  0
LINE
  5
82
330
3A
100
AcDbEntity
  8
1
  6
Continuous
 62
     7
100
AcDbLine
 10
107.4071245461237
 20
234.5438260035992
 30
0.0
 11
107.4071245461237
 21
237.3593260035992
 31
0.0
  0
LINE
  5
83
330
3A
100
AcDbEntity
  8
1
  6
Continuous
 62
     2
100
AcDbLine
 10
107.4071245461237
 20
234.5438260035992
 30
0.0
 11
119.3944815077284
 21
234.5438260035992
 31
0.0
  0
LINE
  5
84
330
3A
100
AcDbEntity
  8
1
  6
Continuous
 62
     2
100
AcDbLine
 10
119.3944815077284
 20
234.5438260035992
 30
0.0
 11
121.4071245461237
 21
233.3818260035991
 31
0.0
  0
LINE
  5
85
330
3A
100
AcDbEntity
  8
1
  6
Continuous
 62
     7
100
AcDbLine
 10
119.3944815077286
 20
233.3818260035991
 30
0.0
 11
119.3944815077284
 21
234.5438260035992
 31
0.0
  0
LINE
  5
86
330
3A
100
AcDbEntity
  8
1
  6
PHANTOM
 62
     4
100
AcDbLine
 10
104.4071245461237
 20
243.8593260035992
 30
0.0
 11
214.4650270720263
 21
243.8593260035991
 31
0.0
  0
LINE
  5
87
330
3A
100
AcDbEntity
  8
1
  6
Continuous
 62
     7
100
AcDbLine
 10
107.4071245461237
 20
253.1748260035992
 30
0.0
 11
107.4071245461237
 21
237.3593260035992
 31
0.0
  0
LINE
  5
88
330
3A
100
AcDbEntity
  8
______-2
  6
Continuous
 62
     7
100
AcDbLine
 10
189.2915975632604
 20
210.3050844962513
 30
0.0
 11
221.100996342936
 21
213.0880462831976
 31
0.0
  0
LINE
  5
89
330
3A
100
AcDbEntity
  8
1
  6
PHANTOM
 62
     4
100
AcDbLine
 10
206.4071245461234
 20
211.3024990775454
 30
0.0
 11
206.4071245461234
 21
211.8024990775454
 31
0.0
  0
LINE
  5
8A
330
3A
100
AcDbEntity
  8
1
  6
PHANTOM
 62
     4
100
AcDbLine
 10
205.4919892472728
 20
222.2625434075085
 30
0.0
 11
206.4071245461234
 21
211.8024990775454
 31
0.0
  0
LINE
  5
8B
330
3A
100
AcDbEntity
  8
1
  6
PHANTOM
 62
     4
100
AcDbLine
 10
148.4071245461237
 20
217.8593260035991
 30
0.0
 11
148.4071245461232
 21
266.8593260035992
 31
0.0
  0
LINE
  5
8C
330
3A
100
AcDbEntity
  8
1
  6
PHANTOM
 62
     4
100
AcDbLine
 10
171.4576622101195
 20
216.2961061246222
 30
0.0
 11
171.4576622101195
 21
216.7961061246223
 31
0.0
  0
LINE
  5
8D
330
3A
100
AcDbEntity
  8
1
  6
PHANTOM
 62
     4
100
AcDbLine
 10
170.4316017801425
 20
213.9770282622644
 30
0.0
 11
171.4576622101195
 21
216.7961061246223
 31
0.0
  0
LINE
  5
8E
330
3A
100
AcDbEntity
  8
1
  6
Continuous
 62
     7
100
AcDbLine
 10
160.2940573423512
 20
220.8593260035991
 30
0.0
 11
171.4576622101195
 21
216.7961061246223
 31
0.0
  0
LINE
  5
8F
330
3A
100
AcDbEntity
  8
1
  6
Continuous
 62
     7
100
AcDbLine
 10
204.0326675475194
 20
263.9000339253769
 30
0.0
 11
205.9120527890912
 21
263.2159936387257
 31
0.0
  0
LINE
  5
90
330
3A
100
AcDbEntity
  8
1
  6
Continuous
 62
     7
100
AcDbLine
 10
172.2257655418212
 20
267.1492252869711
 30
0.0
 11
174.7311862314932
 21
274.0328120580798
 31
0.0
  0
LINE
  5
91
330
3A
100
AcDbEntity
  8
1
  6
Continuous
 62
     7
100
AcDbLine
 10
174.902196303156
 20
274.5026583684728
 30
0.0
 11
203.3278980819296
 21
264.1565490328712
 31
0.0
  0
LINE
  5
92
330
3A
100
AcDbEntity
  8
1
  6
Continuous
 62
     7
100
AcDbLine
 10
174.7311862314932
 20
274.0328120580798
 30
0.0
 11
174.902196303156
 21
274.5026583684728
 31
0.0
  0
LINE
  5
93
330
3A
100
AcDbEntity
  8
1
  6
Continuous
 62
     7
100
AcDbLine
 10
340.835031883915
 20
210.3050844962513
 30
0.0
 11
342.835031883702
 21
210.3050844962513
 31
0.0
  0
LINE
  5
94
330
3A
100
AcDbEntity
  8
______-2
  6
Continuous
 62
     7
100
AcDbLine
 10
194.2037394944991
 20
210.7348412288881
 30
0.0
 11
194.4527881690415
 21
210.7566301645767
 31
0.0
  0
LINE
  5
95
330
3A
100
AcDbEntity
  8
1
  6
Continuous
 62
     7
100
AcDbLine
 10
119.4071245461237
 20
458.584843113128
 30
0.0
 11
119.4071245461237
 21
416.584843113128
 31
0.0
  0
LINE
  5
96
330
3A
100
AcDbEntity
  8
1
  6
Continuous
 62
     7
100
AcDbLine
 10
168.3486562256429
 20
423.584843113128
 30
0.0
 11
126.4071245461237
 21
423.584843113128
 31
0.0
  0
LINE
  5
97
330
3A
100
AcDbEntity
  8
1
  6
Continuous
 62
     7
100
AcDbLine
 10
119.4071245461237
 20
416.584843113128
 30
0.0
 11
119.4071245461237
 21
415.584843113128
 31
0.0
  0
LINE
  5
98
330
3A
100
AcDbEntity
  8
1
  6
Continuous
 62
     7
100
AcDbLine
 10
168.6677629261136
 20
453.084843113128
 30
0.0
 11
168.6677629261237
 21
453.084843113128
 31
0.0
  0
LINE
  5
99
330
3A
100
AcDbEntity
  8
80
  6
Continuous
 62
     7
100
AcDbLine
 10
166.9911368362031
 20
452.9884280579669
 30
0.0
 11
166.339827126124
 21
452.9033501731281
 31
0.0
  0
LINE
  5
9A
330
3A
100
AcDbEntity
  8
80
  6
Continuous
 62
     7
100
AcDbLine
 10
168.0094408161239
 20
453.0699633731282
 30
0.0
 11
168.3389982361239
 21
453.0811338931281
 31
0.0
  0
LINE
  5
9B
330
3A
100
AcDbEntity
  8
80
  6
Continuous
 62
     7
100
AcDbLine
 10
166.9911368362031
 20
452.9884280579669
 30
0.0
 11
167.3488216461236
 21
453.0250358831281
 31
0.0
  0
LINE
  5
9C
330
3A
100
AcDbEntity
  8
80
  6
Continuous
 62
     7
100
AcDbLine
 10
167.3488216461236
 20
453.0250358831281
 30
0.0
 11
167.6793053961237
 21
453.0512793231281
 31
0.0
  0
LINE
  5
9D
330
3A
100
AcDbEntity
  8
80
  6
Continuous
 62
     7
100
AcDbLine
 10
167.6793053961237
 20
453.0512793231281
 30
0.0
 11
168.0094408161239
 21
453.0699633731282
 31
0.0
  0
LINE
  5
9E
330
3A
100
AcDbEntity
  8
80
  6
Continuous
 62
     7
100
AcDbLine
 10
168.6677629261136
 20
453.084843113128
 30
0.0
 11
168.6677629261237
 21
453.084843113128
 31
0.0
  0
LINE
  5
9F
330
3A
100
AcDbEntity
  8
80
  6
Continuous
 62
     7
100
AcDbLine
 10
166.339827126124
 20
452.9033501731281
 30
0.0
 11
165.573287936124
 21
452.763424433128
 31
0.0
  0
LINE
  5
A0
330
3A
100
AcDbEntity
  8
80
  6
Continuous
 62
     7
100
AcDbLine
 10
165.573287936124
 20
452.763424433128
 30
0.0
 11
164.8145750761239
 21
452.5872289131281
 31
0.0
  0
LINE
  5
A1
330
3A
100
AcDbEntity
  8
80
  6
Continuous
 62
     7
100
AcDbLine
 10
164.8145750761239
 20
452.5872289131281
 30
0.0
 11
164.0670258161239
 21
452.3676698031281
 31
0.0
  0
LINE
  5
A2
330
3A
100
AcDbEntity
  8
80
  6
Continuous
 62
     7
100
AcDbLine
 10
164.0670258161239
 20
452.3676698031281
 30
0.0
 11
163.3296699561238
 21
452.1159164931281
 31
0.0
  0
LINE
  5
A3
330
3A
100
AcDbEntity
  8
80
  6
Continuous
 62
     7
100
AcDbLine
 10
163.3296699561238
 20
452.1159164931281
 30
0.0
 11
162.6080104561238
 21
451.8225767231281
 31
0.0
  0
LINE
  5
A4
330
3A
100
AcDbEntity
  8
80
  6
Continuous
 62
     7
100
AcDbLine
 10
161.9006155861239
 20
451.4954879731282
 30
0.0
 11
161.2105216961238
 21
451.1338460831281
 31
0.0
  0
LINE
  5
A5
330
3A
100
AcDbEntity
  8
80
  6
Continuous
 62
     7
100
AcDbLine
 10
162.6080104561238
 20
451.8225767231281
 30
0.0
 11
161.9006155861239
 21
451.4954879731282
 31
0.0
  0
LINE
  5
A6
330
3A
100
AcDbEntity
  8
80
  6
Continuous
 62
     7
100
AcDbLine
 10
161.2105216961238
 20
451.1338460831281
 30
0.0
 11
160.541112136124
 21
450.7346790931282
 31
0.0
  0
LINE
  5
A7
330
3A
100
AcDbEntity
  8
80
  6
Continuous
 62
     7
100
AcDbLine
 10
160.541112136124
 20
450.7346790931282
 30
0.0
 11
159.8889917861237
 21
450.3078229131281
 31
0.0
  0
LINE
  5
A8
330
3A
100
AcDbEntity
  8
80
  6
Continuous
 62
     7
100
AcDbLine
 10
159.5203988961239
 20
450.0619165431281
 30
0.0
 11
159.6125381161238
 21
450.1234084031281
 31
0.0
  0
LINE
  5
A9
330
3A
100
AcDbEntity
  8
80
  6
Continuous
 62
     7
100
AcDbLine
 10
159.3360904561239
 20
449.9389837131281
 30
0.0
 11
159.4282264761239
 21
450.0004810131281
 31
0.0
  0
LINE
  5
AA
330
3A
100
AcDbEntity
  8
80
  6
Continuous
 62
     7
100
AcDbLine
 10
159.7968413261239
 20
450.2463501131281
 30
0.0
 11
159.8889917861237
 21
450.3078229131281
 31
0.0
  0
LINE
  5
AB
330
3A
100
AcDbEntity
  8
80
  6
Continuous
 62
     7
100
AcDbLine
 10
159.7046922261237
 20
450.1848750031281
 30
0.0
 11
159.7968413261239
 21
450.2463501131281
 31
0.0
  0
LINE
  5
AC
330
3A
100
AcDbEntity
  8
80
  6
Continuous
 62
     7
100
AcDbLine
 10
159.6125381161238
 20
450.1234084031281
 30
0.0
 11
159.7046922261237
 21
450.1848750031281
 31
0.0
  0
LINE
  5
AD
330
3A
100
AcDbEntity
  8
80
  6
Continuous
 62
     7
100
AcDbLine
 10
159.4282264761239
 20
450.0004810131281
 30
0.0
 11
159.5203988961239
 21
450.0619165431281
 31
0.0
  0
LINE
  5
AE
330
3A
100
AcDbEntity
  8
80
  6
Continuous
 62
     7
100
AcDbLine
 10
159.244059566124
 20
449.8773080431282
 30
0.0
 11
159.3360904561239
 21
449.9389837131281
 31
0.0
  0
LINE
  5
AF
330
3A
100
AcDbEntity
  8
80
  6
Continuous
 62
     7
100
AcDbLine
 10
159.1505802761238
 20
449.8180898931281
 30
0.0
 11
159.244059566124
 21
449.8773080431282
 31
0.0
  0
LINE
  5
B0
330
3A
100
AcDbEntity
  8
80
  6
Continuous
 62
     7
100
AcDbLine
 10
159.0564925261239
 20
449.7599041231282
 30
0.0
 11
159.1505802761238
 21
449.8180898931281
 31
0.0
  0
LINE
  5
B1
330
3A
100
AcDbEntity
  8
80
  6
Continuous
 62
     7
100
AcDbLine
 10
158.9625293761238
 20
449.7015069331281
 30
0.0
 11
159.0564925261239
 21
449.7599041231282
 31
0.0
  0
LINE
  5
B2
330
3A
100
AcDbEntity
  8
80
  6
Continuous
 62
     7
100
AcDbLine
 10
158.8685216961238
 20
449.6431853031281
 30
0.0
 11
158.9625293761238
 21
449.7015069331281
 31
0.0
  0
LINE
  5
B3
330
3A
100
AcDbEntity
  8
80
  6
Continuous
 62
     7
100
AcDbLine
 10
158.7745261361238
 20
449.584843113128
 30
0.0
 11
158.8685216961238
 21
449.6431853031281
 31
0.0
  0
LINE
  5
B4
330
3A
100
AcDbEntity
  8
80
  6
Continuous
 62
     7
100
AcDbLine
 10
174.4677760261237
 20
422.741692243128
 30
0.0
 11
174.7897368061239
 21
422.6679469431278
 31
0.0
  0
LINE
  5
B5
330
3A
100
AcDbEntity
  8
80
  6
Continuous
 62
     7
100
AcDbLine
 10
174.1431587361237
 20
422.8134594731279
 30
0.0
 11
174.4677760261237
 21
422.741692243128
 31
0.0
  0
LINE
  5
B6
330
3A
100
AcDbEntity
  8
80
  6
Continuous
 62
     7
100
AcDbLine
 10
175.1091118061238
 20
422.592240953128
 30
0.0
 11
175.4259558761237
 21
422.5145915531278
 31
0.0
  0
LINE
  5
B7
330
3A
100
AcDbEntity
  8
80
  6
Continuous
 62
     7
100
AcDbLine
 10
175.4259558761237
 20
422.5145915531278
 30
0.0
 11
175.7403270861237
 21
422.435017353128
 31
0.0
  0
LINE
  5
B8
330
3A
100
AcDbEntity
  8
80
  6
Continuous
 62
     7
100
AcDbLine
 10
175.7403270861237
 20
422.435017353128
 30
0.0
 11
176.0522825161238
 21
422.3535366231279
 31
0.0
  0
LINE
  5
B9
330
3A
100
AcDbEntity
  8
80
  6
Continuous
 62
     7
100
AcDbLine
 10
176.0522825161238
 20
422.3535366231279
 30
0.0
 11
176.3618794461238
 21
422.2701676731278
 31
0.0
  0
LINE
  5
BA
330
3A
100
AcDbEntity
  8
80
  6
Continuous
 62
     7
100
AcDbLine
 10
176.3618794461238
 20
422.2701676731278
 30
0.0
 11
176.3988048150137
 21
422.2599251896116
 31
0.0
  0
LINE
  5
BB
330
3A
100
AcDbEntity
  8
80
  6
Continuous
 62
     7
100
AcDbLine
 10
174.7897368061239
 20
422.6679469431278
 30
0.0
 11
175.1091118061238
 21
422.592240953128
 31
0.0
  0
LINE
  5
BC
330
3A
100
AcDbEntity
  8
80
  6
Continuous
 62
     7
100
AcDbLine
 10
168.3486562256429
 20
423.584843113128
 30
0.0
 11
169.2403710461239
 21
423.532891593128
 31
0.0
  0
LINE
  5
BD
330
3A
100
AcDbEntity
  8
80
  6
Continuous
 62
     7
100
AcDbLine
 10
169.2403710461239
 20
423.532891593128
 30
0.0
 11
169.6160953361239
 21
423.5054836331279
 31
0.0
  0
LINE
  5
BE
330
3A
100
AcDbEntity
  8
80
  6
Continuous
 62
     7
100
AcDbLine
 10
169.6160953361239
 20
423.5054836331279
 30
0.0
 11
169.9883290461237
 21
423.4731354631279
 31
0.0
  0
LINE
  5
BF
330
3A
100
AcDbEntity
  8
80
  6
Continuous
 62
     7
100
AcDbLine
 10
169.9883290461237
 20
423.4731354631279
 30
0.0
 11
170.3566792461238
 21
423.4362337631279
 31
0.0
  0
LINE
  5
C0
330
3A
100
AcDbEntity
  8
80
  6
Continuous
 62
     7
100
AcDbLine
 10
170.3566792461238
 20
423.4362337631279
 30
0.0
 11
170.7207850261237
 21
423.3951655531279
 31
0.0
  0
LINE
  5
C1
330
3A
100
AcDbEntity
  8
80
  6
Continuous
 62
     7
100
AcDbLine
 10
170.7207850261237
 20
423.3951655531279
 30
0.0
 11
171.0801729261239
 21
423.3503250031279
 31
0.0
  0
LINE
  5
C2
330
3A
100
AcDbEntity
  8
80
  6
Continuous
 62
     7
100
AcDbLine
 10
171.0801729261239
 20
423.3503250031279
 30
0.0
 11
171.4348481961239
 21
423.302073143128
 31
0.0
  0
LINE
  5
C3
330
3A
100
AcDbEntity
  8
80
  6
Continuous
 62
     7
100
AcDbLine
 10
171.4348481961239
 20
423.302073143128
 30
0.0
 11
171.7854786661237
 21
423.2506438731279
 31
0.0
  0
LINE
  5
C4
330
3A
100
AcDbEntity
  8
80
  6
Continuous
 62
     7
100
AcDbLine
 10
171.7854786661237
 20
423.2506438731279
 30
0.0
 11
172.1323976661238
 21
423.1961710231279
 31
0.0
  0
LINE
  5
C5
330
3A
100
AcDbEntity
  8
80
  6
Continuous
 62
     7
100
AcDbLine
 10
172.1323976661238
 20
423.1961710231279
 30
0.0
 11
172.4757157961237
 21
423.1388000631279
 31
0.0
  0
LINE
  5
C6
330
3A
100
AcDbEntity
  8
80
  6
Continuous
 62
     7
100
AcDbLine
 10
172.4757157961237
 20
423.1388000631279
 30
0.0
 11
172.8155758161238
 21
423.0786730631279
 31
0.0
  0
LINE
  5
C7
330
3A
100
AcDbEntity
  8
80
  6
Continuous
 62
     7
100
AcDbLine
 10
172.8155758161238
 20
423.0786730631279
 30
0.0
 11
173.152113306124
 21
423.015932873128
 31
0.0
  0
LINE
  5
C8
330
3A
100
AcDbEntity
  8
80
  6
Continuous
 62
     7
100
AcDbLine
 10
173.152113306124
 20
423.015932873128
 30
0.0
 11
173.4854651561237
 21
422.950722143128
 31
0.0
  0
LINE
  5
C9
330
3A
100
AcDbEntity
  8
80
  6
Continuous
 62
     7
100
AcDbLine
 10
173.4854651561237
 20
422.950722143128
 30
0.0
 11
173.8157682561239
 21
422.8831838231279
 31
0.0
  0
LINE
  5
CA
330
3A
100
AcDbEntity
  8
80
  6
Continuous
 62
     7
100
AcDbLine
 10
173.8157682561239
 20
422.8831838231279
 30
0.0
 11
174.1431587361237
 21
422.8134594731279
 31
0.0
  0
LINE
  5
CB
330
3A
100
AcDbEntity
  8
80
  6
Continuous
 62
     7
100
AcDbLine
 10
176.3618794461238
 20
450.8995185531279
 30
0.0
 11
176.0522825161238
 21
450.8161496031281
 31
0.0
  0
LINE
  5
CC
330
3A
100
AcDbEntity
  8
80
  6
Continuous
 62
     7
100
AcDbLine
 10
176.0522825161238
 20
450.8161496031281
 30
0.0
 11
175.7403270861237
 21
450.734668873128
 31
0.0
  0
LINE
  5
CD
330
3A
100
AcDbEntity
  8
80
  6
Continuous
 62
     7
100
AcDbLine
 10
175.7403270861237
 20
450.734668873128
 30
0.0
 11
175.4259558761237
 21
450.6550946831279
 31
0.0
  0
LINE
  5
CE
330
3A
100
AcDbEntity
  8
80
  6
Continuous
 62
     7
100
AcDbLine
 10
175.4259558761237
 20
450.6550946831279
 30
0.0
 11
175.1091118061238
 21
450.5774452731279
 31
0.0
  0
LINE
  5
CF
330
3A
100
AcDbEntity
  8
80
  6
Continuous
 62
     7
100
AcDbLine
 10
175.1091118061238
 20
450.5774452731279
 30
0.0
 11
174.7897368161238
 21
450.501739293128
 31
0.0
  0
LINE
  5
D0
330
3A
100
AcDbEntity
  8
80
  6
Continuous
 62
     7
100
AcDbLine
 10
174.7897368161238
 20
450.501739293128
 30
0.0
 11
174.4677760261237
 21
450.4279939831279
 31
0.0
  0
LINE
  5
D1
330
3A
100
AcDbEntity
  8
80
  6
Continuous
 62
     7
100
AcDbLine
 10
174.4677760261237
 20
450.4279939831279
 30
0.0
 11
174.1431587361237
 21
450.356226753128
 31
0.0
  0
LINE
  5
D2
330
3A
100
AcDbEntity
  8
80
  6
Continuous
 62
     7
100
AcDbLine
 10
174.1431587361237
 20
450.356226753128
 30
0.0
 11
173.8157682561239
 21
450.2865024031281
 31
0.0
  0
LINE
  5
D3
330
3A
100
AcDbEntity
  8
80
  6
Continuous
 62
     7
100
AcDbLine
 10
173.8157682561239
 20
450.2865024031281
 30
0.0
 11
173.4854651561237
 21
450.2189640831278
 31
0.0
  0
LINE
  5
D4
330
3A
100
AcDbEntity
  8
80
  6
Continuous
 62
     7
100
AcDbLine
 10
173.4854651561237
 20
450.2189640831278
 30
0.0
 11
173.152113306124
 21
450.1537533531279
 31
0.0
  0
LINE
  5
D5
330
3A
100
AcDbEntity
  8
80
  6
Continuous
 62
     7
100
AcDbLine
 10
173.152113306124
 20
450.1537533531279
 30
0.0
 11
172.8155758161238
 21
450.0910131631279
 31
0.0
  0
LINE
  5
D6
330
3A
100
AcDbEntity
  8
80
  6
Continuous
 62
     7
100
AcDbLine
 10
172.8155758161238
 20
450.0910131631279
 30
0.0
 11
172.4757157961237
 21
450.030886163128
 31
0.0
  0
LINE
  5
D7
330
3A
100
AcDbEntity
  8
80
  6
Continuous
 62
     7
100
AcDbLine
 10
172.4757157961237
 20
450.030886163128
 30
0.0
 11
172.1323976661238
 21
449.9735152031279
 31
0.0
  0
LINE
  5
D8
330
3A
100
AcDbEntity
  8
80
  6
Continuous
 62
     7
100
AcDbLine
 10
172.1323976661238
 20
449.9735152031279
 30
0.0
 11
171.7854786661237
 21
449.919042353128
 31
0.0
  0
LINE
  5
D9
330
3A
100
AcDbEntity
  8
80
  6
Continuous
 62
     7
100
AcDbLine
 10
171.7854786661237
 20
449.919042353128
 30
0.0
 11
171.4348481961239
 21
449.867613083128
 31
0.0
  0
LINE
  5
DA
330
3A
100
AcDbEntity
  8
80
  6
Continuous
 62
     7
100
AcDbLine
 10
171.4348481961239
 20
449.867613083128
 30
0.0
 11
171.0801729261239
 21
449.8193612231281
 31
0.0
  0
LINE
  5
DB
330
3A
100
AcDbEntity
  8
80
  6
Continuous
 62
     7
100
AcDbLine
 10
171.0801729261239
 20
449.8193612231281
 30
0.0
 11
170.7207850261237
 21
449.774520683128
 31
0.0
  0
LINE
  5
DC
330
3A
100
AcDbEntity
  8
80
  6
Continuous
 62
     7
100
AcDbLine
 10
170.7207850261237
 20
449.774520683128
 30
0.0
 11
170.3566792461238
 21
449.7334524631279
 31
0.0
  0
LINE
  5
DD
330
3A
100
AcDbEntity
  8
80
  6
Continuous
 62
     7
100
AcDbLine
 10
170.3566792461238
 20
449.7334524631279
 30
0.0
 11
169.9883290461237
 21
449.6965507631279
 31
0.0
  0
LINE
  5
DE
330
3A
100
AcDbEntity
  8
80
  6
Continuous
 62
     7
100
AcDbLine
 10
169.9883290461237
 20
449.6965507631279
 30
0.0
 11
169.6160953361239
 21
449.6642025931279
 31
0.0
  0
LINE
  5
DF
330
3A
100
AcDbEntity
  8
80
  6
Continuous
 62
     7
100
AcDbLine
 10
169.6160953361239
 20
449.6642025931279
 30
0.0
 11
169.2403710461239
 21
449.636794633128
 31
0.0
  0
LINE
  5
E0
330
3A
100
AcDbEntity
  8
80
  6
Continuous
 62
     7
100
AcDbLine
 10
169.2403710461239
 20
449.636794633128
 30
0.0
 11
168.8615485461237
 21
449.6147243431279
 31
0.0
  0
LINE
  5
E1
330
3A
100
AcDbEntity
  8
80
  6
Continuous
 62
     7
100
AcDbLine
 10
168.8615485461237
 20
449.6147243431279
 30
0.0
 11
168.4800308361238
 21
449.5984137231279
 31
0.0
  0
LINE
  5
E2
330
3A
100
AcDbEntity
  8
80
  6
Continuous
 62
     7
100
AcDbLine
 10
168.4800308361238
 20
449.5984137231279
 30
0.0
 11
167.9644446190855
 21
449.584843113128
 31
0.0
  0
LINE
  5
E3
330
3A
100
AcDbEntity
  8
80
  6
Continuous
 62
     7
100
AcDbLine
 10
158.8685216961238
 20
423.5265009231279
 30
0.0
 11
158.7745261361238
 21
423.5848431131279
 31
0.0
  0
LINE
  5
E4
330
3A
100
AcDbEntity
  8
80
  6
Continuous
 62
     7
100
AcDbLine
 10
158.9625293761238
 20
423.4681792931279
 30
0.0
 11
158.8685216961238
 21
423.5265009231279
 31
0.0
  0
LINE
  5
E5
330
3A
100
AcDbEntity
  8
80
  6
Continuous
 62
     7
100
AcDbLine
 10
159.0564925261239
 20
423.4097821031279
 30
0.0
 11
158.9625293761238
 21
423.4681792931279
 31
0.0
  0
LINE
  5
E6
330
3A
100
AcDbEntity
  8
80
  6
Continuous
 62
     7
100
AcDbLine
 10
159.1505802761238
 20
423.3515963331279
 30
0.0
 11
159.0564925261239
 21
423.4097821031279
 31
0.0
  0
LINE
  5
E7
330
3A
100
AcDbEntity
  8
80
  6
Continuous
 62
     7
100
AcDbLine
 10
159.244059566124
 20
423.2923781831281
 30
0.0
 11
159.1505802761238
 21
423.3515963331279
 31
0.0
  0
LINE
  5
E8
330
3A
100
AcDbEntity
  8
80
  6
Continuous
 62
     7
100
AcDbLine
 10
159.3360904561239
 20
423.230702513128
 30
0.0
 11
159.244059566124
 21
423.2923781831281
 31
0.0
  0
LINE
  5
E9
330
3A
100
AcDbEntity
  8
80
  6
Continuous
 62
     7
100
AcDbLine
 10
159.5203988961239
 20
423.1077696831279
 30
0.0
 11
159.4282264761239
 21
423.1692052131279
 31
0.0
  0
LINE
  5
EA
330
3A
100
AcDbEntity
  8
80
  6
Continuous
 62
     7
100
AcDbLine
 10
159.7046922261237
 20
422.9848112231279
 30
0.0
 11
159.6125381161238
 21
423.0462778231279
 31
0.0
  0
LINE
  5
EB
330
3A
100
AcDbEntity
  8
80
  6
Continuous
 62
     7
100
AcDbLine
 10
159.7968413261239
 20
422.9233361131279
 30
0.0
 11
159.7046922261237
 21
422.9848112231279
 31
0.0
  0
LINE
  5
EC
330
3A
100
AcDbEntity
  8
80
  6
Continuous
 62
     7
100
AcDbLine
 10
159.8889917861237
 20
422.8618633131279
 30
0.0
 11
159.7968413261239
 21
422.9233361131279
 31
0.0
  0
LINE
  5
ED
330
3A
100
AcDbEntity
  8
80
  6
Continuous
 62
     7
100
AcDbLine
 10
159.4282264761239
 20
423.1692052131279
 30
0.0
 11
159.3360904561239
 21
423.230702513128
 31
0.0
  0
LINE
  5
EE
330
3A
100
AcDbEntity
  8
80
  6
Continuous
 62
     7
100
AcDbLine
 10
159.6125381161238
 20
423.0462778231279
 30
0.0
 11
159.5203988961239
 21
423.1077696831279
 31
0.0
  0
LINE
  5
EF
330
3A
100
AcDbEntity
  8
80
  6
Continuous
 62
     7
100
AcDbLine
 10
159.8889917861237
 20
422.8618633131279
 30
0.0
 11
160.541112136124
 21
422.4350071331279
 31
0.0
  0
LINE
  5
F0
330
3A
100
AcDbEntity
  8
80
  6
Continuous
 62
     7
100
AcDbLine
 10
160.541112136124
 20
422.4350071331279
 30
0.0
 11
161.2105216961238
 21
422.0358401431279
 31
0.0
  0
LINE
  5
F1
330
3A
100
AcDbEntity
  8
80
  6
Continuous
 62
     7
100
AcDbLine
 10
161.9006155861239
 20
421.6741982531281
 30
0.0
 11
162.6080104561238
 21
421.3471095031279
 31
0.0
  0
LINE
  5
F2
330
3A
100
AcDbEntity
  8
80
  6
Continuous
 62
     7
100
AcDbLine
 10
161.2105216961238
 20
422.0358401431279
 30
0.0
 11
161.9006155861239
 21
421.6741982531281
 31
0.0
  0
LINE
  5
F3
330
3A
100
AcDbEntity
  8
80
  6
Continuous
 62
     7
100
AcDbLine
 10
162.6080104561238
 20
421.3471095031279
 30
0.0
 11
163.3296699561238
 21
421.0537697331279
 31
0.0
  0
LINE
  5
F4
330
3A
100
AcDbEntity
  8
80
  6
Continuous
 62
     7
100
AcDbLine
 10
163.3296699561238
 20
421.0537697331279
 30
0.0
 11
164.0670258161239
 21
420.8020164231279
 31
0.0
  0
LINE
  5
F5
330
3A
100
AcDbEntity
  8
80
  6
Continuous
 62
     7
100
AcDbLine
 10
164.0670258161239
 20
420.8020164231279
 30
0.0
 11
164.8145750761239
 21
420.5824573131279
 31
0.0
  0
LINE
  5
F6
330
3A
100
AcDbEntity
  8
80
  6
Continuous
 62
     7
100
AcDbLine
 10
164.8145750761239
 20
420.5824573131279
 30
0.0
 11
165.573287936124
 21
420.406261793128
 31
0.0
  0
LINE
  5
F7
330
3A
100
AcDbEntity
  8
80
  6
Continuous
 62
     7
100
AcDbLine
 10
165.573287936124
 20
420.406261793128
 30
0.0
 11
166.339827126124
 21
420.2663360531279
 31
0.0
  0
LINE
  5
F8
330
3A
100
AcDbEntity
  8
80
  6
Continuous
 62
     7
100
AcDbLine
 10
168.6677629261237
 20
420.0848431131279
 30
0.0
 11
168.3389982361239
 21
420.0885523331279
 31
0.0
  0
LINE
  5
F9
330
3A
100
AcDbEntity
  8
80
  6
Continuous
 62
     7
100
AcDbLine
 10
168.0094408161239
 20
420.0997228531279
 30
0.0
 11
167.6793053961237
 21
420.1184069031279
 31
0.0
  0
LINE
  5
FA
330
3A
100
AcDbEntity
  8
80
  6
Continuous
 62
     7
100
AcDbLine
 10
167.6793053961237
 20
420.1184069031279
 30
0.0
 11
167.3488216461236
 21
420.1446503431279
 31
0.0
  0
LINE
  5
FB
330
3A
100
AcDbEntity
  8
80
  6
Continuous
 62
     7
100
AcDbLine
 10
167.3488216461236
 20
420.1446503431279
 30
0.0
 11
166.9911368362031
 21
420.1812581682891
 31
0.0
  0
LINE
  5
FC
330
3A
100
AcDbEntity
  8
80
  6
Continuous
 62
     7
100
AcDbLine
 10
168.3389982361239
 20
420.0885523331279
 30
0.0
 11
168.0094408161239
 21
420.0997228531279
 31
0.0
  0
LINE
  5
FD
330
3A
100
AcDbEntity
  8
80
  6
Continuous
 62
     7
100
AcDbLine
 10
166.339827126124
 20
420.2663360531279
 30
0.0
 11
166.9911368362031
 21
420.1812581682891
 31
0.0
  0
LINE
  5
FE
330
3A
100
AcDbEntity
  8
1
  6
Continuous
 62
     2
100
AcDbLine
 10
104.0691245461237
 20
445.9003431131281
 30
0.0
 11
102.9071245461237
 21
445.9003431131281
 31
0.0
  0
LINE
  5
FF
330
3A
100
AcDbEntity
  8
1
  6
Continuous
 62
     2
100
AcDbLine
 10
104.0691245461237
 20
427.269343113128
 30
0.0
 11
114.8944815077289
 21
427.269343113128
 31
0.0
  0
LINE
  5
100
330
3A
100
AcDbEntity
  8
1
  6
Continuous
 62
     7
100
AcDbLine
 10
104.0691245461237
 20
426.107343113128
 30
0.0
 11
104.0691245461237
 21
447.062343113128
 31
0.0
  0
LINE
  5
101
330
3A
100
AcDbEntity
  8
1
  6
Continuous
 62
     7
100
AcDbLine
 10
114.8944815077289
 20
426.107343113128
 30
0.0
 11
114.8944815077289
 21
447.062343113128
 31
0.0
  0
LINE
  5
102
330
3A
100
AcDbEntity
  8
1
  6
Continuous
 62
     7
100
AcDbLine
 10
167.9644446190855
 20
449.584843113128
 30
0.0
 11
126.4071245461237
 21
449.584843113128
 31
0.0
  0
LINE
  5
103
330
3A
100
AcDbEntity
  8
1
  6
Continuous
 62
     7
100
AcDbLine
 10
116.9071245461237
 20
413.584843113128
 30
0.0
 11
118.4071245461237
 21
413.584843113128
 31
0.0
  0
LINE
  5
104
330
3A
100
AcDbEntity
  8
1
  6
Continuous
 62
     7
100
AcDbLine
 10
102.9071245461237
 20
445.9003431131281
 30
0.0
 11
104.0691245461237
 21
447.062343113128
 31
0.0
  0
LINE
  5
105
330
3A
100
AcDbEntity
  8
1
  6
Continuous
 62
     7
100
AcDbLine
 10
104.0691245461237
 20
447.062343113128
 30
0.0
 11
116.9071245461237
 21
447.062343113128
 31
0.0
  0
LINE
  5
106
330
3A
100
AcDbEntity
  8
1
  6
Continuous
 62
     2
100
AcDbLine
 10
116.9071245461237
 20
447.062343113128
 30
0.0
 11
114.8944815077289
 21
445.9003431131281
 31
0.0
  0
LINE
  5
107
330
3A
100
AcDbEntity
  8
1
  6
Continuous
 62
     2
100
AcDbLine
 10
114.8944815077289
 20
445.9003431131281
 30
0.0
 11
104.0691245461237
 21
445.9003431131281
 31
0.0
  0
LINE
  5
108
330
3A
100
AcDbEntity
  8
1
  6
Continuous
 62
     7
100
AcDbLine
 10
102.9071245461237
 20
445.9003431131281
 30
0.0
 11
102.9071245461237
 21
427.269343113128
 31
0.0
  0
LINE
  5
109
330
3A
100
AcDbEntity
  8
1
  6
Continuous
 62
     2
100
AcDbLine
 10
102.9071245461237
 20
427.269343113128
 30
0.0
 11
104.0691245461237
 21
427.269343113128
 31
0.0
  0
LINE
  5
10A
330
3A
100
AcDbEntity
  8
1
  6
Continuous
 62
     2
100
AcDbLine
 10
114.8944815077289
 20
427.269343113128
 30
0.0
 11
116.9071245461237
 21
426.107343113128
 31
0.0
  0
LINE
  5
10B
330
3A
100
AcDbEntity
  8
1
  6
Continuous
 62
     7
100
AcDbLine
 10
116.9071245461237
 20
426.107343113128
 30
0.0
 11
104.0691245461237
 21
426.107343113128
 31
0.0
  0
LINE
  5
10C
330
3A
100
AcDbEntity
  8
1
  6
Continuous
 62
     7
100
AcDbLine
 10
104.0691245461237
 20
426.107343113128
 30
0.0
 11
102.9071245461237
 21
427.269343113128
 31
0.0
  0
LINE
  5
10D
330
3A
100
AcDbEntity
  8
1
  6
Continuous
 62
     7
100
AcDbLine
 10
116.9071245461237
 20
413.584843113128
 30
0.0
 11
116.9071245461237
 21
459.584843113128
 31
0.0
  0
LINE
  5
10E
330
3A
100
AcDbEntity
  8
1
  6
Continuous
 62
     7
100
AcDbLine
 10
116.9071245461237
 20
459.584843113128
 30
0.0
 11
118.4071245461237
 21
459.584843113128
 31
0.0
  0
LINE
  5
10F
330
3A
100
AcDbEntity
  8
1
  6
Continuous
 62
     7
100
AcDbLine
 10
119.4071245461237
 20
415.584843113128
 30
0.0
 11
119.4071245461237
 21
414.584843113128
 31
0.0
  0
LINE
  5
110
330
3A
100
AcDbEntity
  8
1
  6
Continuous
 62
     7
100
AcDbLine
 10
168.6677629261237
 20
453.084843113128
 30
0.0
 11
178.8583860148023
 21
453.084843113128
 31
0.0
  0
LINE
  5
111
330
3A
100
AcDbEntity
  8
80
  6
Continuous
 62
     7
100
AcDbLine
 10
178.8757003433918
 20
420.0848431131279
 30
0.0
 11
168.6677629261237
 21
420.0848431131279
 31
0.0
  0
LINE
  5
112
330
3A
100
AcDbEntity
  8
80
  6
Continuous
 62
     7
100
AcDbLine
 10
176.3998414891587
 20
450.9100485928193
 30
0.0
 11
176.3618794461238
 21
450.8995185531279
 31
0.0
  0
LINE
  5
113
330
3A
100
AcDbEntity
  8
1
  6
PHANTOM
 62
     4
100
AcDbLine
 10
98.82202757314735
 20
436.584843113128
 30
0.0
 11
183.6009963429743
 21
436.584843113128
 31
0.0
  0
ARC
  5
114
330
3A
100
AcDbEntity
  8
1
  6
Continuous
 62
     7
100
AcDbCircle
 10
354.835031883915
 20
243.8593260035992
 30
0.0
 40
22.99999999999954
100
AcDbArc
 50
-44.16048042994965
 51
44.16048042995092
  0
ARC
  5
115
330
3A
100
AcDbEntity
  8
1
  6
Continuous
 62
     7
100
AcDbCircle
 10
354.835031883915
 20
243.8593260035992
 30
0.0
 40
23.0
100
AcDbArc
 50
180.0
 51
-135.8395195700502
  0
ARC
  5
116
330
3A
100
AcDbEntity
  8
1
  6
Continuous
 62
     7
100
AcDbCircle
 10
354.835031883915
 20
243.8593260035992
 30
0.0
 40
23.00000000000004
100
AcDbArc
 50
135.8395195700491
 51
180.0
  0
ARC
  5
117
330
3A
100
AcDbEntity
  8
1
  6
Continuous
 62
     7
100
AcDbCircle
 10
126.4071245461237
 20
456.584843113128
 30
0.0
 40
7.0
100
AcDbArc
 50
180.0
 51
-90.0
  0
ARC
  5
118
330
3A
100
AcDbEntity
  8
1
  6
Continuous
 62
     7
100
AcDbCircle
 10
126.4071245461237
 20
416.584843113128
 30
0.0
 40
7.0
100
AcDbArc
 50
90.0
 51
180.0
  0
ARC
  5
119
330
3A
100
AcDbEntity
  8
1
  6
Continuous
 62
     7
100
AcDbCircle
 10
183.3842544976479
 20
436.5848431131279
 30
0.0
 40
20.35695206152402
100
AcDbArc
 50
150.5783660827748
 51
-150.5783660827748
  0
ARC
  5
11A
330
3A
100
AcDbEntity
  8
1
  6
Continuous
 62
     7
100
AcDbCircle
 10
183.5702774887352
 20
436.584843113128
 30
0.0
 40
15.84362821261121
100
AcDbArc
 50
118.3555697233202
 51
-118.3087819766533
  0
CIRCLE
  5
11B
330
3A
100
AcDbEntity
  8
1
  6
Continuous
 62
     7
100
AcDbCircle
 10
143.9071245461237
 20
436.584843113128
 30
0.0
 40
10.0
  0
SPLINE
  5
11C
330
3A
100
AcDbEntity
  8
1
  6
Continuous
 62
     7
100
AcDbSpline
210
0.0
220
0.0
230
1.0
 70
     8
 71
     3
 72
    11
 73
     7
 74
     5
 42
0.0000000001
 43
0.0000000001
 44
0.00000001
 40
0.0
 40
0.0
 40
0.0
 40
0.0
 40
0.4919581349772947
 40
0.989550896404459
 40
1.24596228312068
 40
1.497669999578863
 40
1.497669999578863
 40
1.497669999578863
 40
1.497669999578863
 10
370.8328280699273
 20
270.2463276352519
 30
0.0
 10
370.9244814613572
 20
270.1097331601863
 30
0.0
 10
371.1088379933458
 20
269.8349797296911
 30
0.0
 10
371.2520659650911
 20
269.4411648950007
 30
0.0
 10
371.3251154402472
 20
269.1129321815773
 30
0.0
 10
371.33174686511
 20
268.9433380836573
 30
0.0
 10
371.335031883915
 20
268.8593260029354
 30
0.0
 11
370.8328280699273
 21
270.2463276352519
 31
0.0
 11
371.0903376865838
 21
269.8271479555205
 31
0.0
 11
371.2658939837846
 21
269.3615531287259
 31
0.0
 11
371.317747409619
 21
269.1104395658365
 31
0.0
 11
371.335031883915
 21
268.8593260029354
 31
0.0
  0
SPLINE
  5
11D
330
3A
100
AcDbEntity
  8
1
  6
Continuous
 62
     7
100
AcDbSpline
210
0.0
220
0.0
230
1.0
 70
     8
 71
     3
 72
    41
 73
    37
 74
    35
 42
0.0000000001
 43
0.0000000001
 44
0.00000001
 40
0.0
 40
0.0
 40
0.0
 40
0.0
 40
0.2581682161534554
 40
0.4941507147104794
 40
0.9878440578932952
 40
1.490514292143159
 40
2.217867545914094
 40
2.942517172760621
 40
3.867551629871147
 40
4.79311266159235
 40
5.89355843868474
 40
6.993858866367781
 40
8.236048486531029
 40
9.478250672856262
 40
10.8251539547045
 40
12.17204703100192
 40
13.58308809301625
 40
14.99412750283467
 40
16.42677452008997
 40
17.85942153734512
 40
19.27046094716351
 40
20.68150200917784
 40
22.02839508547537
 40
23.37529836732364
 40
24.61750055364897
 40
25.85969017381224
 40
26.95999060149516
 40
28.06043637858773
 40
28.98599741030883
 40
29.91103186741924
 40
30.63568149426556
 40
31.36303474803645
 40
31.86570498228631
 40
32.35939832546919
 40
32.59538082404504
 40
32.85354904022099
 40
32.85354904022099
 40
32.85354904022099
 40
32.85354904022099
 10
338.5088387880242
 20
211.8892102250601
 30
0.0
 10
338.5821427299234
 20
211.9350201901015
 30
0.0
 10
338.7224512304053
 20
212.0227034351708
 30
0.0
 10
339.039406053279
 20
212.1200377725215
 30
0.0
 10
339.4430789445081
 20
212.1943721145584
 30
0.0
 10
340.0066556348058
 20
212.3069945167374
 30
0.0
 10
340.6498307174301
 20
212.4120854820346
 30
0.0
 10
341.4357489590482
 20
212.5136188496182
 30
0.0
 10
342.2896167980561
 20
212.6023848520306
 30
0.0
 10
343.2692862645237
 20
212.6913548761191
 30
0.0
 10
344.3084308918752
 20
212.7703313862191
 30
0.0
 10
345.4537560825286
 20
212.8435991469693
 30
0.0
 10
346.647017306261
 20
212.9065511206812
 30
0.0
 10
347.922924522382
 20
212.9620589718698
 30
0.0
 10
349.2341629804616
 20
213.00724310507
 30
0.0
 10
350.6019795392751
 20
213.0433425010585
 30
0.0
 10
351.99141527367
 20
213.0689638644725
 30
0.0
 10
353.4095837921933
 20
213.0846421599211
 30
0.0
 10
354.8350318839104
 20
213.0897612776722
 30
0.0
 10
356.2604799756279
 20
213.0846421599306
 30
0.0
 10
357.678648494151
 20
213.0689638644913
 30
0.0
 10
359.0680842285458
 20
213.0433425010863
 30
0.0
 10
360.4359007873599
 20
213.0072431051064
 30
0.0
 10
361.7471392454398
 20
212.962058971915
 30
0.0
 10
363.0230464615611
 20
212.9065511207347
 30
0.0
 10
364.2163076852942
 20
212.8435991470306
 30
0.0
 10
365.3616328759479
 20
212.7703313862879
 30
0.0
 10
366.4007775033
 20
212.6913548761949
 30
0.0
 10
367.3804469697682
 20
212.6023848521129
 30
0.0
 10
368.2343148087765
 20
212.5136188497059
 30
0.0
 10
369.0202330503952
 20
212.4120854821274
 30
0.0
 10
369.66340813302
 20
212.3069945168346
 30
0.0
 10
370.2269848233186
 20
212.194372114659
 30
0.0
 10
370.6306577145543
 20
212.1200377726243
 30
0.0
 10
370.9476125374416
 20
212.0227034352692
 30
0.0
 10
371.0879210379339
 20
211.9350201901904
 30
0.0
 10
371.1612249798388
 20
211.8892102251438
 30
0.0
 11
338.5088387880242
 21
211.8892102250601
 31
0.0
 11
338.7337298868736
 21
212.0159967444151
 31
0.0
 11
338.9572302631973
 21
212.0917286492399
 31
0.0
 11
339.4399891601066
 21
212.1950580475638
 31
0.0
 11
339.933623987127
 21
212.2899370333999
 31
0.0
 11
340.6512976473265
 21
212.4082048364022
 31
0.0
 11
341.3697945251965
 21
212.5024349705413
 31
0.0
 11
342.2896301943917
 21
212.6003690734783
 31
0.0
 11
343.2114037069439
 21
212.684016039938
 31
0.0
 11
344.308628999781
 21
212.7681443055746
 31
0.0
 11
345.4066676735279
 21
212.8386574399241
 31
0.0
 11
346.647103515836
 21
212.9046420863092
 31
0.0
 11
347.8881267614312
 21
212.9587491616658
 31
0.0
 11
349.234220705364
 21
213.0054347564559
 31
0.0
 11
350.5806431875692
 21
213.0410361383161
 31
0.0
 11
351.9914411460874
 21
213.0672277196223
 31
0.0
 11
353.4023943969916
 21
213.0828206610961
 31
0.0
 11
354.8350318839105
 21
213.088046283071
 31
0.0
 11
356.2676693708294
 21
213.0828206611056
 31
0.0
 11
357.6786226217336
 21
213.0672277196411
 31
0.0
 11
359.089420580252
 21
213.041036138344
 31
0.0
 11
360.4358430624575
 21
213.0054347564924
 31
0.0
 11
361.7819370063907
 21
212.9587491617112
 31
0.0
 11
363.0229602519863
 21
212.9046420863627
 31
0.0
 11
364.2633960942949
 21
212.8386574399858
 31
0.0
 11
365.3614347680421
 21
212.7681443056434
 31
0.0
 11
366.4586600608799
 21
212.6840160400141
 31
0.0
 11
367.3804335734326
 21
212.6003690735606
 31
0.0
 11
368.3002692426283
 21
212.5024349706295
 31
0.0
 11
369.0187661204986
 21
212.408204836495
 31
0.0
 11
369.7364397806989
 21
212.2899370334975
 31
0.0
 11
370.23007460772
 21
212.1950580476646
 31
0.0
 11
370.71283350463
 21
212.0917286493439
 31
0.0
 11
370.9363338809714
 21
212.0159967445128
 31
0.0
 11
371.1612249798388
 21
211.8892102251438
 31
0.0
  0
SPLINE
  5
11E
330
3A
100
AcDbEntity
  8
1
  6
Continuous
 62
     7
100
AcDbSpline
210
0.0
220
0.0
230
1.0
 70
     8
 71
     3
 72
    45
 73
    41
 74
    39
 42
0.0000000001
 43
0.0000000001
 44
0.00000001
 40
0.0
 40
0.0
 40
0.0
 40
0.0
 40
0.2517077052657953
 40
0.5081190805743777
 40
1.067798538225669
 40
1.623210282992071
 40
2.305891595190806
 40
2.985304030516266
 40
3.822702118374574
 40
4.658965556469784
 40
5.656203235590119
 40
6.65284159347702
 40
7.796350728765601
 40
8.939572558751562
 40
10.20546591926762
 40
11.47120333272747
 40
12.82879509156138
 40
14.18630557319127
 40
15.6005647991929
 40
17.01478860238852
 40
18.448196719045
 40
19.88160483570147
 40
21.29582863889716
 40
22.71008786489882
 40
24.06759834652878
 40
25.42519010536275
 40
26.6909275188227
 40
27.95682087933874
 40
29.10004270932476
 40
30.24355184461336
 40
31.24019020250032
 40
32.2374278816207
 40
33.07369131971591
 40
33.91108940757405
 40
34.59050184289942
 40
35.27318315509798
 40
35.82859489986441
 40
36.38827435751572
 40
36.89523798908858
 40
37.40220162066142
 40
37.40220162066142
 40
37.40220162066142
 40
37.40220162066142
 10
371.335031883915
 20
268.8593260029354
 30
0.0
 10
371.3317283651879
 20
268.7753252213341
 30
0.0
 10
371.325059594772
 20
268.6057539328043
 30
0.0
 10
371.2478972668947
 20
268.257015809958
 30
0.0
 10
371.0820826342277
 20
267.8267452236228
 30
0.0
 10
370.7409642367298
 20
267.3292097492424
 30
0.0
 10
370.2955300437195
 20
266.8676718657577
 30
0.0
 10
369.7227469858158
 20
266.4076431089605
 30
0.0
 10
369.059618007094
 20
265.9861691358152
 30
0.0
 10
368.271520996008
 20
265.5704780384425
 30
0.0
 10
367.4058800348602
 20
265.1934403595805
 30
0.0
 10
366.4241779441093
 20
264.831659612124
 30
0.0
 10
365.3777487308865
 20
264.5092778604474
 30
0.0
 10
364.2312850130211
 20
264.2113800379381
 30
0.0
 10
363.0333376160175
 20
263.9539122805469
 30
0.0
 10
361.7564268993485
 20
263.7284185465668
 30
0.0
 10
360.4420248108316
 20
263.5444227642021
 30
0.0
 10
359.0731760366921
 20
263.3978015305644
 30
0.0
 10
357.6815170773762
 20
263.2935210180806
 30
0.0
 10
356.2621036598133
 20
263.2298657958173
 30
0.0
 10
354.835031885855
 20
263.2090108398384
 30
0.0
 10
353.4079601118781
 20
263.229865794834
 30
0.0
 10
351.9885466942832
 20
263.2935210161427
 30
0.0
 10
350.5968877348532
 20
263.3978015275977
 30
0.0
 10
349.2280389607655
 20
263.5444227605605
 30
0.0
 10
347.9136368715709
 20
263.7284185410666
 30
0.0
 10
346.6367261566717
 20
263.9539122775082
 30
0.0
 10
345.4387787526446
 20
264.2113800222016
 30
0.0
 10
344.2923150577736
 20
264.5092778841628
 30
0.0
 10
343.2458857632674
 20
264.8316594945188
 30
0.0
 10
342.264183938046
 20
265.1934407022932
 30
0.0
 10
341.3985420659178
 20
265.5704768009145
 30
0.0
 10
340.6104479373202
 20
265.9861728979182
 30
0.0
 10
339.9473092588135
 20
266.4076300468288
 30
0.0
 10
339.3745560329907
 20
266.8677105475382
 30
0.0
 10
338.9290218783684
 20
267.3290750478044
 30
0.0
 10
338.5882123112831
 20
267.8271461890373
 30
0.0
 10
338.391033387983
 20
268.3341602401964
 30
0.0
 10
338.3044719847169
 20
268.8606513022713
 30
0.0
 10
338.3709371840395
 20
269.1945858457228
 30
0.0
 10
338.4041697837008
 20
269.3615531174486
 30
0.0
 11
371.335031883915
 21
268.8593260029354
 31
0.0
 11
371.317747408232
 21
268.6082124513486
 31
0.0
 11
371.2658939841291
 21
268.35709889975
 31
0.0
 11
371.0622273538892
 21
267.8357918893967
 31
0.0
 11
370.7545103473872
 21
267.3734149326461
 31
0.0
 11
370.2851500754766
 21
266.8776784006279
 31
0.0
 11
369.7573771279517
 21
266.4498268222322
 31
0.0
 11
369.0537449913578
 21
265.9958032833039
 31
0.0
 11
368.3149011146722
 21
265.6040811065266
 31
0.0
 11
367.4021856786341
 21
265.202293200443
 31
0.0
 11
366.4674419422651
 21
264.8565445001845
 31
0.0
 11
365.3753681135717
 21
264.517445849094
 31
0.0
 11
364.2690948669759
 21
264.2291479885004
 31
0.0
 11
363.0318086652042
 21
263.9615496792684
 31
0.0
 11
361.7854475145783
 21
263.7409253786062
 31
0.0
 11
360.4411090582627
 21
263.5516914003555
 31
0.0
 11
359.0913465549764
 21
263.4068608357037
 31
0.0
 11
357.6810868757921
 21
263.3005744508857
 31
0.0
 11
356.2682828147482
 21
263.2372210719461
 31
0.0
 11
354.8350318858518
 21
263.2159936435994
 31
0.0
 11
353.4017809569408
 21
263.2372210709625
 31
0.0
 11
351.9889768958534
 21
263.3005744489325
 31
0.0
 11
350.5787172165961
 21
263.4068608327825
 31
0.0
 11
349.2289547132103
 21
263.5516913965078
 31
0.0
 11
347.8846162567647
 21
263.7409253738358
 31
0.0
 11
346.6382551059874
 21
263.9615496736425
 31
0.0
 11
345.4009689040319
 21
264.2291479820252
 31
0.0
 11
344.2946956572382
 21
264.5174458418596
 31
0.0
 11
343.2026218283121
 21
264.8565444922006
 31
0.0
 11
342.2678780917058
 21
265.2022931918177
 31
0.0
 11
341.3551626553918
 21
265.6040810972748
 31
0.0
 11
340.6163187784375
 21
265.9958032735451
 31
0.0
 11
339.9126866415321
 21
266.4498268119904
 31
0.0
 11
339.3849136937135
 21
266.8776783900237
 31
0.0
 11
338.9155534214629
 21
267.3734149217197
 31
0.0
 11
338.6078364146434
 21
267.835791878259
 31
0.0
 11
338.4041697840457
 21
268.3570988884727
 31
0.0
 11
338.3350318839151
 21
268.8593260029369
 31
0.0
 11
338.4041697837008
 21
269.3615531174486
 31
0.0
  0
SPLINE
  5
11F
330
3A
100
AcDbEntity
  8
1
  6
Continuous
 62
     7
100
AcDbSpline
210
0.0
220
0.0
230
1.0
 70
     8
 71
     3
 72
     9
 73
     5
 74
     3
 42
0.0000000001
 43
0.0000000001
 44
0.00000001
 40
0.0
 40
0.0
 40
0.0
 40
0.0
 40
0.4939648098174242
 40
0.9822474727222248
 40
0.9822474727222248
 40
0.9822474727222248
 40
0.9822474727222248
 10
338.4041697837008
 20
269.3615531174486
 30
0.0
 10
338.4551391861371
 20
269.5190866178498
 30
0.0
 10
338.5564916827809
 20
269.8323414885672
 30
0.0
 10
338.7410718498401
 20
270.1049484613774
 30
0.0
 10
338.8328280497733
 20
270.2404634535832
 30
0.0
 11
338.4041697837008
 21
269.3615531174486
 31
0.0
 11
338.5781263343864
 21
269.8238737332679
 31
0.0
 11
338.8328280497733
 21
270.2404634535832
 31
0.0
  0
SPLINE
  5
120
330
3A
100
AcDbEntity
  8
1
  6
Continuous
 62
     7
100
AcDbSpline
210
0.0
220
0.0
230
1.0
 70
     8
 71
     3
 72
    45
 73
    41
 74
    39
 42
0.0000000001
 43
0.0000000001
 44
0.00000001
 40
0.0
 40
0.0
 40
0.0
 40
0.0
 40
0.2379364549291076
 40
0.4511330775068403
 40
0.8189362234178694
 40
1.192892304850039
 40
1.733107771993143
 40
2.271468079345773
 40
2.958518187788642
 40
3.645915649316371
 40
4.46303392082695
 40
5.280052488173129
 40
6.202350428265785
 40
7.124655162874544
 40
8.124647906815708
 40
9.124633174169572
 40
10.17221856649919
 40
11.21980254067181
 40
12.28342031102207
 40
13.34703808137246
 40
14.39462205554514
 40
15.4422074478748
 40
16.44219271522864
 40
17.44218545916966
 40
18.3644901937784
 40
19.28678813387111
 40
20.10380670121727
 40
20.92092497272787
 40
21.60832243425579
 40
22.29537254269865
 40
22.83373285005122
 40
23.37394831719421
 40
23.74790439862635
 40
24.11570754453749
 40
24.32890416711526
 40
24.56684062204421
 40
24.68285133657608
 40
24.79886205110799
 40
24.91472561981821
 40
25.02392013376869
 40
25.02392013376869
 40
25.02392013376869
 40
25.02392013376869
 10
342.6472852399891
 20
211.9065950895033
 30
0.0
 10
342.7117658410958
 20
211.953585814297
 30
0.0
 10
342.8340225672686
 20
212.0426813263604
 30
0.0
 10
343.0950940973175
 20
212.1312455223404
 30
0.0
 10
343.4076814206426
 20
212.1899277746447
 30
0.0
 10
343.8262589185996
 20
212.2765645184558
 30
0.0
 10
344.303900415042
 20
212.3565751531337
 30
0.0
 10
344.8873718742022
 20
212.4342474227298
 30
0.0
 10
345.5213993978987
 20
212.5020991942756
 30
0.0
 10
346.2487746770742
 20
212.5700031717572
 30
0.0
 10
347.0203058000615
 20
212.6301993832377
 30
0.0
 10
347.8706388856746
 20
212.6859922421292
 30
0.0
 10
348.7565723735301
 20
212.7338562800374
 30
0.0
 10
349.7038474554269
 20
212.7759737510484
 30
0.0
 10
350.6773553822616
 20
212.8101572159052
 30
0.0
 10
351.6928567000419
 20
212.8373499431364
 30
0.0
 10
352.7244084258431
 20
212.8564958446357
 30
0.0
 10
353.7772846576615
 20
212.8680021279347
 30
0.0
 10
354.8355625109565
 20
212.8714043862603
 30
0.0
 10
355.8938364647664
 20
212.8669514272909
 30
0.0
 10
356.946700753709
 20
212.8543998095565
 30
0.0
 10
357.9782329623455
 20
212.8342297521621
 30
0.0
 10
358.9937067811711
 20
212.806028798004
 30
0.0
 10
359.9671802907628
 20
212.7708788402436
 30
0.0
 10
360.9144130851684
 20
212.7278207935529
 30
0.0
 10
361.8002986312793
 20
212.6790775479173
 30
0.0
 10
362.6505758500084
 20
212.62243927091
 30
0.0
 10
363.4220470142978
 20
212.5614812085008
 30
0.0
 10
364.1493539242952
 20
212.4928420028029
 30
0.0
 10
364.783315742211
 20
212.4244043503103
 30
0.0
 10
365.3667039241838
 20
212.3460230944918
 30
0.0
 10
365.8442843850116
 20
212.2659499441879
 30
0.0
 10
366.2627261577433
 20
212.177804259715
 30
0.0
 10
366.5753977561285
 20
212.1219634360399
 30
0.0
 10
366.8360443194202
 20
212.0256984988891
 30
0.0
 10
366.9906294429271
 20
211.9356460824382
 30
0.0
 10
367.1158260327762
 20
211.7969970046448
 30
0.0
 10
367.0226614589028
 20
211.6908899658347
 30
0.0
 10
366.9322417647896
 20
211.6312743243753
 30
0.0
 10
366.8667886623204
 20
211.5931966838929
 30
0.0
 10
366.835031883687
 20
211.5747220332796
 30
0.0
 11
342.6472852399891
 21
211.9065950895033
 31
0.0
 11
342.8467248543236
 21
212.0363548552952
 31
0.0
 11
343.0464745078261
 21
212.1108724760582
 31
0.0
 11
343.4055175025827
 21
212.1906677269085
 31
0.0
 11
343.7723290512777
 21
212.2634168752477
 31
0.0
 11
344.3049508909061
 21
212.3536760957822
 31
0.0
 11
344.8384727820953
 21
212.4256914563288
 31
0.0
 11
345.5214330489336
 21
212.5005454838198
 31
0.0
 11
346.2058586006573
 21
212.5643963590084
 31
0.0
 11
347.0204565520054
 21
212.6285247247751
 31
0.0
 11
347.8357087368897
 21
212.6822202965646
 31
0.0
 11
348.7566410780069
 21
212.7323911385307
 31
0.0
 11
349.6780315312553
 21
212.7734478815141
 31
0.0
 11
350.6774002522057
 21
212.8087699358286
 31
0.0
 11
351.6770258306475
 21
212.8355885459657
 31
0.0
 11
352.7244283151922
 21
212.8551637750061
 31
0.0
 11
353.7719497846513
 21
212.86660728695
 31
0.0
 11
354.83556185776
 21
212.8700885715084
 31
0.0
 11
355.8991699502844
 21
212.865551290184
 31
0.0
 11
356.9466795418577
 21
212.8530677608216
 31
0.0
 11
357.994062075067
 21
212.832452636504
 31
0.0
 11
358.9936605341897
 21
212.8046415695671
 31
0.0
 11
359.992993693373
 21
212.7683273176627
 31
0.0
 11
360.9143429296491
 21
212.7263557999964
 31
0.0
 11
361.8352250051617
 21
212.6752706426723
 31
0.0
 11
362.6504234770287
 21
212.6207656809343
 31
0.0
 11
363.4649573575685
 21
212.5558285799114
 31
0.0
 11
364.1493191781461
 21
212.4912982099241
 31
0.0
 11
364.8322047901711
 21
212.4157661478534
 31
0.0
 11
365.3656549185474
 21
212.3432211199877
 31
0.0
 11
365.8981868825404
 21
212.2524331347348
 31
0.0
 11
366.2649260220535
 21
212.1793198364281
 31
0.0
 11
366.6238896157923
 21
212.0991681520277
 31
0.0
 11
366.8235651866391
 21
212.0244522481946
 31
0.0
 11
367.0228758717619
 21
211.8944945343796
 31
0.0
 11
367.0848394324509
 21
211.7964180181643
 31
0.0
 11
367.0227785278409
 21
211.6984030702982
 31
0.0
 11
366.9289395526719
 21
211.6304426899763
 31
0.0
 11
366.835031883687
 21
211.5747220332796
 31
0.0
  0
SPLINE
  5
121
330
3A
100
AcDbEntity
  8
1
  6
Continuous
 62
     7
100
AcDbSpline
210
0.0
220
0.0
230
1.0
 70
     8
 71
     3
 72
    11
 73
     7
 74
     5
 42
0.0000000001
 43
0.0000000001
 44
0.00000001
 40
0.0
 40
0.0
 40
0.0
 40
0.0
 40
0.1093116807006922
 40
0.2253069501979646
 40
0.3413176647298122
 40
0.4573283792615676
 40
0.4573283792615676
 40
0.4573283792615676
 40
0.4573283792615676
 10
342.8350318837188
 20
211.586519719711
 30
0.0
 10
342.8032545254755
 20
211.6050681040096
 30
0.0
 10
342.7377568620489
 20
211.6432989670852
 30
0.0
 10
342.6473485903736
 20
211.7025832532467
 30
0.0
 10
342.5541770117358
 20
211.8105768249612
 30
0.0
 10
342.6162491639047
 20
211.8745890013227
 30
0.0
 10
342.6472852399891
 20
211.9065950895033
 30
0.0
 11
342.8350318837188
 21
211.586519719711
 31
0.0
 11
342.741069372078
 21
211.6423774850061
 31
0.0
 11
342.6471878960682
 21
211.710503625422
 31
0.0
 11
342.5852243353792
 21
211.8085801416373
 31
0.0
 11
342.6472852399891
 21
211.9065950895033
 31
0.0
  0
SPLINE
  5
122
330
3A
100
AcDbEntity
  8
1
  6
Continuous
 62
     7
100
AcDbSpline
210
0.0
220
0.0
230
1.0
 70
     8
 71
     3
 72
    21
 73
    17
 74
    15
 42
0.0000000001
 43
0.0000000001
 44
0.00000001
 40
0.0
 40
0.0
 40
0.0
 40
0.0
 40
0.4096241776838856
 40
0.8198428147198972
 40
2.247078725808983
 40
3.674249768832027
 40
5.108524597579395
 40
6.542765781098524
 40
7.979465949078453
 40
9.416166117058459
 40
10.85040730057754
 40
12.28468212932491
 40
13.71185317234791
 40
15.13908908343706
 40
15.45711840488199
 40
15.77475760794689
 40
15.77475760794689
 40
15.77475760794689
 40
15.77475760794689
 10
172.2010665932066
 20
428.8810824641728
 30
0.0
 10
172.1410952669861
 20
429.0037577081302
 30
0.0
 10
172.0210655822907
 20
429.2492862261764
 30
0.0
 10
171.7129642408615
 20
429.932091683663
 30
0.0
 10
171.3167456697566
 20
430.9470807315827
 30
0.0
 10
170.910555096572
 20
432.3194091414235
 30
0.0
 10
170.6178398132823
 20
433.7227276419806
 30
0.0
 10
170.4416154973866
 20
435.1485675553753
 30
0.0
 10
170.3824699234061
 20
436.5848430207728
 30
0.0
 10
170.4416151025476
 20
438.0211190398659
 30
0.0
 10
170.6178413894788
 20
439.4469572950042
 30
0.0
 10
170.9105491976659
 20
440.85028186373
 30
0.0
 10
171.3167675713586
 20
442.2225877633847
 30
0.0
 10
171.7017205752291
 20
443.2089768524123
 30
0.0
 10
171.9830343924553
 20
443.8364707028726
 30
0.0
 10
172.074304417231
 20
444.027704480397
 30
0.0
 10
172.1199114227939
 20
444.1232626877799
 30
0.0
 11
172.2010665932066
 21
428.8810824641728
 31
0.0
 11
172.023054712986
 21
429.2500048644733
 31
0.0
 11
171.8538514064943
 21
429.6237020296271
 31
0.0
 11
171.3357597241434
 21
430.9535829846682
 31
0.0
 11
170.9301412021212
 21
432.3218997610895
 31
0.0
 11
170.6373502865803
 21
433.7259716125826
 31
0.0
 11
170.4612068150385
 21
435.149355345079
 31
0.0
 11
170.4021963031562
 21
436.584843113108
 31
0.0
 11
170.4612068150349
 21
438.0203308811373
 31
0.0
 11
170.6373502865731
 21
439.4437146136341
 31
0.0
 11
170.9301412021104
 21
440.8477864651279
 31
0.0
 11
171.3357597241292
 21
442.2161032415502
 31
0.0
 11
171.8538514064766
 21
443.5459841965927
 31
0.0
 11
171.9842353201635
 21
443.8360577809647
 31
0.0
 11
172.1199114227939
 21
444.1232626877799
 31
0.0
  0
ARC
  5
123
102
{ACAD_REACTORS
330
12B
330
12B
102
}
330
3A
100
AcDbEntity
  8
1
  6
Continuous
 62
     7
100
AcDbCircle
 10
126.2542069556896
 20
266.3593260035995
 30
0.0
 40
2.5
100
AcDbArc
 50
180.0
 51
-90.0
  0
ARC
  5
124
330
3A
100
AcDbEntity
  8
1
  6
Continuous
 62
     7
100
AcDbCircle
 10
167.5273024378914
 20
268.8593260035995
 30
0.0
 40
5.0
100
AcDbArc
 50
-90.0
 51
-19.99999999999959
  0
ARC
  5
125
330
3A
100
AcDbEntity
  8
1
  6
Continuous
 62
     7
100
AcDbCircle
 10
368.835031883915
 20
212.8050844962513
 30
0.0
 40
2.500000000000021
100
AcDbArc
 50
-21.4906696950426
 51
0.0
  0
ARC
  5
126
330
3A
100
AcDbEntity
  8
1
  6
Continuous
 62
     7
100
AcDbCircle
 10
340.835031883915
 20
212.8050844962513
 30
0.0
 40
2.500000000000008
100
AcDbArc
 50
-158.5093303028957
 51
-90.0
  0
ARC
  5
127
330
3A
100
AcDbEntity
  8
1
  6
Continuous
 62
     7
100
AcDbCircle
 10
368.835031883915
 20
212.8050844962513
 30
0.0
 40
2.5
100
AcDbArc
 50
-90.0
 51
-21.4906696950426
  0
ARC
  5
128
330
3A
100
AcDbEntity
  8
1
  6
Continuous
 62
     7
100
AcDbCircle
 10
340.835031883915
 20
212.8050844962513
 30
0.0
 40
2.5
100
AcDbArc
 50
180.0
 51
-158.5093303028957
  0
ARC
  5
129
330
3A
100
AcDbEntity
  8
1
  6
Continuous
 62
     7
100
AcDbCircle
 10
118.4071245461237
 20
414.584843113128
 30
0.0
 40
1.0
100
AcDbArc
 50
-90.0
 51
0.0
  0
ARC
  5
12A
330
3A
100
AcDbEntity
  8
1
  6
Continuous
 62
     7
100
AcDbCircle
 10
118.4071245461237
 20
458.584843113128
 30
0.0
 40
1.0
100
AcDbArc
 50
0.0
 51
90.0
  0
HATCH
  5
12B
330
3A
100
AcDbEntity
  8
1
  6
Continuous
 62
     2
100
AcDbHatch
 10
0.0
 20
0.0
 30
0.0
210
0.0
220
0.0
230
1.0
  2
CUSTOM0
 70
     0
 71
     1
 91
        1
 92
        1
 93
        3
 72
     1
 10
126.2542069556896
 20
263.8593260035995
 11
123.7542069556896
 21
263.8593260035995
 72
     1
 10
123.7542069556896
 20
263.8593260035995
 11
123.7542069556896
 21
266.3593260035995
 72
     2
 10
126.2542069556896
 20
266.3593260035995
 40
2.5
 50
180.0
 51
270.0
 73
     1
 97
        3
330
65
330
64
330
123
 75
     1
 76
     2
 52
45.0
 41
1.0
 77
     0
 78
     1
 53
45.0
 43
0.0
 44
0.0
 45
-2.82842712474619
 46
0.0000000000000002
 79
     0
 98
        1
 10
0.0
 20
0.0
  0
ENDBLK
  5
3C
330
3A
100
AcDbEntity
  8
0
100
AcDbBlockEnd
  0
BLOCK
  5
3E
330
3D
100
AcDbEntity
  8
0
100
AcDbBlockBegin
  2
30-205
 70
     0
 71
     0
 10
318.9343598562455
 20
72.9816385649256
 30
0.0
  3
30-205
  1

  0
LINE
  5
12C
330
3D
100
AcDbEntity
  8
1
  6
Continuous
 62
     7
100
AcDbLine
 10
194.4527881690415
 20
210.756630164578
 30
0.0
 11
194.7229709715593
 21
207.6684266004909
 31
0.0
  0
LINE
  5
12D
330
3D
100
AcDbEntity
  8
1
  6
Continuous
 62
     7
100
AcDbLine
 10
217.6354490276694
 20
209.6730086836869
 30
0.0
 11
218.6316437257613
 21
209.7601644264348
 31
0.0
  0
LINE
  5
12E
330
3D
100
AcDbEntity
  8
1
  6
Continuous
 62
     7
100
AcDbLine
 10
217.6354490276694
 20
209.6730086836869
 30
0.0
 11
218.0712277414077
 21
204.6920351932283
 31
0.0
  0
LINE
  5
12F
330
3D
100
AcDbEntity
  8
1
  6
Continuous
 62
     7
100
AcDbLine
 10
218.6316437257613
 20
209.7601644264348
 30
0.0
 11
218.3614609232336
 21
212.8483679906331
 31
0.0
  0
LINE
  5
130
330
3D
100
AcDbEntity
  8
1
  6
Continuous
 62
     7
100
AcDbLine
 10
217.2244622480298
 20
204.6179528118928
 30
0.0
 11
218.0712277414077
 21
204.6920351932283
 31
0.0
  0
LINE
  5
131
330
3D
100
AcDbEntity
  8
1
  6
Continuous
 62
     7
100
AcDbLine
 10
196.1549443833894
 20
202.7746088527798
 30
0.0
 11
197.0017098767673
 21
202.8486912341156
 31
0.0
  0
LINE
  5
132
330
3D
100
AcDbEntity
  8
1
  6
Continuous
 62
     7
100
AcDbLine
 10
207.1130860623985
 20
203.7333220230041
 30
0.0
 11
217.2244622480298
 21
204.6179528118928
 31
0.0
  0
LINE
  5
133
330
3D
100
AcDbEntity
  8
1
  6
Continuous
 62
     7
100
AcDbLine
 10
196.1549443833894
 20
202.7746088527798
 30
0.0
 11
195.7191656696512
 21
207.7555823432385
 31
0.0
  0
LINE
  5
134
330
3D
100
AcDbEntity
  8
1
  6
Continuous
 62
     7
100
AcDbLine
 10
194.7229709715593
 20
207.6684266004909
 30
0.0
 11
217.6354490276694
 21
209.6730086836869
 31
0.0
  0
LINE
  5
135
330
3D
100
AcDbEntity
  8
1
  6
PHANTOM
 62
     4
100
AcDbLine
 10
207.1130860623985
 20
203.7333220230041
 30
0.0
 11
206.1543728921743
 21
214.6914637020134
 31
0.0
  0
LINE
  5
136
330
3D
100
AcDbEntity
  8
2
  6
Continuous
 62
     7
100
AcDbLine
 10
365.835031883702
 20
203.7279692508457
 30
0.0
 11
365.835031883702
 21
208.7152261892647
 31
0.0
  0
LINE
  5
137
330
3D
100
AcDbEntity
  8
2
  6
Continuous
 62
     7
100
AcDbLine
 10
363.3355622235674
 20
203.8766712195093
 30
0.0
 11
363.9669895790535
 21
204.1144847834702
 31
0.0
  0
LINE
  5
138
330
3D
100
AcDbEntity
  8
2
  6
Continuous
 62
     7
100
AcDbLine
 10
358.262859183702
 20
212.8284365056852
 30
0.0
 11
358.262859183702
 21
209.7175172356851
 31
0.0
  0
LINE
  5
139
330
3D
100
AcDbEntity
  8
1
  6
PHANTOM
 62
     4
100
AcDbLine
 10
354.835031883702
 20
202.7746088527803
 30
0.0
 11
354.835031883702
 21
212.8777135472791
 31
0.0
  0
LINE
  5
13A
330
3D
100
AcDbEntity
  8
2
  6
Continuous
 62
     7
100
AcDbLine
 10
351.407204583702
 20
209.7175172356851
 30
0.0
 11
351.407204583702
 21
212.8284365056852
 31
0.0
  0
LINE
  5
13B
330
3D
100
AcDbEntity
  8
2
  6
Continuous
 62
     7
100
AcDbLine
 10
345.7030741883505
 20
204.1144847834702
 30
0.0
 11
346.3345015438367
 21
203.8766712195093
 31
0.0
  0
LINE
  5
13C
330
3D
100
AcDbEntity
  8
2
  6
Continuous
 62
     7
100
AcDbLine
 10
351.407204583702
 20
209.7175172356851
 30
0.0
 11
358.262859183702
 21
209.7175172356851
 31
0.0
  0
LINE
  5
13D
330
3D
100
AcDbEntity
  8
2
  6
Continuous
 62
     7
100
AcDbLine
 10
343.835031883702
 20
208.7152261892647
 30
0.0
 11
343.835031883702
 21
203.7279692508457
 31
0.0
  0
LINE
  5
13E
330
3D
100
AcDbEntity
  8
2
  6
Continuous
 62
     7
100
AcDbLine
 10
342.835031883702
 20
212.0302761262892
 30
0.0
 11
342.835031883702
 21
208.7468514105444
 31
0.0
  0
LINE
  5
13F
330
3D
100
AcDbEntity
  8
1
  6
Continuous
 62
     7
100
AcDbLine
 10
197.0017098767673
 20
202.8486912341156
 30
0.0
 11
207.1130860623985
 21
203.7333220230041
 31
0.0
  0
LINE
  5
140
330
3D
100
AcDbEntity
  8
2
  6
Continuous
 62
     7
100
AcDbLine
 10
366.835031883702
 20
208.7468514105444
 30
0.0
 11
366.835031883702
 21
212.0184784403072
 31
0.0
  0
ARC
  5
141
330
3D
100
AcDbEntity
  8
2
  6
Continuous
 62
     7
100
AcDbCircle
 10
354.9255314437019
 20
315.9701128356851
 30
0.0
 40
113.19554016
100
AcDbArc
 50
-90.04580784172994
 51
-87.2773587725995
  0
ARC
  5
142
330
3D
100
AcDbEntity
  8
2
  6
Continuous
 62
     7
100
AcDbCircle
 10
354.927613043702
 20
304.5715293756853
 30
0.0
 40
101.7251981600006
100
AcDbArc
 50
-90.05214549156614
 51
-87.89131926801751
  0
ARC
  5
143
330
3D
100
AcDbEntity
  8
2
  6
Continuous
 62
     7
100
AcDbCircle
 10
355.388257253702
 20
270.4763568456853
 30
0.0
 40
67.20377783000004
100
AcDbArc
 50
-90.47166748999945
 51
-84.50857842307255
  0
ARC
  5
144
330
3D
100
AcDbEntity
  8
2
  6
Continuous
 62
     7
100
AcDbCircle
 10
355.350055843702
 20
270.7008579156852
 30
0.0
 40
66.81283884999984
100
AcDbArc
 50
-90.44166648999925
 51
-84.68992791367832
  0
ARC
  5
145
330
3D
100
AcDbEntity
  8
2
  6
Continuous
 62
     7
100
AcDbCircle
 10
354.9804318837018
 20
111.8999286656852
 30
0.0
 40
92.72352073999981
100
AcDbArc
 50
85.23298206425227
 51
90.08984570138055
  0
ARC
  5
146
330
3D
100
AcDbEntity
  8
2
  6
Continuous
 62
     7
100
AcDbCircle
 10
354.899625123702
 20
101.0814014256853
 30
0.0
 40
103.6168424999995
100
AcDbArc
 50
85.67063056026711
 51
90.0357173620377
  0
ARC
  5
147
330
3D
100
AcDbEntity
  8
2
  6
Continuous
 62
     7
100
AcDbCircle
 10
354.899625123702
 20
106.0623749256852
 30
0.0
 40
103.6168424999998
100
AcDbArc
 50
85.67062989841473
 51
90.0357173620377
  0
ARC
  5
148
330
3D
100
AcDbEntity
  8
2
  6
Continuous
 62
     7
100
AcDbCircle
 10
357.055371173702
 20
139.5544520856852
 30
0.0
 40
70.17345465999976
100
AcDbArc
 50
83.72360532340095
 51
89.01405194229901
  0
ARC
  5
149
330
3D
100
AcDbEntity
  8
2
  6
Continuous
 62
     7
100
AcDbCircle
 10
363.642159203702
 20
198.8900330156852
 30
0.0
 40
10.47360162999977
100
AcDbArc
 50
72.90278247347172
 51
84.05433620028177
  0
ARC
  5
14A
330
3D
100
AcDbEntity
  8
2
  6
Continuous
 62
     7
100
AcDbCircle
 10
365.6416957137021
 20
210.3891970256852
 30
0.0
 40
2.100870049999857
100
AcDbArc
 50
-84.71978663001106
 51
-57.84867341131063
  0
ARC
  5
14B
330
3D
100
AcDbEntity
  8
2
  6
Continuous
 62
     7
100
AcDbCircle
 10
361.584271613702
 20
192.4903154256851
 30
0.0
 40
16.93148335000004
100
AcDbArc
 50
77.21090685795987
 51
86.14824184415366
  0
ARC
  5
14C
330
3D
100
AcDbEntity
  8
2
  6
Continuous
 62
     7
100
AcDbCircle
 10
365.1260016137019
 20
207.9251649956852
 30
0.0
 40
1.096171709999669
100
AcDbArc
 50
53.89388202528016
 51
79.15372671583093
  0
ARC
  5
14D
330
3D
100
AcDbEntity
  8
2
  6
Continuous
 62
     7
100
AcDbCircle
 10
365.720938183702
 20
208.7085201356852
 30
0.0
 40
0.114290610000577
100
AcDbArc
 50
3.36378798305063
 51
63.48758696112802
  0
ARC
  5
14E
330
3D
100
AcDbEntity
  8
2
  6
Continuous
 62
     7
100
AcDbCircle
 10
361.584271613702
 20
187.5093419356851
 30
0.0
 40
16.93148334999994
100
AcDbArc
 50
77.21090685796473
 51
86.14824589212638
  0
ARC
  5
14F
330
3D
100
AcDbEntity
  8
2
  6
Continuous
 62
     7
100
AcDbCircle
 10
365.1260016137019
 20
202.9441915056852
 30
0.0
 40
1.096171709999842
100
AcDbArc
 50
51.6747888737611
 51
79.15372671590583
  0
ARC
  5
150
330
3D
100
AcDbEntity
  8
2
  6
Continuous
 62
     7
100
AcDbCircle
 10
364.4663180237019
 20
206.1425947056853
 30
0.0
 40
2.834247080000017
100
AcDbArc
 50
-83.29830240394917
 51
-62.26245816641917
  0
ARC
  5
151
330
3D
100
AcDbEntity
  8
2
  6
Continuous
 62
     7
100
AcDbCircle
 10
358.996974883702
 20
240.6557213956851
 30
0.0
 40
37.77593594999934
100
AcDbArc
 50
-88.01955290268646
 51
-81.16789519131584
  0
ARC
  5
152
330
3D
100
AcDbEntity
  8
2
  6
Continuous
 62
     7
100
AcDbCircle
 10
361.412573683702
 20
191.1838874456852
 30
0.0
 40
13.18049270999984
100
AcDbArc
 50
75.83781284236598
 51
84.45511207087586
  0
ARC
  5
153
330
3D
100
AcDbEntity
  8
2
  6
Continuous
 62
     7
100
AcDbCircle
 10
364.8331093637019
 20
203.7439910656852
 30
0.0
 40
0.1492360100000491
100
AcDbArc
 50
-54.90924837895875
 51
-12.90791697286043
  0
ARC
  5
154
330
3D
100
AcDbEntity
  8
2
  6
Continuous
 62
     7
100
AcDbCircle
 10
363.3864926537019
 20
207.0734111156851
 30
0.0
 40
3.776419479999619
100
AcDbArc
 50
-80.58479672027139
 51
-66.05976911474485
  0
ARC
  5
155
330
3D
100
AcDbEntity
  8
2
  6
Continuous
 62
     7
100
AcDbCircle
 10
357.671012053702
 20
248.3310337856852
 30
0.0
 40
45.42681642000005
100
AcDbArc
 50
-88.7391372161707
 51
-81.98590578369353
  0
ARC
  5
156
330
3D
100
AcDbEntity
  8
2
  6
Continuous
 62
     7
100
AcDbCircle
 10
359.9614854637021
 20
218.8550536056853
 30
0.0
 40
14.76420969000015
100
AcDbArc
 50
-83.88867658106256
 51
-79.98723563938724
  0
ARC
  5
157
330
3D
100
AcDbEntity
  8
2
  6
Continuous
 62
     7
100
AcDbCircle
 10
361.3170252337022
 20
210.1924029156851
 30
0.0
 40
6.630456879999718
100
AcDbArc
 50
-85.65433173164226
 51
-72.27588040475456
  0
ARC
  5
158
330
3D
100
AcDbEntity
  8
1
  6
Continuous
 62
     7
100
AcDbCircle
 10
364.441678363067
 20
203.1881002305354
 30
0.0
 40
0.7999999999937827
100
AcDbArc
 50
51.11591182373563
 51
75.8378128423676
  0
ARC
  5
159
330
3D
100
AcDbEntity
  8
1
  6
Continuous
 62
     7
100
AcDbCircle
 10
365.7212728772286
 20
203.7279692508457
 30
0.0
 40
0.1137590063468434
100
AcDbArc
 50
-55.66331489416216
 51
42.03610263512163
  0
ARC
  5
15A
330
3D
100
AcDbEntity
  8
1
  6
Continuous
 62
     7
100
AcDbCircle
 10
366.6739885115253
 20
208.7468514105444
 30
0.0
 40
0.1610433721731333
100
AcDbArc
 50
-57.84867341129603
 51
72.90278247349376
  0
ARC
  5
15B
330
3D
100
AcDbEntity
  8
1
  6
Continuous
 62
     7
100
AcDbCircle
 10
342.9960752558789
 20
208.7468514105444
 30
0.0
 40
0.1610433721759222
100
AcDbArc
 50
107.0972175265062
 51
180.0
  0
ARC
  5
15C
330
3D
100
AcDbEntity
  8
1
  6
Continuous
 62
     7
100
AcDbCircle
 10
343.9487908901756
 20
203.7279692508457
 30
0.0
 40
0.113759006346652
100
AcDbArc
 50
137.9638973648784
 51
-124.3366851058851
  0
ARC
  5
15D
330
3D
100
AcDbEntity
  8
1
  6
Continuous
 62
     7
100
AcDbCircle
 10
345.2283854043371
 20
203.1881002305354
 30
0.0
 40
0.7999999999938244
100
AcDbArc
 50
104.1621871576324
 51
128.8840881762739
  0
ARC
  5
15E
330
3D
100
AcDbEntity
  8
2
  6
Continuous
 62
     7
100
AcDbCircle
 10
354.2818065137021
 20
270.4763568456853
 30
0.0
 40
67.20377782999969
100
AcDbArc
 50
-95.49142157692752
 51
-89.52833251000075
  0
ARC
  5
15F
330
3D
100
AcDbEntity
  8
2
  6
Continuous
 62
     7
100
AcDbCircle
 10
348.3530385337019
 20
210.1924029156851
 30
0.0
 40
6.630456879999591
100
AcDbArc
 50
-107.7241195952454
 51
-94.34566826835824
  0
ARC
  5
160
330
3D
100
AcDbEntity
  8
2
  6
Continuous
 62
     7
100
AcDbCircle
 10
349.7085783037019
 20
218.8550536056853
 30
0.0
 40
14.76420969000014
100
AcDbArc
 50
-100.0127643606121
 51
-96.1113234189379
  0
ARC
  5
161
330
3D
100
AcDbEntity
  8
2
  6
Continuous
 62
     7
100
AcDbCircle
 10
354.320007923702
 20
270.7008579156852
 30
0.0
 40
66.81283885000039
100
AcDbArc
 50
-95.31007208632178
 51
-89.55833351000075
  0
ARC
  5
162
330
3D
100
AcDbEntity
  8
2
  6
Continuous
 62
     7
100
AcDbCircle
 10
354.742450723702
 20
304.5715293756853
 30
0.0
 40
101.7251981600006
100
AcDbArc
 50
-92.1086807319824
 51
-89.94785450843388
  0
ARC
  5
163
330
3D
100
AcDbEntity
  8
2
  6
Continuous
 62
     7
100
AcDbCircle
 10
351.9990517137021
 20
248.3310337856852
 30
0.0
 40
45.42681642000006
100
AcDbArc
 50
-98.01409421630649
 51
-91.26086278382917
  0
ARC
  5
164
330
3D
100
AcDbEntity
  8
2
  6
Continuous
 62
     7
100
AcDbCircle
 10
346.283571113702
 20
207.0734111156851
 30
0.0
 40
3.776419479999627
100
AcDbArc
 50
-113.9402308852512
 51
-99.41520327972607
  0
ARC
  5
165
330
3D
100
AcDbEntity
  8
2
  6
Continuous
 62
     7
100
AcDbCircle
 10
344.8369544037021
 20
203.7439910656852
 30
0.0
 40
0.1492360099999929
100
AcDbArc
 50
-167.0920830271396
 51
-125.0907516209877
  0
ARC
  5
166
330
3D
100
AcDbEntity
  8
2
  6
Continuous
 62
     7
100
AcDbCircle
 10
348.2574900837021
 20
191.1838874456852
 30
0.0
 40
13.18049270999969
100
AcDbArc
 50
95.5448879291239
 51
104.1621871576343
  0
ARC
  5
167
330
3D
100
AcDbEntity
  8
2
  6
Continuous
 62
     7
100
AcDbCircle
 10
354.6896318837021
 20
111.8999286656852
 30
0.0
 40
92.72352073999984
100
AcDbArc
 50
89.91015429861935
 51
94.76701793574753
  0
ARC
  5
168
330
3D
100
AcDbEntity
  8
2
  6
Continuous
 62
     7
100
AcDbCircle
 10
354.7445323237021
 20
315.9701128356851
 30
0.0
 40
113.1955401600001
100
AcDbArc
 50
-92.7226412274005
 51
-89.95419215827008
  0
ARC
  5
169
330
3D
100
AcDbEntity
  8
2
  6
Continuous
 62
     7
100
AcDbCircle
 10
350.6730888837021
 20
240.6557213956851
 30
0.0
 40
37.77593594999935
100
AcDbArc
 50
-98.83210480868409
 51
-91.98044709731371
  0
ARC
  5
16A
330
3D
100
AcDbEntity
  8
2
  6
Continuous
 62
     7
100
AcDbCircle
 10
345.203745743702
 20
206.1425947056853
 30
0.0
 40
2.834247080000126
100
AcDbArc
 50
-117.7375418335768
 51
-96.70169759604399
  0
ARC
  5
16B
330
3D
100
AcDbEntity
  8
2
  6
Continuous
 62
     7
100
AcDbCircle
 10
344.544062153702
 20
202.9441915056852
 30
0.0
 40
1.096171709999687
100
AcDbArc
 50
100.8462732840913
 51
128.3252111262249
  0
ARC
  5
16C
330
3D
100
AcDbEntity
  8
2
  6
Continuous
 62
     7
100
AcDbCircle
 10
348.085792153702
 20
187.5093419356851
 30
0.0
 40
16.93148334999987
100
AcDbArc
 50
93.85175410787305
 51
102.7890931420357
  0
ARC
  5
16D
330
3D
100
AcDbEntity
  8
2
  6
Continuous
 62
     7
100
AcDbCircle
 10
354.7704386437019
 20
101.0814014256853
 30
0.0
 40
103.6168424999996
100
AcDbArc
 50
89.96428263796221
 51
94.32936943973272
  0
ARC
  5
16E
330
3D
100
AcDbEntity
  8
2
  6
Continuous
 62
     7
100
AcDbCircle
 10
343.949125583702
 20
208.7085201356852
 30
0.0
 40
0.1142906100004912
100
AcDbArc
 50
116.512413038923
 51
176.6362120169494
  0
ARC
  5
16F
330
3D
100
AcDbEntity
  8
2
  6
Continuous
 62
     7
100
AcDbCircle
 10
344.544062153702
 20
207.9251649956852
 30
0.0
 40
1.096171709999738
100
AcDbArc
 50
100.8462732841603
 51
126.1061179747175
  0
ARC
  5
170
330
3D
100
AcDbEntity
  8
2
  6
Continuous
 62
     7
100
AcDbCircle
 10
348.085792153702
 20
192.4903154256851
 30
0.0
 40
16.93148335000007
100
AcDbArc
 50
93.85175815584636
 51
102.7890931420401
  0
ARC
  5
171
330
3D
100
AcDbEntity
  8
2
  6
Continuous
 62
     7
100
AcDbCircle
 10
354.7704386437019
 20
106.0623749256852
 30
0.0
 40
103.6168424999997
100
AcDbArc
 50
89.96428263796221
 51
94.32937010158518
  0
ARC
  5
172
330
3D
100
AcDbEntity
  8
2
  6
Continuous
 62
     7
100
AcDbCircle
 10
344.028368053702
 20
210.3891970256852
 30
0.0
 40
2.100870050000236
100
AcDbArc
 50
-122.1513265886881
 51
-95.28021336999512
  0
ARC
  5
173
330
3D
100
AcDbEntity
  8
2
  6
Continuous
 62
     7
100
AcDbCircle
 10
346.0279045637021
 20
198.8900330156852
 30
0.0
 40
10.47360162999986
100
AcDbArc
 50
95.94566379971886
 51
107.097217526528
  0
ARC
  5
174
330
3D
100
AcDbEntity
  8
2
  6
Continuous
 62
     7
100
AcDbCircle
 10
352.6146925937019
 20
139.5544520856852
 30
0.0
 40
70.17345465999976
100
AcDbArc
 50
90.98594805770087
 51
96.27639467659893
  0
ARC
  5
175
330
3D
100
AcDbEntity
  8
1
  6
Continuous
 62
     7
100
AcDbCircle
 10
342.9960752558789
 20
208.7468514105444
 30
0.0
 40
0.1610433721768914
100
AcDbArc
 50
180.0
 51
-122.151326588704
  0
ARC
  5
176
330
3D
100
AcDbEntity
  8
1
  6
Continuous
 62
     7
100
AcDbCircle
 10
364.8811011963119
 20
203.7329924892567
 30
0.0
 40
0.1000000000000272
100
AcDbArc
 50
-12.90791697286396
 51
51.11591182376911
  0
ARC
  5
177
330
3D
100
AcDbEntity
  8
1
  6
Continuous
 62
     7
100
AcDbCircle
 10
344.7889625710923
 20
203.7329924892567
 30
0.0
 40
0.1000000000001528
100
AcDbArc
 50
128.8840881763577
 51
-167.0920830271579
  0
ENDBLK
  5
3F
330
3D
100
AcDbEntity
  8
0
100
AcDbBlockEnd
  0
BLOCK
  5
41
330
40
100
AcDbEntity
  8
0
100
AcDbBlockBegin
  2
_J__A4
 70
     0
 71
     0
 10
0.0
 20
0.0
 30
0.0
  3
_J__A4
  1

  0
POINT
  5
178
330
40
100
AcDbEntity
  8
1
 62
     4
100
AcDbPoint
 10
34.0
 20
34.00000000000001
 30
0.0
  0
POINT
  5
179
330
40
100
AcDbEntity
  8
1
 62
     4
100
AcDbPoint
 10
57.0
 20
12.25
 30
0.0
  0
POINT
  5
17A
330
40
100
AcDbEntity
  8
1
 62
     4
100
AcDbPoint
 10
57.0
 20
20.75000000000001
 30
0.0
  0
POINT
  5
17B
330
40
100
AcDbEntity
  8
1
 62
     4
100
AcDbPoint
 10
57.0
 20
24.75000000000001
 30
0.0
  0
POINT
  5
17C
330
40
100
AcDbEntity
  8
1
 62
     4
100
AcDbPoint
 10
57.0
 20
16.25
 30
0.0
  0
POINT
  5
17D
330
40
100
AcDbEntity
  8
1
 62
     4
100
AcDbPoint
 10
157.5
 20
19.00000000000001
 30
0.0
  0
POINT
  5
17E
330
40
100
AcDbEntity
  8
1
 62
     4
100
AcDbPoint
 10
47.5
 20
282.0000000000003
 30
0.0
  0
POINT
  5
17F
330
40
100
AcDbEntity
  8
1
 62
     4
100
AcDbPoint
 10
57.0
 20
22.75000000000001
 30
0.0
  0
POINT
  5
180
330
40
100
AcDbEntity
  8
1
 62
     4
100
AcDbPoint
 10
57.0
 20
14.25
 30
0.0
  0
POINT
  5
181
330
40
100
AcDbEntity
  8
1
 62
     4
100
AcDbPoint
 10
157.5
 20
12.5
 30
0.0
  0
POINT
  5
182
330
40
100
AcDbEntity
  8
1
 62
     4
100
AcDbPoint
 10
163.25
 20
12.5
 30
0.0
  0
POINT
  5
183
330
40
100
AcDbEntity
  8
1
 62
     4
100
AcDbPoint
 10
151.75
 20
12.5
 30
0.0
  0
POINT
  5
184
330
40
100
AcDbEntity
  8
1
 62
     4
100
AcDbPoint
 10
134.75
 20
12.5
 30
0.0
  0
POINT
  5
185
330
40
100
AcDbEntity
  8
1
 62
     4
100
AcDbPoint
 10
146.25
 20
12.5
 30
0.0
  0
POINT
  5
186
330
40
100
AcDbEntity
  8
1
 62
     4
100
AcDbPoint
 10
140.5
 20
12.5
 30
0.0
  0
POINT
  5
187
330
40
100
AcDbEntity
  8
1
 62
     4
100
AcDbPoint
 10
140.5
 20
19.00000000000001
 30
0.0
  0
POINT
  5
188
330
40
100
AcDbEntity
  8
1
 62
     4
100
AcDbPoint
 10
117.75
 20
12.5
 30
0.0
  0
POINT
  5
189
330
40
100
AcDbEntity
  8
1
 62
     4
100
AcDbPoint
 10
129.25
 20
12.5
 30
0.0
  0
POINT
  5
18A
330
40
100
AcDbEntity
  8
1
 62
     4
100
AcDbPoint
 10
123.5
 20
12.5
 30
0.0
  0
POINT
  5
18B
330
40
100
AcDbEntity
  8
1
 62
     4
100
AcDbPoint
 10
123.5
 20
19.00000000000001
 30
0.0
  0
POINT
  5
18C
330
40
100
AcDbEntity
  8
1
 62
     4
100
AcDbPoint
 10
100.75
 20
12.5
 30
0.0
  0
POINT
  5
18D
330
40
100
AcDbEntity
  8
1
 62
     4
100
AcDbPoint
 10
112.25
 20
12.5
 30
0.0
  0
POINT
  5
18E
330
40
100
AcDbEntity
  8
1
 62
     4
100
AcDbPoint
 10
106.5
 20
12.5
 30
0.0
  0
POINT
  5
18F
330
40
100
AcDbEntity
  8
1
 62
     4
100
AcDbPoint
 10
106.5
 20
19.00000000000001
 30
0.0
  0
POINT
  5
190
330
40
100
AcDbEntity
  8
1
 62
     4
100
AcDbPoint
 10
85.25
 20
17.0
 30
0.0
  0
POINT
  5
191
330
40
100
AcDbEntity
  8
1
 62
     4
100
AcDbPoint
 10
93.75
 20
17.0
 30
0.0
  0
LINE
  5
192
330
40
100
AcDbEntity
  8
1
  6
Continuous
 62
     2
100
AcDbLine
 10
81.0
 20
27.00000000000001
 30
0.0
 11
81.0
 21
10.0
 31
0.0
  0
LINE
  5
193
330
40
100
AcDbEntity
  8
1
  6
DOT_CENTER
 62
     2
100
AcDbLine
 10
187.0
 20
26.50000000000001
 30
0.0
 11
187.0
 21
20.50000000000001
 31
0.0
  0
LINE
  5
194
330
40
100
AcDbEntity
  8
1
  6
DOT_CENTER
 62
     2
100
AcDbLine
 10
184.0
 20
23.50000000000001
 30
0.0
 11
197.0
 21
23.50000000000001
 31
0.0
  0
LINE
  5
195
330
40
100
AcDbEntity
  8
1
  6
Continuous
 62
     7
100
AcDbLine
 10
196.0
 20
21.50000000000001
 30
0.0
 11
191.0
 21
22.30000000000001
 31
0.0
  0
LINE
  5
196
330
40
100
AcDbEntity
  8
1
  6
Continuous
 62
     7
100
AcDbLine
 10
196.0
 20
25.50000000000001
 30
0.0
 11
196.0
 21
21.50000000000001
 31
0.0
  0
LINE
  5
197
330
40
100
AcDbEntity
  8
1
  6
Continuous
 62
     7
100
AcDbLine
 10
191.0
 20
24.70000000000001
 30
0.0
 11
196.0
 21
25.50000000000001
 31
0.0
  0
LINE
  5
198
330
40
100
AcDbEntity
  8
1
  6
Continuous
 62
     7
100
AcDbLine
 10
191.0
 20
24.70000000000001
 30
0.0
 11
191.0
 21
22.30000000000001
 31
0.0
  0
LINE
  5
199
330
40
100
AcDbEntity
  8
1
  6
Continuous
 62
     2
100
AcDbLine
 10
33.0
 20
27.0
 30
0.0
 11
33.0
 21
10.0
 31
0.0
  0
LINE
  5
19A
330
40
100
AcDbEntity
  8
1
  6
Continuous
 62
     2
100
AcDbLine
 10
25.0
 20
18.50000000000001
 30
0.0
 11
81.0
 21
18.50000000000001
 31
0.0
  0
LINE
  5
19B
330
40
100
AcDbEntity
  8
1
  6
Continuous
 62
     7
100
AcDbLine
 10
200.0
 20
287.0000000000003
 30
0.0
 11
105.0
 21
287.0000000000003
 31
0.0
  0
LINE
  5
19C
330
40
100
AcDbEntity
  8
1
  6
Continuous
 62
     7
100
AcDbLine
 10
200.0
 20
10.0
 30
0.0
 11
200.0
 21
148.5
 31
0.0
  0
LINE
  5
19D
330
40
100
AcDbEntity
  8
1
  6
Continuous
 62
     7
100
AcDbLine
 10
25.0
 20
10.0
 30
0.0
 11
105.0
 21
10.0
 31
0.0
  0
LINE
  5
19E
330
40
100
AcDbEntity
  8
1
  6
PHANTOM
 62
     4
100
AcDbLine
 10
0.0
 20
297.0
 30
0.0
 11
0.0
 21
0.0
 31
0.0
  0
LINE
  5
19F
330
40
100
AcDbEntity
  8
1
  6
PHANTOM
 62
     4
100
AcDbLine
 10
210.0
 20
297.0
 30
0.0
 11
0.0
 21
297.0
 31
0.0
  0
LINE
  5
1A0
330
40
100
AcDbEntity
  8
1
  6
PHANTOM
 62
     4
100
AcDbLine
 10
210.0
 20
0.0
 30
0.0
 11
210.0
 21
297.0
 31
0.0
  0
LINE
  5
1A1
330
40
100
AcDbEntity
  8
1
  6
PHANTOM
 62
     4
100
AcDbLine
 10
0.0
 20
0.0
 30
0.0
 11
210.0
 21
0.0
 31
0.0
  0
LINE
  5
1A2
330
40
100
AcDbEntity
  8
1
  6
Continuous
 62
     7
100
AcDbLine
 10
25.0
 20
41.0
 30
0.0
 11
200.0
 21
41.0
 31
0.0
  0
LINE
  5
1A3
330
40
100
AcDbEntity
  8
1
  6
Continuous
 62
     7
100
AcDbLine
 10
200.0
 20
27.00000000000001
 30
0.0
 11
25.0
 21
27.00000000000001
 31
0.0
  0
LINE
  5
1A4
330
40
100
AcDbEntity
  8
1
  6
Continuous
 62
     2
100
AcDbLine
 10
33.0
 20
41.00000000000001
 30
0.0
 11
33.0
 21
27.0
 31
0.0
  0
LINE
  5
1A5
330
40
100
AcDbEntity
  8
1
  6
Continuous
 62
     2
100
AcDbLine
 10
55.0
 20
287.0000000000003
 30
0.0
 11
55.0
 21
277.0000000000003
 31
0.0
  0
LINE
  5
1A6
330
40
100
AcDbEntity
  8
1
  6
Continuous
 62
     2
100
AcDbLine
 10
40.0
 20
287.0000000000003
 30
0.0
 11
40.0
 21
277.0000000000003
 31
0.0
  0
LINE
  5
1A7
330
40
100
AcDbEntity
  8
1
  6
Continuous
 62
     7
100
AcDbLine
 10
25.0
 20
10.0
 30
0.0
 11
25.0
 21
148.5
 31
0.0
  0
LINE
  5
1A8
330
40
100
AcDbEntity
  8
1
  6
Continuous
 62
     2
100
AcDbLine
 10
55.0
 20
277.0000000000003
 30
0.0
 11
25.0
 21
277.0000000000003
 31
0.0
  0
LINE
  5
1A9
330
40
100
AcDbEntity
  8
1
  6
Continuous
 62
     2
100
AcDbLine
 10
166.0
 20
27.00000000000001
 30
0.0
 11
166.0
 21
10.0
 31
0.0
  0
LINE
  5
1AA
330
40
100
AcDbEntity
  8
1
  6
Continuous
 62
     2
100
AcDbLine
 10
132.0
 20
27.00000000000001
 30
0.0
 11
132.0
 21
9.99999999999999
 31
0.0
  0
LINE
  5
1AB
330
40
100
AcDbEntity
  8
1
  6
Continuous
 62
     2
100
AcDbLine
 10
149.0
 20
27.00000000000001
 30
0.0
 11
149.0
 21
10.0
 31
0.0
  0
LINE
  5
1AC
330
40
100
AcDbEntity
  8
1
  6
Continuous
 62
     2
100
AcDbLine
 10
115.0
 20
27.00000000000001
 30
0.0
 11
115.0
 21
9.99999999999999
 31
0.0
  0
LINE
  5
1AD
330
40
100
AcDbEntity
  8
1
  6
Continuous
 62
     2
100
AcDbLine
 10
98.0
 20
27.00000000000001
 30
0.0
 11
98.0
 21
9.99999999999999
 31
0.0
  0
LINE
  5
1AE
330
40
100
AcDbEntity
  8
1
  6
Continuous
 62
     2
100
AcDbLine
 10
166.0
 20
20.00000000000001
 30
0.0
 11
200.0
 21
20.00000000000001
 31
0.0
  0
LINE
  5
1AF
330
40
100
AcDbEntity
  8
1
  6
Continuous
 62
     2
100
AcDbLine
 10
105.0
 20
287.0000000000003
 30
0.0
 11
105.0
 21
292.0000000000003
 31
0.0
  0
LINE
  5
1B0
330
40
100
AcDbEntity
  8
1
  6
Continuous
 62
     7
100
AcDbLine
 10
105.0
 20
287.0000000000003
 30
0.0
 11
25.0
 21
287.0000000000003
 31
0.0
  0
LINE
  5
1B1
330
40
100
AcDbEntity
  8
1
  6
Continuous
 62
     2
100
AcDbLine
 10
25.0
 20
148.5
 30
0.0
 11
20.0
 21
148.5
 31
0.0
  0
LINE
  5
1B2
330
40
100
AcDbEntity
  8
1
  6
Continuous
 62
     7
100
AcDbLine
 10
25.0
 20
148.5
 30
0.0
 11
25.0
 21
287.0000000000003
 31
0.0
  0
LINE
  5
1B3
330
40
100
AcDbEntity
  8
1
  6
Continuous
 62
     2
100
AcDbLine
 10
200.0
 20
148.5
 30
0.0
 11
205.0
 21
148.5
 31
0.0
  0
LINE
  5
1B4
330
40
100
AcDbEntity
  8
1
  6
Continuous
 62
     7
100
AcDbLine
 10
200.0
 20
148.5
 30
0.0
 11
200.0
 21
287.0000000000003
 31
0.0
  0
LINE
  5
1B5
330
40
100
AcDbEntity
  8
1
  6
Continuous
 62
     2
100
AcDbLine
 10
105.0
 20
10.0
 30
0.0
 11
105.0
 21
5.0
 31
0.0
  0
LINE
  5
1B6
330
40
100
AcDbEntity
  8
1
  6
Continuous
 62
     7
100
AcDbLine
 10
105.0
 20
10.0
 30
0.0
 11
200.0
 21
10.0
 31
0.0
  0
CIRCLE
  5
1B7
330
40
100
AcDbEntity
  8
1
  6
DOT_CENTER
 62
     7
100
AcDbCircle
 10
89.5
 20
18.0
 30
0.0
 40
0.1000000000000227
  0
CIRCLE
  5
1B8
330
40
100
AcDbEntity
  8
1
  6
DOT_CENTER
 62
     7
100
AcDbCircle
 10
89.5
 20
16.0
 30
0.0
 40
0.1000000000000227
  0
CIRCLE
  5
1B9
330
40
100
AcDbEntity
  8
1
  6
Continuous
 62
     7
100
AcDbCircle
 10
187.0
 20
23.50000000000001
 30
0.0
 40
2.0
  0
CIRCLE
  5
1BA
330
40
100
AcDbEntity
  8
1
  6
Continuous
 62
     7
100
AcDbCircle
 10
187.0
 20
23.50000000000001
 30
0.0
 40
1.200000000000102
  0
CIRCLE
  5
1BB
330
40
100
AcDbEntity
  8
1
  6
Continuous
 62
     7
100
AcDbCircle
 10
154.5
 20
12.5
 30
0.0
 40
0.3000000000000114
  0
CIRCLE
  5
1BC
330
40
100
AcDbEntity
  8
1
  6
Continuous
 62
     7
100
AcDbCircle
 10
160.5
 20
12.5
 30
0.0
 40
0.3000000000000114
  0
CIRCLE
  5
1BD
330
40
100
AcDbEntity
  8
1
  6
Continuous
 62
     7
100
AcDbCircle
 10
143.5
 20
12.5
 30
0.0
 40
0.3000000000000114
  0
CIRCLE
  5
1BE
330
40
100
AcDbEntity
  8
1
  6
Continuous
 62
     7
100
AcDbCircle
 10
137.5
 20
12.5
 30
0.0
 40
0.3000000000000114
  0
CIRCLE
  5
1BF
330
40
100
AcDbEntity
  8
1
  6
Continuous
 62
     7
100
AcDbCircle
 10
126.5
 20
12.5
 30
0.0
 40
0.2999999999999972
  0
CIRCLE
  5
1C0
330
40
100
AcDbEntity
  8
1
  6
Continuous
 62
     7
100
AcDbCircle
 10
120.5
 20
12.5
 30
0.0
 40
0.2999999999999972
  0
CIRCLE
  5
1C1
330
40
100
AcDbEntity
  8
1
  6
Continuous
 62
     7
100
AcDbCircle
 10
109.5
 20
12.5
 30
0.0
 40
0.2999999999999972
  0
CIRCLE
  5
1C2
330
40
100
AcDbEntity
  8
1
  6
Continuous
 62
     7
100
AcDbCircle
 10
103.5
 20
12.5
 30
0.0
 40
0.2999999999999972
  0
MTEXT
  5
1C4
330
40
100
AcDbEntity
  8
1
 62
   250
100
AcDbMText
 10
25.0
 20
5.0
 30
0.0
 40
3.5
 41
0.0
 71
     4
 72
     1
  1
備考欄の文字列 原点位置=4
  7
CONVERTER_1
 73
     1
 44
0.7202881152461
  0
MTEXT
  5
1C5
330
40
100
AcDbEntity
  8
1
 62
     2
100
AcDbMText
 10
89.5
 20
24.00000000000001
 30
0.0
 40
3.5
 41
0.0
 71
     5
 72
     1
  1
尺度
  7
CONVERTER_1
 73
     1
 44
0.7202881152461
  0
MTEXT
  5
1C6
330
40
100
AcDbEntity
  8
1
 62
     2
100
AcDbMText
 10
135.5
 20
25.00000000000001
 30
0.0
 40
3.0
 41
0.0
 71
     5
 72
     1
  1
製図
  7
CONVERTER_1
 73
     1
 44
0.78031212484994
  0
MTEXT
  5
1C7
330
40
100
AcDbEntity
  8
1
 62
     2
100
AcDbMText
 10
152.5
 20
25.00000000000001
 30
0.0
 40
3.0
 41
0.0
 71
     5
 72
     1
  1
設計
  7
CONVERTER_1
 73
     1
 44
0.78031212484994
  0
MTEXT
  5
1C8
330
40
100
AcDbEntity
  8
1
 62
     2
100
AcDbMText
 10
118.5
 20
25.00000000000001
 30
0.0
 40
3.0
 41
0.0
 71
     5
 72
     1
  1
検図
  7
CONVERTER_1
 73
     1
 44
0.78031212484994
  0
MTEXT
  5
1C9
330
40
100
AcDbEntity
  8
1
 62
     2
100
AcDbMText
 10
175.0
 20
23.50000000000001
 30
0.0
 40
3.5
 41
0.0
 71
     5
 72
     1
  1
第三角法
  7
CONVERTER_1
 73
     1
 44
0.7202881152461
  0
MTEXT
  5
1CA
330
40
100
AcDbEntity
  8
1
 62
     2
100
AcDbMText
 10
101.5
 20
25.00000000000001
 30
0.0
 40
3.0
 41
0.0
 71
     5
 72
     1
  1
承認
  7
CONVERTER_1
 73
     1
 44
0.78031212484994
  0
MTEXT
  5
1CB
330
40
100
AcDbEntity
  8
1
 62
     2
100
AcDbMText
 10
29.0
 20
14.25
 30
0.0
 40
3.5
 41
0.0
 71
     5
 72
     1
  1
品番
  7
CONVERTER_1
 73
     1
 44
0.96038415366146
  0
MTEXT
  5
1CC
330
40
100
AcDbEntity
  8
1
 62
     2
100
AcDbMText
 10
29.0
 20
22.75
 30
0.0
 40
3.5
 41
0.0
 71
     5
 72
     1
  1
品名
  7
CONVERTER_1
 73
     1
 44
0.96038415366146
  0
MTEXT
  5
1CD
330
40
100
AcDbEntity
  8
1
 62
     2
100
AcDbMText
 10
29.0
 20
34.00000000000001
 30
0.0
 40
3.5
 41
0.0
 71
     5
 72
     1
  1
備考
  7
CONVERTER_1
 73
     1
 44
0.60024009603842
  0
MTEXT
  5
1CE
330
40
100
AcDbEntity
  8
1
 62
     2
100
AcDbMText
 10
32.5
 20
282.0000000000003
 30
0.0
 40
5.0
 41
0.0
 71
     5
 72
     1
  1
図番
  7
CONVERTER_1
 73
     1
 44
0.60024009603842
  0
MTEXT
  5
1CF
330
40
100
AcDbEntity
  8
1
 62
     7
100
AcDbMText
 10
171.5
 20
15.0
 30
0.0
 40
2.5
 41
0.0
 71
     5
 72
     1
  1
株式会社
  7
CONVERTER_1
 73
     1
 44
1.32052821128451
  0
MTEXT
  5
1D0
330
40
100
AcDbEntity
  8
1
 62
     7
100
AcDbMText
 10
188.5
 20
15.0
 30
0.0
 40
3.0
 41
0.0
 71
     5
 72
     1
  1
三栄水栓製作所
  7
CONVERTER_1
 73
     1
 44
1.32052821128451
  0
ENDBLK
  5
42
330
40
100
AcDbEntity
  8
0
100
AcDbBlockEnd
  0
BLOCK
  5
44
330
43
100
AcDbEntity
  8
0
100
AcDbBlockBegin
  2
37-292
 70
     0
 71
     0
 10
-186.8912845498876
 20
322.8195078769866
 30
0.0
  3
37-292
  1

  0
LINE
  5
1D1
330
43
100
AcDbEntity
  8
1
  6
Continuous
 62
     7
100
AcDbLine
 10
370.8328280699234
 20
274.932760015095
 30
0.0
 11
370.8328280699234
 21
268.8592891488162
 31
0.0
  0
LINE
  5
1D2
330
43
100
AcDbEntity
  8
1
  6
Continuous
 62
     7
100
AcDbLine
 10
338.8328280497713
 20
274.9327424568695
 30
0.0
 11
338.8328280497713
 21
268.859325960355
 31
0.0
  0
LINE
  5
1D3
330
43
100
AcDbEntity
  8
1
  6
Continuous
 62
     7
100
AcDbLine
 10
175.372042613549
 20
274.3316482968098
 30
0.0
 11
178.7922440468062
 21
283.7285745046709
 31
0.0
  0
LINE
  5
1D4
330
43
100
AcDbEntity
  8
1
  6
Continuous
 62
     7
100
AcDbLine
 10
208.8624079119497
 20
272.7839299182468
 30
0.0
 11
205.4422064786979
 21
263.3870037103884
 31
0.0
  0
SPLINE
  5
1D5
330
43
100
AcDbEntity
  8
1
  6
Continuous
 62
     7
100
AcDbSpline
210
0.0
220
0.0
230
1.0
 70
     8
 71
     3
 72
     9
 73
     5
 74
     3
 42
0.0000000001
 43
0.0000000001
 44
0.00000001
 40
0.0
 40
0.0
 40
0.0
 40
0.0
 40
0.2452043993909408
 40
0.4937721488182145
 40
0.4937721488182145
 40
0.4937721488182145
 40
0.4937721488182145
 10
370.8328280699234
 20
268.8592891488162
 30
0.0
 10
370.8299600990503
 20
268.7773733209671
 30
0.0
 10
370.8241848187358
 20
268.6124180655159
 30
0.0
 10
370.7853383995919
 20
268.4519902758844
 30
0.0
 10
370.7657828879999
 20
268.3712300007053
 30
0.0
 11
370.8328280699234
 21
268.8592891488162
 31
0.0
 11
370.816068621731
 21
268.6146581647259
 31
0.0
 11
370.7657828879999
 21
268.3712300007053
 31
0.0
  0
SPLINE
  5
1D6
330
43
100
AcDbEntity
  8
1
  6
Continuous
 62
     7
100
AcDbSpline
210
0.0
220
0.0
230
1.0
 70
     8
 71
     3
 72
    43
 73
    39
 74
    37
 42
0.0000000001
 43
0.0000000001
 44
0.00000001
 40
0.0
 40
0.0
 40
0.0
 40
0.0
 40
0.5417203645580772
 40
1.080161101026744
 40
1.74233203110301
 40
2.401179545043262
 40
3.213170849763256
 40
4.02408883639481
 40
4.991112404901972
 40
5.957550307480955
 40
7.066406833305066
 40
8.174985466410339
 40
9.402518540731382
 40
10.62990029154305
 40
11.94635289221651
 40
13.26272669210024
 40
14.634075794955
 40
16.00539050015696
 40
17.39536195948437
 40
18.78533351613206
 40
20.15675588578481
 40
21.52821255791066
 40
22.84458635863049
 40
24.16103897399882
 40
25.38842070923338
 40
26.61595366572462
 40
27.72453241060228
 40
28.83338975459269
 40
29.79982695067738
 40
30.76684530673957
 40
31.57776742891279
 40
32.38978981752391
 40
33.0486139974407
 40
33.71060799736039
 40
34.24918908323824
 40
34.79190855737806
 40
35.04051282072197
 40
35.28455664857185
 40
35.28455664857185
 40
35.28455664857185
 40
35.28455664857185
 10
370.7657828879999
 20
268.3712300007053
 30
0.0
 10
370.7077719573363
 20
268.1993151228158
 30
0.0
 10
370.5921012998589
 20
267.8565261565277
 30
0.0
 10
370.2550417161738
 20
267.3761198532586
 30
0.0
 10
369.8253560028674
 20
266.9278152235208
 30
0.0
 10
369.2692487338015
 20
266.4818616745431
 30
0.0
 10
368.626384401012
 20
266.0731685983035
 30
0.0
 10
367.8621181873684
 20
265.6700966843127
 30
0.0
 10
367.0227318889894
 20
265.3044676615789
 30
0.0
 10
366.0707691259799
 20
264.953655817344
 30
0.0
 10
365.0560491889166
 20
264.6410509843168
 30
0.0
 10
363.9443253153645
 20
264.3521855498553
 30
0.0
 10
362.7826784928822
 20
264.1025243995078
 30
0.0
 10
361.5444609423323
 20
263.8838695388427
 30
0.0
 10
360.2698883907332
 20
263.7054554018881
 30
0.0
 10
358.9425370613075
 20
263.5632852250805
 30
0.0
 10
357.5930849788126
 20
263.4621727787973
 30
0.0
 10
356.2167197857872
 20
263.4004520393616
 30
0.0
 10
354.8329105073398
 20
263.380232464473
 30
0.0
 10
353.4490654344395
 20
263.4004588587812
 30
0.0
 10
352.0726288450115
 20
263.4621906690699
 30
0.0
 10
350.7231059770531
 20
263.5633192444531
 30
0.0
 10
349.3957202916928
 20
263.7055054025631
 30
0.0
 10
348.1211493896421
 20
263.8839314232623
 30
0.0
 10
346.882933942697
 20
264.1025977119068
 30
0.0
 10
345.7212891298782
 20
264.3522687610477
 30
0.0
 10
344.6095680651005
 20
264.641144491597
 30
0.0
 10
343.5948502657448
 20
264.9537617681
 30
0.0
 10
342.6428983366916
 20
265.3045838425655
 30
0.0
 10
341.8034906015816
 20
265.6701999995815
 30
0.0
 10
341.0392771719597
 20
266.0732979125514
 30
0.0
 10
340.3962448918668
 20
266.4820029079294
 30
0.0
 10
339.8408209452687
 20
266.9280939480677
 30
0.0
 10
339.4088868276838
 20
267.3756478452281
 30
0.0
 10
339.0781075380383
 20
267.8581079383889
 30
0.0
 10
338.9173240890985
 20
268.2753293393486
 30
0.0
 10
338.8425043332232
 20
268.6134749788974
 30
0.0
 10
338.8360335108222
 20
268.7778829404957
 30
0.0
 10
338.8328280497713
 20
268.8593259603604
 30
0.0
 11
370.7657828879999
 21
268.3712300007053
 31
0.0
 11
370.5682857838571
 21
267.8667938330565
 31
0.0
 11
370.2698914930986
 21
267.4185982575187
 31
0.0
 11
369.8147520162686
 21
266.9376425451408
 31
0.0
 11
369.3029702741184
 21
266.5227214743009
 31
0.0
 11
368.6206583042896
 21
266.0825166869925
 31
0.0
 11
367.9042018886576
 21
265.7026770029912
 31
0.0
 11
367.0191427009702
 21
265.313055627373
 31
0.0
 11
366.1127229886709
 21
264.9777862957955
 31
0.0
 11
365.0537407927613
 21
264.6489709926096
 31
0.0
 11
363.9809896907537
 21
264.3694148105654
 31
0.0
 11
362.7811958152417
 21
264.1099305049979
 31
0.0
 11
361.5726021989622
 21
263.8959972609383
 31
0.0
 11
360.2690004263945
 21
263.7125037504849
 31
0.0
 11
358.9601391703354
 21
263.5720680235218
 31
0.0
 11
357.5926678518356
 21
263.4690119466468
 31
0.0
 11
356.2227296373576
 21
263.4075846789557
 31
0.0
 11
354.8329105557135
 21
263.3870036672554
 31
0.0
 11
353.4430914703216
 21
263.4075909975853
 31
0.0
 11
352.073046049373
 21
263.469030891154
 31
0.0
 11
350.7054682912062
 21
263.572106003989
 31
0.0
 11
349.3966083269264
 21
263.7125537776531
 31
0.0
 11
348.0930082429496
 21
263.8960593894632
 31
0.0
 11
346.8844165956417
 21
264.1100036673604
 31
0.0
 11
345.6846251082689
 21
264.3694984574813
 31
0.0
 11
344.6118765789611
 21
264.6490649548706
 31
0.0
 11
343.5528974088165
 21
264.977892761665
 31
0.0
 11
342.6464807822421
 21
265.3131683990823
 31
0.0
 11
341.7614251817582
 21
265.702784986272
 31
0.0
 11
341.0449722607349
 21
266.0826400904723
 31
0.0
 11
340.362664335325
 21
266.5229084796721
 31
0.0
 11
339.8508864160369
 21
266.9377972133974
 31
0.0
 11
339.3957513941432
 21
267.4185135203555
 31
0.0
 11
339.0973612081994
 21
267.8668804270266
 31
0.0
 11
338.8998686197731
 21
268.3723911639327
 31
0.0
 11
338.849592698926
 21
268.6158586392466
 31
0.0
 11
338.8328280497713
 21
268.8593259603604
 31
0.0
  0
ENDBLK
  5
45
330
43
100
AcDbEntity
  8
0
100
AcDbBlockEnd
  0
BLOCK
  5
47
330
46
100
AcDbEntity
  8
0
100
AcDbBlockBegin
  2
31-76
 70
     0
 71
     0
 10
-890.5978656748412
 20
747.746370295431
 30
0.0
  3
31-76
  1

  0
LINE
  5
1D7
330
46
100
AcDbEntity
  8
3
  6
Continuous
 62
     7
100
AcDbLine
 10
654.9905805188901
 20
-216.9951991251463
 30
0.0
 11
657.6456411477379
 21
-218.2061302200204
 31
0.0
  0
LINE
  5
1D8
330
46
100
AcDbEntity
  8
3
  6
Continuous
 62
     7
100
AcDbLine
 10
628.005006967738
 20
-215.3259560400205
 30
0.0
 11
632.896383625499
 21
-214.6215027963557
 31
0.0
  0
LINE
  5
1D9
330
46
100
AcDbEntity
  8
3
  6
Continuous
 62
     7
100
AcDbLine
 10
623.494046277738
 20
-216.5436888000205
 30
0.0
 11
628.005006967738
 21
-215.3259560400205
 31
0.0
  0
LINE
  5
1DA
330
46
100
AcDbEntity
  8
3
  6
Continuous
 62
     7
100
AcDbLine
 10
661.118416437738
 20
-223.6293694000204
 30
0.0
 11
661.1055107777379
 21
-223.7568776900204
 31
0.0
  0
LINE
  5
1DB
330
46
100
AcDbEntity
  8
3
  6
Continuous
 62
     7
100
AcDbLine
 10
661.1055107777379
 20
-223.7568776900204
 30
0.0
 11
661.0862441277379
 21
-223.8851426100203
 31
0.0
  0
LINE
  5
1DC
330
46
100
AcDbEntity
  8
3
  6
Continuous
 62
     7
100
AcDbLine
 10
661.0862441277379
 20
-223.8851426100203
 30
0.0
 11
661.060500207738
 21
-224.0141165100204
 31
0.0
  0
LINE
  5
1DD
330
46
100
AcDbEntity
  8
3
  6
Continuous
 62
     7
100
AcDbLine
 10
661.060500207738
 20
-224.0141165100204
 30
0.0
 11
661.0281643677381
 21
-224.1437491200205
 31
0.0
  0
LINE
  5
1DE
330
46
100
AcDbEntity
  8
3
  6
Continuous
 62
     7
100
AcDbLine
 10
661.0281643677381
 20
-224.1437491200205
 30
0.0
 11
660.9891265877379
 21
-224.2739886000205
 31
0.0
  0
LINE
  5
1DF
330
46
100
AcDbEntity
  8
3
  6
Continuous
 62
     7
100
AcDbLine
 10
660.9891265877379
 20
-224.2739886000205
 30
0.0
 11
660.943280327738
 21
-224.4047810400203
 31
0.0
  0
LINE
  5
1E0
330
46
100
AcDbEntity
  8
3
  6
Continuous
 62
     7
100
AcDbLine
 10
660.943280327738
 20
-224.4047810400203
 30
0.0
 11
660.890523437738
 21
-224.5360706600204
 31
0.0
  0
LINE
  5
1E1
330
46
100
AcDbEntity
  8
3
  6
Continuous
 62
     7
100
AcDbLine
 10
660.890523437738
 20
-224.5360706600204
 30
0.0
 11
660.8307582177381
 21
-224.6677998300205
 31
0.0
  0
LINE
  5
1E2
330
46
100
AcDbEntity
  8
3
  6
Continuous
 62
     7
100
AcDbLine
 10
660.8307582177381
 20
-224.6677998300205
 30
0.0
 11
660.7638918177381
 21
-224.7999090900204
 31
0.0
  0
LINE
  5
1E3
330
46
100
AcDbEntity
  8
3
  6
Continuous
 62
     7
100
AcDbLine
 10
660.7638918177381
 20
-224.7999090900204
 30
0.0
 11
660.689836527738
 21
-224.9323371900203
 31
0.0
  0
LINE
  5
1E4
330
46
100
AcDbEntity
  8
3
  6
Continuous
 62
     7
100
AcDbLine
 10
660.689836527738
 20
-224.9323371900203
 30
0.0
 11
660.6085100377379
 21
-225.0650211900205
 31
0.0
  0
LINE
  5
1E5
330
46
100
AcDbEntity
  8
3
  6
Continuous
 62
     7
100
AcDbLine
 10
660.6085100377379
 20
-225.0650211900205
 30
0.0
 11
660.5198357577381
 21
-225.1978964800204
 31
0.0
  0
LINE
  5
1E6
330
46
100
AcDbEntity
  8
3
  6
Continuous
 62
     7
100
AcDbLine
 10
660.5198357577381
 20
-225.1978964800204
 30
0.0
 11
660.4237431277379
 21
-225.3308968500204
 31
0.0
  0
LINE
  5
1E7
330
46
100
AcDbEntity
  8
3
  6
Continuous
 62
     7
100
AcDbLine
 10
660.4237431277379
 20
-225.3308968500204
 30
0.0
 11
660.3201678577379
 21
-225.4639546000204
 31
0.0
  0
LINE
  5
1E8
330
46
100
AcDbEntity
  8
3
  6
Continuous
 62
     7
100
AcDbLine
 10
660.3201678577379
 20
-225.4639546000204
 30
0.0
 11
660.2090522277381
 21
-225.5970005500204
 31
0.0
  0
LINE
  5
1E9
330
46
100
AcDbEntity
  8
3
  6
Continuous
 62
     7
100
AcDbLine
 10
660.2090522277381
 20
-225.5970005500204
 30
0.0
 11
660.0903453677381
 21
-225.7299642100205
 31
0.0
  0
LINE
  5
1EA
330
46
100
AcDbEntity
  8
3
  6
Continuous
 62
     7
100
AcDbLine
 10
660.0903453677381
 20
-225.7299642100205
 30
0.0
 11
659.9640034777381
 21
-225.8627738000204
 31
0.0
  0
LINE
  5
1EB
330
46
100
AcDbEntity
  8
3
  6
Continuous
 62
     7
100
AcDbLine
 10
659.9640034777381
 20
-225.8627738000204
 30
0.0
 11
659.8299900977379
 21
-225.9953563800204
 31
0.0
  0
LINE
  5
1EC
330
46
100
AcDbEntity
  8
3
  6
Continuous
 62
     7
100
AcDbLine
 10
659.8299900977379
 20
-225.9953563800204
 30
0.0
 11
659.688276337738
 21
-226.1276379800205
 31
0.0
  0
LINE
  5
1ED
330
46
100
AcDbEntity
  8
3
  6
Continuous
 62
     7
100
AcDbLine
 10
659.688276337738
 20
-226.1276379800205
 30
0.0
 11
659.5388411077381
 21
-226.2595436300204
 31
0.0
  0
LINE
  5
1EE
330
46
100
AcDbEntity
  8
3
  6
Continuous
 62
     7
100
AcDbLine
 10
659.5388411077381
 20
-226.2595436300204
 30
0.0
 11
659.381671277738
 21
-226.3909975800204
 31
0.0
  0
LINE
  5
1EF
330
46
100
AcDbEntity
  8
3
  6
Continuous
 62
     7
100
AcDbLine
 10
659.381671277738
 20
-226.3909975800204
 30
0.0
 11
659.2167619077379
 21
-226.5219233300205
 31
0.0
  0
LINE
  5
1F0
330
46
100
AcDbEntity
  8
3
  6
Continuous
 62
     7
100
AcDbLine
 10
659.2167619077379
 20
-226.5219233300205
 30
0.0
 11
659.0441163877381
 21
-226.6522437900204
 31
0.0
  0
LINE
  5
1F1
330
46
100
AcDbEntity
  8
3
  6
Continuous
 62
     7
100
AcDbLine
 10
659.0441163877381
 20
-226.6522437900204
 30
0.0
 11
658.8637466177379
 21
-226.7818814300203
 31
0.0
  0
LINE
  5
1F2
330
46
100
AcDbEntity
  8
3
  6
Continuous
 62
     7
100
AcDbLine
 10
658.8637466177379
 20
-226.7818814300203
 30
0.0
 11
658.675673107738
 21
-226.9107583800204
 31
0.0
  0
LINE
  5
1F3
330
46
100
AcDbEntity
  8
3
  6
Continuous
 62
     7
100
AcDbLine
 10
658.675673107738
 20
-226.9107583800204
 30
0.0
 11
658.4799250877379
 21
-227.0387965700205
 31
0.0
  0
LINE
  5
1F4
330
46
100
AcDbEntity
  8
3
  6
Continuous
 62
     7
100
AcDbLine
 10
658.4799250877379
 20
-227.0387965700205
 30
0.0
 11
658.2765406077381
 21
-227.1659178900205
 31
0.0
  0
LINE
  5
1F5
330
46
100
AcDbEntity
  8
3
  6
Continuous
 62
     7
100
AcDbLine
 10
658.2765406077381
 20
-227.1659178900205
 30
0.0
 11
658.065566607738
 21
-227.2920443300204
 31
0.0
  0
LINE
  5
1F6
330
46
100
AcDbEntity
  8
3
  6
Continuous
 62
     7
100
AcDbLine
 10
658.065566607738
 20
-227.2920443300204
 30
0.0
 11
657.8470589477381
 21
-227.4170981100203
 31
0.0
  0
LINE
  5
1F7
330
46
100
AcDbEntity
  8
3
  6
Continuous
 62
     7
100
AcDbLine
 10
657.8470589477381
 20
-227.4170981100203
 30
0.0
 11
657.6210823977381
 21
-227.5410018200204
 31
0.0
  0
LINE
  5
1F8
330
46
100
AcDbEntity
  8
3
  6
Continuous
 62
     7
100
AcDbLine
 10
657.6210823977381
 20
-227.5410018200204
 30
0.0
 11
657.387710687738
 21
-227.6636786000205
 31
0.0
  0
LINE
  5
1F9
330
46
100
AcDbEntity
  8
3
  6
Continuous
 62
     7
100
AcDbLine
 10
657.387710687738
 20
-227.6636786000205
 30
0.0
 11
657.1470264177381
 21
-227.7850522700204
 31
0.0
  0
LINE
  5
1FA
330
46
100
AcDbEntity
  8
3
  6
Continuous
 62
     7
100
AcDbLine
 10
657.1470264177381
 20
-227.7850522700204
 30
0.0
 11
656.899121037738
 21
-227.9050474900204
 31
0.0
  0
LINE
  5
1FB
330
46
100
AcDbEntity
  8
3
  6
Continuous
 62
     7
100
AcDbLine
 10
656.899121037738
 20
-227.9050474900204
 30
0.0
 11
656.6440947477381
 21
-228.0235898700204
 31
0.0
  0
LINE
  5
1FC
330
46
100
AcDbEntity
  8
3
  6
Continuous
 62
     7
100
AcDbLine
 10
656.6440947477381
 20
-228.0235898700204
 30
0.0
 11
656.3820563777381
 21
-228.1406061700204
 31
0.0
  0
LINE
  5
1FD
330
46
100
AcDbEntity
  8
3
  6
Continuous
 62
     7
100
AcDbLine
 10
656.3820563777381
 20
-228.1406061700204
 30
0.0
 11
656.1131232877381
 21
-228.2560244300204
 31
0.0
  0
LINE
  5
1FE
330
46
100
AcDbEntity
  8
3
  6
Continuous
 62
     7
100
AcDbLine
 10
656.1131232877381
 20
-228.2560244300204
 30
0.0
 11
655.8374211577379
 21
-228.3697740700205
 31
0.0
  0
LINE
  5
1FF
330
46
100
AcDbEntity
  8
3
  6
Continuous
 62
     7
100
AcDbLine
 10
655.8374211577379
 20
-228.3697740700205
 30
0.0
 11
655.5550838577381
 21
-228.4817861000205
 31
0.0
  0
LINE
  5
200
330
46
100
AcDbEntity
  8
3
  6
Continuous
 62
     7
100
AcDbLine
 10
655.5550838577381
 20
-228.4817861000205
 30
0.0
 11
655.2662532077379
 21
-228.5919932200205
 31
0.0
  0
LINE
  5
201
330
46
100
AcDbEntity
  8
3
  6
Continuous
 62
     7
100
AcDbLine
 10
655.2662532077379
 20
-228.5919932200205
 30
0.0
 11
654.9710787277379
 21
-228.7003299400204
 31
0.0
  0
LINE
  5
202
330
46
100
AcDbEntity
  8
3
  6
Continuous
 62
     7
100
AcDbLine
 10
654.9710787277379
 20
-228.7003299400204
 30
0.0
 11
654.6697174277381
 21
-228.8067327400205
 31
0.0
  0
LINE
  5
203
330
46
100
AcDbEntity
  8
3
  6
Continuous
 62
     7
100
AcDbLine
 10
654.6697174277381
 20
-228.8067327400205
 30
0.0
 11
654.362333507738
 21
-228.9111401600204
 31
0.0
  0
LINE
  5
204
330
46
100
AcDbEntity
  8
3
  6
Continuous
 62
     7
100
AcDbLine
 10
654.362333507738
 20
-228.9111401600204
 30
0.0
 11
654.0490980577381
 21
-229.0134929700204
 31
0.0
  0
LINE
  5
205
330
46
100
AcDbEntity
  8
3
  6
Continuous
 62
     7
100
AcDbLine
 10
654.0490980577381
 20
-229.0134929700204
 30
0.0
 11
653.7301887477381
 21
-229.1137342200204
 31
0.0
  0
LINE
  5
206
330
46
100
AcDbEntity
  8
3
  6
Continuous
 62
     7
100
AcDbLine
 10
653.7301887477381
 20
-229.1137342200204
 30
0.0
 11
653.4057894777379
 21
-229.2118093800204
 31
0.0
  0
LINE
  5
207
330
46
100
AcDbEntity
  8
3
  6
Continuous
 62
     7
100
AcDbLine
 10
653.4057894777379
 20
-229.2118093800204
 30
0.0
 11
653.0760900377379
 21
-229.3076664500205
 31
0.0
  0
LINE
  5
208
330
46
100
AcDbEntity
  8
3
  6
Continuous
 62
     7
100
AcDbLine
 10
653.0760900377379
 20
-229.3076664500205
 30
0.0
 11
652.7412857577381
 21
-229.4012560200204
 31
0.0
  0
LINE
  5
209
330
46
100
AcDbEntity
  8
3
  6
Continuous
 62
     7
100
AcDbLine
 10
652.7412857577381
 20
-229.4012560200204
 30
0.0
 11
652.401577077738
 21
-229.4925313700204
 31
0.0
  0
LINE
  5
20A
330
46
100
AcDbEntity
  8
3
  6
Continuous
 62
     7
100
AcDbLine
 10
652.401577077738
 20
-229.4925313700204
 30
0.0
 11
652.057169197738
 21
-229.5814485400203
 31
0.0
  0
LINE
  5
20B
330
46
100
AcDbEntity
  8
3
  6
Continuous
 62
     7
100
AcDbLine
 10
652.057169197738
 20
-229.5814485400203
 30
0.0
 11
651.7082716377381
 21
-229.6679664100204
 31
0.0
  0
LINE
  5
20C
330
46
100
AcDbEntity
  8
3
  6
Continuous
 62
     7
100
AcDbLine
 10
651.7082716377381
 20
-229.6679664100204
 30
0.0
 11
651.3550978477381
 21
-229.7520467600203
 31
0.0
  0
LINE
  5
20D
330
46
100
AcDbEntity
  8
3
  6
Continuous
 62
     7
100
AcDbLine
 10
651.3550978477381
 20
-229.7520467600203
 30
0.0
 11
650.9978647677381
 21
-229.8336542900205
 31
0.0
  0
LINE
  5
20E
330
46
100
AcDbEntity
  8
3
  6
Continuous
 62
     7
100
AcDbLine
 10
650.9978647677381
 20
-229.8336542900205
 30
0.0
 11
650.6367924077381
 21
-229.9127567000204
 31
0.0
  0
LINE
  5
20F
330
46
100
AcDbEntity
  8
3
  6
Continuous
 62
     7
100
AcDbLine
 10
650.6367924077381
 20
-229.9127567000204
 30
0.0
 11
650.272103397738
 21
-229.9893247100204
 31
0.0
  0
LINE
  5
210
330
46
100
AcDbEntity
  8
3
  6
Continuous
 62
     7
100
AcDbLine
 10
650.272103397738
 20
-229.9893247100204
 30
0.0
 11
649.904022577738
 21
-230.0633320600203
 31
0.0
  0
LINE
  5
211
330
46
100
AcDbEntity
  8
3
  6
Continuous
 62
     7
100
AcDbLine
 10
649.904022577738
 20
-230.0633320600203
 30
0.0
 11
649.5327765377381
 21
-230.1347555800204
 31
0.0
  0
LINE
  5
212
330
46
100
AcDbEntity
  8
3
  6
Continuous
 62
     7
100
AcDbLine
 10
649.5327765377381
 20
-230.1347555800204
 30
0.0
 11
649.1585931977379
 21
-230.2035751500204
 31
0.0
  0
LINE
  5
213
330
46
100
AcDbEntity
  8
3
  6
Continuous
 62
     7
100
AcDbLine
 10
649.1585931977379
 20
-230.2035751500204
 30
0.0
 11
648.781701357738
 21
-230.2697737100203
 31
0.0
  0
LINE
  5
214
330
46
100
AcDbEntity
  8
3
  6
Continuous
 62
     7
100
AcDbLine
 10
648.781701357738
 20
-230.2697737100203
 30
0.0
 11
648.4023302877381
 21
-230.3333372700204
 31
0.0
  0
LINE
  5
215
330
46
100
AcDbEntity
  8
3
  6
Continuous
 62
     7
100
AcDbLine
 10
648.4023302877381
 20
-230.3333372700204
 30
0.0
 11
648.020709297738
 21
-230.3942548700205
 31
0.0
  0
LINE
  5
216
330
46
100
AcDbEntity
  8
3
  6
Continuous
 62
     7
100
AcDbLine
 10
648.020709297738
 20
-230.3942548700205
 30
0.0
 11
647.637067297738
 21
-230.4525185600204
 31
0.0
  0
LINE
  5
217
330
46
100
AcDbEntity
  8
3
  6
Continuous
 62
     7
100
AcDbLine
 10
647.637067297738
 20
-230.4525185600204
 30
0.0
 11
647.2516324277381
 21
-230.5081233700204
 31
0.0
  0
LINE
  5
218
330
46
100
AcDbEntity
  8
3
  6
Continuous
 62
     7
100
AcDbLine
 10
647.2516324277381
 20
-230.5081233700204
 30
0.0
 11
646.8646316377381
 21
-230.5610672800204
 31
0.0
  0
LINE
  5
219
330
46
100
AcDbEntity
  8
3
  6
Continuous
 62
     7
100
AcDbLine
 10
646.8646316377381
 20
-230.5610672800204
 30
0.0
 11
646.4762903277381
 21
-230.6113511600205
 31
0.0
  0
LINE
  5
21A
330
46
100
AcDbEntity
  8
3
  6
Continuous
 62
     7
100
AcDbLine
 10
646.4762903277381
 20
-230.6113511600205
 30
0.0
 11
646.0868319077381
 21
-230.6589786900205
 31
0.0
  0
LINE
  5
21B
330
46
100
AcDbEntity
  8
3
  6
Continuous
 62
     7
100
AcDbLine
 10
646.0868319077381
 20
-230.6589786900205
 30
0.0
 11
645.6964775277379
 21
-230.7039563600204
 31
0.0
  0
LINE
  5
21C
330
46
100
AcDbEntity
  8
3
  6
Continuous
 62
     7
100
AcDbLine
 10
645.6964775277379
 20
-230.7039563600204
 30
0.0
 11
645.3054456777379
 21
-230.7462933400204
 31
0.0
  0
LINE
  5
21D
330
46
100
AcDbEntity
  8
3
  6
Continuous
 62
     7
100
AcDbLine
 10
645.3054456777379
 20
-230.7462933400204
 30
0.0
 11
644.9139518377381
 21
-230.7860014700204
 31
0.0
  0
LINE
  5
21E
330
46
100
AcDbEntity
  8
3
  6
Continuous
 62
     7
100
AcDbLine
 10
644.9139518377381
 20
-230.7860014700204
 30
0.0
 11
644.5222082377379
 21
-230.8230951200204
 31
0.0
  0
LINE
  5
21F
330
46
100
AcDbEntity
  8
3
  6
Continuous
 62
     7
100
AcDbLine
 10
644.5222082377379
 20
-230.8230951200204
 30
0.0
 11
644.1304234977381
 21
-230.8575911400204
 31
0.0
  0
LINE
  5
220
330
46
100
AcDbEntity
  8
3
  6
Continuous
 62
     7
100
AcDbLine
 10
644.1304234977381
 20
-230.8575911400204
 30
0.0
 11
643.7388023477381
 21
-230.8895088000205
 31
0.0
  0
LINE
  5
221
330
46
100
AcDbEntity
  8
3
  6
Continuous
 62
     7
100
AcDbLine
 10
643.7388023477381
 20
-230.8895088000205
 30
0.0
 11
643.3475454277379
 21
-230.9188696300204
 31
0.0
  0
LINE
  5
222
330
46
100
AcDbEntity
  8
3
  6
Continuous
 62
     7
100
AcDbLine
 10
643.3475454277379
 20
-230.9188696300204
 30
0.0
 11
642.956848957738
 21
-230.9456973900204
 31
0.0
  0
LINE
  5
223
330
46
100
AcDbEntity
  8
3
  6
Continuous
 62
     7
100
AcDbLine
 10
642.956848957738
 20
-230.9456973900204
 30
0.0
 11
642.5669045777379
 21
-230.9700179500204
 31
0.0
  0
LINE
  5
224
330
46
100
AcDbEntity
  8
3
  6
Continuous
 62
     7
100
AcDbLine
 10
642.5669045777379
 20
-230.9700179500204
 30
0.0
 11
642.1778991277381
 21
-230.9918592000205
 31
0.0
  0
LINE
  5
225
330
46
100
AcDbEntity
  8
3
  6
Continuous
 62
     7
100
AcDbLine
 10
642.1778991277381
 20
-230.9918592000205
 30
0.0
 11
641.7900144377379
 21
-231.0112509200204
 31
0.0
  0
LINE
  5
226
330
46
100
AcDbEntity
  8
3
  6
Continuous
 62
     7
100
AcDbLine
 10
641.7900144377379
 20
-231.0112509200204
 30
0.0
 11
641.403427177738
 21
-231.0282247200204
 31
0.0
  0
LINE
  5
227
330
46
100
AcDbEntity
  8
3
  6
Continuous
 62
     7
100
AcDbLine
 10
641.403427177738
 20
-231.0282247200204
 30
0.0
 11
641.0183086977379
 21
-231.0428139000204
 31
0.0
  0
LINE
  5
228
330
46
100
AcDbEntity
  8
3
  6
Continuous
 62
     7
100
AcDbLine
 10
641.0183086977379
 20
-231.0428139000204
 30
0.0
 11
640.6348249177379
 21
-231.0550533900204
 31
0.0
  0
LINE
  5
229
330
46
100
AcDbEntity
  8
3
  6
Continuous
 62
     7
100
AcDbLine
 10
640.6348249177379
 20
-231.0550533900204
 30
0.0
 11
640.253136137738
 21
-231.0649795600203
 31
0.0
  0
LINE
  5
22A
330
46
100
AcDbEntity
  8
3
  6
Continuous
 62
     7
100
AcDbLine
 10
640.253136137738
 20
-231.0649795600203
 30
0.0
 11
639.873397167738
 21
-231.0726302600203
 31
0.0
  0
LINE
  5
22B
330
46
100
AcDbEntity
  8
3
  6
Continuous
 62
     7
100
AcDbLine
 10
639.873397167738
 20
-231.0726302600203
 30
0.0
 11
639.4957566277381
 21
-231.0780444800204
 31
0.0
  0
LINE
  5
22C
330
46
100
AcDbEntity
  8
3
  6
Continuous
 62
     7
100
AcDbLine
 10
639.4957566277381
 20
-231.0780444800204
 30
0.0
 11
639.1203583977381
 21
-231.0812627200204
 31
0.0
  0
LINE
  5
22D
330
46
100
AcDbEntity
  8
3
  6
Continuous
 62
     7
100
AcDbLine
 10
639.1203583977381
 20
-231.0812627200204
 30
0.0
 11
638.747338747738
 21
-231.0823260100204
 31
0.0
  0
LINE
  5
22E
330
46
100
AcDbEntity
  8
3
  6
Continuous
 62
     7
100
AcDbLine
 10
638.747338747738
 20
-231.0823260100204
 30
0.0
 11
636.090104077738
 21
-231.0285030700205
 31
0.0
  0
LINE
  5
22F
330
46
100
AcDbEntity
  8
3
  6
Continuous
 62
     7
100
AcDbLine
 10
636.090104077738
 20
-231.0285030700205
 30
0.0
 11
633.364831167738
 21
-230.8574113500204
 31
0.0
  0
LINE
  5
230
330
46
100
AcDbEntity
  8
3
  6
Continuous
 62
     7
100
AcDbLine
 10
633.364831167738
 20
-230.8574113500204
 30
0.0
 11
630.629782357738
 21
-230.5610880500204
 31
0.0
  0
LINE
  5
231
330
46
100
AcDbEntity
  8
3
  6
Continuous
 62
     7
100
AcDbLine
 10
630.629782357738
 20
-230.5610880500204
 30
0.0
 11
627.961988277738
 21
-230.1347059800204
 31
0.0
  0
LINE
  5
232
330
46
100
AcDbEntity
  8
3
  6
Continuous
 62
     7
100
AcDbLine
 10
627.961988277738
 20
-230.1347059800204
 30
0.0
 11
625.437525817738
 21
-229.5814408800205
 31
0.0
  0
LINE
  5
233
330
46
100
AcDbEntity
  8
3
  6
Continuous
 62
     7
100
AcDbLine
 10
625.437525817738
 20
-229.5814408800205
 30
0.0
 11
623.132343977738
 21
-228.9111401600204
 31
0.0
  0
LINE
  5
234
330
46
100
AcDbEntity
  8
3
  6
Continuous
 62
     7
100
AcDbLine
 10
623.132343977738
 20
-228.9111401600204
 30
0.0
 11
621.112643017738
 21
-228.1405999800205
 31
0.0
  0
LINE
  5
235
330
46
100
AcDbEntity
  8
3
  6
Continuous
 62
     7
100
AcDbLine
 10
621.112643017738
 20
-228.1405999800205
 30
0.0
 11
619.429253557738
 21
-227.2920131700204
 31
0.0
  0
LINE
  5
236
330
46
100
AcDbEntity
  8
3
  6
Continuous
 62
     7
100
AcDbLine
 10
619.429253557738
 20
-227.2920131700204
 30
0.0
 11
618.112952437738
 21
-226.3910882100203
 31
0.0
  0
LINE
  5
237
330
46
100
AcDbEntity
  8
3
  6
Continuous
 62
     7
100
AcDbLine
 10
618.112952437738
 20
-226.3910882100203
 30
0.0
 11
617.175019987738
 21
-225.4637525400204
 31
0.0
  0
LINE
  5
238
330
46
100
AcDbEntity
  8
3
  6
Continuous
 62
     7
100
AcDbLine
 10
617.175019987738
 20
-225.4637525400204
 30
0.0
 11
616.603370607738
 21
-224.5364698700204
 31
0.0
  0
LINE
  5
239
330
46
100
AcDbEntity
  8
3
  6
Continuous
 62
     7
100
AcDbLine
 10
616.603370607738
 20
-224.5364698700204
 30
0.0
 11
616.376261047738
 21
-223.6293694000204
 31
0.0
  0
LINE
  5
23A
330
46
100
AcDbEntity
  8
3
  6
Continuous
 62
     7
100
AcDbLine
 10
627.186342187738
 20
-227.3981288900204
 30
0.0
 11
626.839131167738
 21
-227.3172499600204
 31
0.0
  0
LINE
  5
23B
330
46
100
AcDbEntity
  8
3
  6
Continuous
 62
     7
100
AcDbLine
 10
626.839131167738
 20
-227.3172499600204
 30
0.0
 11
626.496145277738
 21
-227.2338430100203
 31
0.0
  0
LINE
  5
23C
330
46
100
AcDbEntity
  8
3
  6
Continuous
 62
     7
100
AcDbLine
 10
626.496145277738
 20
-227.2338430100203
 30
0.0
 11
626.157617657738
 21
-227.1479466200204
 31
0.0
  0
LINE
  5
23D
330
46
100
AcDbEntity
  8
3
  6
Continuous
 62
     7
100
AcDbLine
 10
626.157617657738
 20
-227.1479466200204
 30
0.0
 11
625.823777417738
 21
-227.0596027100204
 31
0.0
  0
LINE
  5
23E
330
46
100
AcDbEntity
  8
3
  6
Continuous
 62
     7
100
AcDbLine
 10
625.823777417738
 20
-227.0596027100204
 30
0.0
 11
625.494849157738
 21
-226.9688564700203
 31
0.0
  0
LINE
  5
23F
330
46
100
AcDbEntity
  8
3
  6
Continuous
 62
     7
100
AcDbLine
 10
625.494849157738
 20
-226.9688564700203
 30
0.0
 11
625.171052457738
 21
-226.8757562500203
 31
0.0
  0
LINE
  5
240
330
46
100
AcDbEntity
  8
3
  6
Continuous
 62
     7
100
AcDbLine
 10
625.171052457738
 20
-226.8757562500203
 30
0.0
 11
624.852601407738
 21
-226.7803535400204
 31
0.0
  0
LINE
  5
241
330
46
100
AcDbEntity
  8
3
  6
Continuous
 62
     7
100
AcDbLine
 10
624.852601407738
 20
-226.7803535400204
 30
0.0
 11
624.539704127738
 21
-226.6827028100205
 31
0.0
  0
LINE
  5
242
330
46
100
AcDbEntity
  8
3
  6
Continuous
 62
     7
100
AcDbLine
 10
624.539704127738
 20
-226.6827028100205
 30
0.0
 11
624.232562327738
 21
-226.5828614700204
 31
0.0
  0
LINE
  5
243
330
46
100
AcDbEntity
  8
3
  6
Continuous
 62
     7
100
AcDbLine
 10
624.232562327738
 20
-226.5828614700204
 30
0.0
 11
623.931370877738
 21
-226.4808897200204
 31
0.0
  0
LINE
  5
244
330
46
100
AcDbEntity
  8
3
  6
Continuous
 62
     7
100
AcDbLine
 10
623.931370877738
 20
-226.4808897200204
 30
0.0
 11
623.636317377738
 21
-226.3768504300203
 31
0.0
  0
LINE
  5
245
330
46
100
AcDbEntity
  8
3
  6
Continuous
 62
     7
100
AcDbLine
 10
623.636317377738
 20
-226.3768504300203
 30
0.0
 11
623.347581797738
 21
-226.2708090200203
 31
0.0
  0
LINE
  5
246
330
46
100
AcDbEntity
  8
3
  6
Continuous
 62
     7
100
AcDbLine
 10
623.347581797738
 20
-226.2708090200203
 30
0.0
 11
623.0653360977381
 21
-226.1628333300204
 31
0.0
  0
LINE
  5
247
330
46
100
AcDbEntity
  8
3
  6
Continuous
 62
     7
100
AcDbLine
 10
623.0653360977381
 20
-226.1628333300204
 30
0.0
 11
622.789743887738
 21
-226.0529934700204
 31
0.0
  0
LINE
  5
248
330
46
100
AcDbEntity
  8
3
  6
Continuous
 62
     7
100
AcDbLine
 10
622.789743887738
 20
-226.0529934700204
 30
0.0
 11
622.520960087738
 21
-225.9413616500204
 31
0.0
  0
LINE
  5
249
330
46
100
AcDbEntity
  8
3
  6
Continuous
 62
     7
100
AcDbLine
 10
622.520960087738
 20
-225.9413616500204
 30
0.0
 11
622.259130697738
 21
-225.8280120700203
 31
0.0
  0
LINE
  5
24A
330
46
100
AcDbEntity
  8
3
  6
Continuous
 62
     7
100
AcDbLine
 10
622.259130697738
 20
-225.8280120700203
 30
0.0
 11
622.004392507738
 21
-225.7130206900204
 31
0.0
  0
LINE
  5
24B
330
46
100
AcDbEntity
  8
3
  6
Continuous
 62
     7
100
AcDbLine
 10
622.004392507738
 20
-225.7130206900204
 30
0.0
 11
621.756872857738
 21
-225.5964651300204
 31
0.0
  0
LINE
  5
24C
330
46
100
AcDbEntity
  8
3
  6
Continuous
 62
     7
100
AcDbLine
 10
621.756872857738
 20
-225.5964651300204
 30
0.0
 11
621.516689487738
 21
-225.4784244600204
 31
0.0
  0
LINE
  5
24D
330
46
100
AcDbEntity
  8
3
  6
Continuous
 62
     7
100
AcDbLine
 10
621.516689487738
 20
-225.4784244600204
 30
0.0
 11
621.283950307738
 21
-225.3589790400204
 31
0.0
  0
LINE
  5
24E
330
46
100
AcDbEntity
  8
3
  6
Continuous
 62
     7
100
AcDbLine
 10
621.283950307738
 20
-225.3589790400204
 30
0.0
 11
621.058753337738
 21
-225.2382103500205
 31
0.0
  0
LINE
  5
24F
330
46
100
AcDbEntity
  8
3
  6
Continuous
 62
     7
100
AcDbLine
 10
621.058753337738
 20
-225.2382103500205
 30
0.0
 11
620.841186547738
 21
-225.1162008000203
 31
0.0
  0
LINE
  5
250
330
46
100
AcDbEntity
  8
3
  6
Continuous
 62
     7
100
AcDbLine
 10
620.841186547738
 20
-225.1162008000203
 30
0.0
 11
620.631327837738
 21
-224.9930335500204
 31
0.0
  0
LINE
  5
251
330
46
100
AcDbEntity
  8
3
  6
Continuous
 62
     7
100
AcDbLine
 10
620.631327837738
 20
-224.9930335500204
 30
0.0
 11
620.429244947738
 21
-224.8687923500205
 31
0.0
  0
LINE
  5
252
330
46
100
AcDbEntity
  8
3
  6
Continuous
 62
     7
100
AcDbLine
 10
620.429244947738
 20
-224.8687923500205
 30
0.0
 11
620.2349954877381
 21
-224.7435613600204
 31
0.0
  0
LINE
  5
253
330
46
100
AcDbEntity
  8
3
  6
Continuous
 62
     7
100
AcDbLine
 10
620.2349954877381
 20
-224.7435613600204
 30
0.0
 11
620.048626957738
 21
-224.6174249500203
 31
0.0
  0
LINE
  5
254
330
46
100
AcDbEntity
  8
3
  6
Continuous
 62
     7
100
AcDbLine
 10
620.048626957738
 20
-224.6174249500203
 30
0.0
 11
619.8701767877381
 21
-224.4904675800204
 31
0.0
  0
LINE
  5
255
330
46
100
AcDbEntity
  8
3
  6
Continuous
 62
     7
100
AcDbLine
 10
619.8701767877381
 20
-224.4904675800204
 30
0.0
 11
619.699672447738
 21
-224.3627735600204
 31
0.0
  0
LINE
  5
256
330
46
100
AcDbEntity
  8
3
  6
Continuous
 62
     7
100
AcDbLine
 10
619.699672447738
 20
-224.3627735600204
 30
0.0
 11
619.537131527738
 21
-224.2344269500205
 31
0.0
  0
LINE
  5
257
330
46
100
AcDbEntity
  8
3
  6
Continuous
 62
     7
100
AcDbLine
 10
619.537131527738
 20
-224.2344269500205
 30
0.0
 11
619.382561887738
 21
-224.1055113600204
 31
0.0
  0
LINE
  5
258
330
46
100
AcDbEntity
  8
3
  6
Continuous
 62
     7
100
AcDbLine
 10
619.382561887738
 20
-224.1055113600204
 30
0.0
 11
619.2359618377381
 21
-223.9761098000204
 31
0.0
  0
LINE
  5
259
330
46
100
AcDbEntity
  8
3
  6
Continuous
 62
     7
100
AcDbLine
 10
619.2359618377381
 20
-223.9761098000204
 30
0.0
 11
619.097320307738
 21
-223.8463045200203
 31
0.0
  0
LINE
  5
25A
330
46
100
AcDbEntity
  8
3
  6
Continuous
 62
     7
100
AcDbLine
 10
619.097320307738
 20
-223.8463045200203
 30
0.0
 11
618.966617067738
 21
-223.7161769100204
 31
0.0
  0
LINE
  5
25B
330
46
100
AcDbEntity
  8
3
  6
Continuous
 62
     7
100
AcDbLine
 10
618.966617067738
 20
-223.7161769100204
 30
0.0
 11
618.843822957738
 21
-223.5858073000205
 31
0.0
  0
LINE
  5
25C
330
46
100
AcDbEntity
  8
3
  6
Continuous
 62
     7
100
AcDbLine
 10
618.843822957738
 20
-223.5858073000205
 30
0.0
 11
618.728900137738
 21
-223.4552748500204
 31
0.0
  0
LINE
  5
25D
330
46
100
AcDbEntity
  8
3
  6
Continuous
 62
     7
100
AcDbLine
 10
618.728900137738
 20
-223.4552748500204
 30
0.0
 11
618.6218023877379
 21
-223.3246574500204
 31
0.0
  0
LINE
  5
25E
330
46
100
AcDbEntity
  8
3
  6
Continuous
 62
     7
100
AcDbLine
 10
618.6218023877379
 20
-223.3246574500204
 30
0.0
 11
618.522475337738
 21
-223.1940315400204
 31
0.0
  0
LINE
  5
25F
330
46
100
AcDbEntity
  8
3
  6
Continuous
 62
     7
100
AcDbLine
 10
618.522475337738
 20
-223.1940315400204
 30
0.0
 11
618.430856847738
 21
-223.0634720900203
 31
0.0
  0
LINE
  5
260
330
46
100
AcDbEntity
  8
3
  6
Continuous
 62
     7
100
AcDbLine
 10
618.430856847738
 20
-223.0634720900203
 30
0.0
 11
618.346877247738
 21
-222.9330523900204
 31
0.0
  0
LINE
  5
261
330
46
100
AcDbEntity
  8
3
  6
Continuous
 62
     7
100
AcDbLine
 10
618.346877247738
 20
-222.9330523900204
 30
0.0
 11
618.2704597177381
 21
-222.8028440400204
 31
0.0
  0
LINE
  5
262
330
46
100
AcDbEntity
  8
3
  6
Continuous
 62
     7
100
AcDbLine
 10
618.2704597177381
 20
-222.8028440400204
 30
0.0
 11
618.201520607738
 21
-222.6729168300204
 31
0.0
  0
LINE
  5
263
330
46
100
AcDbEntity
  8
3
  6
Continuous
 62
     7
100
AcDbLine
 10
618.201520607738
 20
-222.6729168300204
 30
0.0
 11
618.139969767738
 21
-222.5433386400203
 31
0.0
  0
LINE
  5
264
330
46
100
AcDbEntity
  8
3
  6
Continuous
 62
     7
100
AcDbLine
 10
618.139969767738
 20
-222.5433386400203
 30
0.0
 11
618.085710947738
 21
-222.4141754000204
 31
0.0
  0
LINE
  5
265
330
46
100
AcDbEntity
  8
3
  6
Continuous
 62
     7
100
AcDbLine
 10
618.085710947738
 20
-222.4141754000204
 30
0.0
 11
618.038642097738
 21
-222.2854910400204
 31
0.0
  0
LINE
  5
266
330
46
100
AcDbEntity
  8
3
  6
Continuous
 62
     7
100
AcDbLine
 10
618.038642097738
 20
-222.2854910400204
 30
0.0
 11
617.998655747738
 21
-222.1573472600204
 31
0.0
  0
LINE
  5
267
330
46
100
AcDbEntity
  8
3
  6
Continuous
 62
     7
100
AcDbLine
 10
617.998655747738
 20
-222.1573472600204
 30
0.0
 11
617.965639407738
 21
-222.0298041900204
 31
0.0
  0
LINE
  5
268
330
46
100
AcDbEntity
  8
3
  6
Continuous
 62
     7
100
AcDbLine
 10
617.965639407738
 20
-222.0298041900204
 30
0.0
 11
617.939475857738
 21
-221.9029177000203
 31
0.0
  0
LINE
  5
269
330
46
100
AcDbEntity
  8
3
  6
Continuous
 62
     7
100
AcDbLine
 10
617.939475857738
 20
-221.9029177000203
 30
0.0
 11
617.9200435677381
 21
-221.7767492600204
 31
0.0
  0
LINE
  5
26A
330
46
100
AcDbEntity
  8
3
  6
Continuous
 62
     7
100
AcDbLine
 10
617.9200435677381
 20
-221.7767492600204
 30
0.0
 11
617.907217037738
 21
-221.6513291000203
 31
0.0
  0
LINE
  5
26B
330
46
100
AcDbEntity
  8
3
  6
Continuous
 62
     7
100
AcDbLine
 10
617.907217037738
 20
-221.6513291000203
 30
0.0
 11
617.900867147738
 21
-221.5267927000203
 31
0.0
  0
LINE
  5
26C
330
46
100
AcDbEntity
  8
3
  6
Continuous
 62
     7
100
AcDbLine
 10
617.900867147738
 20
-221.5267927000203
 30
0.0
 11
617.900867147738
 21
-221.4027644500205
 31
0.0
  0
LINE
  5
26D
330
46
100
AcDbEntity
  8
3
  6
Continuous
 62
     7
100
AcDbLine
 10
617.900867147738
 20
-221.4027644500205
 30
0.0
 11
617.907217037738
 21
-221.2782280500204
 31
0.0
  0
LINE
  5
26E
330
46
100
AcDbEntity
  8
3
  6
Continuous
 62
     7
100
AcDbLine
 10
617.907217037738
 20
-221.2782280500204
 30
0.0
 11
617.9200435677381
 21
-221.1528079000204
 31
0.0
  0
LINE
  5
26F
330
46
100
AcDbEntity
  8
3
  6
Continuous
 62
     7
100
AcDbLine
 10
617.9200435677381
 20
-221.1528079000204
 30
0.0
 11
617.939475857738
 21
-221.0266394500205
 31
0.0
  0
LINE
  5
270
330
46
100
AcDbEntity
  8
3
  6
Continuous
 62
     7
100
AcDbLine
 10
617.939475857738
 20
-221.0266394500205
 30
0.0
 11
617.965639407738
 21
-220.8997529600203
 31
0.0
  0
LINE
  5
271
330
46
100
AcDbEntity
  8
3
  6
Continuous
 62
     7
100
AcDbLine
 10
617.965639407738
 20
-220.8997529600203
 30
0.0
 11
617.998655747738
 21
-220.7722099000204
 31
0.0
  0
LINE
  5
272
330
46
100
AcDbEntity
  8
3
  6
Continuous
 62
     7
100
AcDbLine
 10
617.998655747738
 20
-220.7722099000204
 30
0.0
 11
618.038642097738
 21
-220.6440661200205
 31
0.0
  0
LINE
  5
273
330
46
100
AcDbEntity
  8
3
  6
Continuous
 62
     7
100
AcDbLine
 10
618.038642097738
 20
-220.6440661200205
 30
0.0
 11
618.085710947738
 21
-220.5153817500204
 31
0.0
  0
LINE
  5
274
330
46
100
AcDbEntity
  8
3
  6
Continuous
 62
     7
100
AcDbLine
 10
618.085710947738
 20
-220.5153817500204
 30
0.0
 11
618.139969767738
 21
-220.3862185100205
 31
0.0
  0
LINE
  5
275
330
46
100
AcDbEntity
  8
3
  6
Continuous
 62
     7
100
AcDbLine
 10
618.139969767738
 20
-220.3862185100205
 30
0.0
 11
618.201520607738
 21
-220.2566403200204
 31
0.0
  0
LINE
  5
276
330
46
100
AcDbEntity
  8
3
  6
Continuous
 62
     7
100
AcDbLine
 10
618.201520607738
 20
-220.2566403200204
 30
0.0
 11
618.2704597177381
 21
-220.1267131100204
 31
0.0
  0
LINE
  5
277
330
46
100
AcDbEntity
  8
3
  6
Continuous
 62
     7
100
AcDbLine
 10
618.2704597177381
 20
-220.1267131100204
 30
0.0
 11
618.346877247738
 21
-219.9965047600203
 31
0.0
  0
LINE
  5
278
330
46
100
AcDbEntity
  8
3
  6
Continuous
 62
     7
100
AcDbLine
 10
618.346877247738
 20
-219.9965047600203
 30
0.0
 11
618.430856847738
 21
-219.8660850700204
 31
0.0
  0
LINE
  5
279
330
46
100
AcDbEntity
  8
3
  6
Continuous
 62
     7
100
AcDbLine
 10
618.430856847738
 20
-219.8660850700204
 30
0.0
 11
618.522475337738
 21
-219.7355256100204
 31
0.0
  0
LINE
  5
27A
330
46
100
AcDbEntity
  8
3
  6
Continuous
 62
     7
100
AcDbLine
 10
618.522475337738
 20
-219.7355256100204
 30
0.0
 11
618.6218023877379
 21
-219.6048997100205
 31
0.0
  0
LINE
  5
27B
330
46
100
AcDbEntity
  8
3
  6
Continuous
 62
     7
100
AcDbLine
 10
618.6218023877379
 20
-219.6048997100205
 30
0.0
 11
618.728900137738
 21
-219.4742823000205
 31
0.0
  0
LINE
  5
27C
330
46
100
AcDbEntity
  8
3
  6
Continuous
 62
     7
100
AcDbLine
 10
618.728900137738
 20
-219.4742823000205
 30
0.0
 11
618.843822957738
 21
-219.3437498500203
 31
0.0
  0
LINE
  5
27D
330
46
100
AcDbEntity
  8
3
  6
Continuous
 62
     7
100
AcDbLine
 10
618.843822957738
 20
-219.3437498500203
 30
0.0
 11
618.966617067738
 21
-219.2133802400203
 31
0.0
  0
LINE
  5
27E
330
46
100
AcDbEntity
  8
3
  6
Continuous
 62
     7
100
AcDbLine
 10
618.966617067738
 20
-219.2133802400203
 30
0.0
 11
619.097320307738
 21
-219.0832526300204
 31
0.0
  0
LINE
  5
27F
330
46
100
AcDbEntity
  8
3
  6
Continuous
 62
     7
100
AcDbLine
 10
619.097320307738
 20
-219.0832526300204
 30
0.0
 11
619.2359618377381
 21
-218.9534473600205
 31
0.0
  0
LINE
  5
280
330
46
100
AcDbEntity
  8
3
  6
Continuous
 62
     7
100
AcDbLine
 10
619.2359618377381
 20
-218.9534473600205
 30
0.0
 11
619.382561887738
 21
-218.8240457900204
 31
0.0
  0
LINE
  5
281
330
46
100
AcDbEntity
  8
3
  6
Continuous
 62
     7
100
AcDbLine
 10
619.382561887738
 20
-218.8240457900204
 30
0.0
 11
619.537131527738
 21
-218.6951302000203
 31
0.0
  0
LINE
  5
282
330
46
100
AcDbEntity
  8
3
  6
Continuous
 62
     7
100
AcDbLine
 10
619.537131527738
 20
-218.6951302000203
 30
0.0
 11
619.699672447738
 21
-218.5667835900203
 31
0.0
  0
LINE
  5
283
330
46
100
AcDbEntity
  8
3
  6
Continuous
 62
     7
100
AcDbLine
 10
619.699672447738
 20
-218.5667835900203
 30
0.0
 11
619.8701767877381
 21
-218.4390895700204
 31
0.0
  0
LINE
  5
284
330
46
100
AcDbEntity
  8
3
  6
Continuous
 62
     7
100
AcDbLine
 10
619.8701767877381
 20
-218.4390895700204
 30
0.0
 11
620.048626957738
 21
-218.3121322000204
 31
0.0
  0
LINE
  5
285
330
46
100
AcDbEntity
  8
3
  6
Continuous
 62
     7
100
AcDbLine
 10
620.048626957738
 20
-218.3121322000204
 30
0.0
 11
620.2349954877381
 21
-218.1859958000203
 31
0.0
  0
LINE
  5
286
330
46
100
AcDbEntity
  8
3
  6
Continuous
 62
     7
100
AcDbLine
 10
620.2349954877381
 20
-218.1859958000203
 30
0.0
 11
620.429244947738
 21
-218.0607648000204
 31
0.0
  0
LINE
  5
287
330
46
100
AcDbEntity
  8
3
  6
Continuous
 62
     7
100
AcDbLine
 10
620.429244947738
 20
-218.0607648000204
 30
0.0
 11
620.631327837738
 21
-217.9365236000203
 31
0.0
  0
LINE
  5
288
330
46
100
AcDbEntity
  8
3
  6
Continuous
 62
     7
100
AcDbLine
 10
620.631327837738
 20
-217.9365236000203
 30
0.0
 11
620.841186547738
 21
-217.8133563500204
 31
0.0
  0
LINE
  5
289
330
46
100
AcDbEntity
  8
3
  6
Continuous
 62
     7
100
AcDbLine
 10
620.841186547738
 20
-217.8133563500204
 30
0.0
 11
621.058753337738
 21
-217.6913468000204
 31
0.0
  0
LINE
  5
28A
330
46
100
AcDbEntity
  8
3
  6
Continuous
 62
     7
100
AcDbLine
 10
621.058753337738
 20
-217.6913468000204
 30
0.0
 11
621.283950307738
 21
-217.5705781100204
 31
0.0
  0
LINE
  5
28B
330
46
100
AcDbEntity
  8
3
  6
Continuous
 62
     7
100
AcDbLine
 10
621.283950307738
 20
-217.5705781100204
 30
0.0
 11
621.516689487738
 21
-217.4511326900204
 31
0.0
  0
LINE
  5
28C
330
46
100
AcDbEntity
  8
3
  6
Continuous
 62
     7
100
AcDbLine
 10
621.516689487738
 20
-217.4511326900204
 30
0.0
 11
621.756872857738
 21
-217.3330920300203
 31
0.0
  0
LINE
  5
28D
330
46
100
AcDbEntity
  8
3
  6
Continuous
 62
     7
100
AcDbLine
 10
621.756872857738
 20
-217.3330920300203
 30
0.0
 11
622.004392507738
 21
-217.2165364700205
 31
0.0
  0
LINE
  5
28E
330
46
100
AcDbEntity
  8
3
  6
Continuous
 62
     7
100
AcDbLine
 10
622.004392507738
 20
-217.2165364700205
 30
0.0
 11
622.259130697738
 21
-217.1015450900205
 31
0.0
  0
LINE
  5
28F
330
46
100
AcDbEntity
  8
3
  6
Continuous
 62
     7
100
AcDbLine
 10
632.896383625499
 20
-214.6215027963557
 30
0.0
 11
633.118449877738
 21
-214.5994210900204
 31
0.0
  0
LINE
  5
290
330
46
100
AcDbEntity
  8
3
  6
Continuous
 62
     7
100
AcDbLine
 10
633.118449877738
 20
-214.5994210900204
 30
0.0
 11
633.500389727738
 21
-214.5641228700204
 31
0.0
  0
LINE
  5
291
330
46
100
AcDbEntity
  8
3
  6
Continuous
 62
     7
100
AcDbLine
 10
633.500389727738
 20
-214.5641228700204
 30
0.0
 11
633.882244277738
 21
-214.5314720800204
 31
0.0
  0
LINE
  5
292
330
46
100
AcDbEntity
  8
3
  6
Continuous
 62
     7
100
AcDbLine
 10
633.882244277738
 20
-214.5314720800204
 30
0.0
 11
634.263796767738
 21
-214.5014461700204
 31
0.0
  0
LINE
  5
293
330
46
100
AcDbEntity
  8
3
  6
Continuous
 62
     7
100
AcDbLine
 10
634.263796767738
 20
-214.5014461700204
 30
0.0
 11
634.6448353177381
 21
-214.4740200800205
 31
0.0
  0
LINE
  5
294
330
46
100
AcDbEntity
  8
3
  6
Continuous
 62
     7
100
AcDbLine
 10
634.6448353177381
 20
-214.4740200800205
 30
0.0
 11
635.025153227738
 21
-214.4491663400205
 31
0.0
  0
LINE
  5
295
330
46
100
AcDbEntity
  8
3
  6
Continuous
 62
     7
100
AcDbLine
 10
635.025153227738
 20
-214.4491663400205
 30
0.0
 11
635.404549207738
 21
-214.4268552400204
 31
0.0
  0
LINE
  5
296
330
46
100
AcDbEntity
  8
3
  6
Continuous
 62
     7
100
AcDbLine
 10
635.404549207738
 20
-214.4268552400204
 30
0.0
 11
635.7828275977381
 21
-214.4070548600204
 31
0.0
  0
LINE
  5
297
330
46
100
AcDbEntity
  8
3
  6
Continuous
 62
     7
100
AcDbLine
 10
635.7828275977381
 20
-214.4070548600204
 30
0.0
 11
636.1597985677381
 21
-214.3897312900203
 31
0.0
  0
LINE
  5
298
330
46
100
AcDbEntity
  8
3
  6
Continuous
 62
     7
100
AcDbLine
 10
636.1597985677381
 20
-214.3897312900203
 30
0.0
 11
636.535278337738
 21
-214.3748486800204
 31
0.0
  0
LINE
  5
299
330
46
100
AcDbEntity
  8
3
  6
Continuous
 62
     7
100
AcDbLine
 10
636.535278337738
 20
-214.3748486800204
 30
0.0
 11
636.9090891677381
 21
-214.3623694000204
 31
0.0
  0
LINE
  5
29A
330
46
100
AcDbEntity
  8
3
  6
Continuous
 62
     7
100
AcDbLine
 10
636.9090891677381
 20
-214.3623694000204
 30
0.0
 11
637.281059947738
 21
-214.3522541500205
 31
0.0
  0
LINE
  5
29B
330
46
100
AcDbEntity
  8
3
  6
Continuous
 62
     7
100
AcDbLine
 10
637.281059947738
 20
-214.3522541500205
 30
0.0
 11
637.6510250277379
 21
-214.3444620800204
 31
0.0
  0
LINE
  5
29C
330
46
100
AcDbEntity
  8
3
  6
Continuous
 62
     7
100
AcDbLine
 10
637.6510250277379
 20
-214.3444620800204
 30
0.0
 11
638.018827787738
 21
-214.3389509500204
 31
0.0
  0
LINE
  5
29D
330
46
100
AcDbEntity
  8
3
  6
Continuous
 62
     7
100
AcDbLine
 10
638.018827787738
 20
-214.3389509500204
 30
0.0
 11
638.3843120977381
 21
-214.3356771800205
 31
0.0
  0
LINE
  5
29E
330
46
100
AcDbEntity
  8
3
  6
Continuous
 62
     7
100
AcDbLine
 10
638.3843120977381
 20
-214.3356771800205
 30
0.0
 11
638.747338747738
 21
-214.3345960500204
 31
0.0
  0
LINE
  5
29F
330
46
100
AcDbEntity
  8
3
  6
Continuous
 62
     7
100
AcDbLine
 10
638.747338747738
 20
-214.3345960500204
 30
0.0
 11
639.1103653877381
 21
-214.3356771800205
 31
0.0
  0
LINE
  5
2A0
330
46
100
AcDbEntity
  8
3
  6
Continuous
 62
     7
100
AcDbLine
 10
639.1103653877381
 20
-214.3356771800205
 30
0.0
 11
639.4758496977381
 21
-214.3389509500204
 31
0.0
  0
LINE
  5
2A1
330
46
100
AcDbEntity
  8
3
  6
Continuous
 62
     7
100
AcDbLine
 10
639.4758496977381
 20
-214.3389509500204
 30
0.0
 11
639.843652457738
 21
-214.3444620800204
 31
0.0
  0
LINE
  5
2A2
330
46
100
AcDbEntity
  8
3
  6
Continuous
 62
     7
100
AcDbLine
 10
639.843652457738
 20
-214.3444620800204
 30
0.0
 11
640.213617537738
 21
-214.3522541500205
 31
0.0
  0
LINE
  5
2A3
330
46
100
AcDbEntity
  8
3
  6
Continuous
 62
     7
100
AcDbLine
 10
640.213617537738
 20
-214.3522541500205
 30
0.0
 11
640.585588317738
 21
-214.3623694000204
 31
0.0
  0
LINE
  5
2A4
330
46
100
AcDbEntity
  8
3
  6
Continuous
 62
     7
100
AcDbLine
 10
640.585588317738
 20
-214.3623694000204
 30
0.0
 11
640.9593991477379
 21
-214.3748486800204
 31
0.0
  0
LINE
  5
2A5
330
46
100
AcDbEntity
  8
3
  6
Continuous
 62
     7
100
AcDbLine
 10
640.9593991477379
 20
-214.3748486800204
 30
0.0
 11
641.334878917738
 21
-214.3897312900203
 31
0.0
  0
LINE
  5
2A6
330
46
100
AcDbEntity
  8
3
  6
Continuous
 62
     7
100
AcDbLine
 10
641.334878917738
 20
-214.3897312900203
 30
0.0
 11
641.711849887738
 21
-214.4070548600204
 31
0.0
  0
LINE
  5
2A7
330
46
100
AcDbEntity
  8
3
  6
Continuous
 62
     7
100
AcDbLine
 10
641.711849887738
 20
-214.4070548600204
 30
0.0
 11
642.0901282777379
 21
-214.4268552400204
 31
0.0
  0
LINE
  5
2A8
330
46
100
AcDbEntity
  8
3
  6
Continuous
 62
     7
100
AcDbLine
 10
642.0901282777379
 20
-214.4268552400204
 30
0.0
 11
642.4695242577379
 21
-214.4491663400205
 31
0.0
  0
LINE
  5
2A9
330
46
100
AcDbEntity
  8
3
  6
Continuous
 62
     7
100
AcDbLine
 10
642.4695242577379
 20
-214.4491663400205
 30
0.0
 11
642.849842167738
 21
-214.4740200800205
 31
0.0
  0
LINE
  5
2AA
330
46
100
AcDbEntity
  8
3
  6
Continuous
 62
     7
100
AcDbLine
 10
642.849842167738
 20
-214.4740200800205
 30
0.0
 11
643.2308807277379
 21
-214.5014461700204
 31
0.0
  0
LINE
  5
2AB
330
46
100
AcDbEntity
  8
3
  6
Continuous
 62
     7
100
AcDbLine
 10
643.2308807277379
 20
-214.5014461700204
 30
0.0
 11
643.6124332077379
 21
-214.5314720800204
 31
0.0
  0
LINE
  5
2AC
330
46
100
AcDbEntity
  8
3
  6
Continuous
 62
     7
100
AcDbLine
 10
643.6124332077379
 20
-214.5314720800204
 30
0.0
 11
643.994287757738
 21
-214.5641228700204
 31
0.0
  0
LINE
  5
2AD
330
46
100
AcDbEntity
  8
3
  6
Continuous
 62
     7
100
AcDbLine
 10
643.994287757738
 20
-214.5641228700204
 30
0.0
 11
644.376227607738
 21
-214.5994210900204
 31
0.0
  0
LINE
  5
2AE
330
46
100
AcDbEntity
  8
3
  6
Continuous
 62
     7
100
AcDbLine
 10
644.376227607738
 20
-214.5994210900204
 30
0.0
 11
644.7580313677381
 21
-214.6373866900204
 31
0.0
  0
LINE
  5
2AF
330
46
100
AcDbEntity
  8
3
  6
Continuous
 62
     7
100
AcDbLine
 10
644.7580313677381
 20
-214.6373866900204
 30
0.0
 11
645.139473367738
 21
-214.6780368800204
 31
0.0
  0
LINE
  5
2B0
330
46
100
AcDbEntity
  8
3
  6
Continuous
 62
     7
100
AcDbLine
 10
645.139473367738
 20
-214.6780368800204
 30
0.0
 11
645.520323987738
 21
-214.7213860500204
 31
0.0
  0
LINE
  5
2B1
330
46
100
AcDbEntity
  8
3
  6
Continuous
 62
     7
100
AcDbLine
 10
645.520323987738
 20
-214.7213860500204
 30
0.0
 11
645.9003500077381
 21
-214.7674456600204
 31
0.0
  0
LINE
  5
2B2
330
46
100
AcDbEntity
  8
3
  6
Continuous
 62
     7
100
AcDbLine
 10
645.9003500077381
 20
-214.7674456600204
 30
0.0
 11
646.2793149577381
 21
-214.8162241700205
 31
0.0
  0
LINE
  5
2B3
330
46
100
AcDbEntity
  8
3
  6
Continuous
 62
     7
100
AcDbLine
 10
646.2793149577381
 20
-214.8162241700205
 30
0.0
 11
646.656979597738
 21
-214.8677269500204
 31
0.0
  0
LINE
  5
2B4
330
46
100
AcDbEntity
  8
3
  6
Continuous
 62
     7
100
AcDbLine
 10
646.656979597738
 20
-214.8677269500204
 30
0.0
 11
647.0331022377379
 21
-214.9219561800204
 31
0.0
  0
LINE
  5
2B5
330
46
100
AcDbEntity
  8
3
  6
Continuous
 62
     7
100
AcDbLine
 10
647.0331022377379
 20
-214.9219561800204
 30
0.0
 11
647.4074392377379
 21
-214.9789108200204
 31
0.0
  0
LINE
  5
2B6
330
46
100
AcDbEntity
  8
3
  6
Continuous
 62
     7
100
AcDbLine
 10
647.4074392377379
 20
-214.9789108200204
 30
0.0
 11
647.7797454477379
 21
-215.0385865100204
 31
0.0
  0
LINE
  5
2B7
330
46
100
AcDbEntity
  8
3
  6
Continuous
 62
     7
100
AcDbLine
 10
647.7797454477379
 20
-215.0385865100204
 30
0.0
 11
648.1497746577379
 21
-215.1009755700205
 31
0.0
  0
LINE
  5
2B8
330
46
100
AcDbEntity
  8
3
  6
Continuous
 62
     7
100
AcDbLine
 10
648.1497746577379
 20
-215.1009755700205
 30
0.0
 11
648.5172800677381
 21
-215.1660669000204
 31
0.0
  0
LINE
  5
2B9
330
46
100
AcDbEntity
  8
3
  6
Continuous
 62
     7
100
AcDbLine
 10
648.5172800677381
 20
-215.1660669000204
 30
0.0
 11
648.8820148177381
 21
-215.2338459700205
 31
0.0
  0
LINE
  5
2BA
330
46
100
AcDbEntity
  8
3
  6
Continuous
 62
     7
100
AcDbLine
 10
648.8820148177381
 20
-215.2338459700205
 30
0.0
 11
649.243732467738
 21
-215.3042948100203
 31
0.0
  0
LINE
  5
2BB
330
46
100
AcDbEntity
  8
3
  6
Continuous
 62
     7
100
AcDbLine
 10
649.243732467738
 20
-215.3042948100203
 30
0.0
 11
649.602187497738
 21
-215.3773919900204
 31
0.0
  0
LINE
  5
2BC
330
46
100
AcDbEntity
  8
3
  6
Continuous
 62
     7
100
AcDbLine
 10
649.602187497738
 20
-215.3773919900204
 30
0.0
 11
649.9571358177379
 21
-215.4531126000205
 31
0.0
  0
LINE
  5
2BD
330
46
100
AcDbEntity
  8
3
  6
Continuous
 62
     7
100
AcDbLine
 10
649.9571358177379
 20
-215.4531126000205
 30
0.0
 11
650.3083353077379
 21
-215.5314282700203
 31
0.0
  0
LINE
  5
2BE
330
46
100
AcDbEntity
  8
3
  6
Continuous
 62
     7
100
AcDbLine
 10
650.3083353077379
 20
-215.5314282700203
 30
0.0
 11
650.6555463177381
 21
-215.6123071900205
 31
0.0
  0
LINE
  5
2BF
330
46
100
AcDbEntity
  8
3
  6
Continuous
 62
     7
100
AcDbLine
 10
650.6555463177381
 20
-215.6123071900205
 30
0.0
 11
650.998532207738
 21
-215.6957141400204
 31
0.0
  0
LINE
  5
2C0
330
46
100
AcDbEntity
  8
3
  6
Continuous
 62
     7
100
AcDbLine
 10
650.998532207738
 20
-215.6957141400204
 30
0.0
 11
651.3370598277379
 21
-215.7816105300204
 31
0.0
  0
LINE
  5
2C1
330
46
100
AcDbEntity
  8
3
  6
Continuous
 62
     7
100
AcDbLine
 10
651.3370598277379
 20
-215.7816105300204
 30
0.0
 11
651.6709000677381
 21
-215.8699544400204
 31
0.0
  0
LINE
  5
2C2
330
46
100
AcDbEntity
  8
3
  6
Continuous
 62
     7
100
AcDbLine
 10
651.6709000677381
 20
-215.8699544400204
 30
0.0
 11
651.999828327738
 21
-215.9607006900204
 31
0.0
  0
LINE
  5
2C3
330
46
100
AcDbEntity
  8
3
  6
Continuous
 62
     7
100
AcDbLine
 10
651.999828327738
 20
-215.9607006900204
 30
0.0
 11
652.323625027738
 21
-216.0538009000205
 31
0.0
  0
LINE
  5
2C4
330
46
100
AcDbEntity
  8
3
  6
Continuous
 62
     7
100
AcDbLine
 10
652.323625027738
 20
-216.0538009000205
 30
0.0
 11
652.642076077738
 21
-216.1492036200203
 31
0.0
  0
LINE
  5
2C5
330
46
100
AcDbEntity
  8
3
  6
Continuous
 62
     7
100
AcDbLine
 10
652.642076077738
 20
-216.1492036200203
 30
0.0
 11
652.954973357738
 21
-216.2468543400204
 31
0.0
  0
LINE
  5
2C6
330
46
100
AcDbEntity
  8
3
  6
Continuous
 62
     7
100
AcDbLine
 10
652.954973357738
 20
-216.2468543400204
 30
0.0
 11
653.262115157738
 21
-216.3466956800204
 31
0.0
  0
LINE
  5
2C7
330
46
100
AcDbEntity
  8
3
  6
Continuous
 62
     7
100
AcDbLine
 10
653.262115157738
 20
-216.3466956800204
 30
0.0
 11
653.5633066177379
 21
-216.4486674300203
 31
0.0
  0
LINE
  5
2C8
330
46
100
AcDbEntity
  8
3
  6
Continuous
 62
     7
100
AcDbLine
 10
653.5633066177379
 20
-216.4486674300203
 30
0.0
 11
653.858360107738
 21
-216.5527067200204
 31
0.0
  0
LINE
  5
2C9
330
46
100
AcDbEntity
  8
3
  6
Continuous
 62
     7
100
AcDbLine
 10
653.858360107738
 20
-216.5527067200204
 30
0.0
 11
654.1470956877381
 21
-216.6587481300204
 31
0.0
  0
LINE
  5
2CA
330
46
100
AcDbEntity
  8
3
  6
Continuous
 62
     7
100
AcDbLine
 10
654.1470956877381
 20
-216.6587481300204
 30
0.0
 11
654.4293413877381
 21
-216.7667238200205
 31
0.0
  0
LINE
  5
2CB
330
46
100
AcDbEntity
  8
3
  6
Continuous
 62
     7
100
AcDbLine
 10
654.4293413877381
 20
-216.7667238200205
 30
0.0
 11
654.704933607738
 21
-216.8765636800203
 31
0.0
  0
LINE
  5
2CC
330
46
100
AcDbEntity
  8
3
  6
Continuous
 62
     7
100
AcDbLine
 10
654.704933607738
 20
-216.8765636800203
 30
0.0
 11
654.9905805188901
 21
-216.9951991251463
 31
0.0
  0
LINE
  5
2CD
330
46
100
AcDbEntity
  8
3
  6
Continuous
 62
     7
100
AcDbLine
 10
654.973717397738
 20
-216.9881955000204
 30
0.0
 11
655.235546787738
 21
-217.1015450900205
 31
0.0
  0
LINE
  5
2CE
330
46
100
AcDbEntity
  8
3
  6
Continuous
 62
     7
100
AcDbLine
 10
655.235546787738
 20
-217.1015450900205
 30
0.0
 11
655.4902849777379
 21
-217.2165364700205
 31
0.0
  0
LINE
  5
2CF
330
46
100
AcDbEntity
  8
3
  6
Continuous
 62
     7
100
AcDbLine
 10
655.4902849777379
 20
-217.2165364700205
 30
0.0
 11
655.7378046277379
 21
-217.3330920300203
 31
0.0
  0
LINE
  5
2D0
330
46
100
AcDbEntity
  8
3
  6
Continuous
 62
     7
100
AcDbLine
 10
655.7378046277379
 20
-217.3330920300203
 30
0.0
 11
655.9779880077381
 21
-217.4511326900204
 31
0.0
  0
LINE
  5
2D1
330
46
100
AcDbEntity
  8
3
  6
Continuous
 62
     7
100
AcDbLine
 10
655.9779880077381
 20
-217.4511326900204
 30
0.0
 11
656.2107271777379
 21
-217.5705781100204
 31
0.0
  0
LINE
  5
2D2
330
46
100
AcDbEntity
  8
3
  6
Continuous
 62
     7
100
AcDbLine
 10
656.2107271777379
 20
-217.5705781100204
 30
0.0
 11
656.435924147738
 21
-217.6913468000204
 31
0.0
  0
LINE
  5
2D3
330
46
100
AcDbEntity
  8
3
  6
Continuous
 62
     7
100
AcDbLine
 10
656.435924147738
 20
-217.6913468000204
 30
0.0
 11
656.6534909377381
 21
-217.8133563500204
 31
0.0
  0
LINE
  5
2D4
330
46
100
AcDbEntity
  8
3
  6
Continuous
 62
     7
100
AcDbLine
 10
656.6534909377381
 20
-217.8133563500204
 30
0.0
 11
656.863349647738
 21
-217.9365236000203
 31
0.0
  0
LINE
  5
2D5
330
46
100
AcDbEntity
  8
3
  6
Continuous
 62
     7
100
AcDbLine
 10
656.863349647738
 20
-217.9365236000203
 30
0.0
 11
657.0654325377379
 21
-218.0607648000204
 31
0.0
  0
LINE
  5
2D6
330
46
100
AcDbEntity
  8
3
  6
Continuous
 62
     7
100
AcDbLine
 10
657.0654325377379
 20
-218.0607648000204
 30
0.0
 11
657.259681997738
 21
-218.1859958000203
 31
0.0
  0
LINE
  5
2D7
330
46
100
AcDbEntity
  8
3
  6
Continuous
 62
     7
100
AcDbLine
 10
657.259681997738
 20
-218.1859958000203
 30
0.0
 11
657.4460505377381
 21
-218.3121322000204
 31
0.0
  0
LINE
  5
2D8
330
46
100
AcDbEntity
  8
3
  6
Continuous
 62
     7
100
AcDbLine
 10
657.4460505377381
 20
-218.3121322000204
 30
0.0
 11
657.6245006977381
 21
-218.4390895700204
 31
0.0
  0
LINE
  5
2D9
330
46
100
AcDbEntity
  8
3
  6
Continuous
 62
     7
100
AcDbLine
 10
657.6245006977381
 20
-218.4390895700204
 30
0.0
 11
657.7950050377381
 21
-218.5667835900203
 31
0.0
  0
LINE
  5
2DA
330
46
100
AcDbEntity
  8
3
  6
Continuous
 62
     7
100
AcDbLine
 10
657.7950050377381
 20
-218.5667835900203
 30
0.0
 11
657.9575459577379
 21
-218.6951302000203
 31
0.0
  0
LINE
  5
2DB
330
46
100
AcDbEntity
  8
3
  6
Continuous
 62
     7
100
AcDbLine
 10
657.9575459577379
 20
-218.6951302000203
 30
0.0
 11
658.112115597738
 21
-218.8240457900204
 31
0.0
  0
LINE
  5
2DC
330
46
100
AcDbEntity
  8
3
  6
Continuous
 62
     7
100
AcDbLine
 10
658.112115597738
 20
-218.8240457900204
 30
0.0
 11
658.258715647738
 21
-218.9534473600205
 31
0.0
  0
LINE
  5
2DD
330
46
100
AcDbEntity
  8
3
  6
Continuous
 62
     7
100
AcDbLine
 10
658.258715647738
 20
-218.9534473600205
 30
0.0
 11
658.3973571777381
 21
-219.0832526300204
 31
0.0
  0
LINE
  5
2DE
330
46
100
AcDbEntity
  8
3
  6
Continuous
 62
     7
100
AcDbLine
 10
658.3973571777381
 20
-219.0832526300204
 30
0.0
 11
658.5280604177381
 21
-219.2133802400203
 31
0.0
  0
LINE
  5
2DF
330
46
100
AcDbEntity
  8
3
  6
Continuous
 62
     7
100
AcDbLine
 10
658.5280604177381
 20
-219.2133802400203
 30
0.0
 11
658.650854537738
 21
-219.3437498500203
 31
0.0
  0
LINE
  5
2E0
330
46
100
AcDbEntity
  8
3
  6
Continuous
 62
     7
100
AcDbLine
 10
658.650854537738
 20
-219.3437498500203
 30
0.0
 11
658.7657773477381
 21
-219.4742823000205
 31
0.0
  0
LINE
  5
2E1
330
46
100
AcDbEntity
  8
3
  6
Continuous
 62
     7
100
AcDbLine
 10
658.7657773477381
 20
-219.4742823000205
 30
0.0
 11
658.872875097738
 21
-219.6048997100205
 31
0.0
  0
LINE
  5
2E2
330
46
100
AcDbEntity
  8
3
  6
Continuous
 62
     7
100
AcDbLine
 10
658.872875097738
 20
-219.6048997100205
 30
0.0
 11
658.972202147738
 21
-219.7355256100204
 31
0.0
  0
LINE
  5
2E3
330
46
100
AcDbEntity
  8
3
  6
Continuous
 62
     7
100
AcDbLine
 10
658.972202147738
 20
-219.7355256100204
 30
0.0
 11
659.063820637738
 21
-219.8660850700204
 31
0.0
  0
LINE
  5
2E4
330
46
100
AcDbEntity
  8
3
  6
Continuous
 62
     7
100
AcDbLine
 10
659.063820637738
 20
-219.8660850700204
 30
0.0
 11
659.147800237738
 21
-219.9965047600203
 31
0.0
  0
LINE
  5
2E5
330
46
100
AcDbEntity
  8
3
  6
Continuous
 62
     7
100
AcDbLine
 10
659.147800237738
 20
-219.9965047600203
 30
0.0
 11
659.2242177677381
 21
-220.1267131100204
 31
0.0
  0
LINE
  5
2E6
330
46
100
AcDbEntity
  8
3
  6
Continuous
 62
     7
100
AcDbLine
 10
659.2242177677381
 20
-220.1267131100204
 30
0.0
 11
659.293156887738
 21
-220.2566403200204
 31
0.0
  0
LINE
  5
2E7
330
46
100
AcDbEntity
  8
3
  6
Continuous
 62
     7
100
AcDbLine
 10
659.293156887738
 20
-220.2566403200204
 30
0.0
 11
659.3547077177379
 21
-220.3862185100205
 31
0.0
  0
LINE
  5
2E8
330
46
100
AcDbEntity
  8
3
  6
Continuous
 62
     7
100
AcDbLine
 10
659.3547077177379
 20
-220.3862185100205
 30
0.0
 11
659.408966537738
 21
-220.5153817500204
 31
0.0
  0
LINE
  5
2E9
330
46
100
AcDbEntity
  8
3
  6
Continuous
 62
     7
100
AcDbLine
 10
659.408966537738
 20
-220.5153817500204
 30
0.0
 11
659.4560353977381
 21
-220.6440661200205
 31
0.0
  0
LINE
  5
2EA
330
46
100
AcDbEntity
  8
3
  6
Continuous
 62
     7
100
AcDbLine
 10
659.4560353977381
 20
-220.6440661200205
 30
0.0
 11
659.4960217377379
 21
-220.7722099000204
 31
0.0
  0
LINE
  5
2EB
330
46
100
AcDbEntity
  8
3
  6
Continuous
 62
     7
100
AcDbLine
 10
659.4960217377379
 20
-220.7722099000204
 30
0.0
 11
659.5290380777381
 21
-220.8997529600203
 31
0.0
  0
LINE
  5
2EC
330
46
100
AcDbEntity
  8
3
  6
Continuous
 62
     7
100
AcDbLine
 10
659.5290380777381
 20
-220.8997529600203
 30
0.0
 11
659.5552016277379
 21
-221.0266394500205
 31
0.0
  0
LINE
  5
2ED
330
46
100
AcDbEntity
  8
3
  6
Continuous
 62
     7
100
AcDbLine
 10
659.5552016277379
 20
-221.0266394500205
 30
0.0
 11
659.5746339177381
 21
-221.1528079000204
 31
0.0
  0
LINE
  5
2EE
330
46
100
AcDbEntity
  8
3
  6
Continuous
 62
     7
100
AcDbLine
 10
659.5746339177381
 20
-221.1528079000204
 30
0.0
 11
659.5874604477381
 21
-221.2782280500204
 31
0.0
  0
LINE
  5
2EF
330
46
100
AcDbEntity
  8
3
  6
Continuous
 62
     7
100
AcDbLine
 10
659.5874604477381
 20
-221.2782280500204
 30
0.0
 11
659.593810337738
 21
-221.4027644500205
 31
0.0
  0
LINE
  5
2F0
330
46
100
AcDbEntity
  8
3
  6
Continuous
 62
     7
100
AcDbLine
 10
659.593810337738
 20
-221.4027644500205
 30
0.0
 11
659.593810337738
 21
-221.5267927000203
 31
0.0
  0
LINE
  5
2F1
330
46
100
AcDbEntity
  8
3
  6
Continuous
 62
     7
100
AcDbLine
 10
659.593810337738
 20
-221.5267927000203
 30
0.0
 11
659.5874604477381
 21
-221.6513291000203
 31
0.0
  0
LINE
  5
2F2
330
46
100
AcDbEntity
  8
3
  6
Continuous
 62
     7
100
AcDbLine
 10
659.5874604477381
 20
-221.6513291000203
 30
0.0
 11
659.5746339177381
 21
-221.7767492600204
 31
0.0
  0
LINE
  5
2F3
330
46
100
AcDbEntity
  8
3
  6
Continuous
 62
     7
100
AcDbLine
 10
659.5746339177381
 20
-221.7767492600204
 30
0.0
 11
659.5552016277379
 21
-221.9029177000203
 31
0.0
  0
LINE
  5
2F4
330
46
100
AcDbEntity
  8
3
  6
Continuous
 62
     7
100
AcDbLine
 10
659.5552016277379
 20
-221.9029177000203
 30
0.0
 11
659.5290380777381
 21
-222.0298041900204
 31
0.0
  0
LINE
  5
2F5
330
46
100
AcDbEntity
  8
3
  6
Continuous
 62
     7
100
AcDbLine
 10
659.5290380777381
 20
-222.0298041900204
 30
0.0
 11
659.4960217377379
 21
-222.1573472600204
 31
0.0
  0
LINE
  5
2F6
330
46
100
AcDbEntity
  8
3
  6
Continuous
 62
     7
100
AcDbLine
 10
659.4960217377379
 20
-222.1573472600204
 30
0.0
 11
659.4560353977381
 21
-222.2854910400204
 31
0.0
  0
LINE
  5
2F7
330
46
100
AcDbEntity
  8
3
  6
Continuous
 62
     7
100
AcDbLine
 10
659.4560353977381
 20
-222.2854910400204
 30
0.0
 11
659.408966537738
 21
-222.4141754000204
 31
0.0
  0
LINE
  5
2F8
330
46
100
AcDbEntity
  8
3
  6
Continuous
 62
     7
100
AcDbLine
 10
659.408966537738
 20
-222.4141754000204
 30
0.0
 11
659.3547077177379
 21
-222.5433386400203
 31
0.0
  0
LINE
  5
2F9
330
46
100
AcDbEntity
  8
3
  6
Continuous
 62
     7
100
AcDbLine
 10
659.3547077177379
 20
-222.5433386400203
 30
0.0
 11
659.293156887738
 21
-222.6729168300204
 31
0.0
  0
LINE
  5
2FA
330
46
100
AcDbEntity
  8
3
  6
Continuous
 62
     7
100
AcDbLine
 10
659.293156887738
 20
-222.6729168300204
 30
0.0
 11
659.2242177677381
 21
-222.8028440400204
 31
0.0
  0
LINE
  5
2FB
330
46
100
AcDbEntity
  8
3
  6
Continuous
 62
     7
100
AcDbLine
 10
659.2242177677381
 20
-222.8028440400204
 30
0.0
 11
659.147800237738
 21
-222.9330523900204
 31
0.0
  0
LINE
  5
2FC
330
46
100
AcDbEntity
  8
3
  6
Continuous
 62
     7
100
AcDbLine
 10
659.147800237738
 20
-222.9330523900204
 30
0.0
 11
659.063820637738
 21
-223.0634720900203
 31
0.0
  0
LINE
  5
2FD
330
46
100
AcDbEntity
  8
3
  6
Continuous
 62
     7
100
AcDbLine
 10
659.063820637738
 20
-223.0634720900203
 30
0.0
 11
658.972202147738
 21
-223.1940315400204
 31
0.0
  0
LINE
  5
2FE
330
46
100
AcDbEntity
  8
3
  6
Continuous
 62
     7
100
AcDbLine
 10
658.972202147738
 20
-223.1940315400204
 30
0.0
 11
658.872875097738
 21
-223.3246574500204
 31
0.0
  0
LINE
  5
2FF
330
46
100
AcDbEntity
  8
3
  6
Continuous
 62
     7
100
AcDbLine
 10
658.872875097738
 20
-223.3246574500204
 30
0.0
 11
658.7657773477381
 21
-223.4552748500204
 31
0.0
  0
LINE
  5
300
330
46
100
AcDbEntity
  8
3
  6
Continuous
 62
     7
100
AcDbLine
 10
658.7657773477381
 20
-223.4552748500204
 30
0.0
 11
658.650854537738
 21
-223.5858073000205
 31
0.0
  0
LINE
  5
301
330
46
100
AcDbEntity
  8
3
  6
Continuous
 62
     7
100
AcDbLine
 10
658.650854537738
 20
-223.5858073000205
 30
0.0
 11
658.5280604177381
 21
-223.7161769100204
 31
0.0
  0
LINE
  5
302
330
46
100
AcDbEntity
  8
3
  6
Continuous
 62
     7
100
AcDbLine
 10
658.5280604177381
 20
-223.7161769100204
 30
0.0
 11
658.3973571777381
 21
-223.8463045200203
 31
0.0
  0
LINE
  5
303
330
46
100
AcDbEntity
  8
3
  6
Continuous
 62
     7
100
AcDbLine
 10
658.3973571777381
 20
-223.8463045200203
 30
0.0
 11
658.258715647738
 21
-223.9761098000204
 31
0.0
  0
LINE
  5
304
330
46
100
AcDbEntity
  8
3
  6
Continuous
 62
     7
100
AcDbLine
 10
658.258715647738
 20
-223.9761098000204
 30
0.0
 11
658.112115597738
 21
-224.1055113600204
 31
0.0
  0
LINE
  5
305
330
46
100
AcDbEntity
  8
3
  6
Continuous
 62
     7
100
AcDbLine
 10
658.112115597738
 20
-224.1055113600204
 30
0.0
 11
657.9575459577379
 21
-224.2344269500205
 31
0.0
  0
LINE
  5
306
330
46
100
AcDbEntity
  8
3
  6
Continuous
 62
     7
100
AcDbLine
 10
657.9575459577379
 20
-224.2344269500205
 30
0.0
 11
657.7950050377381
 21
-224.3627735600204
 31
0.0
  0
LINE
  5
307
330
46
100
AcDbEntity
  8
3
  6
Continuous
 62
     7
100
AcDbLine
 10
657.7950050377381
 20
-224.3627735600204
 30
0.0
 11
657.6245006977381
 21
-224.4904675800204
 31
0.0
  0
LINE
  5
308
330
46
100
AcDbEntity
  8
3
  6
Continuous
 62
     7
100
AcDbLine
 10
657.6245006977381
 20
-224.4904675800204
 30
0.0
 11
657.4460505377381
 21
-224.6174249500203
 31
0.0
  0
LINE
  5
309
330
46
100
AcDbEntity
  8
3
  6
Continuous
 62
     7
100
AcDbLine
 10
657.4460505377381
 20
-224.6174249500203
 30
0.0
 11
657.259681997738
 21
-224.7435613600204
 31
0.0
  0
LINE
  5
30A
330
46
100
AcDbEntity
  8
3
  6
Continuous
 62
     7
100
AcDbLine
 10
657.259681997738
 20
-224.7435613600204
 30
0.0
 11
657.0654325377379
 21
-224.8687923500205
 31
0.0
  0
LINE
  5
30B
330
46
100
AcDbEntity
  8
3
  6
Continuous
 62
     7
100
AcDbLine
 10
657.0654325377379
 20
-224.8687923500205
 30
0.0
 11
656.863349647738
 21
-224.9930335500204
 31
0.0
  0
LINE
  5
30C
330
46
100
AcDbEntity
  8
3
  6
Continuous
 62
     7
100
AcDbLine
 10
656.863349647738
 20
-224.9930335500204
 30
0.0
 11
656.6534909377381
 21
-225.1162008000203
 31
0.0
  0
LINE
  5
30D
330
46
100
AcDbEntity
  8
3
  6
Continuous
 62
     7
100
AcDbLine
 10
656.6534909377381
 20
-225.1162008000203
 30
0.0
 11
656.435924147738
 21
-225.2382103500205
 31
0.0
  0
LINE
  5
30E
330
46
100
AcDbEntity
  8
3
  6
Continuous
 62
     7
100
AcDbLine
 10
656.435924147738
 20
-225.2382103500205
 30
0.0
 11
656.2107271777379
 21
-225.3589790400204
 31
0.0
  0
LINE
  5
30F
330
46
100
AcDbEntity
  8
3
  6
Continuous
 62
     7
100
AcDbLine
 10
656.2107271777379
 20
-225.3589790400204
 30
0.0
 11
655.9779880077381
 21
-225.4784244600204
 31
0.0
  0
LINE
  5
310
330
46
100
AcDbEntity
  8
3
  6
Continuous
 62
     7
100
AcDbLine
 10
655.9779880077381
 20
-225.4784244600204
 30
0.0
 11
655.7378046277379
 21
-225.5964651300204
 31
0.0
  0
LINE
  5
311
330
46
100
AcDbEntity
  8
3
  6
Continuous
 62
     7
100
AcDbLine
 10
655.7378046277379
 20
-225.5964651300204
 30
0.0
 11
655.4902849777379
 21
-225.7130206900204
 31
0.0
  0
LINE
  5
312
330
46
100
AcDbEntity
  8
3
  6
Continuous
 62
     7
100
AcDbLine
 10
655.4902849777379
 20
-225.7130206900204
 30
0.0
 11
655.235546787738
 21
-225.8280120700203
 31
0.0
  0
LINE
  5
313
330
46
100
AcDbEntity
  8
3
  6
Continuous
 62
     7
100
AcDbLine
 10
655.235546787738
 20
-225.8280120700203
 30
0.0
 11
654.973717397738
 21
-225.9413616500204
 31
0.0
  0
LINE
  5
314
330
46
100
AcDbEntity
  8
3
  6
Continuous
 62
     7
100
AcDbLine
 10
654.973717397738
 20
-225.9413616500204
 30
0.0
 11
654.704933607738
 21
-226.0529934700204
 31
0.0
  0
LINE
  5
315
330
46
100
AcDbEntity
  8
3
  6
Continuous
 62
     7
100
AcDbLine
 10
654.704933607738
 20
-226.0529934700204
 30
0.0
 11
654.4293413877381
 21
-226.1628333300204
 31
0.0
  0
LINE
  5
316
330
46
100
AcDbEntity
  8
3
  6
Continuous
 62
     7
100
AcDbLine
 10
654.4293413877381
 20
-226.1628333300204
 30
0.0
 11
654.1470956877381
 21
-226.2708090200203
 31
0.0
  0
LINE
  5
317
330
46
100
AcDbEntity
  8
3
  6
Continuous
 62
     7
100
AcDbLine
 10
654.1470956877381
 20
-226.2708090200203
 30
0.0
 11
653.858360107738
 21
-226.3768504300203
 31
0.0
  0
LINE
  5
318
330
46
100
AcDbEntity
  8
3
  6
Continuous
 62
     7
100
AcDbLine
 10
653.858360107738
 20
-226.3768504300203
 30
0.0
 11
653.5633066177379
 21
-226.4808897200204
 31
0.0
  0
LINE
  5
319
330
46
100
AcDbEntity
  8
3
  6
Continuous
 62
     7
100
AcDbLine
 10
653.5633066177379
 20
-226.4808897200204
 30
0.0
 11
653.262115157738
 21
-226.5828614700204
 31
0.0
  0
LINE
  5
31A
330
46
100
AcDbEntity
  8
3
  6
Continuous
 62
     7
100
AcDbLine
 10
653.262115157738
 20
-226.5828614700204
 30
0.0
 11
652.954973357738
 21
-226.6827028100205
 31
0.0
  0
LINE
  5
31B
330
46
100
AcDbEntity
  8
3
  6
Continuous
 62
     7
100
AcDbLine
 10
652.954973357738
 20
-226.6827028100205
 30
0.0
 11
652.642076077738
 21
-226.7803535400204
 31
0.0
  0
LINE
  5
31C
330
46
100
AcDbEntity
  8
3
  6
Continuous
 62
     7
100
AcDbLine
 10
652.642076077738
 20
-226.7803535400204
 30
0.0
 11
652.323625027738
 21
-226.8757562500203
 31
0.0
  0
LINE
  5
31D
330
46
100
AcDbEntity
  8
3
  6
Continuous
 62
     7
100
AcDbLine
 10
652.323625027738
 20
-226.8757562500203
 30
0.0
 11
651.999828327738
 21
-226.9688564700203
 31
0.0
  0
LINE
  5
31E
330
46
100
AcDbEntity
  8
3
  6
Continuous
 62
     7
100
AcDbLine
 10
651.999828327738
 20
-226.9688564700203
 30
0.0
 11
651.6709000677381
 21
-227.0596027100204
 31
0.0
  0
LINE
  5
31F
330
46
100
AcDbEntity
  8
3
  6
Continuous
 62
     7
100
AcDbLine
 10
651.6709000677381
 20
-227.0596027100204
 30
0.0
 11
651.3370598277379
 21
-227.1479466200204
 31
0.0
  0
LINE
  5
320
330
46
100
AcDbEntity
  8
3
  6
Continuous
 62
     7
100
AcDbLine
 10
651.3370598277379
 20
-227.1479466200204
 30
0.0
 11
650.998532207738
 21
-227.2338430100203
 31
0.0
  0
LINE
  5
321
330
46
100
AcDbEntity
  8
3
  6
Continuous
 62
     7
100
AcDbLine
 10
650.998532207738
 20
-227.2338430100203
 30
0.0
 11
650.6555463177381
 21
-227.3172499600204
 31
0.0
  0
LINE
  5
322
330
46
100
AcDbEntity
  8
3
  6
Continuous
 62
     7
100
AcDbLine
 10
650.6555463177381
 20
-227.3172499600204
 30
0.0
 11
650.3083353077379
 21
-227.3981288900204
 31
0.0
  0
LINE
  5
323
330
46
100
AcDbEntity
  8
3
  6
Continuous
 62
     7
100
AcDbLine
 10
650.3083353077379
 20
-227.3981288900204
 30
0.0
 11
649.9571358177379
 21
-227.4764445600203
 31
0.0
  0
LINE
  5
324
330
46
100
AcDbEntity
  8
3
  6
Continuous
 62
     7
100
AcDbLine
 10
649.9571358177379
 20
-227.4764445600203
 30
0.0
 11
649.602187497738
 21
-227.5521651600204
 31
0.0
  0
LINE
  5
325
330
46
100
AcDbEntity
  8
3
  6
Continuous
 62
     7
100
AcDbLine
 10
656.4441397677381
 20
-256.7683119300203
 30
0.0
 11
656.3083114277381
 21
-256.8839132900204
 31
0.0
  0
LINE
  5
326
330
46
100
AcDbEntity
  8
3
  6
Continuous
 62
     7
100
AcDbLine
 10
656.3083114277381
 20
-256.8839132900204
 30
0.0
 11
656.1651908277379
 21
-256.9992595000203
 31
0.0
  0
LINE
  5
327
330
46
100
AcDbEntity
  8
3
  6
Continuous
 62
     7
100
AcDbLine
 10
656.1651908277379
 20
-256.9992595000203
 30
0.0
 11
656.014741237738
 21
-257.1142766200204
 31
0.0
  0
LINE
  5
328
330
46
100
AcDbEntity
  8
3
  6
Continuous
 62
     7
100
AcDbLine
 10
656.014741237738
 20
-257.1142766200204
 30
0.0
 11
655.8569331277381
 21
-257.2288879600204
 31
0.0
  0
LINE
  5
329
330
46
100
AcDbEntity
  8
3
  6
Continuous
 62
     7
100
AcDbLine
 10
655.8569331277381
 20
-257.2288879600204
 30
0.0
 11
655.691746007738
 21
-257.3430165700205
 31
0.0
  0
LINE
  5
32A
330
46
100
AcDbEntity
  8
3
  6
Continuous
 62
     7
100
AcDbLine
 10
655.691746007738
 20
-257.3430165700205
 30
0.0
 11
655.519167837738
 21
-257.4565840800204
 31
0.0
  0
LINE
  5
32B
330
46
100
AcDbEntity
  8
3
  6
Continuous
 62
     7
100
AcDbLine
 10
655.519167837738
 20
-257.4565840800204
 30
0.0
 11
655.339195657738
 21
-257.5695113600204
 31
0.0
  0
LINE
  5
32C
330
46
100
AcDbEntity
  8
3
  6
Continuous
 62
     7
100
AcDbLine
 10
655.339195657738
 20
-257.5695113600204
 30
0.0
 11
655.1518356577381
 21
-257.6817184900203
 31
0.0
  0
LINE
  5
32D
330
46
100
AcDbEntity
  8
3
  6
Continuous
 62
     7
100
AcDbLine
 10
655.1518356577381
 20
-257.6817184900203
 30
0.0
 11
654.9571034377379
 21
-257.7931249700204
 31
0.0
  0
LINE
  5
32E
330
46
100
AcDbEntity
  8
3
  6
Continuous
 62
     7
100
AcDbLine
 10
654.9571034377379
 20
-257.7931249700204
 30
0.0
 11
654.7550242177381
 21
-257.9036498300205
 31
0.0
  0
LINE
  5
32F
330
46
100
AcDbEntity
  8
3
  6
Continuous
 62
     7
100
AcDbLine
 10
654.7550242177381
 20
-257.9036498300205
 30
0.0
 11
654.5456329477381
 21
-258.0132118400205
 31
0.0
  0
LINE
  5
330
330
46
100
AcDbEntity
  8
3
  6
Continuous
 62
     7
100
AcDbLine
 10
654.5456329477381
 20
-258.0132118400205
 30
0.0
 11
654.3289744677379
 21
-258.1217296200204
 31
0.0
  0
LINE
  5
331
330
46
100
AcDbEntity
  8
3
  6
Continuous
 62
     7
100
AcDbLine
 10
654.3289744677379
 20
-258.1217296200204
 30
0.0
 11
654.105103597738
 21
-258.2291218800203
 31
0.0
  0
LINE
  5
332
330
46
100
AcDbEntity
  8
3
  6
Continuous
 62
     7
100
AcDbLine
 10
654.105103597738
 20
-258.2291218800203
 30
0.0
 11
653.874085237738
 21
-258.3353075300205
 31
0.0
  0
LINE
  5
333
330
46
100
AcDbEntity
  8
3
  6
Continuous
 62
     7
100
AcDbLine
 10
653.874085237738
 20
-258.3353075300205
 30
0.0
 11
653.635994387738
 21
-258.4402058900204
 31
0.0
  0
LINE
  5
334
330
46
100
AcDbEntity
  8
3
  6
Continuous
 62
     7
100
AcDbLine
 10
653.635994387738
 20
-258.4402058900204
 30
0.0
 11
653.3909161577381
 21
-258.5437368700204
 31
0.0
  0
LINE
  5
335
330
46
100
AcDbEntity
  8
3
  6
Continuous
 62
     7
100
AcDbLine
 10
653.3909161577381
 20
-258.5437368700204
 30
0.0
 11
653.1389457677381
 21
-258.6458211300204
 31
0.0
  0
LINE
  5
336
330
46
100
AcDbEntity
  8
3
  6
Continuous
 62
     7
100
AcDbLine
 10
653.1389457677381
 20
-258.6458211300204
 30
0.0
 11
652.880188507738
 21
-258.7463803200204
 31
0.0
  0
LINE
  5
337
330
46
100
AcDbEntity
  8
3
  6
Continuous
 62
     7
100
AcDbLine
 10
652.880188507738
 20
-258.7463803200204
 30
0.0
 11
652.6147595777379
 21
-258.8453371800204
 31
0.0
  0
LINE
  5
338
330
46
100
AcDbEntity
  8
3
  6
Continuous
 62
     7
100
AcDbLine
 10
652.6147595777379
 20
-258.8453371800204
 30
0.0
 11
652.342784067738
 21
-258.9426157900203
 31
0.0
  0
LINE
  5
339
330
46
100
AcDbEntity
  8
3
  6
Continuous
 62
     7
100
AcDbLine
 10
652.342784067738
 20
-258.9426157900203
 30
0.0
 11
652.064396737738
 21
-259.0381417200204
 31
0.0
  0
LINE
  5
33A
330
46
100
AcDbEntity
  8
3
  6
Continuous
 62
     7
100
AcDbLine
 10
652.064396737738
 20
-259.0381417200204
 30
0.0
 11
651.779741827738
 21
-259.1318422100204
 31
0.0
  0
LINE
  5
33B
330
46
100
AcDbEntity
  8
3
  6
Continuous
 62
     7
100
AcDbLine
 10
651.779741827738
 20
-259.1318422100204
 30
0.0
 11
651.488972877738
 21
-259.2236463500204
 31
0.0
  0
LINE
  5
33C
330
46
100
AcDbEntity
  8
3
  6
Continuous
 62
     7
100
AcDbLine
 10
651.488972877738
 20
-259.2236463500204
 30
0.0
 11
651.192252437738
 21
-259.3134852700204
 31
0.0
  0
LINE
  5
33D
330
46
100
AcDbEntity
  8
3
  6
Continuous
 62
     7
100
AcDbLine
 10
651.192252437738
 20
-259.3134852700204
 30
0.0
 11
650.889751797738
 21
-259.4012922800204
 31
0.0
  0
LINE
  5
33E
330
46
100
AcDbEntity
  8
3
  6
Continuous
 62
     7
100
AcDbLine
 10
650.889751797738
 20
-259.4012922800204
 30
0.0
 11
650.581650677738
 21
-259.4870030100204
 31
0.0
  0
LINE
  5
33F
330
46
100
AcDbEntity
  8
3
  6
Continuous
 62
     7
100
AcDbLine
 10
650.581650677738
 20
-259.4870030100204
 30
0.0
 11
650.268136857738
 21
-259.5705556300205
 31
0.0
  0
LINE
  5
340
330
46
100
AcDbEntity
  8
3
  6
Continuous
 62
     7
100
AcDbLine
 10
650.268136857738
 20
-259.5705556300205
 30
0.0
 11
649.949405787738
 21
-259.6518909300204
 31
0.0
  0
LINE
  5
341
330
46
100
AcDbEntity
  8
3
  6
Continuous
 62
     7
100
AcDbLine
 10
649.949405787738
 20
-259.6518909300204
 30
0.0
 11
649.625660257738
 21
-259.7309525200204
 31
0.0
  0
LINE
  5
342
330
46
100
AcDbEntity
  8
3
  6
Continuous
 62
     7
100
AcDbLine
 10
649.625660257738
 20
-259.7309525200204
 30
0.0
 11
649.2971098877381
 21
-259.8076868800204
 31
0.0
  0
LINE
  5
343
330
46
100
AcDbEntity
  8
3
  6
Continuous
 62
     7
100
AcDbLine
 10
649.2971098877381
 20
-259.8076868800204
 30
0.0
 11
648.963970717738
 21
-259.8820435800204
 31
0.0
  0
LINE
  5
344
330
46
100
AcDbEntity
  8
3
  6
Continuous
 62
     7
100
AcDbLine
 10
648.963970717738
 20
-259.8820435800204
 30
0.0
 11
648.6264647177379
 21
-259.9539752900204
 31
0.0
  0
LINE
  5
345
330
46
100
AcDbEntity
  8
3
  6
Continuous
 62
     7
100
AcDbLine
 10
648.6264647177379
 20
-259.9539752900204
 30
0.0
 11
648.2848193177381
 21
-260.0234379600205
 31
0.0
  0
LINE
  5
346
330
46
100
AcDbEntity
  8
3
  6
Continuous
 62
     7
100
AcDbLine
 10
648.2848193177381
 20
-260.0234379600205
 30
0.0
 11
647.9392668677381
 21
-260.0903908600204
 31
0.0
  0
LINE
  5
347
330
46
100
AcDbEntity
  8
3
  6
Continuous
 62
     7
100
AcDbLine
 10
647.9392668677381
 20
-260.0903908600204
 30
0.0
 11
647.5900441477379
 21
-260.1547966900204
 31
0.0
  0
LINE
  5
348
330
46
100
AcDbEntity
  8
3
  6
Continuous
 62
     7
100
AcDbLine
 10
647.5900441477379
 20
-260.1547966900204
 30
0.0
 11
647.2373917777379
 21
-260.2166216100205
 31
0.0
  0
LINE
  5
349
330
46
100
AcDbEntity
  8
3
  6
Continuous
 62
     7
100
AcDbLine
 10
647.2373917777379
 20
-260.2166216100205
 30
0.0
 11
646.881553757738
 21
-260.2758353300204
 31
0.0
  0
LINE
  5
34A
330
46
100
AcDbEntity
  8
3
  6
Continuous
 62
     7
100
AcDbLine
 10
646.881553757738
 20
-260.2758353300204
 30
0.0
 11
646.5227768377381
 21
-260.3324111500203
 31
0.0
  0
LINE
  5
34B
330
46
100
AcDbEntity
  8
3
  6
Continuous
 62
     7
100
AcDbLine
 10
646.5227768377381
 20
-260.3324111500203
 30
0.0
 11
646.1613099677379
 21
-260.3863259500204
 31
0.0
  0
LINE
  5
34C
330
46
100
AcDbEntity
  8
3
  6
Continuous
 62
     7
100
AcDbLine
 10
646.1613099677379
 20
-260.3863259500204
 30
0.0
 11
645.797403807738
 21
-260.4375602700205
 31
0.0
  0
LINE
  5
34D
330
46
100
AcDbEntity
  8
3
  6
Continuous
 62
     7
100
AcDbLine
 10
645.797403807738
 20
-260.4375602700205
 30
0.0
 11
645.431310087738
 21
-260.4860982700204
 31
0.0
  0
LINE
  5
34E
330
46
100
AcDbEntity
  8
3
  6
Continuous
 62
     7
100
AcDbLine
 10
645.431310087738
 20
-260.4860982700204
 30
0.0
 11
645.0632810977379
 21
-260.5319277400204
 31
0.0
  0
LINE
  5
34F
330
46
100
AcDbEntity
  8
3
  6
Continuous
 62
     7
100
AcDbLine
 10
645.0632810977379
 20
-260.5319277400204
 30
0.0
 11
644.6935691277381
 21
-260.5750400900204
 31
0.0
  0
LINE
  5
350
330
46
100
AcDbEntity
  8
3
  6
Continuous
 62
     7
100
AcDbLine
 10
644.6935691277381
 20
-260.5750400900204
 30
0.0
 11
644.322425937738
 21
-260.6154303000204
 31
0.0
  0
LINE
  5
351
330
46
100
AcDbEntity
  8
3
  6
Continuous
 62
     7
100
AcDbLine
 10
644.322425937738
 20
-260.6154303000204
 30
0.0
 11
643.950102197738
 21
-260.6530969300205
 31
0.0
  0
LINE
  5
352
330
46
100
AcDbEntity
  8
3
  6
Continuous
 62
     7
100
AcDbLine
 10
643.950102197738
 20
-260.6530969300205
 30
0.0
 11
643.5768470177379
 21
-260.6880419900203
 31
0.0
  0
LINE
  5
353
330
46
100
AcDbEntity
  8
3
  6
Continuous
 62
     7
100
AcDbLine
 10
643.5768470177379
 20
-260.6880419900203
 30
0.0
 11
643.202907397738
 21
-260.7202709800204
 31
0.0
  0
LINE
  5
354
330
46
100
AcDbEntity
  8
3
  6
Continuous
 62
     7
100
AcDbLine
 10
643.202907397738
 20
-260.7202709800204
 30
0.0
 11
642.8285277577379
 21
-260.7497927100204
 31
0.0
  0
LINE
  5
355
330
46
100
AcDbEntity
  8
3
  6
Continuous
 62
     7
100
AcDbLine
 10
642.8285277577379
 20
-260.7497927100204
 30
0.0
 11
642.453949477738
 21
-260.7766193400204
 31
0.0
  0
LINE
  5
356
330
46
100
AcDbEntity
  8
3
  6
Continuous
 62
     7
100
AcDbLine
 10
642.453949477738
 20
-260.7766193400204
 30
0.0
 11
642.0794104677379
 21
-260.8007661700204
 31
0.0
  0
LINE
  5
357
330
46
100
AcDbEntity
  8
3
  6
Continuous
 62
     7
100
AcDbLine
 10
642.0794104677379
 20
-260.8007661700204
 30
0.0
 11
641.7051446677381
 21
-260.8222516500204
 31
0.0
  0
LINE
  5
358
330
46
100
AcDbEntity
  8
3
  6
Continuous
 62
     7
100
AcDbLine
 10
641.7051446677381
 20
-260.8222516500204
 30
0.0
 11
641.3313817477381
 21
-260.8410972200205
 31
0.0
  0
LINE
  5
359
330
46
100
AcDbEntity
  8
3
  6
Continuous
 62
     7
100
AcDbLine
 10
641.3313817477381
 20
-260.8410972200205
 30
0.0
 11
640.958346617738
 21
-260.8573272000203
 31
0.0
  0
LINE
  5
35A
330
46
100
AcDbEntity
  8
3
  6
Continuous
 62
     7
100
AcDbLine
 10
640.958346617738
 20
-260.8573272000203
 30
0.0
 11
640.5862591877381
 21
-260.8709687100205
 31
0.0
  0
LINE
  5
35B
330
46
100
AcDbEntity
  8
3
  6
Continuous
 62
     7
100
AcDbLine
 10
640.5862591877381
 20
-260.8709687100205
 30
0.0
 11
640.2153338377379
 21
-260.8820515000203
 31
0.0
  0
LINE
  5
35C
330
46
100
AcDbEntity
  8
3
  6
Continuous
 62
     7
100
AcDbLine
 10
640.2153338377379
 20
-260.8820515000203
 30
0.0
 11
639.8457796177379
 21
-260.8906079200203
 31
0.0
  0
LINE
  5
35D
330
46
100
AcDbEntity
  8
3
  6
Continuous
 62
     7
100
AcDbLine
 10
639.8457796177379
 20
-260.8906079200203
 30
0.0
 11
639.4777986477379
 21
-260.8966725100205
 31
0.0
  0
LINE
  5
35E
330
46
100
AcDbEntity
  8
3
  6
Continuous
 62
     7
100
AcDbLine
 10
639.4777986477379
 20
-260.8966725100205
 30
0.0
 11
639.1115890477381
 21
-260.9002825900204
 31
0.0
  0
LINE
  5
35F
330
46
100
AcDbEntity
  8
3
  6
Continuous
 62
     7
100
AcDbLine
 10
639.1115890477381
 20
-260.9002825900204
 30
0.0
 11
638.747338747738
 21
-260.9014767700204
 31
0.0
  0
LINE
  5
360
330
46
100
AcDbEntity
  8
3
  6
Continuous
 62
     7
100
AcDbLine
 10
638.747338747738
 20
-260.9014767700204
 30
0.0
 11
636.938862837738
 21
-260.8720793900204
 31
0.0
  0
LINE
  5
361
330
46
100
AcDbEntity
  8
3
  6
Continuous
 62
     7
100
AcDbLine
 10
636.938862837738
 20
-260.8720793900204
 30
0.0
 11
635.103432557738
 21
-260.7807705500205
 31
0.0
  0
LINE
  5
362
330
46
100
AcDbEntity
  8
3
  6
Continuous
 62
     7
100
AcDbLine
 10
635.103432557738
 20
-260.7807705500205
 30
0.0
 11
633.265119447738
 21
-260.6251102000203
 31
0.0
  0
LINE
  5
363
330
46
100
AcDbEntity
  8
3
  6
Continuous
 62
     7
100
AcDbLine
 10
633.265119447738
 20
-260.6251102000203
 30
0.0
 11
631.454446067738
 21
-260.4036881000204
 31
0.0
  0
LINE
  5
364
330
46
100
AcDbEntity
  8
3
  6
Continuous
 62
     7
100
AcDbLine
 10
631.454446067738
 20
-260.4036881000204
 30
0.0
 11
629.700488507738
 21
-260.1175357700204
 31
0.0
  0
LINE
  5
365
330
46
100
AcDbEntity
  8
3
  6
Continuous
 62
     7
100
AcDbLine
 10
629.700488507738
 20
-260.1175357700204
 30
0.0
 11
628.032705167738
 21
-259.7696138300204
 31
0.0
  0
LINE
  5
366
330
46
100
AcDbEntity
  8
3
  6
Continuous
 62
     7
100
AcDbLine
 10
628.032705167738
 20
-259.7696138300204
 30
0.0
 11
626.4781989377379
 21
-259.3649560300204
 31
0.0
  0
LINE
  5
367
330
46
100
AcDbEntity
  8
3
  6
Continuous
 62
     7
100
AcDbLine
 10
626.4781989377379
 20
-259.3649560300204
 30
0.0
 11
625.0605427377381
 21
-258.9103641700203
 31
0.0
  0
LINE
  5
368
330
46
100
AcDbEntity
  8
3
  6
Continuous
 62
     7
100
AcDbLine
 10
625.0605427377381
 20
-258.9103641700203
 30
0.0
 11
623.798521047738
 21
-258.4141449800205
 31
0.0
  0
LINE
  5
369
330
46
100
AcDbEntity
  8
3
  6
Continuous
 62
     7
100
AcDbLine
 10
623.798521047738
 20
-258.4141449800205
 30
0.0
 11
622.705525817738
 21
-257.8851855200204
 31
0.0
  0
LINE
  5
36A
330
46
100
AcDbEntity
  8
3
  6
Continuous
 62
     7
100
AcDbLine
 10
622.705525817738
 20
-257.8851855200204
 30
0.0
 11
621.788825917738
 21
-257.3337223800205
 31
0.0
  0
LINE
  5
36B
330
46
100
AcDbEntity
  8
3
  6
Continuous
 62
     7
100
AcDbLine
 10
621.788825917738
 20
-257.3337223800205
 30
0.0
 11
621.050537727738
 21
-256.7683119300203
 31
0.0
  0
LINE
  5
36C
330
46
100
AcDbEntity
  8
3
  6
Continuous
 62
     7
100
AcDbLine
 10
658.8181910077381
 20
-253.5706843900204
 30
0.0
 11
658.8058844977379
 21
-253.6908201800205
 31
0.0
  0
LINE
  5
36D
330
46
100
AcDbEntity
  8
3
  6
Continuous
 62
     7
100
AcDbLine
 10
658.8058844977379
 20
-253.6908201800205
 30
0.0
 11
658.7872802077379
 21
-253.8117020100204
 31
0.0
  0
LINE
  5
36E
330
46
100
AcDbEntity
  8
3
  6
Continuous
 62
     7
100
AcDbLine
 10
658.7872802077379
 20
-253.8117020100204
 30
0.0
 11
658.7622576277381
 21
-253.9332802600205
 31
0.0
  0
LINE
  5
36F
330
46
100
AcDbEntity
  8
3
  6
Continuous
 62
     7
100
AcDbLine
 10
658.7622576277381
 20
-253.9332802600205
 30
0.0
 11
658.7306981377381
 21
-254.0555024500205
 31
0.0
  0
LINE
  5
370
330
46
100
AcDbEntity
  8
3
  6
Continuous
 62
     7
100
AcDbLine
 10
658.7306981377381
 20
-254.0555024500205
 30
0.0
 11
658.6924881577379
 21
-254.1783144100203
 31
0.0
  0
LINE
  5
371
330
46
100
AcDbEntity
  8
3
  6
Continuous
 62
     7
100
AcDbLine
 10
658.6924881577379
 20
-254.1783144100203
 30
0.0
 11
658.6475179977381
 21
-254.3016596900204
 31
0.0
  0
LINE
  5
372
330
46
100
AcDbEntity
  8
3
  6
Continuous
 62
     7
100
AcDbLine
 10
658.6475179977381
 20
-254.3016596900204
 30
0.0
 11
658.5956828277381
 21
-254.4254798200204
 31
0.0
  0
LINE
  5
373
330
46
100
AcDbEntity
  8
3
  6
Continuous
 62
     7
100
AcDbLine
 10
658.5956828277381
 20
-254.4254798200204
 30
0.0
 11
658.536882787738
 21
-254.5497143200204
 31
0.0
  0
LINE
  5
374
330
46
100
AcDbEntity
  8
3
  6
Continuous
 62
     7
100
AcDbLine
 10
658.536882787738
 20
-254.5497143200204
 30
0.0
 11
658.471023417738
 21
-254.6743007500205
 31
0.0
  0
LINE
  5
375
330
46
100
AcDbEntity
  8
3
  6
Continuous
 62
     7
100
AcDbLine
 10
658.471023417738
 20
-254.6743007500205
 30
0.0
 11
658.3980159377379
 21
-254.7991747400204
 31
0.0
  0
LINE
  5
376
330
46
100
AcDbEntity
  8
3
  6
Continuous
 62
     7
100
AcDbLine
 10
658.3980159377379
 20
-254.7991747400204
 30
0.0
 11
658.317777687738
 21
-254.9242700700205
 31
0.0
  0
LINE
  5
377
330
46
100
AcDbEntity
  8
3
  6
Continuous
 62
     7
100
AcDbLine
 10
658.317777687738
 20
-254.9242700700205
 30
0.0
 11
658.230232357738
 21
-255.0495187800204
 31
0.0
  0
LINE
  5
378
330
46
100
AcDbEntity
  8
3
  6
Continuous
 62
     7
100
AcDbLine
 10
658.230232357738
 20
-255.0495187800204
 30
0.0
 11
658.1353103777381
 21
-255.1748511900204
 31
0.0
  0
LINE
  5
379
330
46
100
AcDbEntity
  8
3
  6
Continuous
 62
     7
100
AcDbLine
 10
658.1353103777381
 20
-255.1748511900204
 30
0.0
 11
658.032949217738
 21
-255.3001960300204
 31
0.0
  0
LINE
  5
37A
330
46
100
AcDbEntity
  8
3
  6
Continuous
 62
     7
100
AcDbLine
 10
658.032949217738
 20
-255.3001960300204
 30
0.0
 11
657.923093707738
 21
-255.4254805000204
 31
0.0
  0
LINE
  5
37B
330
46
100
AcDbEntity
  8
3
  6
Continuous
 62
     7
100
AcDbLine
 10
657.923093707738
 20
-255.4254805000204
 30
0.0
 11
657.805696297738
 21
-255.5506304400204
 31
0.0
  0
LINE
  5
37C
330
46
100
AcDbEntity
  8
3
  6
Continuous
 62
     7
100
AcDbLine
 10
657.805696297738
 20
-255.5506304400204
 30
0.0
 11
657.680717407738
 21
-255.6755703400205
 31
0.0
  0
LINE
  5
37D
330
46
100
AcDbEntity
  8
3
  6
Continuous
 62
     7
100
AcDbLine
 10
657.680717407738
 20
-255.6755703400205
 30
0.0
 11
657.5481256377379
 21
-255.8002235500204
 31
0.0
  0
LINE
  5
37E
330
46
100
AcDbEntity
  8
3
  6
Continuous
 62
     7
100
AcDbLine
 10
657.5481256377379
 20
-255.8002235500204
 30
0.0
 11
657.4078980477379
 21
-255.9245123600203
 31
0.0
  0
LINE
  5
37F
330
46
100
AcDbEntity
  8
3
  6
Continuous
 62
     7
100
AcDbLine
 10
657.4078980477379
 20
-255.9245123600203
 30
0.0
 11
657.2600203977379
 21
-256.0483581200203
 31
0.0
  0
LINE
  5
380
330
46
100
AcDbEntity
  8
3
  6
Continuous
 62
     7
100
AcDbLine
 10
657.2600203977379
 20
-256.0483581200203
 30
0.0
 11
657.1044873277381
 21
-256.1716814100204
 31
0.0
  0
LINE
  5
381
330
46
100
AcDbEntity
  8
3
  6
Continuous
 62
     7
100
AcDbLine
 10
657.1044873277381
 20
-256.1716814100204
 30
0.0
 11
656.9413025977381
 21
-256.2944021600204
 31
0.0
  0
LINE
  5
382
330
46
100
AcDbEntity
  8
3
  6
Continuous
 62
     7
100
AcDbLine
 10
656.9413025977381
 20
-256.2944021600204
 30
0.0
 11
656.7704792077379
 21
-256.4164398100205
 31
0.0
  0
LINE
  5
383
330
46
100
AcDbEntity
  8
3
  6
Continuous
 62
     7
100
AcDbLine
 10
656.7704792077379
 20
-256.4164398100205
 30
0.0
 11
656.5920396077379
 21
-256.5377134500204
 31
0.0
  0
LINE
  5
384
330
46
100
AcDbEntity
  8
3
  6
Continuous
 62
     7
100
AcDbLine
 10
656.5920396077379
 20
-256.5377134500204
 30
0.0
 11
656.406015757738
 21
-256.6581420000204
 31
0.0
  0
LINE
  5
385
330
46
100
AcDbEntity
  8
3
  6
Continuous
 62
     7
100
AcDbLine
 10
656.406015757738
 20
-256.6581420000204
 30
0.0
 11
656.2124492377379
 21
-256.7776443200204
 31
0.0
  0
LINE
  5
386
330
46
100
AcDbEntity
  8
3
  6
Continuous
 62
     7
100
AcDbLine
 10
656.2124492377379
 20
-256.7776443200204
 30
0.0
 11
656.011391347738
 21
-256.8961394600204
 31
0.0
  0
LINE
  5
387
330
46
100
AcDbEntity
  8
3
  6
Continuous
 62
     7
100
AcDbLine
 10
656.011391347738
 20
-256.8961394600204
 30
0.0
 11
655.8029031077381
 21
-257.0135467500205
 31
0.0
  0
LINE
  5
388
330
46
100
AcDbEntity
  8
3
  6
Continuous
 62
     7
100
AcDbLine
 10
655.8029031077381
 20
-257.0135467500205
 30
0.0
 11
655.5870552877379
 21
-257.1297859800204
 31
0.0
  0
LINE
  5
389
330
46
100
AcDbEntity
  8
3
  6
Continuous
 62
     7
100
AcDbLine
 10
655.5870552877379
 20
-257.1297859800204
 30
0.0
 11
655.363928367738
 21
-257.2447776100204
 31
0.0
  0
LINE
  5
38A
330
46
100
AcDbEntity
  8
3
  6
Continuous
 62
     7
100
AcDbLine
 10
655.363928367738
 20
-257.2447776100204
 30
0.0
 11
655.1336125377379
 21
-257.3584429200204
 31
0.0
  0
LINE
  5
38B
330
46
100
AcDbEntity
  8
3
  6
Continuous
 62
     7
100
AcDbLine
 10
655.1336125377379
 20
-257.3584429200204
 30
0.0
 11
654.8962075377381
 21
-257.4707041500204
 31
0.0
  0
LINE
  5
38C
330
46
100
AcDbEntity
  8
3
  6
Continuous
 62
     7
100
AcDbLine
 10
654.8962075377381
 20
-257.4707041500204
 30
0.0
 11
654.651822607738
 21
-257.5814847300204
 31
0.0
  0
LINE
  5
38D
330
46
100
AcDbEntity
  8
3
  6
Continuous
 62
     7
100
AcDbLine
 10
654.651822607738
 20
-257.5814847300204
 30
0.0
 11
654.400576327738
 21
-257.6907093900205
 31
0.0
  0
LINE
  5
38E
330
46
100
AcDbEntity
  8
3
  6
Continuous
 62
     7
100
AcDbLine
 10
654.400576327738
 20
-257.6907093900205
 30
0.0
 11
654.142596447738
 21
-257.7983043600204
 31
0.0
  0
LINE
  5
38F
330
46
100
AcDbEntity
  8
3
  6
Continuous
 62
     7
100
AcDbLine
 10
654.142596447738
 20
-257.7983043600204
 30
0.0
 11
653.878019667738
 21
-257.9041975200204
 31
0.0
  0
LINE
  5
390
330
46
100
AcDbEntity
  8
3
  6
Continuous
 62
     7
100
AcDbLine
 10
653.878019667738
 20
-257.9041975200204
 30
0.0
 11
653.6069914577381
 21
-258.0083185500204
 31
0.0
  0
LINE
  5
391
330
46
100
AcDbEntity
  8
3
  6
Continuous
 62
     7
100
AcDbLine
 10
653.6069914577381
 20
-258.0083185500204
 30
0.0
 11
653.3296657077381
 21
-258.1105991100204
 31
0.0
  0
LINE
  5
392
330
46
100
AcDbEntity
  8
3
  6
Continuous
 62
     7
100
AcDbLine
 10
653.3296657077381
 20
-258.1105991100204
 30
0.0
 11
653.0462045477379
 21
-258.2109729600205
 31
0.0
  0
LINE
  5
393
330
46
100
AcDbEntity
  8
3
  6
Continuous
 62
     7
100
AcDbLine
 10
653.0462045477379
 20
-258.2109729600205
 30
0.0
 11
652.7567779477381
 21
-258.3093761200204
 31
0.0
  0
LINE
  5
394
330
46
100
AcDbEntity
  8
3
  6
Continuous
 62
     7
100
AcDbLine
 10
652.7567779477381
 20
-258.3093761200204
 30
0.0
 11
652.4615634277379
 21
-258.4057469900204
 31
0.0
  0
LINE
  5
395
330
46
100
AcDbEntity
  8
3
  6
Continuous
 62
     7
100
AcDbLine
 10
652.4615634277379
 20
-258.4057469900204
 30
0.0
 11
652.1607456577381
 21
-258.5000265000203
 31
0.0
  0
LINE
  5
396
330
46
100
AcDbEntity
  8
3
  6
Continuous
 62
     7
100
AcDbLine
 10
652.1607456577381
 20
-258.5000265000203
 30
0.0
 11
651.854516127738
 21
-258.5921582200203
 31
0.0
  0
LINE
  5
397
330
46
100
AcDbEntity
  8
3
  6
Continuous
 62
     7
100
AcDbLine
 10
651.854516127738
 20
-258.5921582200203
 30
0.0
 11
651.543072687738
 21
-258.6820884600205
 31
0.0
  0
LINE
  5
398
330
46
100
AcDbEntity
  8
3
  6
Continuous
 62
     7
100
AcDbLine
 10
651.543072687738
 20
-258.6820884600205
 30
0.0
 11
651.226619137738
 21
-258.7697663800204
 31
0.0
  0
LINE
  5
399
330
46
100
AcDbEntity
  8
3
  6
Continuous
 62
     7
100
AcDbLine
 10
651.226619137738
 20
-258.7697663800204
 30
0.0
 11
650.905364817738
 21
-258.8551441200204
 31
0.0
  0
LINE
  5
39A
330
46
100
AcDbEntity
  8
3
  6
Continuous
 62
     7
100
AcDbLine
 10
650.905364817738
 20
-258.8551441200204
 30
0.0
 11
650.5795241077381
 21
-258.9381768100204
 31
0.0
  0
LINE
  5
39B
330
46
100
AcDbEntity
  8
3
  6
Continuous
 62
     7
100
AcDbLine
 10
650.5795241077381
 20
-258.9381768100204
 30
0.0
 11
650.2493159877381
 21
-259.0188227300204
 31
0.0
  0
LINE
  5
39C
330
46
100
AcDbEntity
  8
3
  6
Continuous
 62
     7
100
AcDbLine
 10
650.2493159877381
 20
-259.0188227300204
 30
0.0
 11
649.914963557738
 21
-259.0970433100204
 31
0.0
  0
LINE
  5
39D
330
46
100
AcDbEntity
  8
3
  6
Continuous
 62
     7
100
AcDbLine
 10
649.914963557738
 20
-259.0970433100204
 30
0.0
 11
649.576693517738
 21
-259.1728032000204
 31
0.0
  0
LINE
  5
39E
330
46
100
AcDbEntity
  8
3
  6
Continuous
 62
     7
100
AcDbLine
 10
649.576693517738
 20
-259.1728032000204
 30
0.0
 11
649.234735717738
 21
-259.2460703500204
 31
0.0
  0
LINE
  5
39F
330
46
100
AcDbEntity
  8
3
  6
Continuous
 62
     7
100
AcDbLine
 10
649.234735717738
 20
-259.2460703500204
 30
0.0
 11
648.889322647738
 21
-259.3168159900204
 31
0.0
  0
LINE
  5
3A0
330
46
100
AcDbEntity
  8
3
  6
Continuous
 62
     7
100
AcDbLine
 10
648.889322647738
 20
-259.3168159900204
 30
0.0
 11
648.540688917738
 21
-259.3850146900205
 31
0.0
  0
LINE
  5
3A1
330
46
100
AcDbEntity
  8
3
  6
Continuous
 62
     7
100
AcDbLine
 10
648.540688917738
 20
-259.3850146900205
 30
0.0
 11
648.189070767738
 21
-259.4506443700204
 31
0.0
  0
LINE
  5
3A2
330
46
100
AcDbEntity
  8
3
  6
Continuous
 62
     7
100
AcDbLine
 10
648.189070767738
 20
-259.4506443700204
 30
0.0
 11
647.8347055777381
 21
-259.5136862700203
 31
0.0
  0
LINE
  5
3A3
330
46
100
AcDbEntity
  8
3
  6
Continuous
 62
     7
100
AcDbLine
 10
647.8347055777381
 20
-259.5136862700203
 30
0.0
 11
647.477831367738
 21
-259.5741249900204
 31
0.0
  0
LINE
  5
3A4
330
46
100
AcDbEntity
  8
3
  6
Continuous
 62
     7
100
AcDbLine
 10
647.477831367738
 20
-259.5741249900204
 30
0.0
 11
647.118686327738
 21
-259.6319484500203
 31
0.0
  0
LINE
  5
3A5
330
46
100
AcDbEntity
  8
3
  6
Continuous
 62
     7
100
AcDbLine
 10
647.118686327738
 20
-259.6319484500203
 30
0.0
 11
646.7575082877379
 21
-259.6871478300204
 31
0.0
  0
LINE
  5
3A6
330
46
100
AcDbEntity
  8
3
  6
Continuous
 62
     7
100
AcDbLine
 10
646.7575082877379
 20
-259.6871478300204
 30
0.0
 11
646.394534327738
 21
-259.7397176000205
 31
0.0
  0
LINE
  5
3A7
330
46
100
AcDbEntity
  8
3
  6
Continuous
 62
     7
100
AcDbLine
 10
646.394534327738
 20
-259.7397176000205
 30
0.0
 11
646.030000257738
 21
-259.7896554300204
 31
0.0
  0
LINE
  5
3A8
330
46
100
AcDbEntity
  8
3
  6
Continuous
 62
     7
100
AcDbLine
 10
646.030000257738
 20
-259.7896554300204
 30
0.0
 11
645.664140187738
 21
-259.8369621300204
 31
0.0
  0
LINE
  5
3A9
330
46
100
AcDbEntity
  8
3
  6
Continuous
 62
     7
100
AcDbLine
 10
645.664140187738
 20
-259.8369621300204
 30
0.0
 11
645.297186137738
 21
-259.8816416100204
 31
0.0
  0
LINE
  5
3AA
330
46
100
AcDbEntity
  8
3
  6
Continuous
 62
     7
100
AcDbLine
 10
645.297186137738
 20
-259.8816416100204
 30
0.0
 11
644.929367557738
 21
-259.9237008200204
 31
0.0
  0
LINE
  5
3AB
330
46
100
AcDbEntity
  8
3
  6
Continuous
 62
     7
100
AcDbLine
 10
644.929367557738
 20
-259.9237008200204
 30
0.0
 11
644.560911007738
 21
-259.9631496500203
 31
0.0
  0
LINE
  5
3AC
330
46
100
AcDbEntity
  8
3
  6
Continuous
 62
     7
100
AcDbLine
 10
644.560911007738
 20
-259.9631496500203
 30
0.0
 11
644.192039717738
 21
-260.0000008300204
 31
0.0
  0
LINE
  5
3AD
330
46
100
AcDbEntity
  8
3
  6
Continuous
 62
     7
100
AcDbLine
 10
644.192039717738
 20
-260.0000008300204
 30
0.0
 11
643.8229732777379
 21
-260.0342698800204
 31
0.0
  0
LINE
  5
3AE
330
46
100
AcDbEntity
  8
3
  6
Continuous
 62
     7
100
AcDbLine
 10
643.8229732777379
 20
-260.0342698800204
 30
0.0
 11
643.4539272777381
 21
-260.0659750200204
 31
0.0
  0
LINE
  5
3AF
330
46
100
AcDbEntity
  8
3
  6
Continuous
 62
     7
100
AcDbLine
 10
643.4539272777381
 20
-260.0659750200204
 30
0.0
 11
643.085112997738
 21
-260.0951370100205
 31
0.0
  0
LINE
  5
3B0
330
46
100
AcDbEntity
  8
3
  6
Continuous
 62
     7
100
AcDbLine
 10
643.085112997738
 20
-260.0951370100205
 30
0.0
 11
642.7167371177379
 21
-260.1217791100204
 31
0.0
  0
LINE
  5
3B1
330
46
100
AcDbEntity
  8
3
  6
Continuous
 62
     7
100
AcDbLine
 10
642.7167371177379
 20
-260.1217791100204
 30
0.0
 11
642.349001437738
 21
-260.1459269300204
 31
0.0
  0
LINE
  5
3B2
330
46
100
AcDbEntity
  8
3
  6
Continuous
 62
     7
100
AcDbLine
 10
642.349001437738
 20
-260.1459269300204
 30
0.0
 11
641.9821026577381
 21
-260.1676083400204
 31
0.0
  0
LINE
  5
3B3
330
46
100
AcDbEntity
  8
3
  6
Continuous
 62
     7
100
AcDbLine
 10
641.9821026577381
 20
-260.1676083400204
 30
0.0
 11
641.6162321077379
 21
-260.1868533600203
 31
0.0
  0
LINE
  5
3B4
330
46
100
AcDbEntity
  8
3
  6
Continuous
 62
     7
100
AcDbLine
 10
641.6162321077379
 20
-260.1868533600203
 30
0.0
 11
641.251575567738
 21
-260.2036940200204
 31
0.0
  0
LINE
  5
3B5
330
46
100
AcDbEntity
  8
3
  6
Continuous
 62
     7
100
AcDbLine
 10
641.251575567738
 20
-260.2036940200204
 30
0.0
 11
640.8883130977381
 21
-260.2181642600203
 31
0.0
  0
LINE
  5
3B6
330
46
100
AcDbEntity
  8
3
  6
Continuous
 62
     7
100
AcDbLine
 10
640.8883130977381
 20
-260.2181642600203
 30
0.0
 11
640.526618877738
 21
-260.2302998100204
 31
0.0
  0
LINE
  5
3B7
330
46
100
AcDbEntity
  8
3
  6
Continuous
 62
     7
100
AcDbLine
 10
640.526618877738
 20
-260.2302998100204
 30
0.0
 11
640.1666609677379
 21
-260.2401380500204
 31
0.0
  0
LINE
  5
3B8
330
46
100
AcDbEntity
  8
3
  6
Continuous
 62
     7
100
AcDbLine
 10
640.1666609677379
 20
-260.2401380500204
 30
0.0
 11
639.808601517738
 21
-260.2477179700205
 31
0.0
  0
LINE
  5
3B9
330
46
100
AcDbEntity
  8
3
  6
Continuous
 62
     7
100
AcDbLine
 10
639.808601517738
 20
-260.2477179700205
 30
0.0
 11
639.452595887738
 21
-260.2530798100205
 31
0.0
  0
LINE
  5
3BA
330
46
100
AcDbEntity
  8
3
  6
Continuous
 62
     7
100
AcDbLine
 10
639.452595887738
 20
-260.2530798100205
 30
0.0
 11
639.098794327738
 21
-260.2562655200205
 31
0.0
  0
LINE
  5
3BB
330
46
100
AcDbEntity
  8
3
  6
Continuous
 62
     7
100
AcDbLine
 10
639.098794327738
 20
-260.2562655200205
 30
0.0
 11
638.747338747738
 21
-260.2573176000204
 31
0.0
  0
LINE
  5
3BC
330
46
100
AcDbEntity
  8
3
  6
Continuous
 62
     7
100
AcDbLine
 10
638.747338747738
 20
-260.2573176000204
 30
0.0
 11
636.3633246577381
 21
-260.2090288200204
 31
0.0
  0
LINE
  5
3BD
330
46
100
AcDbEntity
  8
3
  6
Continuous
 62
     7
100
AcDbLine
 10
636.3633246577381
 20
-260.2090288200204
 30
0.0
 11
633.918268107738
 21
-260.0555289800204
 31
0.0
  0
LINE
  5
3BE
330
46
100
AcDbEntity
  8
3
  6
Continuous
 62
     7
100
AcDbLine
 10
633.918268107738
 20
-260.0555289800204
 30
0.0
 11
631.464440837738
 21
-259.7896740600205
 31
0.0
  0
LINE
  5
3BF
330
46
100
AcDbEntity
  8
3
  6
Continuous
 62
     7
100
AcDbLine
 10
631.464440837738
 20
-259.7896740600205
 30
0.0
 11
629.070953067738
 21
-259.4071331900204
 31
0.0
  0
LINE
  5
3C0
330
46
100
AcDbEntity
  8
3
  6
Continuous
 62
     7
100
AcDbLine
 10
629.070953067738
 20
-259.4071331900204
 30
0.0
 11
626.806059367738
 21
-258.9107555800204
 31
0.0
  0
LINE
  5
3C1
330
46
100
AcDbEntity
  8
3
  6
Continuous
 62
     7
100
AcDbLine
 10
626.806059367738
 20
-258.9107555800204
 30
0.0
 11
624.737899537738
 21
-258.3093761200204
 31
0.0
  0
LINE
  5
3C2
330
46
100
AcDbEntity
  8
3
  6
Continuous
 62
     7
100
AcDbLine
 10
624.737899537738
 20
-258.3093761200204
 30
0.0
 11
622.925867057738
 21
-257.6180639500204
 31
0.0
  0
LINE
  5
3C3
330
46
100
AcDbEntity
  8
3
  6
Continuous
 62
     7
100
AcDbLine
 10
622.925867057738
 20
-257.6180639500204
 30
0.0
 11
621.415566047738
 21
-256.8567300300203
 31
0.0
  0
LINE
  5
3C4
330
46
100
AcDbEntity
  8
3
  6
Continuous
 62
     7
100
AcDbLine
 10
621.415566047738
 20
-256.8567300300203
 30
0.0
 11
620.2346088377381
 21
-256.0484394300205
 31
0.0
  0
LINE
  5
3C5
330
46
100
AcDbEntity
  8
3
  6
Continuous
 62
     7
100
AcDbLine
 10
620.2346088377381
 20
-256.0484394300205
 30
0.0
 11
619.393115917738
 21
-255.2164537000203
 31
0.0
  0
LINE
  5
3C6
330
46
100
AcDbEntity
  8
3
  6
Continuous
 62
     7
100
AcDbLine
 10
619.393115917738
 20
-255.2164537000203
 30
0.0
 11
618.880244317738
 21
-254.3845155300204
 31
0.0
  0
LINE
  5
3C7
330
46
100
AcDbEntity
  8
3
  6
Continuous
 62
     7
100
AcDbLine
 10
618.880244317738
 20
-254.3845155300204
 30
0.0
 11
618.676486487738
 21
-253.5706843900204
 31
0.0
  0
LINE
  5
3C8
330
46
100
AcDbEntity
  8
3
  6
Continuous
 62
     7
100
AcDbLine
 10
616.376261047738
 20
-223.6293694000204
 30
0.0
 11
617.352037047738
 21
-220.4771871400204
 31
0.0
  0
LINE
  5
3C9
330
46
100
AcDbEntity
  8
3
  6
Continuous
 62
     7
100
AcDbLine
 10
617.352037047738
 20
-220.4771871400204
 30
0.0
 11
619.852509257738
 21
-218.2080015000205
 31
0.0
  0
LINE
  5
3CA
330
46
100
AcDbEntity
  8
3
  6
Continuous
 62
     7
100
AcDbLine
 10
619.852509257738
 20
-218.2080015000205
 30
0.0
 11
623.494046277738
 21
-216.5436888000205
 31
0.0
  0
LINE
  5
3CB
330
46
100
AcDbEntity
  8
3
  6
Continuous
 62
     7
100
AcDbLine
 10
657.6456411477379
 20
-218.2061302200204
 30
0.0
 11
660.1445431777379
 21
-220.4757007600203
 31
0.0
  0
LINE
  5
3CC
330
46
100
AcDbEntity
  8
3
  6
Continuous
 62
     7
100
AcDbLine
 10
660.1445431777379
 20
-220.4757007600203
 30
0.0
 11
661.118416437738
 21
-223.6293694000204
 31
0.0
  0
LINE
  5
3CD
330
46
100
AcDbEntity
  8
3
  6
Continuous
 62
     7
100
AcDbLine
 10
661.118416437738
 20
-223.6293694000204
 30
0.0
 11
658.8181910077381
 21
-253.5706843900204
 31
0.0
  0
LINE
  5
3CE
330
46
100
AcDbEntity
  8
3
  6
Continuous
 62
     7
100
AcDbLine
 10
616.376261047738
 20
-223.6293694000204
 30
0.0
 11
618.676486487738
 21
-253.5706843900204
 31
0.0
  0
LINE
  5
3CF
330
46
100
AcDbEntity
  8
3
  6
Continuous
 62
     7
100
AcDbLine
 10
657.4479950377381
 20
-255.8896980000204
 30
0.0
 11
656.4441397677381
 21
-256.7683119300203
 31
0.0
  0
LINE
  5
3D0
330
46
100
AcDbEntity
  8
3
  6
Continuous
 62
     7
100
AcDbLine
 10
620.046682447738
 20
-255.8896980000204
 30
0.0
 11
621.050537727738
 21
-256.7683119300203
 31
0.0
  0
LINE
  5
3D1
330
46
100
AcDbEntity
  8
1
  6
Continuous
 62
     7
100
AcDbLine
 10
467.9866673749284
 20
-215.7743260027069
 30
0.0
 11
459.2436470033167
 21
-246.5233075290204
 31
0.0
  0
LINE
  5
3D2
330
46
100
AcDbEntity
  8
1
  6
Continuous
 62
     7
100
AcDbLine
 10
492.777047903895
 20
-259.8754163499881
 30
0.0
 11
459.8878061763896
 21
-247.9047113335852
 31
0.0
  0
LINE
  5
3D3
330
46
100
AcDbEntity
  8
1
  6
Continuous
 62
     7
100
AcDbLine
 10
492.777047903895
 20
-259.8754163499881
 30
0.0
 11
495.5961257662525
 21
-260.9014767799653
 31
0.0
  0
LINE
  5
3D4
330
46
100
AcDbEntity
  8
1
  6
Continuous
 62
     7
100
AcDbLine
 10
459.2436470033167
 20
-246.5233075290204
 30
0.0
 11
459.8878061763896
 21
-247.9047113335852
 31
0.0
  0
LINE
  5
3D5
330
46
100
AcDbEntity
  8
1
  6
Continuous
 62
     7
100
AcDbLine
 10
495.5961257662525
 20
-260.9014767799653
 30
0.0
 11
496.9775295708173
 21
-260.2573176068925
 31
0.0
  0
LINE
  5
3D6
330
46
100
AcDbEntity
  8
1
  6
Continuous
 62
     7
100
AcDbLine
 10
496.9775295708173
 20
-260.2573176068925
 30
0.0
 11
510.0450517346703
 21
-231.0823260109863
 31
0.0
  0
LINE
  5
3D7
330
46
100
AcDbEntity
  8
80
  6
Continuous
 62
     7
100
AcDbLine
 10
469.7891331380686
 20
-115.7536640351073
 30
0.0
 11
480.2656824780686
 21
-118.0089995751073
 31
0.0
  0
LINE
  5
3D8
330
46
100
AcDbEntity
  8
80
  6
Continuous
 62
     7
100
AcDbLine
 10
469.7891331380686
 20
-76.39534227510723
 30
0.0
 11
480.2656824780686
 21
-74.14000673510719
 31
0.0
  0
LINE
  5
3D9
330
46
100
AcDbEntity
  8
80
  6
Continuous
 62
     7
100
AcDbLine
 10
460.2320386380686
 20
-93.82456722510739
 30
0.0
 11
460.3351361980688
 21
-93.85522197510733
 31
0.0
  0
LINE
  5
3DA
330
46
100
AcDbEntity
  8
80
  6
Continuous
 62
     7
100
AcDbLine
 10
460.3351361980688
 20
-93.85522197510733
 30
0.0
 11
460.4314940780687
 21
-93.95577422510729
 31
0.0
  0
LINE
  5
3DB
330
46
100
AcDbEntity
  8
80
  6
Continuous
 62
     7
100
AcDbLine
 10
460.4314940780687
 20
-93.95577422510729
 30
0.0
 11
460.5415153780687
 21
-94.19361988510724
 31
0.0
  0
LINE
  5
3DC
330
46
100
AcDbEntity
  8
80
  6
Continuous
 62
     7
100
AcDbLine
 10
460.5415153780687
 20
-94.19361988510724
 30
0.0
 11
460.6426499580687
 21
-94.62071176510727
 31
0.0
  0
LINE
  5
3DD
330
46
100
AcDbEntity
  8
80
  6
Continuous
 62
     7
100
AcDbLine
 10
460.6426499580687
 20
-94.62071176510727
 30
0.0
 11
460.7186613180686
 21
-95.30835529510733
 31
0.0
  0
LINE
  5
3DE
330
46
100
AcDbEntity
  8
80
  6
Continuous
 62
     7
100
AcDbLine
 10
460.7186613180686
 20
-95.30835529510733
 30
0.0
 11
460.7420548380687
 21
-96.21196435510734
 31
0.0
  0
LINE
  5
3DF
330
46
100
AcDbEntity
  8
80
  6
Continuous
 62
     7
100
AcDbLine
 10
460.7420548380687
 20
-96.21196435510734
 30
0.0
 11
460.6973598680686
 21
-97.10469708510738
 31
0.0
  0
LINE
  5
3E0
330
46
100
AcDbEntity
  8
80
  6
Continuous
 62
     7
100
AcDbLine
 10
460.6973598680686
 20
-97.10469708510738
 30
0.0
 11
460.6041293380686
 21
-97.72626221510728
 31
0.0
  0
LINE
  5
3E1
330
46
100
AcDbEntity
  8
80
  6
Continuous
 62
     7
100
AcDbLine
 10
460.6041293380686
 20
-97.72626221510728
 30
0.0
 11
460.5125363080686
 21
-98.03455331510719
 31
0.0
  0
LINE
  5
3E2
330
46
100
AcDbEntity
  8
80
  6
Continuous
 62
     7
100
AcDbLine
 10
460.5125363080686
 20
-98.03455331510719
 30
0.0
 11
460.3958659380687
 21
-98.23986702510734
 31
0.0
  0
LINE
  5
3E3
330
46
100
AcDbEntity
  8
80
  6
Continuous
 62
     7
100
AcDbLine
 10
460.3958659380687
 20
-98.23986702510734
 30
0.0
 11
460.2962514780686
 21
-98.31353967510728
 31
0.0
  0
LINE
  5
3E4
330
46
100
AcDbEntity
  8
80
  6
Continuous
 62
     7
100
AcDbLine
 10
460.2962514780686
 20
-98.31353967510728
 30
0.0
 11
460.1913353780685
 21
-98.31852354510721
 31
0.0
  0
LINE
  5
3E5
330
46
100
AcDbEntity
  8
80
  6
Continuous
 62
     7
100
AcDbLine
 10
460.1913353780685
 20
-98.31852354510721
 30
0.0
 11
460.0783481080687
 21
-98.25530571510723
 31
0.0
  0
LINE
  5
3E6
330
46
100
AcDbEntity
  8
80
  6
Continuous
 62
     7
100
AcDbLine
 10
460.0783481080687
 20
-98.25530571510723
 30
0.0
 11
459.9233748680688
 21
-98.06193609510734
 31
0.0
  0
LINE
  5
3E7
330
46
100
AcDbEntity
  8
80
  6
Continuous
 62
     7
100
AcDbLine
 10
459.9233748680688
 20
-98.06193609510734
 30
0.0
 11
459.7797873180687
 21
-97.76049747510734
 31
0.0
  0
LINE
  5
3E8
330
46
100
AcDbEntity
  8
80
  6
Continuous
 62
     7
100
AcDbLine
 10
459.7797873180687
 20
-97.76049747510734
 30
0.0
 11
459.6334531780688
 21
-97.26483423510723
 31
0.0
  0
LINE
  5
3E9
330
46
100
AcDbEntity
  8
80
  6
Continuous
 62
     7
100
AcDbLine
 10
459.6334531780688
 20
-97.26483423510723
 30
0.0
 11
459.5366324880686
 21
-96.64933502510718
 31
0.0
  0
LINE
  5
3EA
330
46
100
AcDbEntity
  8
80
  6
Continuous
 62
     7
100
AcDbLine
 10
459.5366324880686
 20
-96.64933502510718
 30
0.0
 11
459.5093238880686
 21
-96.00140478510735
 31
0.0
  0
LINE
  5
3EB
330
46
100
AcDbEntity
  8
80
  6
Continuous
 62
     7
100
AcDbLine
 10
459.5093238880686
 20
-96.00140478510735
 30
0.0
 11
459.5530154980686
 21
-95.35224478510719
 31
0.0
  0
LINE
  5
3EC
330
46
100
AcDbEntity
  8
80
  6
Continuous
 62
     7
100
AcDbLine
 10
459.5530154980686
 20
-95.35224478510719
 30
0.0
 11
459.6637059880686
 21
-94.75771612510727
 31
0.0
  0
LINE
  5
3ED
330
46
100
AcDbEntity
  8
80
  6
Continuous
 62
     7
100
AcDbLine
 10
459.6637059880686
 20
-94.75771612510727
 30
0.0
 11
459.8186770080686
 21
-94.29318333510724
 31
0.0
  0
LINE
  5
3EE
330
46
100
AcDbEntity
  8
80
  6
Continuous
 62
     7
100
AcDbLine
 10
459.8186770080686
 20
-94.29318333510724
 30
0.0
 11
459.9673554880687
 21
-94.01945932510722
 31
0.0
  0
LINE
  5
3EF
330
46
100
AcDbEntity
  8
80
  6
Continuous
 62
     7
100
AcDbLine
 10
459.9673554880687
 20
-94.01945932510722
 30
0.0
 11
460.0839455180687
 21
-93.88901040510729
 31
0.0
  0
LINE
  5
3F0
330
46
100
AcDbEntity
  8
80
  6
Continuous
 62
     7
100
AcDbLine
 10
460.0839455180687
 20
-93.88901040510729
 30
0.0
 11
460.1965767780687
 21
-93.82919595510731
 31
0.0
  0
LINE
  5
3F1
330
46
100
AcDbEntity
  8
80
  6
Continuous
 62
     7
100
AcDbLine
 10
460.1965767780687
 20
-93.82919595510731
 30
0.0
 11
460.2320386380686
 21
-93.82456722510739
 31
0.0
  0
LINE
  5
3F2
330
46
100
AcDbEntity
  8
80
  6
Continuous
 62
     7
100
AcDbLine
 10
463.4060692580686
 20
-96.07450315510738
 30
0.0
 11
463.4358773180686
 21
-97.26561730510736
 31
0.0
  0
LINE
  5
3F3
330
46
100
AcDbEntity
  8
80
  6
Continuous
 62
     7
100
AcDbLine
 10
463.4358773180686
 20
-97.26561730510736
 30
0.0
 11
463.5273362480687
 21
-98.47435683510736
 31
0.0
  0
LINE
  5
3F4
330
46
100
AcDbEntity
  8
80
  6
Continuous
 62
     7
100
AcDbLine
 10
463.5273362480687
 20
-98.47435683510736
 30
0.0
 11
463.6831988880688
 21
-99.69565222510738
 31
0.0
  0
LINE
  5
3F5
330
46
100
AcDbEntity
  8
80
  6
Continuous
 62
     7
100
AcDbLine
 10
463.6831988880688
 20
-99.69565222510738
 30
0.0
 11
463.9057554880687
 21
-100.9239683051072
 31
0.0
  0
LINE
  5
3F6
330
46
100
AcDbEntity
  8
80
  6
Continuous
 62
     7
100
AcDbLine
 10
463.9057554880687
 20
-100.9239683051072
 30
0.0
 11
464.1967575980686
 21
-102.1533606351073
 31
0.0
  0
LINE
  5
3F7
330
46
100
AcDbEntity
  8
80
  6
Continuous
 62
     7
100
AcDbLine
 10
464.1967575980686
 20
-102.1533606351073
 30
0.0
 11
464.5573487680688
 21
-103.3775475851074
 31
0.0
  0
LINE
  5
3F8
330
46
100
AcDbEntity
  8
80
  6
Continuous
 62
     7
100
AcDbLine
 10
464.5573487680688
 20
-103.3775475851074
 30
0.0
 11
464.9880053280688
 21
-104.5899971351074
 31
0.0
  0
LINE
  5
3F9
330
46
100
AcDbEntity
  8
80
  6
Continuous
 62
     7
100
AcDbLine
 10
464.9880053280688
 20
-104.5899971351074
 30
0.0
 11
465.4884902380686
 21
-105.7840266751073
 31
0.0
  0
LINE
  5
3FA
330
46
100
AcDbEntity
  8
80
  6
Continuous
 62
     7
100
AcDbLine
 10
465.4884902380686
 20
-105.7840266751073
 30
0.0
 11
466.0578228280685
 21
-106.9529130051072
 31
0.0
  0
LINE
  5
3FB
330
46
100
AcDbEntity
  8
80
  6
Continuous
 62
     7
100
AcDbLine
 10
466.0578228280685
 20
-106.9529130051072
 30
0.0
 11
466.6942665580687
 21
-108.0900091951074
 31
0.0
  0
LINE
  5
3FC
330
46
100
AcDbEntity
  8
80
  6
Continuous
 62
     7
100
AcDbLine
 10
466.6942665580687
 20
-108.0900091951074
 30
0.0
 11
467.3953363880687
 21
-109.1888644951073
 31
0.0
  0
LINE
  5
3FD
330
46
100
AcDbEntity
  8
80
  6
Continuous
 62
     7
100
AcDbLine
 10
467.3953363880687
 20
-109.1888644951073
 30
0.0
 11
468.1578261180687
 21
-110.2433427651072
 31
0.0
  0
LINE
  5
3FE
330
46
100
AcDbEntity
  8
80
  6
Continuous
 62
     7
100
AcDbLine
 10
468.1578261180687
 20
-110.2433427651072
 30
0.0
 11
468.9778555780686
 21
-111.2477350751072
 31
0.0
  0
LINE
  5
3FF
330
46
100
AcDbEntity
  8
80
  6
Continuous
 62
     7
100
AcDbLine
 10
468.9778555780686
 20
-111.2477350751072
 30
0.0
 11
469.8509359680686
 21
-112.1968622351072
 31
0.0
  0
LINE
  5
400
330
46
100
AcDbEntity
  8
80
  6
Continuous
 62
     7
100
AcDbLine
 10
469.8509359680686
 20
-112.1968622351072
 30
0.0
 11
470.7720513880686
 21
-113.0861634051074
 31
0.0
  0
LINE
  5
401
330
46
100
AcDbEntity
  8
80
  6
Continuous
 62
     7
100
AcDbLine
 10
470.7720513880686
 20
-113.0861634051074
 30
0.0
 11
471.7357531880687
 21
-113.9117675051073
 31
0.0
  0
LINE
  5
402
330
46
100
AcDbEntity
  8
80
  6
Continuous
 62
     7
100
AcDbLine
 10
471.7357531880687
 20
-113.9117675051073
 30
0.0
 11
472.7362636180687
 21
-114.6705453451073
 31
0.0
  0
LINE
  5
403
330
46
100
AcDbEntity
  8
80
  6
Continuous
 62
     7
100
AcDbLine
 10
472.7362636180687
 20
-114.6705453451073
 30
0.0
 11
473.7675848280687
 21
-115.3601409751073
 31
0.0
  0
LINE
  5
404
330
46
100
AcDbEntity
  8
80
  6
Continuous
 62
     7
100
AcDbLine
 10
473.7675848280687
 20
-115.3601409751073
 30
0.0
 11
474.8236088580686
 21
-115.9789821451073
 31
0.0
  0
LINE
  5
405
330
46
100
AcDbEntity
  8
80
  6
Continuous
 62
     7
100
AcDbLine
 10
474.8236088580686
 20
-115.9789821451073
 30
0.0
 11
475.8982250680685
 21
-116.5262705451074
 31
0.0
  0
LINE
  5
406
330
46
100
AcDbEntity
  8
80
  6
Continuous
 62
     7
100
AcDbLine
 10
475.8982250680685
 20
-116.5262705451074
 30
0.0
 11
476.9854210980686
 21
-117.0019534851072
 31
0.0
  0
LINE
  5
407
330
46
100
AcDbEntity
  8
80
  6
Continuous
 62
     7
100
AcDbLine
 10
476.9854210980686
 20
-117.0019534851072
 30
0.0
 11
478.0793746080688
 21
-117.4066792651072
 31
0.0
  0
LINE
  5
408
330
46
100
AcDbEntity
  8
80
  6
Continuous
 62
     7
100
AcDbLine
 10
478.0793746080688
 20
-117.4066792651072
 30
0.0
 11
479.1745334080686
 21
-117.7417392251073
 31
0.0
  0
LINE
  5
409
330
46
100
AcDbEntity
  8
80
  6
Continuous
 62
     7
100
AcDbLine
 10
479.1745334080686
 20
-117.7417392251073
 30
0.0
 11
480.2656824780686
 21
-118.0089995751073
 31
0.0
  0
LINE
  5
40A
330
46
100
AcDbEntity
  8
80
  6
Continuous
 62
     7
100
AcDbLine
 10
465.5599187480686
 20
-96.07450315510738
 30
0.0
 11
465.5873646080686
 21
-97.17764862510722
 31
0.0
  0
LINE
  5
40B
330
46
100
AcDbEntity
  8
80
  6
Continuous
 62
     7
100
AcDbLine
 10
465.5873646080686
 20
-97.17764862510722
 30
0.0
 11
465.6719079880686
 21
-98.30044154510739
 31
0.0
  0
LINE
  5
40C
330
46
100
AcDbEntity
  8
80
  6
Continuous
 62
     7
100
AcDbLine
 10
465.6719079880686
 20
-98.30044154510739
 30
0.0
 11
465.8166225080686
 21
-99.43834270510735
 31
0.0
  0
LINE
  5
40D
330
46
100
AcDbEntity
  8
80
  6
Continuous
 62
     7
100
AcDbLine
 10
465.8166225080686
 20
-99.43834270510735
 30
0.0
 11
466.0242006280687
 21
-100.5862932251073
 31
0.0
  0
LINE
  5
40E
330
46
100
AcDbEntity
  8
80
  6
Continuous
 62
     7
100
AcDbLine
 10
466.0242006280687
 20
-100.5862932251073
 30
0.0
 11
466.2968692380687
 21
-101.7387533551074
 31
0.0
  0
LINE
  5
40F
330
46
100
AcDbEntity
  8
80
  6
Continuous
 62
     7
100
AcDbLine
 10
466.2968692380687
 20
-101.7387533551074
 30
0.0
 11
466.6363081680686
 21
-102.8897585351072
 31
0.0
  0
LINE
  5
410
330
46
100
AcDbEntity
  8
80
  6
Continuous
 62
     7
100
AcDbLine
 10
466.6363081680686
 20
-102.8897585351072
 30
0.0
 11
467.0435752380686
 21
-104.0329927951073
 31
0.0
  0
LINE
  5
411
330
46
100
AcDbEntity
  8
80
  6
Continuous
 62
     7
100
AcDbLine
 10
467.0435752380686
 20
-104.0329927951073
 30
0.0
 11
467.5190413380685
 21
-105.1618786351074
 31
0.0
  0
LINE
  5
412
330
46
100
AcDbEntity
  8
80
  6
Continuous
 62
     7
100
AcDbLine
 10
467.5190413380685
 20
-105.1618786351074
 30
0.0
 11
468.0623391180686
 21
-106.2696816751073
 31
0.0
  0
LINE
  5
413
330
46
100
AcDbEntity
  8
80
  6
Continuous
 62
     7
100
AcDbLine
 10
468.0623391180686
 20
-106.2696816751073
 30
0.0
 11
468.6723286680688
 21
-107.3496271851073
 31
0.0
  0
LINE
  5
414
330
46
100
AcDbEntity
  8
80
  6
Continuous
 62
     7
100
AcDbLine
 10
468.6723286680688
 20
-107.3496271851073
 30
0.0
 11
469.3470826180687
 21
-108.3950250551073
 31
0.0
  0
LINE
  5
415
330
46
100
AcDbEntity
  8
80
  6
Continuous
 62
     7
100
AcDbLine
 10
469.3470826180687
 20
-108.3950250551073
 30
0.0
 11
470.0838928380688
 21
-109.3993986651072
 31
0.0
  0
LINE
  5
416
330
46
100
AcDbEntity
  8
80
  6
Continuous
 62
     7
100
AcDbLine
 10
470.0838928380688
 20
-109.3993986651072
 30
0.0
 11
470.8792993280686
 21
-110.3566128151072
 31
0.0
  0
LINE
  5
417
330
46
100
AcDbEntity
  8
80
  6
Continuous
 62
     7
100
AcDbLine
 10
470.8792993280686
 20
-110.3566128151072
 30
0.0
 11
471.7291411980687
 21
-111.2609956351074
 31
0.0
  0
LINE
  5
418
330
46
100
AcDbEntity
  8
80
  6
Continuous
 62
     7
100
AcDbLine
 10
471.7291411980687
 20
-111.2609956351074
 30
0.0
 11
472.6286282680687
 21
-112.1074495451074
 31
0.0
  0
LINE
  5
419
330
46
100
AcDbEntity
  8
80
  6
Continuous
 62
     7
100
AcDbLine
 10
472.6286282680687
 20
-112.1074495451074
 30
0.0
 11
473.5724307380685
 21
-112.8915466051072
 31
0.0
  0
LINE
  5
41A
330
46
100
AcDbEntity
  8
80
  6
Continuous
 62
     7
100
AcDbLine
 10
473.5724307380685
 20
-112.8915466051072
 30
0.0
 11
474.5547834080687
 21
-113.6096047651072
 31
0.0
  0
LINE
  5
41B
330
46
100
AcDbEntity
  8
80
  6
Continuous
 62
     7
100
AcDbLine
 10
474.5547834080687
 20
-113.6096047651072
 30
0.0
 11
475.5696002280686
 21
-114.2587420751073
 31
0.0
  0
LINE
  5
41C
330
46
100
AcDbEntity
  8
80
  6
Continuous
 62
     7
100
AcDbLine
 10
475.5696002280686
 20
-114.2587420751073
 30
0.0
 11
476.6105945680686
 21
-114.8369075051074
 31
0.0
  0
LINE
  5
41D
330
46
100
AcDbEntity
  8
80
  6
Continuous
 62
     7
100
AcDbLine
 10
476.6105945680686
 20
-114.8369075051074
 30
0.0
 11
477.6714002680687
 21
-115.3428879551073
 31
0.0
  0
LINE
  5
41E
330
46
100
AcDbEntity
  8
80
  6
Continuous
 62
     7
100
AcDbLine
 10
477.6714002680687
 20
-115.3428879551073
 30
0.0
 11
478.7456890680687
 21
-115.7762925251073
 31
0.0
  0
LINE
  5
41F
330
46
100
AcDbEntity
  8
80
  6
Continuous
 62
     7
100
AcDbLine
 10
478.7456890680687
 20
-115.7762925251073
 30
0.0
 11
479.8272801380688
 21
-116.1375158851072
 31
0.0
  0
LINE
  5
420
330
46
100
AcDbEntity
  8
80
  6
Continuous
 62
     7
100
AcDbLine
 10
479.8272801380688
 20
-116.1375158851072
 30
0.0
 11
480.9102384180687
 21
-116.4276837551072
 31
0.0
  0
LINE
  5
421
330
46
100
AcDbEntity
  8
80
  6
Continuous
 62
     7
100
AcDbLine
 10
480.9102384180687
 20
-116.4276837551072
 30
0.0
 11
481.9889590480686
 21
-116.6485837851072
 31
0.0
  0
LINE
  5
422
330
46
100
AcDbEntity
  8
80
  6
Continuous
 62
     7
100
AcDbLine
 10
481.9889590480686
 20
-116.6485837851072
 30
0.0
 11
483.0582363680687
 21
-116.8025857651074
 31
0.0
  0
LINE
  5
423
330
46
100
AcDbEntity
  8
80
  6
Continuous
 62
     7
100
AcDbLine
 10
483.0582363680687
 20
-116.8025857651074
 30
0.0
 11
484.1133165980687
 21
-116.8925549451072
 31
0.0
  0
LINE
  5
424
330
46
100
AcDbEntity
  8
80
  6
Continuous
 62
     7
100
AcDbLine
 10
484.1133165980687
 20
-116.8925549451072
 30
0.0
 11
485.1499342580687
 21
-116.9217622151073
 31
0.0
  0
LINE
  5
425
330
46
100
AcDbEntity
  8
80
  6
Continuous
 62
     7
100
AcDbLine
 10
485.1499342580687
 20
-116.9217622151073
 30
0.0
 11
486.1865519080686
 21
-116.8925549451072
 31
0.0
  0
LINE
  5
426
330
46
100
AcDbEntity
  8
80
  6
Continuous
 62
     7
100
AcDbLine
 10
486.1865519080686
 20
-116.8925549451072
 30
0.0
 11
487.2416321380686
 21
-116.8025857651074
 31
0.0
  0
LINE
  5
427
330
46
100
AcDbEntity
  8
80
  6
Continuous
 62
     7
100
AcDbLine
 10
487.2416321380686
 20
-116.8025857651074
 30
0.0
 11
488.3109094580686
 21
-116.6485837851072
 31
0.0
  0
LINE
  5
428
330
46
100
AcDbEntity
  8
80
  6
Continuous
 62
     7
100
AcDbLine
 10
488.3109094580686
 20
-116.6485837851072
 30
0.0
 11
489.3896300880685
 21
-116.4276837551072
 31
0.0
  0
LINE
  5
429
330
46
100
AcDbEntity
  8
80
  6
Continuous
 62
     7
100
AcDbLine
 10
489.3896300880685
 20
-116.4276837551072
 30
0.0
 11
490.4725883680687
 21
-116.1375158851072
 31
0.0
  0
LINE
  5
42A
330
46
100
AcDbEntity
  8
80
  6
Continuous
 62
     7
100
AcDbLine
 10
490.4725883680687
 20
-116.1375158851072
 30
0.0
 11
491.5541794380686
 21
-115.7762925251073
 31
0.0
  0
LINE
  5
42B
330
46
100
AcDbEntity
  8
80
  6
Continuous
 62
     7
100
AcDbLine
 10
491.5541794380686
 20
-115.7762925251073
 30
0.0
 11
492.6284682380685
 21
-115.3428879551073
 31
0.0
  0
LINE
  5
42C
330
46
100
AcDbEntity
  8
80
  6
Continuous
 62
     7
100
AcDbLine
 10
492.6284682380685
 20
-115.3428879551073
 30
0.0
 11
493.6892739380687
 21
-114.8369075051074
 31
0.0
  0
LINE
  5
42D
330
46
100
AcDbEntity
  8
80
  6
Continuous
 62
     7
100
AcDbLine
 10
493.6892739380687
 20
-114.8369075051074
 30
0.0
 11
494.7302682780687
 21
-114.2587420751073
 31
0.0
  0
LINE
  5
42E
330
46
100
AcDbEntity
  8
80
  6
Continuous
 62
     7
100
AcDbLine
 10
494.7302682780687
 20
-114.2587420751073
 30
0.0
 11
495.7450850980686
 21
-113.6096047651072
 31
0.0
  0
LINE
  5
42F
330
46
100
AcDbEntity
  8
80
  6
Continuous
 62
     7
100
AcDbLine
 10
495.7450850980686
 20
-113.6096047651072
 30
0.0
 11
496.7274377680685
 21
-112.8915466051072
 31
0.0
  0
LINE
  5
430
330
46
100
AcDbEntity
  8
80
  6
Continuous
 62
     7
100
AcDbLine
 10
496.7274377680685
 20
-112.8915466051072
 30
0.0
 11
497.6712402380688
 21
-112.1074495451074
 31
0.0
  0
LINE
  5
431
330
46
100
AcDbEntity
  8
80
  6
Continuous
 62
     7
100
AcDbLine
 10
497.6712402380688
 20
-112.1074495451074
 30
0.0
 11
498.5707273080686
 21
-111.2609956351074
 31
0.0
  0
LINE
  5
432
330
46
100
AcDbEntity
  8
80
  6
Continuous
 62
     7
100
AcDbLine
 10
498.5707273080686
 20
-111.2609956351074
 30
0.0
 11
499.4205691780687
 21
-110.3566128151072
 31
0.0
  0
LINE
  5
433
330
46
100
AcDbEntity
  8
80
  6
Continuous
 62
     7
100
AcDbLine
 10
499.4205691780687
 20
-110.3566128151072
 30
0.0
 11
500.2159756680687
 21
-109.3993986651072
 31
0.0
  0
LINE
  5
434
330
46
100
AcDbEntity
  8
80
  6
Continuous
 62
     7
100
AcDbLine
 10
500.2159756680687
 20
-109.3993986651072
 30
0.0
 11
500.9527858880686
 21
-108.3950250551073
 31
0.0
  0
LINE
  5
435
330
46
100
AcDbEntity
  8
80
  6
Continuous
 62
     7
100
AcDbLine
 10
500.9527858880686
 20
-108.3950250551073
 30
0.0
 11
501.6275398380687
 21
-107.3496271851073
 31
0.0
  0
LINE
  5
436
330
46
100
AcDbEntity
  8
80
  6
Continuous
 62
     7
100
AcDbLine
 10
501.6275398380687
 20
-107.3496271851073
 30
0.0
 11
502.2375293880687
 21
-106.2696816751073
 31
0.0
  0
LINE
  5
437
330
46
100
AcDbEntity
  8
80
  6
Continuous
 62
     7
100
AcDbLine
 10
502.2375293880687
 20
-106.2696816751073
 30
0.0
 11
502.7808271680685
 21
-105.1618786351074
 31
0.0
  0
LINE
  5
438
330
46
100
AcDbEntity
  8
80
  6
Continuous
 62
     7
100
AcDbLine
 10
502.7808271680685
 20
-105.1618786351074
 30
0.0
 11
503.2562932680687
 21
-104.0329927951073
 31
0.0
  0
LINE
  5
439
330
46
100
AcDbEntity
  8
80
  6
Continuous
 62
     7
100
AcDbLine
 10
503.2562932680687
 20
-104.0329927951073
 30
0.0
 11
503.6635603380687
 21
-102.8897585351072
 31
0.0
  0
LINE
  5
43A
330
46
100
AcDbEntity
  8
80
  6
Continuous
 62
     7
100
AcDbLine
 10
503.6635603380687
 20
-102.8897585351072
 30
0.0
 11
504.0029992680686
 21
-101.7387533551074
 31
0.0
  0
LINE
  5
43B
330
46
100
AcDbEntity
  8
80
  6
Continuous
 62
     7
100
AcDbLine
 10
504.0029992680686
 20
-101.7387533551074
 30
0.0
 11
504.2756678780686
 21
-100.5862932251073
 31
0.0
  0
LINE
  5
43C
330
46
100
AcDbEntity
  8
80
  6
Continuous
 62
     7
100
AcDbLine
 10
504.2756678780686
 20
-100.5862932251073
 30
0.0
 11
504.4832459980687
 21
-99.43834270510735
 31
0.0
  0
LINE
  5
43D
330
46
100
AcDbEntity
  8
80
  6
Continuous
 62
     7
100
AcDbLine
 10
504.4832459980687
 20
-99.43834270510735
 30
0.0
 11
504.6279605180687
 21
-98.30044154510739
 31
0.0
  0
LINE
  5
43E
330
46
100
AcDbEntity
  8
80
  6
Continuous
 62
     7
100
AcDbLine
 10
504.6279605180687
 20
-98.30044154510739
 30
0.0
 11
504.7125038980687
 21
-97.17764862510722
 31
0.0
  0
LINE
  5
43F
330
46
100
AcDbEntity
  8
80
  6
Continuous
 62
     7
100
AcDbLine
 10
504.7125038980687
 20
-97.17764862510722
 30
0.0
 11
504.7399497580686
 21
-96.07450315510738
 31
0.0
  0
LINE
  5
440
330
46
100
AcDbEntity
  8
80
  6
Continuous
 62
     7
100
AcDbLine
 10
504.7399497580686
 20
-96.07450315510738
 30
0.0
 11
504.7125038980687
 21
-94.97135768510731
 31
0.0
  0
LINE
  5
441
330
46
100
AcDbEntity
  8
80
  6
Continuous
 62
     7
100
AcDbLine
 10
504.7125038980687
 20
-94.97135768510731
 30
0.0
 11
504.6279605180687
 21
-93.84856476510737
 31
0.0
  0
LINE
  5
442
330
46
100
AcDbEntity
  8
80
  6
Continuous
 62
     7
100
AcDbLine
 10
504.6279605180687
 20
-93.84856476510737
 30
0.0
 11
504.4832459980687
 21
-92.71066360510719
 31
0.0
  0
LINE
  5
443
330
46
100
AcDbEntity
  8
80
  6
Continuous
 62
     7
100
AcDbLine
 10
504.4832459980687
 20
-92.71066360510719
 30
0.0
 11
504.2756678780686
 21
-91.56271308510719
 31
0.0
  0
LINE
  5
444
330
46
100
AcDbEntity
  8
80
  6
Continuous
 62
     7
100
AcDbLine
 10
504.2756678780686
 20
-91.56271308510719
 30
0.0
 11
504.0029992680686
 21
-90.41025295510718
 31
0.0
  0
LINE
  5
445
330
46
100
AcDbEntity
  8
80
  6
Continuous
 62
     7
100
AcDbLine
 10
504.0029992680686
 20
-90.41025295510718
 30
0.0
 11
503.6635603380687
 21
-89.25924777510733
 31
0.0
  0
LINE
  5
446
330
46
100
AcDbEntity
  8
80
  6
Continuous
 62
     7
100
AcDbLine
 10
503.6635603380687
 20
-89.25924777510733
 30
0.0
 11
503.2562932680687
 21
-88.11601351510723
 31
0.0
  0
LINE
  5
447
330
46
100
AcDbEntity
  8
80
  6
Continuous
 62
     7
100
AcDbLine
 10
503.2562932680687
 20
-88.11601351510723
 30
0.0
 11
502.7808271680685
 21
-86.98712767510739
 31
0.0
  0
LINE
  5
448
330
46
100
AcDbEntity
  8
80
  6
Continuous
 62
     7
100
AcDbLine
 10
502.7808271680685
 20
-86.98712767510739
 30
0.0
 11
502.2375293880687
 21
-85.87932463510725
 31
0.0
  0
LINE
  5
449
330
46
100
AcDbEntity
  8
80
  6
Continuous
 62
     7
100
AcDbLine
 10
502.2375293880687
 20
-85.87932463510725
 30
0.0
 11
501.6275398380687
 21
-84.79937912510724
 31
0.0
  0
LINE
  5
44A
330
46
100
AcDbEntity
  8
80
  6
Continuous
 62
     7
100
AcDbLine
 10
501.6275398380687
 20
-84.79937912510724
 30
0.0
 11
500.9527858880686
 21
-83.75398125510725
 31
0.0
  0
LINE
  5
44B
330
46
100
AcDbEntity
  8
80
  6
Continuous
 62
     7
100
AcDbLine
 10
500.9527858880686
 20
-83.75398125510725
 30
0.0
 11
500.2159756680687
 21
-82.74960764510735
 31
0.0
  0
LINE
  5
44C
330
46
100
AcDbEntity
  8
80
  6
Continuous
 62
     7
100
AcDbLine
 10
500.2159756680687
 20
-82.74960764510735
 30
0.0
 11
499.4205691780687
 21
-81.79239349510732
 31
0.0
  0
LINE
  5
44D
330
46
100
AcDbEntity
  8
80
  6
Continuous
 62
     7
100
AcDbLine
 10
499.4205691780687
 20
-81.79239349510732
 30
0.0
 11
498.5707273080686
 21
-80.88801066510729
 31
0.0
  0
LINE
  5
44E
330
46
100
AcDbEntity
  8
80
  6
Continuous
 62
     7
100
AcDbLine
 10
498.5707273080686
 20
-80.88801066510729
 30
0.0
 11
497.6712402380688
 21
-80.04155676510737
 31
0.0
  0
LINE
  5
44F
330
46
100
AcDbEntity
  8
80
  6
Continuous
 62
     7
100
AcDbLine
 10
497.6712402380688
 20
-80.04155676510737
 30
0.0
 11
496.7274377680685
 21
-79.25745970510735
 31
0.0
  0
LINE
  5
450
330
46
100
AcDbEntity
  8
80
  6
Continuous
 62
     7
100
AcDbLine
 10
496.7274377680685
 20
-79.25745970510735
 30
0.0
 11
495.7450850980686
 21
-78.5394015451073
 31
0.0
  0
LINE
  5
451
330
46
100
AcDbEntity
  8
80
  6
Continuous
 62
     7
100
AcDbLine
 10
495.7450850980686
 20
-78.5394015451073
 30
0.0
 11
494.7302682780687
 21
-77.89026422510739
 31
0.0
  0
LINE
  5
452
330
46
100
AcDbEntity
  8
80
  6
Continuous
 62
     7
100
AcDbLine
 10
494.7302682780687
 20
-77.89026422510739
 30
0.0
 11
493.6892739380687
 21
-77.31209880510738
 31
0.0
  0
LINE
  5
453
330
46
100
AcDbEntity
  8
80
  6
Continuous
 62
     7
100
AcDbLine
 10
493.6892739380687
 20
-77.31209880510738
 30
0.0
 11
492.6284682380685
 21
-76.80611834510734
 31
0.0
  0
LINE
  5
454
330
46
100
AcDbEntity
  8
80
  6
Continuous
 62
     7
100
AcDbLine
 10
492.6284682380685
 20
-76.80611834510734
 30
0.0
 11
491.5541794380686
 21
-76.37271378510724
 31
0.0
  0
LINE
  5
455
330
46
100
AcDbEntity
  8
80
  6
Continuous
 62
     7
100
AcDbLine
 10
491.5541794380686
 20
-76.37271378510724
 30
0.0
 11
490.4725883680687
 21
-76.0114904251073
 31
0.0
  0
LINE
  5
456
330
46
100
AcDbEntity
  8
80
  6
Continuous
 62
     7
100
AcDbLine
 10
490.4725883680687
 20
-76.0114904251073
 30
0.0
 11
489.3896300880685
 21
-75.72132255510729
 31
0.0
  0
LINE
  5
457
330
46
100
AcDbEntity
  8
80
  6
Continuous
 62
     7
100
AcDbLine
 10
489.3896300880685
 20
-75.72132255510729
 30
0.0
 11
488.3109094580686
 21
-75.50042252510735
 31
0.0
  0
LINE
  5
458
330
46
100
AcDbEntity
  8
80
  6
Continuous
 62
     7
100
AcDbLine
 10
488.3109094580686
 20
-75.50042252510735
 30
0.0
 11
487.2416321380686
 21
-75.34642054510738
 31
0.0
  0
LINE
  5
459
330
46
100
AcDbEntity
  8
80
  6
Continuous
 62
     7
100
AcDbLine
 10
487.2416321380686
 20
-75.34642054510738
 30
0.0
 11
486.1865519080686
 21
-75.25645136510735
 31
0.0
  0
LINE
  5
45A
330
46
100
AcDbEntity
  8
80
  6
Continuous
 62
     7
100
AcDbLine
 10
486.1865519080686
 20
-75.25645136510735
 30
0.0
 11
485.1499342580687
 21
-75.22724409510721
 31
0.0
  0
LINE
  5
45B
330
46
100
AcDbEntity
  8
80
  6
Continuous
 62
     7
100
AcDbLine
 10
485.1499342580687
 20
-75.22724409510721
 30
0.0
 11
484.1133165980687
 21
-75.25645136510735
 31
0.0
  0
LINE
  5
45C
330
46
100
AcDbEntity
  8
80
  6
Continuous
 62
     7
100
AcDbLine
 10
484.1133165980687
 20
-75.25645136510735
 30
0.0
 11
483.0582363680687
 21
-75.34642054510738
 31
0.0
  0
LINE
  5
45D
330
46
100
AcDbEntity
  8
80
  6
Continuous
 62
     7
100
AcDbLine
 10
483.0582363680687
 20
-75.34642054510738
 30
0.0
 11
481.9889590480686
 21
-75.50042252510735
 31
0.0
  0
LINE
  5
45E
330
46
100
AcDbEntity
  8
80
  6
Continuous
 62
     7
100
AcDbLine
 10
481.9889590480686
 20
-75.50042252510735
 30
0.0
 11
480.9102384180687
 21
-75.72132255510729
 31
0.0
  0
LINE
  5
45F
330
46
100
AcDbEntity
  8
80
  6
Continuous
 62
     7
100
AcDbLine
 10
480.9102384180687
 20
-75.72132255510729
 30
0.0
 11
479.8272801380688
 21
-76.0114904251073
 31
0.0
  0
LINE
  5
460
330
46
100
AcDbEntity
  8
80
  6
Continuous
 62
     7
100
AcDbLine
 10
479.8272801380688
 20
-76.0114904251073
 30
0.0
 11
478.7456890680687
 21
-76.37271378510724
 31
0.0
  0
LINE
  5
461
330
46
100
AcDbEntity
  8
80
  6
Continuous
 62
     7
100
AcDbLine
 10
478.7456890680687
 20
-76.37271378510724
 30
0.0
 11
477.6714002680687
 21
-76.80611834510734
 31
0.0
  0
LINE
  5
462
330
46
100
AcDbEntity
  8
80
  6
Continuous
 62
     7
100
AcDbLine
 10
477.6714002680687
 20
-76.80611834510734
 30
0.0
 11
476.6105945680686
 21
-77.31209880510738
 31
0.0
  0
LINE
  5
463
330
46
100
AcDbEntity
  8
80
  6
Continuous
 62
     7
100
AcDbLine
 10
476.6105945680686
 20
-77.31209880510738
 30
0.0
 11
475.5696002280686
 21
-77.89026422510739
 31
0.0
  0
LINE
  5
464
330
46
100
AcDbEntity
  8
80
  6
Continuous
 62
     7
100
AcDbLine
 10
475.5696002280686
 20
-77.89026422510739
 30
0.0
 11
474.5547834080687
 21
-78.5394015451073
 31
0.0
  0
LINE
  5
465
330
46
100
AcDbEntity
  8
80
  6
Continuous
 62
     7
100
AcDbLine
 10
474.5547834080687
 20
-78.5394015451073
 30
0.0
 11
473.5724307380685
 21
-79.25745970510735
 31
0.0
  0
LINE
  5
466
330
46
100
AcDbEntity
  8
80
  6
Continuous
 62
     7
100
AcDbLine
 10
473.5724307380685
 20
-79.25745970510735
 30
0.0
 11
472.6286282680687
 21
-80.04155676510737
 31
0.0
  0
LINE
  5
467
330
46
100
AcDbEntity
  8
80
  6
Continuous
 62
     7
100
AcDbLine
 10
472.6286282680687
 20
-80.04155676510737
 30
0.0
 11
471.7291411980687
 21
-80.88801066510729
 31
0.0
  0
LINE
  5
468
330
46
100
AcDbEntity
  8
80
  6
Continuous
 62
     7
100
AcDbLine
 10
471.7291411980687
 20
-80.88801066510729
 30
0.0
 11
470.8792993280686
 21
-81.79239349510732
 31
0.0
  0
LINE
  5
469
330
46
100
AcDbEntity
  8
80
  6
Continuous
 62
     7
100
AcDbLine
 10
470.8792993280686
 20
-81.79239349510732
 30
0.0
 11
470.0838928380688
 21
-82.74960764510735
 31
0.0
  0
LINE
  5
46A
330
46
100
AcDbEntity
  8
80
  6
Continuous
 62
     7
100
AcDbLine
 10
470.0838928380688
 20
-82.74960764510735
 30
0.0
 11
469.3470826180687
 21
-83.75398125510725
 31
0.0
  0
LINE
  5
46B
330
46
100
AcDbEntity
  8
80
  6
Continuous
 62
     7
100
AcDbLine
 10
469.3470826180687
 20
-83.75398125510725
 30
0.0
 11
468.6723286680688
 21
-84.79937912510724
 31
0.0
  0
LINE
  5
46C
330
46
100
AcDbEntity
  8
80
  6
Continuous
 62
     7
100
AcDbLine
 10
468.6723286680688
 20
-84.79937912510724
 30
0.0
 11
468.0623391180686
 21
-85.87932463510725
 31
0.0
  0
LINE
  5
46D
330
46
100
AcDbEntity
  8
80
  6
Continuous
 62
     7
100
AcDbLine
 10
468.0623391180686
 20
-85.87932463510725
 30
0.0
 11
467.5190413380685
 21
-86.98712767510739
 31
0.0
  0
LINE
  5
46E
330
46
100
AcDbEntity
  8
80
  6
Continuous
 62
     7
100
AcDbLine
 10
467.5190413380685
 20
-86.98712767510739
 30
0.0
 11
467.0435752380686
 21
-88.11601351510723
 31
0.0
  0
LINE
  5
46F
330
46
100
AcDbEntity
  8
80
  6
Continuous
 62
     7
100
AcDbLine
 10
467.0435752380686
 20
-88.11601351510723
 30
0.0
 11
466.6363081680686
 21
-89.25924777510733
 31
0.0
  0
LINE
  5
470
330
46
100
AcDbEntity
  8
80
  6
Continuous
 62
     7
100
AcDbLine
 10
466.6363081680686
 20
-89.25924777510733
 30
0.0
 11
466.2968692380687
 21
-90.41025295510718
 31
0.0
  0
LINE
  5
471
330
46
100
AcDbEntity
  8
80
  6
Continuous
 62
     7
100
AcDbLine
 10
466.2968692380687
 20
-90.41025295510718
 30
0.0
 11
466.0242006280687
 21
-91.56271308510719
 31
0.0
  0
LINE
  5
472
330
46
100
AcDbEntity
  8
80
  6
Continuous
 62
     7
100
AcDbLine
 10
466.0242006280687
 20
-91.56271308510719
 30
0.0
 11
465.8166225080686
 21
-92.71066360510719
 31
0.0
  0
LINE
  5
473
330
46
100
AcDbEntity
  8
80
  6
Continuous
 62
     7
100
AcDbLine
 10
465.8166225080686
 20
-92.71066360510719
 30
0.0
 11
465.6719079880686
 21
-93.84856476510737
 31
0.0
  0
LINE
  5
474
330
46
100
AcDbEntity
  8
80
  6
Continuous
 62
     7
100
AcDbLine
 10
465.6719079880686
 20
-93.84856476510737
 30
0.0
 11
465.5873646080686
 21
-94.97135768510731
 31
0.0
  0
LINE
  5
475
330
46
100
AcDbEntity
  8
80
  6
Continuous
 62
     7
100
AcDbLine
 10
465.5873646080686
 20
-94.97135768510731
 30
0.0
 11
465.5599187480686
 21
-96.07450315510738
 31
0.0
  0
LINE
  5
476
330
46
100
AcDbEntity
  8
80
  6
Continuous
 62
     7
100
AcDbLine
 10
454.8207227680687
 20
-93.48420030510721
 30
0.0
 11
454.6630488880687
 21
-96.07450315510738
 31
0.0
  0
LINE
  5
477
330
46
100
AcDbEntity
  8
80
  6
Continuous
 62
     7
100
AcDbLine
 10
454.6630488880687
 20
-96.07450315510738
 30
0.0
 11
454.6930617780686
 21
-97.20654137510729
 31
0.0
  0
LINE
  5
478
330
46
100
AcDbEntity
  8
80
  6
Continuous
 62
     7
100
AcDbLine
 10
454.7852555680686
 20
-98.35601648510721
 30
0.0
 11
454.9425206680687
 21
-99.51748437510724
 31
0.0
  0
LINE
  5
479
330
46
100
AcDbEntity
  8
80
  6
Continuous
 62
     7
100
AcDbLine
 10
454.9425206680687
 20
-99.51748437510724
 30
0.0
 11
455.1672155480687
 21
-100.6849827751074
 31
0.0
  0
LINE
  5
47A
330
46
100
AcDbEntity
  8
80
  6
Continuous
 62
     7
100
AcDbLine
 10
455.1672155480687
 20
-100.6849827751074
 30
0.0
 11
455.4610769180686
 21
-101.8521013251073
 31
0.0
  0
LINE
  5
47B
330
46
100
AcDbEntity
  8
80
  6
Continuous
 62
     7
100
AcDbLine
 10
455.4610769180686
 20
-101.8521013251073
 30
0.0
 11
455.8251392980687
 21
-103.0120713351074
 31
0.0
  0
LINE
  5
47C
330
46
100
AcDbEntity
  8
80
  6
Continuous
 62
     7
100
AcDbLine
 10
455.8251392980687
 20
-103.0120713351074
 30
0.0
 11
456.2596681180687
 21
-104.1578737851074
 31
0.0
  0
LINE
  5
47D
330
46
100
AcDbEntity
  8
80
  6
Continuous
 62
     7
100
AcDbLine
 10
456.2596681180687
 20
-104.1578737851074
 30
0.0
 11
456.7641105380687
 21
-105.2823626751072
 31
0.0
  0
LINE
  5
47E
330
46
100
AcDbEntity
  8
80
  6
Continuous
 62
     7
100
AcDbLine
 10
456.7641105380687
 20
-105.2823626751072
 30
0.0
 11
457.3370673480686
 21
-106.3783999051073
 31
0.0
  0
LINE
  5
47F
330
46
100
AcDbEntity
  8
80
  6
Continuous
 62
     7
100
AcDbLine
 10
457.3370673480686
 20
-106.3783999051073
 30
0.0
 11
457.9762884980687
 21
-107.4389969351074
 31
0.0
  0
LINE
  5
480
330
46
100
AcDbEntity
  8
80
  6
Continuous
 62
     7
100
AcDbLine
 10
457.9762884980687
 20
-107.4389969351074
 30
0.0
 11
458.6786939180686
 21
-108.4574575751072
 31
0.0
  0
LINE
  5
481
330
46
100
AcDbEntity
  8
80
  6
Continuous
 62
     7
100
AcDbLine
 10
458.6786939180686
 20
-108.4574575751072
 30
0.0
 11
459.4404193780686
 21
-109.4275159751074
 31
0.0
  0
LINE
  5
482
330
46
100
AcDbEntity
  8
80
  6
Continuous
 62
     7
100
AcDbLine
 10
459.4404193780686
 20
-109.4275159751074
 30
0.0
 11
460.2568865380686
 21
-110.3434641951072
 31
0.0
  0
LINE
  5
483
330
46
100
AcDbEntity
  8
80
  6
Continuous
 62
     7
100
AcDbLine
 10
460.2568865380686
 20
-110.3434641951072
 30
0.0
 11
461.1228942580685
 21
-111.2002636351072
 31
0.0
  0
LINE
  5
484
330
46
100
AcDbEntity
  8
80
  6
Continuous
 62
     7
100
AcDbLine
 10
461.1228942580685
 20
-111.2002636351072
 30
0.0
 11
462.0327274880685
 21
-111.9936360351074
 31
0.0
  0
LINE
  5
485
330
46
100
AcDbEntity
  8
80
  6
Continuous
 62
     7
100
AcDbLine
 10
462.0327274880685
 20
-111.9936360351074
 30
0.0
 11
462.9802790580686
 21
-112.7201305151073
 31
0.0
  0
LINE
  5
486
330
46
100
AcDbEntity
  8
80
  6
Continuous
 62
     7
100
AcDbLine
 10
462.9802790580686
 20
-112.7201305151073
 30
0.0
 11
463.9591789580686
 21
-113.3771647751074
 31
0.0
  0
LINE
  5
487
330
46
100
AcDbEntity
  8
80
  6
Continuous
 62
     7
100
AcDbLine
 10
463.9591789580686
 20
-113.3771647751074
 30
0.0
 11
464.9629257680688
 21
-113.9630396951073
 31
0.0
  0
LINE
  5
488
330
46
100
AcDbEntity
  8
80
  6
Continuous
 62
     7
100
AcDbLine
 10
464.9629257680688
 20
-113.9630396951073
 30
0.0
 11
465.9850148580688
 21
-114.4769285151072
 31
0.0
  0
LINE
  5
489
330
46
100
AcDbEntity
  8
80
  6
Continuous
 62
     7
100
AcDbLine
 10
465.9850148580688
 20
-114.4769285151072
 30
0.0
 11
467.0190586280687
 21
-114.9188423551073
 31
0.0
  0
LINE
  5
48A
330
46
100
AcDbEntity
  8
80
  6
Continuous
 62
     7
100
AcDbLine
 10
467.0190586280687
 20
-114.9188423551073
 30
0.0
 11
468.0588948180687
 21
-115.2895755851073
 31
0.0
  0
LINE
  5
48B
330
46
100
AcDbEntity
  8
80
  6
Continuous
 62
     7
100
AcDbLine
 10
468.0588948180687
 20
-115.2895755851073
 30
0.0
 11
469.0986799780687
 21
-115.5906346351074
 31
0.0
  0
LINE
  5
48C
330
46
100
AcDbEntity
  8
80
  6
Continuous
 62
     7
100
AcDbLine
 10
469.0986799780687
 20
-115.5906346351074
 30
0.0
 11
469.7891331380686
 21
-115.7536640351073
 31
0.0
  0
LINE
  5
48D
330
46
100
AcDbEntity
  8
80
  6
Continuous
 62
     7
100
AcDbLine
 10
455.9414252480685
 20
-103.4272693451074
 30
0.0
 11
456.0944800680686
 21
-103.7457754051073
 31
0.0
  0
LINE
  5
48E
330
46
100
AcDbEntity
  8
80
  6
Continuous
 62
     7
100
AcDbLine
 10
454.6930617780686
 20
-97.20654137510729
 30
0.0
 11
454.7852555680686
 21
-98.35601648510721
 31
0.0
  0
LINE
  5
48F
330
46
100
AcDbEntity
  8
3
  6
Continuous
 62
     7
100
AcDbLine
 10
638.747338747738
 20
-228.5949611100203
 30
0.0
 11
638.384313307738
 21
-228.5938799900203
 31
0.0
  0
LINE
  5
490
330
46
100
AcDbEntity
  8
3
  6
Continuous
 62
     7
100
AcDbLine
 10
638.384313307738
 20
-228.5938799900203
 30
0.0
 11
638.0188271377381
 21
-228.5906062000205
 31
0.0
  0
LINE
  5
491
330
46
100
AcDbEntity
  8
3
  6
Continuous
 62
     7
100
AcDbLine
 10
638.0188271377381
 20
-228.5906062000205
 30
0.0
 11
637.6510252877381
 21
-228.5850950700204
 31
0.0
  0
LINE
  5
492
330
46
100
AcDbEntity
  8
3
  6
Continuous
 62
     7
100
AcDbLine
 10
637.6510252877381
 20
-228.5850950700204
 30
0.0
 11
637.2810598477381
 21
-228.5773030100205
 31
0.0
  0
LINE
  5
493
330
46
100
AcDbEntity
  8
3
  6
Continuous
 62
     7
100
AcDbLine
 10
637.2810598477381
 20
-228.5773030100205
 30
0.0
 11
636.909089197738
 21
-228.5671877600204
 31
0.0
  0
LINE
  5
494
330
46
100
AcDbEntity
  8
3
  6
Continuous
 62
     7
100
AcDbLine
 10
636.909089197738
 20
-228.5671877600204
 30
0.0
 11
636.5352783277381
 21
-228.5547084700205
 31
0.0
  0
LINE
  5
495
330
46
100
AcDbEntity
  8
3
  6
Continuous
 62
     7
100
AcDbLine
 10
636.5352783277381
 20
-228.5547084700205
 30
0.0
 11
636.1597985677381
 21
-228.5398258600204
 31
0.0
  0
LINE
  5
496
330
46
100
AcDbEntity
  8
3
  6
Continuous
 62
     7
100
AcDbLine
 10
636.1597985677381
 20
-228.5398258600204
 30
0.0
 11
635.7828275977381
 21
-228.5225022900205
 31
0.0
  0
LINE
  5
497
330
46
100
AcDbEntity
  8
3
  6
Continuous
 62
     7
100
AcDbLine
 10
635.7828275977381
 20
-228.5225022900205
 30
0.0
 11
635.404549207738
 21
-228.5027019200205
 31
0.0
  0
LINE
  5
498
330
46
100
AcDbEntity
  8
3
  6
Continuous
 62
     7
100
AcDbLine
 10
635.404549207738
 20
-228.5027019200205
 30
0.0
 11
635.025153227738
 21
-228.4803908100204
 31
0.0
  0
LINE
  5
499
330
46
100
AcDbEntity
  8
3
  6
Continuous
 62
     7
100
AcDbLine
 10
635.025153227738
 20
-228.4803908100204
 30
0.0
 11
634.6448353177381
 21
-228.4555370800203
 31
0.0
  0
LINE
  5
49A
330
46
100
AcDbEntity
  8
3
  6
Continuous
 62
     7
100
AcDbLine
 10
634.6448353177381
 20
-228.4555370800203
 30
0.0
 11
634.263796767738
 21
-228.4281109900204
 31
0.0
  0
LINE
  5
49B
330
46
100
AcDbEntity
  8
3
  6
Continuous
 62
     7
100
AcDbLine
 10
634.263796767738
 20
-228.4281109900204
 30
0.0
 11
633.882244277738
 21
-228.3980850800203
 31
0.0
  0
LINE
  5
49C
330
46
100
AcDbEntity
  8
3
  6
Continuous
 62
     7
100
AcDbLine
 10
633.882244277738
 20
-228.3980850800203
 30
0.0
 11
633.500389727738
 21
-228.3654342900205
 31
0.0
  0
LINE
  5
49D
330
46
100
AcDbEntity
  8
3
  6
Continuous
 62
     7
100
AcDbLine
 10
633.500389727738
 20
-228.3654342900205
 30
0.0
 11
633.118449877738
 21
-228.3301360600204
 31
0.0
  0
LINE
  5
49E
330
46
100
AcDbEntity
  8
3
  6
Continuous
 62
     7
100
AcDbLine
 10
633.118449877738
 20
-228.3301360600204
 30
0.0
 11
632.736646117738
 21
-228.2921704600204
 31
0.0
  0
LINE
  5
49F
330
46
100
AcDbEntity
  8
3
  6
Continuous
 62
     7
100
AcDbLine
 10
632.736646117738
 20
-228.2921704600204
 30
0.0
 11
632.355204117738
 21
-228.2515202700204
 31
0.0
  0
LINE
  5
4A0
330
46
100
AcDbEntity
  8
3
  6
Continuous
 62
     7
100
AcDbLine
 10
632.355204117738
 20
-228.2515202700204
 30
0.0
 11
631.974353497738
 21
-228.2081711000204
 31
0.0
  0
LINE
  5
4A1
330
46
100
AcDbEntity
  8
3
  6
Continuous
 62
     7
100
AcDbLine
 10
631.974353497738
 20
-228.2081711000204
 30
0.0
 11
631.594327487738
 21
-228.1621114900205
 31
0.0
  0
LINE
  5
4A2
330
46
100
AcDbEntity
  8
3
  6
Continuous
 62
     7
100
AcDbLine
 10
631.594327487738
 20
-228.1621114900205
 30
0.0
 11
631.215362527738
 21
-228.1133329800203
 31
0.0
  0
LINE
  5
4A3
330
46
100
AcDbEntity
  8
3
  6
Continuous
 62
     7
100
AcDbLine
 10
631.215362527738
 20
-228.1133329800203
 30
0.0
 11
630.8376978877381
 21
-228.0618302100205
 31
0.0
  0
LINE
  5
4A4
330
46
100
AcDbEntity
  8
3
  6
Continuous
 62
     7
100
AcDbLine
 10
630.8376978877381
 20
-228.0618302100205
 30
0.0
 11
630.461575247738
 21
-228.0076009700203
 31
0.0
  0
LINE
  5
4A5
330
46
100
AcDbEntity
  8
3
  6
Continuous
 62
     7
100
AcDbLine
 10
630.461575247738
 20
-228.0076009700203
 30
0.0
 11
630.087238247738
 21
-227.9506463400204
 31
0.0
  0
LINE
  5
4A6
330
46
100
AcDbEntity
  8
3
  6
Continuous
 62
     7
100
AcDbLine
 10
630.087238247738
 20
-227.9506463400204
 30
0.0
 11
629.714932037738
 21
-227.8909706400204
 31
0.0
  0
LINE
  5
4A7
330
46
100
AcDbEntity
  8
3
  6
Continuous
 62
     7
100
AcDbLine
 10
629.714932037738
 20
-227.8909706400204
 30
0.0
 11
629.344902837738
 21
-227.8285815800203
 31
0.0
  0
LINE
  5
4A8
330
46
100
AcDbEntity
  8
3
  6
Continuous
 62
     7
100
AcDbLine
 10
629.344902837738
 20
-227.8285815800203
 30
0.0
 11
628.977397417738
 21
-227.7634902600204
 31
0.0
  0
LINE
  5
4A9
330
46
100
AcDbEntity
  8
3
  6
Continuous
 62
     7
100
AcDbLine
 10
628.977397417738
 20
-227.7634902600204
 30
0.0
 11
628.6126626677381
 21
-227.6957111900203
 31
0.0
  0
LINE
  5
4AA
330
46
100
AcDbEntity
  8
3
  6
Continuous
 62
     7
100
AcDbLine
 10
628.6126626677381
 20
-227.6957111900203
 30
0.0
 11
628.250945017738
 21
-227.6252623400204
 31
0.0
  0
LINE
  5
4AB
330
46
100
AcDbEntity
  8
3
  6
Continuous
 62
     7
100
AcDbLine
 10
628.250945017738
 20
-227.6252623400204
 30
0.0
 11
627.892489987738
 21
-227.5521651600204
 31
0.0
  0
LINE
  5
4AC
330
46
100
AcDbEntity
  8
3
  6
Continuous
 62
     7
100
AcDbLine
 10
627.892489987738
 20
-227.5521651600204
 30
0.0
 11
627.537541667738
 21
-227.4764445600203
 31
0.0
  0
LINE
  5
4AD
330
46
100
AcDbEntity
  8
3
  6
Continuous
 62
     7
100
AcDbLine
 10
627.537541667738
 20
-227.4764445600203
 30
0.0
 11
627.186342187738
 21
-227.3981288900204
 31
0.0
  0
LINE
  5
4AE
330
46
100
AcDbEntity
  8
3
  6
Continuous
 62
     7
100
AcDbLine
 10
649.602187497738
 20
-227.5521651600204
 30
0.0
 11
649.243732467738
 21
-227.6252623400204
 31
0.0
  0
LINE
  5
4AF
330
46
100
AcDbEntity
  8
3
  6
Continuous
 62
     7
100
AcDbLine
 10
649.243732467738
 20
-227.6252623400204
 30
0.0
 11
648.8820148177381
 21
-227.6957111900203
 31
0.0
  0
LINE
  5
4B0
330
46
100
AcDbEntity
  8
3
  6
Continuous
 62
     7
100
AcDbLine
 10
648.8820148177381
 20
-227.6957111900203
 30
0.0
 11
648.5172800677381
 21
-227.7634902600204
 31
0.0
  0
LINE
  5
4B1
330
46
100
AcDbEntity
  8
3
  6
Continuous
 62
     7
100
AcDbLine
 10
648.5172800677381
 20
-227.7634902600204
 30
0.0
 11
648.1497746577379
 21
-227.8285815800203
 31
0.0
  0
LINE
  5
4B2
330
46
100
AcDbEntity
  8
3
  6
Continuous
 62
     7
100
AcDbLine
 10
648.1497746577379
 20
-227.8285815800203
 30
0.0
 11
647.7797454477379
 21
-227.8909706400204
 31
0.0
  0
LINE
  5
4B3
330
46
100
AcDbEntity
  8
3
  6
Continuous
 62
     7
100
AcDbLine
 10
647.7797454477379
 20
-227.8909706400204
 30
0.0
 11
647.4074392377379
 21
-227.9506463400204
 31
0.0
  0
LINE
  5
4B4
330
46
100
AcDbEntity
  8
3
  6
Continuous
 62
     7
100
AcDbLine
 10
647.4074392377379
 20
-227.9506463400204
 30
0.0
 11
647.0331022377379
 21
-228.0076009700203
 31
0.0
  0
LINE
  5
4B5
330
46
100
AcDbEntity
  8
3
  6
Continuous
 62
     7
100
AcDbLine
 10
647.0331022377379
 20
-228.0076009700203
 30
0.0
 11
646.656979597738
 21
-228.0618302100205
 31
0.0
  0
LINE
  5
4B6
330
46
100
AcDbEntity
  8
3
  6
Continuous
 62
     7
100
AcDbLine
 10
646.656979597738
 20
-228.0618302100205
 30
0.0
 11
646.2793149577381
 21
-228.1133329800203
 31
0.0
  0
LINE
  5
4B7
330
46
100
AcDbEntity
  8
3
  6
Continuous
 62
     7
100
AcDbLine
 10
646.2793149577381
 20
-228.1133329800203
 30
0.0
 11
645.9003500077381
 21
-228.1621114900205
 31
0.0
  0
LINE
  5
4B8
330
46
100
AcDbEntity
  8
3
  6
Continuous
 62
     7
100
AcDbLine
 10
645.9003500077381
 20
-228.1621114900205
 30
0.0
 11
645.520323987738
 21
-228.2081711000204
 31
0.0
  0
LINE
  5
4B9
330
46
100
AcDbEntity
  8
3
  6
Continuous
 62
     7
100
AcDbLine
 10
645.520323987738
 20
-228.2081711000204
 30
0.0
 11
645.139473367738
 21
-228.2515202700204
 31
0.0
  0
LINE
  5
4BA
330
46
100
AcDbEntity
  8
3
  6
Continuous
 62
     7
100
AcDbLine
 10
645.139473367738
 20
-228.2515202700204
 30
0.0
 11
644.7580313677381
 21
-228.2921704600204
 31
0.0
  0
LINE
  5
4BB
330
46
100
AcDbEntity
  8
3
  6
Continuous
 62
     7
100
AcDbLine
 10
644.7580313677381
 20
-228.2921704600204
 30
0.0
 11
644.376227607738
 21
-228.3301360600204
 31
0.0
  0
LINE
  5
4BC
330
46
100
AcDbEntity
  8
3
  6
Continuous
 62
     7
100
AcDbLine
 10
644.376227607738
 20
-228.3301360600204
 30
0.0
 11
643.994287757738
 21
-228.3654342900205
 31
0.0
  0
LINE
  5
4BD
330
46
100
AcDbEntity
  8
3
  6
Continuous
 62
     7
100
AcDbLine
 10
643.994287757738
 20
-228.3654342900205
 30
0.0
 11
643.6124332077379
 21
-228.3980850800203
 31
0.0
  0
LINE
  5
4BE
330
46
100
AcDbEntity
  8
3
  6
Continuous
 62
     7
100
AcDbLine
 10
643.6124332077379
 20
-228.3980850800203
 30
0.0
 11
643.2308807277379
 21
-228.4281109900204
 31
0.0
  0
LINE
  5
4BF
330
46
100
AcDbEntity
  8
3
  6
Continuous
 62
     7
100
AcDbLine
 10
643.2308807277379
 20
-228.4281109900204
 30
0.0
 11
642.849842167738
 21
-228.4555370800203
 31
0.0
  0
LINE
  5
4C0
330
46
100
AcDbEntity
  8
3
  6
Continuous
 62
     7
100
AcDbLine
 10
642.849842167738
 20
-228.4555370800203
 30
0.0
 11
642.4695242577379
 21
-228.4803908100204
 31
0.0
  0
LINE
  5
4C1
330
46
100
AcDbEntity
  8
3
  6
Continuous
 62
     7
100
AcDbLine
 10
642.4695242577379
 20
-228.4803908100204
 30
0.0
 11
642.0901282777379
 21
-228.5027019200205
 31
0.0
  0
LINE
  5
4C2
330
46
100
AcDbEntity
  8
3
  6
Continuous
 62
     7
100
AcDbLine
 10
642.0901282777379
 20
-228.5027019200205
 30
0.0
 11
641.711849887738
 21
-228.5225022900205
 31
0.0
  0
LINE
  5
4C3
330
46
100
AcDbEntity
  8
3
  6
Continuous
 62
     7
100
AcDbLine
 10
641.711849887738
 20
-228.5225022900205
 30
0.0
 11
641.334878917738
 21
-228.5398258600204
 31
0.0
  0
LINE
  5
4C4
330
46
100
AcDbEntity
  8
3
  6
Continuous
 62
     7
100
AcDbLine
 10
641.334878917738
 20
-228.5398258600204
 30
0.0
 11
640.9593991577381
 21
-228.5547084700205
 31
0.0
  0
LINE
  5
4C5
330
46
100
AcDbEntity
  8
3
  6
Continuous
 62
     7
100
AcDbLine
 10
640.9593991577381
 20
-228.5547084700205
 30
0.0
 11
640.5855882877379
 21
-228.5671877600204
 31
0.0
  0
LINE
  5
4C6
330
46
100
AcDbEntity
  8
3
  6
Continuous
 62
     7
100
AcDbLine
 10
640.5855882877379
 20
-228.5671877600204
 30
0.0
 11
640.213617637738
 21
-228.5773030100205
 31
0.0
  0
LINE
  5
4C7
330
46
100
AcDbEntity
  8
3
  6
Continuous
 62
     7
100
AcDbLine
 10
640.213617637738
 20
-228.5773030100205
 30
0.0
 11
639.843652197738
 21
-228.5850950700204
 31
0.0
  0
LINE
  5
4C8
330
46
100
AcDbEntity
  8
3
  6
Continuous
 62
     7
100
AcDbLine
 10
639.843652197738
 20
-228.5850950700204
 30
0.0
 11
639.4758503477381
 21
-228.5906062000205
 31
0.0
  0
LINE
  5
4C9
330
46
100
AcDbEntity
  8
3
  6
Continuous
 62
     7
100
AcDbLine
 10
639.4758503477381
 20
-228.5906062000205
 30
0.0
 11
639.110364187738
 21
-228.5938799900203
 31
0.0
  0
LINE
  5
4CA
330
46
100
AcDbEntity
  8
3
  6
Continuous
 62
     7
100
AcDbLine
 10
639.110364187738
 20
-228.5938799900203
 30
0.0
 11
638.747338747738
 21
-228.5949611100203
 31
0.0
  0
ARC
  5
4CB
330
46
100
AcDbEntity
  8
1
  6
Continuous
 62
     7
100
AcDbCircle
 10
459.7859084390557
 20
-303.7369566690823
 30
0.0
 40
90.00000000000057
100
AcDbArc
 50
69.99999999999278
 51
83.39342153033759
  0
ARC
  5
4CC
330
46
100
AcDbEntity
  8
1
  6
Continuous
 62
     7
100
AcDbCircle
 10
459.7859084390557
 20
-303.7369566690823
 30
0.0
 40
90.00000000000043
100
AcDbArc
 50
56.60657846964748
 51
69.99999999999278
  0
ARC
  5
4CD
330
46
100
AcDbEntity
  8
80
  6
Continuous
 62
     7
100
AcDbCircle
 10
484.4786027180687
 20
-98.29258229510725
 30
0.0
 40
20.16149318000025
100
AcDbArc
 50
-102.06133883
 51
-59.11031419000016
  0
ARC
  5
4CE
330
46
100
AcDbEntity
  8
80
  6
Continuous
 62
     7
100
AcDbCircle
 10
483.4161696680687
 20
-96.66516961510735
 30
0.0
 40
22.10363988999983
100
AcDbArc
 50
-58.91268222999943
 51
-18.82470245000042
  0
ARC
  5
4CF
330
46
100
AcDbEntity
  8
80
  6
Continuous
 62
     7
100
AcDbCircle
 10
482.0487975580686
 20
-96.07865204510728
 30
0.0
 40
23.58740058000017
100
AcDbArc
 50
-19.10144841999952
 51
19.12022032000037
  0
ARC
  5
4D0
330
46
100
AcDbEntity
  8
80
  6
Continuous
 62
     7
100
AcDbCircle
 10
483.4261970080686
 20
-95.46357725510717
 30
0.0
 40
22.08490150000011
100
AcDbArc
 50
18.78302109000065
 51
58.9083706499998
  0
ARC
  5
4D1
330
46
100
AcDbEntity
  8
80
  6
Continuous
 62
     7
100
AcDbCircle
 10
484.4759942680687
 20
-93.90386856510719
 30
0.0
 40
20.2073491599999
100
AcDbArc
 50
59.17359330000056
 51
102.0259961500001
  0
ARC
  5
4D2
330
46
100
AcDbEntity
  8
80
  6
Continuous
 62
     7
100
AcDbCircle
 10
484.6686184680686
 20
-94.2578339651073
 30
0.0
 40
20.59399956000013
100
AcDbArc
 50
102.34496141
 51
134.5787647399993
  0
ARC
  5
4D3
330
46
100
AcDbEntity
  8
80
  6
Continuous
 62
     7
100
AcDbCircle
 10
486.1302684380687
 20
-95.73670790510738
 30
0.0
 40
22.67329752000008
100
AcDbArc
 50
134.586617790001
 51
165.9733612100002
  0
ARC
  5
4D4
330
46
100
AcDbEntity
  8
80
  6
Continuous
 62
     7
100
AcDbCircle
 10
487.1380784080686
 20
-96.07015877510736
 30
0.0
 40
23.73200955000032
100
AcDbArc
 50
165.7820470700003
 51
-179.9895114500009
  0
ARC
  5
4D5
330
46
100
AcDbEntity
  8
80
  6
Continuous
 62
     7
100
AcDbCircle
 10
473.7393530980687
 20
-94.44462642510717
 30
0.0
 40
18.4764957699998
100
AcDbArc
 50
102.3449614100017
 51
134.5787647400014
  0
ARC
  5
4D6
330
46
100
AcDbEntity
  8
80
  6
Continuous
 62
     7
100
AcDbCircle
 10
475.1509635380687
 20
-95.8484956051073
 30
0.0
 40
20.46725634000034
100
AcDbArc
 50
134.6350609600003
 51
173.3666127700012
  0
ARC
  5
4D7
330
46
100
AcDbEntity
  8
1
  6
Continuous
 62
     7
100
AcDbCircle
 10
469.9104144595303
 20
-216.3213151748883
 30
0.0
 40
1.999999999999949
100
AcDbArc
 50
83.39342153031782
 51
164.1276786037043
  0
ARC
  5
4D8
330
46
100
AcDbEntity
  8
1
  6
Continuous
 62
     7
100
AcDbCircle
 10
508.219778108034
 20
-230.2647832366292
 30
0.0
 40
1.999999999999397
100
AcDbArc
 50
-24.12767860371172
 51
56.60657846966902
  0
ENDBLK
  5
48
330
46
100
AcDbEntity
  8
0
100
AcDbBlockEnd
  0
BLOCK
  5
4C
330
49
100
AcDbEntity
  8
0
100
AcDbBlockBegin
  2
U1-76X-Y
 70
     0
 71
     0
 10
3.52633703329963
 20
65.82492431887039
 30
0.0
  3
U1-76X-Y
  1

  0
INSERT
  5
4A
330
49
100
AcDbEntity
  8
1
100
AcDbBlockReference
  2
37-292
 10
-186.8912845498876
 20
322.8195078769866
 30
0.0
  0
INSERT
  5
4B
330
49
100
AcDbEntity
  8
1
100
AcDbBlockReference
  2
31-76
 10
-1174.512505666786
 20
1280.405716563666
 30
0.0
  0
LINE
  5
4D9
330
49
100
AcDbEntity
  8
1
  6
PHANTOM
 62
     4
100
AcDbLine
 10
207.1661115614199
 20
314.9042644010597
 30
0.0
 11
172.9640972365141
 21
220.9350023435177
 31
0.0
  0
ENDBLK
  5
4D
330
49
100
AcDbEntity
  8
0
100
AcDbBlockEnd
  0
BLOCK
  5
4F
330
4E
100
AcDbEntity
  8
0
100
AcDbBlockBegin
  2
P82A-15
 70
     0
 71
     0
 10
140.9071245461237
 20
229.8574107905484
 30
0.0
  3
P82A-15
  1

  0
LINE
  5
4DA
330
4E
100
AcDbEntity
  8
1
  6
PHANTOM
 62
     4
100
AcDbLine
 10
148.4071245461237
 20
231.8593260035992
 30
0.0
 11
148.4071245461237
 21
256.8593260035992
 31
0.0
  0
ENDBLK
  5
50
330
4E
100
AcDbEntity
  8
0
100
AcDbBlockEnd
  0
BLOCK
  5
52
330
51
100
AcDbEntity
  8
0
100
AcDbBlockBegin
  2
36-14A
 70
     0
 71
     0
 10
463.2879120589479
 20
164.2692951299644
 30
0.0
  3
36-14A
  1

  0
LINE
  5
4DB
330
51
100
AcDbEntity
  8
1
  6
Continuous
 62
     7
100
AcDbLine
 10
144.4071245461237
 20
266.8593991353141
 30
0.0
 11
144.9071245461237
 21
268.8593991353141
 31
0.0
  0
LINE
  5
4DC
330
51
100
AcDbEntity
  8
1
  6
Continuous
 62
     7
100
AcDbLine
 10
144.9071245461237
 20
268.8593991353141
 30
0.0
 11
147.9071245461237
 21
268.8593991353141
 31
0.0
  0
LINE
  5
4DD
330
51
100
AcDbEntity
  8
1
  6
Continuous
 62
     7
100
AcDbLine
 10
147.9071245461237
 20
267.3593991353141
 30
0.0
 11
147.9071245461237
 21
268.8593991353141
 31
0.0
  0
LINE
  5
4DE
330
51
100
AcDbEntity
  8
1
  6
Continuous
 62
     7
100
AcDbLine
 10
148.9071245461237
 20
267.3593991353141
 30
0.0
 11
147.9071245461237
 21
267.3593991353141
 31
0.0
  0
LINE
  5
4DF
330
51
100
AcDbEntity
  8
1
  6
Continuous
 62
     7
100
AcDbLine
 10
151.9071245461237
 20
268.8593991353141
 30
0.0
 11
152.4071245461237
 21
266.8593991353141
 31
0.0
  0
LINE
  5
4E0
330
51
100
AcDbEntity
  8
1
  6
Continuous
 62
     7
100
AcDbLine
 10
148.9071245461237
 20
268.8593991353141
 30
0.0
 11
151.9071245461237
 21
268.8593991353141
 31
0.0
  0
LINE
  5
4E1
330
51
100
AcDbEntity
  8
1
  6
Continuous
 62
     7
100
AcDbLine
 10
148.9071245461237
 20
268.8593991353141
 30
0.0
 11
148.9071245461237
 21
267.3593991353141
 31
0.0
  0
LINE
  5
4E2
330
51
100
AcDbEntity
  8
1
  6
PHANTOM
 62
     4
100
AcDbLine
 10
136.9071245461237
 20
436.584843113128
 30
0.0
 11
150.9071245461237
 21
436.584843113128
 31
0.0
  0
LINE
  5
4E3
330
51
100
AcDbEntity
  8
1
  6
PHANTOM
 62
     4
100
AcDbLine
 10
143.9071245461237
 20
443.584843113128
 30
0.0
 11
143.9071245461237
 21
429.584843113128
 31
0.0
  0
LINE
  5
4E4
330
51
100
AcDbEntity
  8
1
  6
Continuous
 62
     7
100
AcDbLine
 10
143.4071245461237
 20
440.4274496503628
 30
0.0
 11
143.4071245461237
 21
432.7422365758931
 31
0.0
  0
LINE
  5
4E5
330
51
100
AcDbEntity
  8
1
  6
Continuous
 62
     7
100
AcDbLine
 10
144.4071245461237
 20
440.4274496503628
 30
0.0
 11
144.4071245461237
 21
432.7422365758931
 31
0.0
  0
ARC
  5
4E6
330
51
100
AcDbEntity
  8
1
  6
Continuous
 62
     7
100
AcDbCircle
 10
143.9071245461237
 20
436.584843113128
 30
0.0
 40
3.874999999999966
100
AcDbArc
 50
82.58632619847418
 51
97.41367380152583
  0
ARC
  5
4E7
330
51
100
AcDbEntity
  8
1
  6
Continuous
 62
     7
100
AcDbCircle
 10
143.9071245461237
 20
436.584843113128
 30
0.0
 40
3.875000000000022
100
AcDbArc
 50
-97.41367380152572
 51
-82.58632619847428
  0
ARC
  5
4E8
330
51
100
AcDbEntity
  8
0
  6
Continuous
 62
     7
100
AcDbCircle
 10
143.9071245461237
 20
436.584843113128
 30
0.0
 40
3.499999999999981
100
AcDbArc
 50
98.21321070173823
 51
-98.21321070173811
  0
ARC
  5
4E9
330
51
100
AcDbEntity
  8
0
  6
Continuous
 62
     7
100
AcDbCircle
 10
143.9071245461237
 20
436.584843113128
 30
0.0
 40
3.500000000000038
100
AcDbArc
 50
-81.78678929826189
 51
0.0
  0
ARC
  5
4EA
330
51
100
AcDbEntity
  8
0
  6
Continuous
 62
     7
100
AcDbCircle
 10
143.9071245461237
 20
436.584843113128
 30
0.0
 40
3.5
100
AcDbArc
 50
0.0
 51
81.78678929826177
  0
CIRCLE
  5
4EB
330
51
100
AcDbEntity
  8
1
  6
Continuous
 62
     7
100
AcDbCircle
 10
143.9071245461237
 20
436.584843113128
 30
0.0
 40
5.0
  0
CIRCLE
  5
4EC
330
51
100
AcDbEntity
  8
1
  6
Continuous
 62
     7
100
AcDbCircle
 10
143.9071245461237
 20
436.584843113128
 30
0.0
 40
5.5
  0
CIRCLE
  5
4ED
330
51
100
AcDbEntity
  8
1
  6
Continuous
 62
     7
100
AcDbCircle
 10
143.9071245461237
 20
436.584843113128
 30
0.0
 40
4.0
  0
ENDBLK
  5
53
330
51
100
AcDbEntity
  8
0
100
AcDbBlockEnd
  0
BLOCK
  5
55
330
54
100
AcDbEntity
  8
0
100
AcDbBlockBegin
  2
30-11
 70
     0
 71
     0
 10
244.8268548628853
 20
304.3164164400911
 30
0.0
  3
30-11
  1

  0
LINE
  5
4EE
330
54
100
AcDbEntity
  8
1
  6
Continuous
 62
     7
100
AcDbLine
 10
156.6571245461237
 20
264.8593260035992
 30
0.0
 11
157.8237912127902
 21
263.8593260035995
 31
0.0
  0
LINE
  5
4EF
330
54
100
AcDbEntity
  8
1
  6
Continuous
 62
     7
100
AcDbLine
 10
155.4071245461237
 20
266.8593260035995
 30
0.0
 11
141.4071245461237
 21
266.8593260035995
 31
0.0
  0
LINE
  5
4F0
330
54
100
AcDbEntity
  8
1
  6
Continuous
 62
     7
100
AcDbLine
 10
138.9904578794569
 20
263.8593260035992
 30
0.0
 11
140.1571245461237
 21
264.8593260035995
 31
0.0
  0
LINE
  5
4F1
330
54
100
AcDbEntity
  8
1
  6
Continuous
 62
     7
100
AcDbLine
 10
140.1571245461237
 20
264.8593260035995
 30
0.0
 11
141.4071245461237
 21
264.8593260035992
 31
0.0
  0
LINE
  5
4F2
330
54
100
AcDbEntity
  8
1
  6
Continuous
 62
     7
100
AcDbLine
 10
141.4071245461237
 20
264.8593260035992
 30
0.0
 11
141.4071245461237
 21
266.8593260035995
 31
0.0
  0
LINE
  5
4F3
330
54
100
AcDbEntity
  8
1
  6
Continuous
 62
     7
100
AcDbLine
 10
155.4071245461237
 20
266.8593260035995
 30
0.0
 11
155.4071245461237
 21
264.8593260035995
 31
0.0
  0
LINE
  5
4F4
330
54
100
AcDbEntity
  8
1
  6
Continuous
 62
     7
100
AcDbLine
 10
140.1571245461264
 20
264.8593260036018
 30
0.0
 11
156.6571245461237
 21
264.8593260035992
 31
0.0
  0
LINE
  5
4F5
330
54
100
AcDbEntity
  8
1
  6
Continuous
 62
     7
100
AcDbLine
 10
147.9485764304511
 20
443.5848431131281
 30
0.0
 11
149.9693023726148
 21
440.084843113128
 31
0.0
  0
LINE
  5
4F6
330
54
100
AcDbEntity
  8
1
  6
Continuous
 62
     7
100
AcDbLine
 10
139.8656726617963
 20
443.5848431131281
 30
0.0
 11
147.9485764304511
 21
443.5848431131281
 31
0.0
  0
LINE
  5
4F7
330
54
100
AcDbEntity
  8
1
  6
Continuous
 62
     7
100
AcDbLine
 10
135.8242207774689
 20
436.5848431131281
 30
0.0
 11
139.8656726617963
 21
443.5848431131281
 31
0.0
  0
LINE
  5
4F8
330
54
100
AcDbEntity
  8
1
  6
Continuous
 62
     7
100
AcDbLine
 10
139.8656726617963
 20
429.5848431131281
 30
0.0
 11
135.8242207774689
 21
436.5848431131281
 31
0.0
  0
LINE
  5
4F9
330
54
100
AcDbEntity
  8
1
  6
Continuous
 62
     7
100
AcDbLine
 10
147.9485764304511
 20
429.584843113128
 30
0.0
 11
139.8656726617963
 21
429.5848431131281
 31
0.0
  0
LINE
  5
4FA
330
54
100
AcDbEntity
  8
1
  6
Continuous
 62
     7
100
AcDbLine
 10
151.9900283147786
 20
436.584843113128
 30
0.0
 11
147.9485764304511
 21
429.584843113128
 31
0.0
  0
LINE
  5
4FB
330
54
100
AcDbEntity
  8
1
  6
Continuous
 62
     7
100
AcDbLine
 10
149.9693023726148
 20
440.084843113128
 30
0.0
 11
151.9900283147786
 21
436.584843113128
 31
0.0
  0
LINE
  5
4FC
330
54
100
AcDbEntity
  8
1
  6
DOT_CENTER
 62
     2
100
AcDbLine
 10
130.9071245461238
 20
436.584843113128
 30
0.0
 11
156.9071245461237
 21
436.584843113128
 31
0.0
  0
LINE
  5
4FD
330
54
100
AcDbEntity
  8
1
  6
DOT_CENTER
 62
     2
100
AcDbLine
 10
143.9071245461237
 20
423.584843113128
 30
0.0
 11
143.9071245461237
 21
449.584843113128
 31
0.0
  0
CIRCLE
  5
4FE
330
54
100
AcDbEntity
  8
1
  6
Continuous
 62
     2
100
AcDbCircle
 10
143.9071245461237
 20
436.584843113128
 30
0.0
 40
9.500000000000041
  0
CIRCLE
  5
4FF
330
54
100
AcDbEntity
  8
1
  6
Continuous
 62
     7
100
AcDbCircle
 10
143.9071245461237
 20
436.584843113128
 30
0.0
 40
10.00000000000001
  0
CIRCLE
  5
500
330
54
100
AcDbEntity
  8
1
  6
Continuous
 62
     7
100
AcDbCircle
 10
143.9071245461237
 20
436.584843113128
 30
0.0
 40
7.000000000000033
  0
CIRCLE
  5
501
330
54
100
AcDbEntity
  8
1
  6
Continuous
 62
     7
100
AcDbCircle
 10
143.9071245461237
 20
436.584843113128
 30
0.0
 40
8.249999999999988
  0
ENDBLK
  5
56
330
54
100
AcDbEntity
  8
0
100
AcDbBlockEnd
  0
BLOCK
  5
5A
330
57
100
AcDbEntity
  8
0
100
AcDbBlockBegin
  2
30-11X
 70
     0
 71
     0
 10
138.4071245461237
 20
245.8593991353139
 30
0.0
  3
30-11X
  1

  0
INSERT
  5
58
330
57
100
AcDbEntity
  8
1
100
AcDbBlockReference
  2
36-14A
 10
463.2879120589479
 20
164.2692951299644
 30
0.0
  0
INSERT
  5
59
330
57
100
AcDbEntity
  8
1
100
AcDbBlockReference
  2
30-11
 10
244.8268548628853
 20
304.3164164400911
 30
0.0
  0
LINE
  5
502
330
57
100
AcDbEntity
  8
1
  6
PHANTOM
 62
     4
100
AcDbLine
 10
148.4071245461237
 20
245.8593991353139
 30
0.0
 11
148.4071245461237
 21
268.8593991353141
 31
0.0
  0
ENDBLK
  5
5B
330
57
100
AcDbEntity
  8
0
100
AcDbBlockEnd
  0
BLOCK
  5
51D
330
516
100
AcDbEntity
  8
0
100
AcDbBlockBegin
  2
*D011
 70
     1
 71
     0
 10
0.0
 20
0.0
 30
0.0
  3
*D011
  1

  0
LINE
  5
517
330
516
100
AcDbEntity
  8
1
  6
Continuous
 62
     2
100
AcDbLine
 10
87.40712454612373
 20
266.8593260035992
 30
0.0
 11
87.40712454612373
 21
220.8593260035991
 31
0.0
  0
LINE
  5
518
330
516
100
AcDbEntity
  8
1
  6
Continuous
 62
     2
100
AcDbLine
 10
121.4071245461237
 20
266.8593260035992
 30
0.0
 11
85.40712454612373
 21
266.8593260035992
 31
0.0
  0
LINE
  5
519
330
516
100
AcDbEntity
  8
1
  6
Continuous
 62
     2
100
AcDbLine
 10
121.4071245461237
 20
220.8593260035991
 30
0.0
 11
85.40712454612373
 21
220.8593260035991
 31
0.0
  0
SOLID
  5
51A
330
516
100
AcDbEntity
  8
1
 62
     2
100
AcDbTrace
 10
88.3286920292355
 20
259.8593260035992
 30
0.0
 11
86.48555706301195
 21
259.8593260035992
 31
0.0
 12
87.40712454612373
 22
266.8593260035992
 32
0.0
 13
87.40712454612373
 23
266.8593260035992
 33
0.0
  0
SOLID
  5
51B
330
516
100
AcDbEntity
  8
1
 62
     2
100
AcDbTrace
 10
86.48555706301195
 20
227.8593260035991
 30
0.0
 11
88.3286920292355
 21
227.8593260035991
 31
0.0
 12
87.40712454612373
 22
220.8593260035991
 32
0.0
 13
87.40712454612373
 23
220.8593260035991
 33
0.0
  0
MTEXT
  5
51C
330
516
100
AcDbEntity
  8
1
 62
     7
100
AcDbMText
 10
85.40712454612373
 20
231.3293260035992
 30
0.0
 40
7.0
 41
0.0
 71
     7
 72
     1
  1
\C7;{\Fgdt;n}\C7;46
  7
CONVERTER_2
 11
0.0
 21
1.0
 31
0.0
 73
     1
 44
0.60024009603842
  0
ENDBLK
  5
51E
330
516
100
AcDbEntity
  8
0
100
AcDbBlockEnd
  0
BLOCK
  5
528
330
521
100
AcDbEntity
  8
0
100
AcDbBlockBegin
  2
*D112
 70
     1
 71
     0
 10
0.0
 20
0.0
 30
0.0
  3
*D112
  1

  0
LINE
  5
522
330
521
100
AcDbEntity
  8
1
  6
Continuous
 62
     2
100
AcDbLine
 10
107.4071245461237
 20
182.8486912341156
 30
0.0
 11
121.4071245461237
 21
182.8486912341156
 31
0.0
  0
LINE
  5
523
330
521
100
AcDbEntity
  8
1
  6
Continuous
 62
     2
100
AcDbLine
 10
91.1365545977806
 20
182.8486912341156
 30
0.0
 11
107.4071245461237
 21
182.8486912341156
 31
0.0
  0
LINE
  5
524
330
521
100
AcDbEntity
  8
1
  6
Continuous
 62
     2
100
AcDbLine
 10
107.4071245461237
 20
234.5438260035992
 30
0.0
 11
107.4071245461237
 21
180.8486912341156
 31
0.0
  0
LINE
  5
525
330
521
100
AcDbEntity
  8
1
  6
Continuous
 62
     2
100
AcDbLine
 10
121.4071245461237
 20
220.8593260035991
 30
0.0
 11
121.4071245461237
 21
180.8486912341156
 31
0.0
  0
SOLID
  5
526
330
521
100
AcDbEntity
  8
1
 62
     2
100
AcDbTrace
 10
100.4071245461237
 20
181.9271237510038
 30
0.0
 11
100.4071245461237
 21
183.7702587172274
 31
0.0
 12
107.4071245461237
 22
182.8486912341156
 32
0.0
 13
107.4071245461237
 23
182.8486912341156
 33
0.0
  0
MTEXT
  5
527
330
521
100
AcDbEntity
  8
1
 62
     7
100
AcDbMText
 10
91.1365545977806
 20
184.8486912341156
 30
0.0
 40
7.0
 41
0.0
 71
     7
 72
     1
  1
14
  7
CONVERTER_2
 11
0.9999999999970621
 21
2.424068405545307E-6
 31
0.0
 73
     1
 44
0.60024009603842
  0
ENDBLK
  5
529
330
521
100
AcDbEntity
  8
0
100
AcDbBlockEnd
  0
BLOCK
  5
52B
330
52A
100
AcDbEntity
  8
0
100
AcDbBlockBegin
  2
_None
 70
     0
 71
     0
 10
0.0
 20
0.0
 30
0.0
  3
_None
  1

  0
ENDBLK
  5
52C
330
52A
100
AcDbEntity
  8
0
100
AcDbBlockEnd
  0
BLOCK
  5
538
330
52F
100
AcDbEntity
  8
0
100
AcDbBlockBegin
  2
*D214
 70
     1
 71
     0
 10
0.0
 20
0.0
 30
0.0
  3
*D214
  1

  0
LINE
  5
530
330
52F
100
AcDbEntity
  8
1
  6
Continuous
 62
     2
100
AcDbLine
 10
148.4071245461237
 20
182.8486912341156
 30
0.0
 11
162.4071245461237
 21
182.8486912341156
 31
0.0
  0
LINE
  5
531
330
52F
100
AcDbEntity
  8
1
  6
Continuous
 62
     2
100
AcDbLine
 10
121.4071245461237
 20
182.8486912341156
 30
0.0
 11
148.4071245461237
 21
182.8486912341156
 31
0.0
  0
LINE
  5
532
330
52F
100
AcDbEntity
  8
1
  6
Continuous
 62
     2
100
AcDbLine
 10
107.4071245461237
 20
182.8486912341156
 30
0.0
 11
121.4071245461237
 21
182.8486912341156
 31
0.0
  0
LINE
  5
533
330
52F
100
AcDbEntity
  8
1
  6
Continuous
 62
     2
100
AcDbLine
 10
121.4071245461237
 20
220.8593260035991
 30
0.0
 11
121.4071245461237
 21
180.8486912341156
 31
0.0
  0
LINE
  5
534
330
52F
100
AcDbEntity
  8
1
  6
Continuous
 62
     2
100
AcDbLine
 10
148.4071245461237
 20
217.8593260035991
 30
0.0
 11
148.4071245461237
 21
180.8486912341156
 31
0.0
  0
SOLID
  5
535
330
52F
100
AcDbEntity
  8
1
 62
     2
100
AcDbTrace
 10
114.4071245461237
 20
181.9271237510038
 30
0.0
 11
114.4071245461237
 21
183.7702587172274
 31
0.0
 12
121.4071245461237
 22
182.8486912341156
 32
0.0
 13
121.4071245461237
 23
182.8486912341156
 33
0.0
  0
SOLID
  5
536
330
52F
100
AcDbEntity
  8
1
 62
     2
100
AcDbTrace
 10
155.4071245461237
 20
183.7702587172274
 30
0.0
 11
155.4071245461237
 21
181.9271237510038
 31
0.0
 12
148.4071245461237
 22
182.8486912341156
 32
0.0
 13
148.4071245461237
 23
182.8486912341156
 33
0.0
  0
MTEXT
  5
537
330
52F
100
AcDbEntity
  8
1
 62
     7
100
AcDbMText
 10
129.6571245461237
 20
184.8486912341156
 30
0.0
 40
7.0
 41
0.0
 71
     7
 72
     1
  1
27
  7
CONVERTER_2
 11
0.9999999999970621
 21
2.424068405545307E-6
 31
0.0
 73
     1
 44
0.60024009603842
  0
ENDBLK
  5
539
330
52F
100
AcDbEntity
  8
0
100
AcDbBlockEnd
  0
BLOCK
  5
543
330
53C
100
AcDbEntity
  8
0
100
AcDbBlockBegin
  2
*D315
 70
     1
 71
     0
 10
0.0
 20
0.0
 30
0.0
  3
*D315
  1

  0
LINE
  5
53D
330
53C
100
AcDbEntity
  8
1
  6
Continuous
 62
     2
100
AcDbLine
 10
246.1304117427253
 20
203.7333220230041
 30
0.0
 11
246.1304117427253
 21
243.8593260035991
 31
0.0
  0
LINE
  5
53E
330
53C
100
AcDbEntity
  8
1
  6
Continuous
 62
     2
100
AcDbLine
 10
207.1130860623985
 20
203.7333220230041
 30
0.0
 11
248.1304117427253
 21
203.7333220230041
 31
0.0
  0
LINE
  5
53F
330
53C
100
AcDbEntity
  8
1
  6
Continuous
 62
     2
100
AcDbLine
 10
214.4650270720263
 20
243.8593260035991
 30
0.0
 11
248.1304117427253
 21
243.8593260035991
 31
0.0
  0
SOLID
  5
540
330
53C
100
AcDbEntity
  8
1
 62
     2
100
AcDbTrace
 10
245.2088442596135
 20
210.7333220230041
 30
0.0
 11
247.0519792258371
 21
210.7333220230041
 31
0.0
 12
246.1304117427253
 22
203.7333220230041
 32
0.0
 13
246.1304117427253
 23
203.7333220230041
 33
0.0
  0
SOLID
  5
541
330
53C
100
AcDbEntity
  8
1
 62
     2
100
AcDbTrace
 10
247.0519792258371
 20
236.8593260035991
 30
0.0
 11
245.2088442596135
 21
236.8593260035991
 31
0.0
 12
246.1304117427253
 22
243.8593260035991
 32
0.0
 13
246.1304117427253
 23
243.8593260035991
 33
0.0
  0
MTEXT
  5
542
330
53C
100
AcDbEntity
  8
1
 62
     7
100
AcDbMText
 10
244.1304117427253
 20
218.5463240133017
 30
0.0
 40
7.0
 41
0.0
 71
     7
 72
     1
  1
40
  7
CONVERTER_2
 11
0.0
 21
1.0
 31
0.0
 73
     1
 44
0.60024009603842
  0
ENDBLK
  5
544
330
53C
100
AcDbEntity
  8
0
100
AcDbBlockEnd
  0
BLOCK
  5
54E
330
547
100
AcDbEntity
  8
0
100
AcDbBlockBegin
  2
*D416
 70
     1
 71
     0
 10
0.0
 20
0.0
 30
0.0
  3
*D416
  1

  0
LINE
  5
548
330
547
100
AcDbEntity
  8
1
  6
Continuous
 62
     2
100
AcDbLine
 10
371.3350318839151
 20
182.7746088527801
 30
0.0
 11
338.3350318839151
 21
182.7746088527801
 31
0.0
  0
LINE
  5
549
330
547
100
AcDbEntity
  8
1
  6
Continuous
 62
     2
100
AcDbLine
 10
371.3350318839151
 20
212.8050844962513
 30
0.0
 11
371.3350318839151
 21
180.7746088527801
 31
0.0
  0
LINE
  5
54A
330
547
100
AcDbEntity
  8
1
  6
Continuous
 62
     2
100
AcDbLine
 10
338.3350318839151
 20
212.8050844962513
 30
0.0
 11
338.3350318839151
 21
180.7746088527801
 31
0.0
  0
SOLID
  5
54B
330
547
100
AcDbEntity
  8
1
 62
     2
100
AcDbTrace
 10
364.3350318839151
 20
181.8530413696683
 30
0.0
 11
364.3350318839151
 21
183.6961763358919
 31
0.0
 12
371.3350318839151
 22
182.7746088527801
 32
0.0
 13
371.3350318839151
 23
182.7746088527801
 33
0.0
  0
SOLID
  5
54C
330
547
100
AcDbEntity
  8
1
 62
     2
100
AcDbTrace
 10
345.3350318839151
 20
183.6961763358919
 30
0.0
 11
345.3350318839151
 21
181.8530413696683
 31
0.0
 12
338.3350318839151
 22
182.7746088527801
 32
0.0
 13
338.3350318839151
 23
182.7746088527801
 33
0.0
  0
MTEXT
  5
54D
330
547
100
AcDbEntity
  8
1
 62
     7
100
AcDbMText
 10
349.585031884364
 20
184.7746088527801
 30
0.0
 40
7.0
 41
0.0
 71
     7
 72
     1
  1
33
  7
CONVERTER_2
 11
0.9999999999970621
 21
2.424068405545307E-6
 31
0.0
 73
     1
 44
0.60024009603842
  0
ENDBLK
  5
54F
330
547
100
AcDbEntity
  8
0
100
AcDbBlockEnd
  0
BLOCK
  5
559
330
552
100
AcDbEntity
  8
0
100
AcDbBlockBegin
  2
*D517
 70
     1
 71
     0
 10
0.0
 20
0.0
 30
0.0
  3
*D517
  1

  0
LINE
  5
553
330
552
100
AcDbEntity
  8
1
  6
Continuous
 62
     2
100
AcDbLine
 10
207.1130860623985
 20
166.8486912341156
 30
0.0
 11
121.4071245461237
 21
166.8486912341156
 31
0.0
  0
LINE
  5
554
330
552
100
AcDbEntity
  8
1
  6
Continuous
 62
     2
100
AcDbLine
 10
207.1130860623985
 20
203.7333220230041
 30
0.0
 11
207.1130860623985
 21
164.8486912341156
 31
0.0
  0
LINE
  5
555
330
552
100
AcDbEntity
  8
1
  6
Continuous
 62
     2
100
AcDbLine
 10
121.4071245461237
 20
220.8593260035991
 30
0.0
 11
121.4071245461237
 21
164.8486912341156
 31
0.0
  0
SOLID
  5
556
330
552
100
AcDbEntity
  8
1
 62
     2
100
AcDbTrace
 10
200.1130860623985
 20
165.9271237510038
 30
0.0
 11
200.1130860623985
 21
167.7702587172274
 31
0.0
 12
207.1130860623985
 22
166.8486912341156
 32
0.0
 13
207.1130860623985
 23
166.8486912341156
 33
0.0
  0
SOLID
  5
557
330
552
100
AcDbEntity
  8
1
 62
     2
100
AcDbTrace
 10
128.4071245461237
 20
167.7702587172274
 30
0.0
 11
128.4071245461237
 21
165.9271237510038
 31
0.0
 12
121.4071245461237
 22
166.8486912341156
 32
0.0
 13
121.4071245461237
 23
166.8486912341156
 33
0.0
  0
MTEXT
  5
558
330
552
100
AcDbEntity
  8
1
 62
     7
100
AcDbMText
 10
159.0101053042611
 20
168.8486912341156
 30
0.0
 40
7.0
 41
0.0
 71
     7
 72
     1
  1
85
  7
CONVERTER_2
 11
0.9999999999970621
 21
2.424068405545307E-6
 31
0.0
 73
     1
 44
0.60024009603842
  0
ENDBLK
  5
55A
330
552
100
AcDbEntity
  8
0
100
AcDbBlockEnd
  0
BLOCK
  5
564
330
55D
100
AcDbEntity
  8
0
100
AcDbBlockBegin
  2
*D618
 70
     1
 71
     0
 10
0.0
 20
0.0
 30
0.0
  3
*D618
  1

  0
LINE
  5
55E
330
55D
100
AcDbEntity
  8
1
  6
Continuous
 62
     2
100
AcDbLine
 10
234.52267640048
 20
324.6345779025073
 30
0.0
 11
192.4642920407381
 21
339.9425779107867
 31
0.0
  0
LINE
  5
55F
330
55D
100
AcDbEntity
  8
1
  6
Continuous
 62
     2
100
AcDbLine
 10
184.0720273829836
 20
316.8850202655283
 30
0.0
 11
193.1483323273897
 21
341.8219631523584
 31
0.0
  0
LINE
  5
560
330
55D
100
AcDbEntity
  8
1
  6
Continuous
 62
     2
100
AcDbLine
 10
226.1304117427255
 20
301.5770202572489
 30
0.0
 11
235.2067166871316
 21
326.513963144079
 31
0.0
  0
SOLID
  5
561
330
55D
100
AcDbEntity
  8
1
 62
     2
100
AcDbTrace
 10
227.6296334123206
 20
326.1627287423514
 30
0.0
 11
228.2600226976372
 21
327.8947090692241
 31
0.0
 12
234.52267640048
 22
324.6345779025073
 32
0.0
 13
234.52267640048
 23
324.6345779025073
 33
0.0
  0
SOLID
  5
562
330
55D
100
AcDbEntity
  8
1
 62
     2
100
AcDbTrace
 10
199.3573350288974
 20
338.4144270709426
 30
0.0
 11
198.7269457435809
 21
336.6824467440699
 31
0.0
 12
192.4642920407381
 22
339.9425779107867
 32
0.0
 13
192.4642920407381
 23
339.9425779107867
 33
0.0
  0
MTEXT
  5
563
330
55D
100
AcDbEntity
  8
1
 62
     7
100
AcDbMText
 10
202.4031759688109
 20
338.4534755440919
 30
0.0
 40
7.0
 41
0.0
 71
     7
 72
     1
  1
\C7;{\Fgdt;n}\C7;45
  7
CONVERTER_2
 11
0.9396926207858644
 21
-0.3420201433257903
 31
0.0
 73
     1
 44
0.60024009603842
  0
ENDBLK
  5
565
330
55D
100
AcDbEntity
  8
0
100
AcDbBlockEnd
  0
BLOCK
  5
56F
330
568
100
AcDbEntity
  8
0
100
AcDbBlockBegin
  2
*D719
 70
     1
 71
     0
 10
0.0
 20
0.0
 30
0.0
  3
*D719
  1

  0
LINE
  5
569
330
568
100
AcDbEntity
  8
1
  6
Continuous
 62
     2
100
AcDbLine
 10
246.1304117427253
 20
313.4947254698814
 30
0.0
 11
246.1304117427253
 21
243.8593260035993
 31
0.0
  0
LINE
  5
56A
330
568
100
AcDbEntity
  8
1
  6
Continuous
 62
     2
100
AcDbLine
 10
206.6530813464317
 20
313.4947254698814
 30
0.0
 11
248.1304117427253
 21
313.4947254698814
 31
0.0
  0
LINE
  5
56B
330
568
100
AcDbEntity
  8
1
  6
Continuous
 62
     2
100
AcDbLine
 10
214.4650270720263
 20
243.8593260035993
 30
0.0
 11
248.1304117427253
 21
243.8593260035993
 31
0.0
  0
SOLID
  5
56C
330
568
100
AcDbEntity
  8
1
 62
     2
100
AcDbTrace
 10
247.0519792258371
 20
306.4947254698814
 30
0.0
 11
245.2088442596135
 21
306.4947254698814
 31
0.0
 12
246.1304117427253
 22
313.4947254698814
 32
0.0
 13
246.1304117427253
 23
313.4947254698814
 33
0.0
  0
SOLID
  5
56D
330
568
100
AcDbEntity
  8
1
 62
     2
100
AcDbTrace
 10
245.2088442596135
 20
250.8593260035993
 30
0.0
 11
247.0519792258371
 21
250.8593260035993
 31
0.0
 12
246.1304117427253
 22
243.8593260035993
 32
0.0
 13
246.1304117427253
 23
243.8593260035993
 33
0.0
  0
MTEXT
  5
56E
330
568
100
AcDbEntity
  8
1
 62
     7
100
AcDbMText
 10
244.1304117427253
 20
273.4270257367404
 30
0.0
 40
7.0
 41
0.0
 71
     7
 72
     1
  1
70
  7
CONVERTER_2
 11
0.0
 21
1.0
 31
0.0
 73
     1
 44
0.60024009603842
  0
ENDBLK
  5
570
330
568
100
AcDbEntity
  8
0
100
AcDbBlockEnd
  0
BLOCK
  5
57B
330
573
100
AcDbEntity
  8
0
100
AcDbBlockBegin
  2
*D820
 70
     1
 71
     0
 10
0.0
 20
0.0
 30
0.0
  3
*D820
  1

  0
LINE
  5
574
330
573
100
AcDbEntity
  8
1
  6
Continuous
 62
     2
100
AcDbLine
 10
207.3745532906219
 20
200.7447379287272
 30
0.0
 11
210.3271442606995
 21
166.9964687120615
 31
0.0
  0
LINE
  5
575
330
573
100
AcDbEntity
  8
1
  6
Continuous
 62
     2
100
AcDbLine
 10
207.1130860623985
 20
203.2333220230041
 30
0.0
 11
207.1130860623985
 21
166.856139900561
 31
0.0
  0
LINE
  5
576
330
573
100
AcDbEntity
  8
1
  6
Continuous
 62
     2
100
AcDbLine
 10
210.3271442606995
 20
166.9964687120615
 30
0.0
 11
210.5014557461947
 21
165.004079315878
 31
0.0
  0
LINE
  5
577
330
573
100
AcDbEntity
  8
1
  6
Continuous
 62
     2
100
AcDbLine
 10
207.1130860623985
 20
166.856139900561
 30
0.0
 11
207.1130860623985
 21
164.856139900561
 31
0.0
  0
ARC
  5
578
330
573
100
AcDbEntity
  8
1
  6
Continuous
 62
     2
100
AcDbCircle
 10
207.1130860623985
 20
203.7333220227802
 30
0.0
 40
36.87718212221918
100
AcDbArc
 50
-90.0
 51
-60.92571925986494
  0
SOLID
  5
579
330
573
100
AcDbEntity
  8
1
 62
     2
100
AcDbTrace
 10
216.1094872035982
 20
168.7820990699646
 30
0.0
 11
216.3746137898443
 21
167.2246747120296
 31
0.0
 12
210.3271442606995
 22
166.9964687120615
 32
0.0
 13
210.3271442606995
 23
166.9964687120615
 33
0.0
  0
MTEXT
  5
57A
330
573
100
AcDbEntity
  8
1
 62
     7
100
AcDbMText
 10
214.6489620492668
 20
169.3773777642244
 30
0.0
 40
7.0
 41
0.0
 71
     7
 72
     1
  1
5{\Fgdt;~}
  7
CONVERTER_2
 11
0.9679851352231491
 21
0.2510075257577393
 31
0.0
 73
     1
 44
0.60024009603842
  0
ENDBLK
  5
57C
330
573
100
AcDbEntity
  8
0
100
AcDbBlockEnd
  0
ENDSEC
  0
SECTION
  2
ENTITIES
  0
INSERT
  5
5C
330
1F
100
AcDbEntity
  8
1
100
AcDbBlockReference
  2
Y196-0A
 10
-416.4736629667
 20
362.8249243188704
 30
0.0
  0
INSERT
  5
5D
330
1F
100
AcDbEntity
  8
1
100
AcDbBlockReference
  2
30-205
 10
318.9343598562455
 20
72.9816385649256
 30
0.0
  0
INSERT
  5
5E
330
1F
100
AcDbEntity
  8
1
100
AcDbBlockReference
  2
_J__A4
 10
0.0
 20
0.0
 30
0.0
 41
2.0
 42
2.0
 43
2.0
  0
INSERT
  5
5F
330
1F
100
AcDbEntity
  8
1
100
AcDbBlockReference
  2
U1-76X-Y
 10
3.52633703329963
 20
65.82492431887039
 30
0.0
  0
INSERT
  5
60
330
1F
100
AcDbEntity
  8
1
100
AcDbBlockReference
  2
P82A-15
 10
140.9071245461237
 20
229.8574107905484
 30
0.0
  0
INSERT
  5
61
330
1F
100
AcDbEntity
  8
1
100
AcDbBlockReference
  2
30-11X
 10
138.4071245461237
 20
245.8593991353139
 30
0.0
  0
LINE
  5
503
330
1F
100
AcDbEntity
  8
1
  6
DASH_CENTER
 62
     2
100
AcDbLine
 10
354.8350318915815
 20
324.3247432699009
 30
0.0
 11
354.8350318915815
 21
196.774608852774
 31
0.0
  0
LINE
  5
504
330
1F
100
AcDbEntity
  8
1
  6
DASH_CENTER
 62
     2
100
AcDbLine
 10
325.8350318839154
 20
243.8593260035992
 30
0.0
 11
383.8350318839151
 21
243.8593260035992
 31
0.0
  0
LINE
  5
505
330
1F
100
AcDbEntity
  8
1
  6
DASH_CENTER
 62
     2
100
AcDbLine
 10
206.6246822490784
 20
209.3158031539001
 30
0.0
 11
207.3745532906219
 21
200.7447379287272
 31
0.0
  0
LINE
  5
506
330
1F
100
AcDbEntity
  8
1
  6
DASH_CENTER
 62
     2
100
AcDbLine
 10
205.3612556331514
 20
223.7568354546448
 30
0.0
 11
206.6246822490784
 21
209.3158031539001
 31
0.0
  0
LINE
  5
507
330
1F
100
AcDbEntity
  8
1
  6
DASH_CENTER
 62
     2
100
AcDbLine
 10
208.7052022063744
 20
319.1328811946007
 30
0.0
 11
169.4055413501661
 21
211.1579503999066
 31
0.0
  0
LINE
  5
508
330
1F
100
AcDbEntity
  8
0
  6
PHANTOM
 62
     4
100
AcDbLine
 10
207.1130860623985
 20
203.7333220230041
 30
0.0
 11
207.1130860623985
 21
203.2333220230041
 31
0.0
  0
LINE
  5
509
330
1F
100
AcDbEntity
  8
1
  6
DASH_CENTER
 62
     2
100
AcDbLine
 10
148.4071245461237
 20
217.8199725137266
 30
0.0
 11
148.4071245461237
 21
274.8593991353141
 31
0.0
  0
LINE
  5
50A
330
1F
100
AcDbEntity
  8
1
  6
DASH_CENTER
 62
     2
100
AcDbLine
 10
101.4071245461237
 20
243.8593260035992
 30
0.0
 11
214.4650270720263
 21
243.8593260035993
 31
0.0
  0
LINE
  5
50B
330
1F
100
AcDbEntity
  8
1
  6
DASH_CENTER
 62
     2
100
AcDbLine
 10
143.9071245461237
 20
452.5149869980201
 30
0.0
 11
143.9071245461237
 21
420.6545553433439
 31
0.0
  0
LINE
  5
50C
330
1F
100
AcDbEntity
  8
1
  6
DASH_CENTER
 62
     2
100
AcDbLine
 10
96.90712454612367
 20
436.584843113128
 30
0.0
 11
227.7215577812405
 21
436.584843113128
 31
0.0
  0
SOLID
  5
50D
330
1F
100
AcDbEntity
  8
1
 62
     2
100
AcDbTrace
 10
110.6900236944472
 20
259.9382200885344
 30
0.0
 11
112.2862253978001
 21
260.8597875716462
 31
0.0
 12
114.9881245461236
 22
254.3368260035992
 32
0.0
 13
114.9881245461236
 23
254.3368260035992
 33
0.0
  0
LEADER
  5
50E
330
1F
100
AcDbEntity
  8
1
  6
Continuous
 62
     2
100
AcDbLeader
  3
Standard
 71
     0
 76
     3
 10
114.9881245461236
 20
254.3368260035992
 30
0.0
 10
96.211250416404
 20
286.8593260035992
 30
0.0
 10
66.4274377402557
 20
286.8593260035992
 30
0.0
  0
MTEXT
  5
510
330
1F
100
AcDbEntity
  8
1
 62
     7
100
AcDbMText
 10
68.0
 20
68.00000000000001
 30
0.0
 40
7.0
 41
0.0
 71
     4
 72
     1
  1
JIS
  7
CONVERTER_2
 73
     1
 44
0.7202881152461
  0
MTEXT
  5
511
330
1F
100
AcDbEntity
  8
0
 62
     7
100
AcDbMText
 10
114.0
 20
45.50000000000002
 30
0.0
 40
7.0
 41
0.0
 71
     5
 72
     1
  1
自閉式横水栓
  7
CONVERTER_1
 73
     1
 44
1.32052821128451
  0
MTEXT
  5
512
330
1F
100
AcDbEntity
  8
0
 62
     7
100
AcDbMText
 10
114.0
 20
28.5
 30
0.0
 40
7.0
 41
0.0
 71
     5
 72
     1
  1
Y196C-13
  7
CONVERTER_2
 73
     1
 44
0.90036014405762
  0
MTEXT
  5
513
330
1F
100
AcDbEntity
  8
0
 62
     7
100
AcDbMText
 10
170.5
 20
34.0
 30
0.0
 40
7.0
 41
0.0
 71
     5
 72
     1
  1
1
  7
CONVERTER_2
 73
     1
 44
1.32052821128451
  0
MTEXT
  5
514
330
1F
100
AcDbEntity
  8
0
 62
     7
100
AcDbMText
 10
187.5
 20
34.0
 30
0.0
 40
7.0
 41
0.0
 71
     5
 72
     1
  1
2
  7
CONVERTER_2
 73
     1
 44
1.32052821128451
  0
MTEXT
  5
515
330
1F
100
AcDbEntity
  8
1
 62
     7
100
AcDbMText
 10
81.31934407832996
 20
292.8593260035992
 30
0.0
 40
7.0
 41
0.0
 71
     5
 72
     1
  1
PJ1/2
  7
CONVERTER_2
 73
     1
 44
0.7202881152461
  0
DIMENSION
  5
520
330
1F
100
AcDbEntity
  8
1
100
AcDbDimension
  2
*D011
 10
87.40712454612373
 20
266.8593260035992
 30
0.0
 11
81.90712454612373
 21
243.8593260035992
 31
0.0
  1
<>
 71
     5
 42
0.0
 53
90.0
  3
ME10_DIM_0
100
AcDbAlignedDimension
 13
121.4071245461237
 23
220.8593260035991
 33
0.0
 14
121.4071245461237
 24
266.8593260035992
 34
0.0
 50
90.0
100
AcDbRotatedDimension
  0
DIMENSION
  5
52E
330
1F
100
AcDbEntity
  8
1
100
AcDbDimension
  2
*D112
 10
107.4071245461237
 20
182.8486912341156
 30
0.0
 11
95.33655459778061
 21
188.3486912341156
 31
0.0
  1
<>
 71
     5
 42
0.0
 53
0.00013888888889
  3
ME10_DIM_1
100
AcDbAlignedDimension
 13
121.4071245461237
 23
220.8593260035991
 33
0.0
 14
107.4071245461237
 24
234.5438260035992
 34
0.0
100
AcDbRotatedDimension
  0
DIMENSION
  5
53B
330
1F
100
AcDbEntity
  8
1
100
AcDbDimension
  2
*D214
 10
121.4071245461237
 20
182.8486912341156
 30
0.0
 11
134.9071245461237
 21
188.3486912341156
 31
0.0
  1
<>
 71
     5
 42
0.0
 53
0.00013888888889
  3
ME10_DIM_2
100
AcDbAlignedDimension
 13
148.4071245461237
 23
217.8593260035991
 33
0.0
 14
121.4071245461237
 24
220.8593260035991
 34
0.0
100
AcDbRotatedDimension
  0
DIMENSION
  5
546
330
1F
100
AcDbEntity
  8
1
100
AcDbDimension
  2
*D315
 10
246.1304117427253
 20
203.7333220230041
 30
0.0
 11
240.6304117427253
 21
223.7963240133017
 31
0.0
  1
40
 71
     5
 42
0.0
 53
90.0
  3
ME10_DIM_3
100
AcDbAlignedDimension
 13
214.4650270720263
 23
243.8593260035991
 33
0.0
 14
207.1130860623985
 24
203.7333220230041
 34
0.0
 50
90.0
100
AcDbRotatedDimension
  0
DIMENSION
  5
551
330
1F
100
AcDbEntity
  8
1
100
AcDbDimension
  2
*D416
 10
371.3350318839151
 20
182.7746088527801
 30
0.0
 11
354.835031884364
 21
188.2746088527801
 31
0.0
  1
<>
 71
     5
 42
0.0
 53
0.00013888888889
  3
ME10_DIM_4
100
AcDbAlignedDimension
 13
338.335031883915
 23
212.8050844962513
 33
0.0
 14
371.335031883915
 24
212.8050844962513
 34
0.0
100
AcDbRotatedDimension
  0
DIMENSION
  5
55C
330
1F
100
AcDbEntity
  8
1
100
AcDbDimension
  2
*D517
 10
207.1130860623985
 20
166.8486912341156
 30
0.0
 11
164.2601053042611
 21
172.3486912341156
 31
0.0
  1
85
 71
     5
 42
0.0
 53
0.00013888888889
  3
ME10_DIM_5
100
AcDbAlignedDimension
 13
121.4071245461237
 23
220.8593260035991
 33
0.0
 14
207.1130860623985
 24
203.7333220230041
 34
0.0
100
AcDbRotatedDimension
  0
DIMENSION
  5
567
330
1F
100
AcDbEntity
  8
1
100
AcDbDimension
  2
*D618
 10
234.52267640048
 20
324.6345779025073
 30
0.0
 11
215.374595008898
 21
337.4568873209703
 31
0.0
 70
     1
  1
{\Fgdt;n}45
 71
     5
 42
0.0
 53
-20.00000000000739
  3
ME10_DIM_6
100
AcDbAlignedDimension
 13
184.0720273829834
 23
316.8850202655283
 33
0.0
 14
226.1304117427253
 24
301.5770202572489
 34
0.0
  0
DIMENSION
  5
572
330
1F
100
AcDbEntity
  8
1
100
AcDbDimension
  2
*D719
 10
246.1304117427253
 20
313.4947254698814
 30
0.0
 11
240.6304117427253
 21
278.6770257367404
 31
0.0
  1
70
 71
     5
 42
0.0
 53
90.0
  3
ME10_DIM_7
100
AcDbAlignedDimension
 13
214.4650270720263
 23
243.8593260035993
 33
0.0
 14
206.6530813464317
 24
313.4947254698814
 34
0.0
 50
90.0
100
AcDbRotatedDimension
  0
DIMENSION
  5
57E
330
1F
100
AcDbEntity
  8
1
100
AcDbDimension
  2
*D820
 10
208.7216461543275
 20
166.8912388066267
 30
0.0
 11
217.7440126150577
 21
174.2119575800096
 31
0.0
 70
     5
  1
<>
 71
     5
 42
0.0
  3
ME10_DIM_8
100
AcDb3PointAngularDimension
 13
207.1130860623985
 23
203.2333220230041
 33
0.0
 14
207.3745532906219
 24
200.7447379287272
 34
0.0
 15
207.1130860623985
 25
203.7333220227802
 35
0.0
  0
ENDSEC
  0
SECTION
  2
OBJECTS
  0
DICTIONARY
  5
C
330
0
100
AcDbDictionary
281
     1
  3
ACAD_GROUP
350
D
  3
ACAD_LAYOUT
350
1A
  3
ACAD_MLINESTYLE
350
17
  3
ACAD_PLOTSETTINGS
350
19
  3
ACAD_PLOTSTYLENAME
350
E
  3
ACAD_TABLESTYLE
350
2A
  3
AcDbVariableDictionary
350
2C
  0
DICTIONARY
  5
D
102
{ACAD_REACTORS
330
C
102
}
330
C
100
AcDbDictionary
281
     1
  0
DICTIONARY
  5
1A
102
{ACAD_REACTORS
330
C
102
}
330
C
100
AcDbDictionary
281
     1
  3
Layout1
350
1E
  3
Layout2
350
26
  3
Model
350
22
  0
DICTIONARY
  5
17
102
{ACAD_REACTORS
330
C
102
}
330
C
100
AcDbDictionary
281
     1
  3
Standard
350
18
  0
DICTIONARY
  5
19
102
{ACAD_REACTORS
330
C
102
}
330
C
100
AcDbDictionary
281
     1
  0
ACDBDICTIONARYWDFLT
  5
E
102
{ACAD_REACTORS
330
C
102
}
330
C
100
AcDbDictionary
281
     1
  3
Normal
350
F
100
AcDbDictionaryWithDefault
340
F
  0
DICTIONARY
  5
2A
102
{ACAD_REACTORS
330
C
102
}
330
C
100
AcDbDictionary
281
     1
  3
Standard
350
2B
  0
DICTIONARY
  5
2C
102
{ACAD_REACTORS
330
C
102
}
330
C
100
AcDbDictionary
281
     1
  3
CTABLESTYLE
350
2D
  0
LAYOUT
  5
1E
102
{ACAD_REACTORS
330
1A
102
}
330
1A
100
AcDbPlotSettings
  1

  2

  4

  6

 40
0.0
 41
0.0
 42
0.0
 43
0.0
 44
0.0
 45
0.0
 46
0.0
 47
0.0
 48
0.0
 49
0.0
140
0.0
141
0.0
142
1.0
143
1.0
 70
   688
 72
     0
 73
     0
 74
     5
  7

 75
    16
147
1.0
148
0.0
149
0.0
100
AcDbLayout
  1
Layout1
 70
     1
 71
     1
 10
0.0
 20
0.0
 11
12.0
 21
9.0
 12
0.0
 22
0.0
 32
0.0
 14
1.00000000000000E+20
 24
1.00000000000000E+20
 34
1.00000000000000E+20
 15
-1.00000000000000E+20
 25
-1.00000000000000E+20
 35
-1.00000000000000E+20
146
0.0
 13
0.0
 23
0.0
 33
0.0
 16
1.0
 26
0.0
 36
0.0
 17
0.0
 27
1.0
 37
0.0
 76
     0
330
1B
  0
LAYOUT
  5
26
102
{ACAD_REACTORS
330
1A
102
}
330
1A
100
AcDbPlotSettings
  1

  2

  4

  6

 40
0.0
 41
0.0
 42
0.0
 43
0.0
 44
0.0
 45
0.0
 46
0.0
 47
0.0
 48
0.0
 49
0.0
140
0.0
141
0.0
142
1.0
143
1.0
 70
   688
 72
     0
 73
     0
 74
     5
  7

 75
    16
147
1.0
148
0.0
149
0.0
100
AcDbLayout
  1
Layout2
 70
     1
 71
     2
 10
0.0
 20
0.0
 11
0.0
 21
0.0
 12
0.0
 22
0.0
 32
0.0
 14
0.0
 24
0.0
 34
0.0
 15
0.0
 25
0.0
 35
0.0
146
0.0
 13
0.0
 23
0.0
 33
0.0
 16
1.0
 26
0.0
 36
0.0
 17
0.0
 27
1.0
 37
0.0
 76
     0
330
23
  0
LAYOUT
  5
22
102
{ACAD_REACTORS
330
1A
102
}
330
1A
100
AcDbPlotSettings
  1

  2

  4

  6

 40
0.0
 41
0.0
 42
0.0
 43
0.0
 44
0.0
 45
0.0
 46
0.0
 47
0.0
 48
0.0
 49
0.0
140
0.0
141
0.0
142
1.0
143
1.0
 70
  1712
 72
     0
 73
     0
 74
     0
  7

 75
     0
147
1.0
148
0.0
149
0.0
100
AcDbLayout
  1
Model
 70
     1
 71
     0
 10
0.0
 20
0.0
 11
0.0
 21
0.0
 12
0.0
 22
0.0
 32
0.0
 14
0.0
 24
0.0
 34
0.0
 15
420.0
 25
594.0
 35
0.0
146
0.0
 13
0.0
 23
0.0
 33
0.0
 16
1.0
 26
0.0
 36
0.0
 17
0.0
 27
1.0
 37
0.0
 76
     0
330
1F
  0
MLINESTYLE
  5
18
102
{ACAD_REACTORS
330
17
102
}
330
17
100
AcDbMlineStyle
  2
Standard
 70
     0
  3

 62
   256
 51
90.0
 52
90.0
 71
     2
 49
0.5
 62
   256
  6
BYLAYER
 49
-0.5
 62
   256
  6
BYLAYER
  0
ACDBPLACEHOLDER
  5
F
102
{ACAD_REACTORS
330
E
102
}
330
E
  0
TABLESTYLE
  5
2B
102
{ACAD_REACTORS
330
2A
102
}
330
2A
100
AcDbTableStyle
  3
Standard
 70
     0
 71
     0
 40
0.06
 41
0.06
280
     0
281
     0
  7
Standard
140
0.18
170
     2
 62
     0
 63
     7
283
     0
274
    -2
284
     1
 64
     0
275
    -2
285
     1
 65
     0
276
    -2
286
     1
 66
     0
277
    -2
287
     1
 67
     0
278
    -2
288
     1
 68
     0
279
    -2
289
     1
 69
     0
  7
Standard
140
0.25
170
     5
 62
     0
 63
     7
283
     0
274
    -2
284
     1
 64
     0
275
    -2
285
     1
 65
     0
276
    -2
286
     1
 66
     0
277
    -2
287
     1
 67
     0
278
    -2
288
     1
 68
     0
279
    -2
289
     1
 69
     0
  7
Standard
140
0.18
170
     5
 62
     0
 63
     7
283
     0
274
    -2
284
     1
 64
     0
275
    -2
285
     1
 65
     0
276
    -2
286
     1
 66
     0
277
    -2
287
     1
 67
     0
278
    -2
288
     1
 68
     0
279
    -2
289
     1
 69
     0
  0
DICTIONARYVAR
  5
2D
102
{ACAD_REACTORS
330
2C
102
}
330
2C
100
DictionaryVariables
280
     0
  1
Standard
  0
ENDSEC
  0
EOF
