  0
SECTION
  2
HEADER
  9
$ACADVER
  1
AC1015
  9
$ACADMAINTVER
 70
     6
  9
$DWGCODEPAGE
  3
ANSI_932
  9
$INSBASE
 10
0.0
 20
0.0
 30
0.0
  9
$EXTMIN
 10
0.0
 20
0.0
 30
0.0
  9
$EXTMAX
 10
315.0
 20
445.5
 30
0.0
  9
$LIMMIN
 10
0.0
 20
0.0
  9
$LIMMAX
 10
12.0
 20
9.0
  9
$ORTHOMODE
 70
     0
  9
$REGENMODE
 70
     1
  9
$FILLMODE
 70
     1
  9
$QTEXTMODE
 70
     0
  9
$MIRRTEXT
 70
     1
  9
$LTSCALE
 40
1.0
  9
$ATTMODE
 70
     1
  9
$TEXTSIZE
 40
0.2
  9
$TRACEWID
 40
0.05
  9
$TEXTSTYLE
  7
Standard
  9
$CLAYER
  8
0
  9
$CELTYPE
  6
ByLayer
  9
$CECOLOR
 62
   256
  9
$CELTSCALE
 40
1.0
  9
$DISPSILH
 70
     0
  9
$DIMSCALE
 40
1.0
  9
$DIMASZ
 40
0.18
  9
$DIMEXO
 40
0.0625
  9
$DIMDLI
 40
0.38
  9
$DIMRND
 40
0.0
  9
$DIMDLE
 40
0.0
  9
$DIMEXE
 40
0.18
  9
$DIMTP
 40
0.0
  9
$DIMTM
 40
0.0
  9
$DIMTXT
 40
0.18
  9
$DIMCEN
 40
0.09
  9
$DIMTSZ
 40
0.0
  9
$DIMTOL
 70
     0
  9
$DIMLIM
 70
     0
  9
$DIMTIH
 70
     1
  9
$DIMTOH
 70
     1
  9
$DIMSE1
 70
     0
  9
$DIMSE2
 70
     0
  9
$DIMTAD
 70
     0
  9
$DIMZIN
 70
     0
  9
$DIMBLK
  1

  9
$DIMASO
 70
     1
  9
$DIMSHO
 70
     1
  9
$DIMPOST
  1

  9
$DIMAPOST
  1

  9
$DIMALT
 70
     0
  9
$DIMALTD
 70
     2
  9
$DIMALTF
 40
25.4
  9
$DIMLFAC
 40
1.0
  9
$DIMTOFL
 70
     0
  9
$DIMTVP
 40
0.0
  9
$DIMTIX
 70
     0
  9
$DIMSOXD
 70
     0
  9
$DIMSAH
 70
     0
  9
$DIMBLK1
  1

  9
$DIMBLK2
  1

  9
$DIMSTYLE
  2
Standard
  9
$DIMCLRD
 70
     0
  9
$DIMCLRE
 70
     0
  9
$DIMCLRT
 70
     0
  9
$DIMTFAC
 40
1.0
  9
$DIMGAP
 40
0.09
  9
$DIMJUST
 70
     0
  9
$DIMSD1
 70
     0
  9
$DIMSD2
 70
     0
  9
$DIMTOLJ
 70
     1
  9
$DIMTZIN
 70
     0
  9
$DIMALTZ
 70
     0
  9
$DIMALTTZ
 70
     0
  9
$DIMUPT
 70
     0
  9
$DIMDEC
 70
     4
  9
$DIMTDEC
 70
     4
  9
$DIMALTU
 70
     2
  9
$DIMALTTD
 70
     2
  9
$DIMTXSTY
  7
Standard
  9
$DIMAUNIT
 70
     0
  9
$DIMADEC
 70
     0
  9
$DIMALTRND
 40
0.0
  9
$DIMAZIN
 70
     0
  9
$DIMDSEP
 70
    46
  9
$DIMATFIT
 70
     3
  9
$DIMFRAC
 70
     0
  9
$DIMLDRBLK
  1

  9
$DIMLUNIT
 70
     2
  9
$DIMLWD
 70
    -2
  9
$DIMLWE
 70
    -2
  9
$DIMTMOVE
 70
     0
  9
$LUNITS
 70
     2
  9
$LUPREC
 70
     4
  9
$SKETCHINC
 40
0.1
  9
$FILLETRAD
 40
0.5
  9
$AUNITS
 70
     0
  9
$AUPREC
 70
     0
  9
$MENU
  1
.
  9
$ELEVATION
 40
0.0
  9
$PELEVATION
 40
0.0
  9
$THICKNESS
 40
0.0
  9
$LIMCHECK
 70
     0
  9
$CHAMFERA
 40
0.5
  9
$CHAMFERB
 40
0.5
  9
$CHAMFERC
 40
1.0
  9
$CHAMFERD
 40
0.0
  9
$SKPOLY
 70
     0
  9
$TDCREATE
 40
2456673.490956493
  9
$TDUCREATE
 40
2456673.115956493
  9
$TDUPDATE
 40
2456673.490957569
  9
$TDUUPDATE
 40
2456673.115957569
  9
$TDINDWG
 40
0.0000000116
  9
$TDUSRTIMER
 40
0.0000000116
  9
$USRTIMER
 70
     1
  9
$ANGBASE
 50
0.0
  9
$ANGDIR
 70
     0
  9
$PDMODE
 70
     0
  9
$PDSIZE
 40
0.0
  9
$PLINEWID
 40
0.0
  9
$SPLFRAME
 70
     0
  9
$SPLINETYPE
 70
     6
  9
$SPLINESEGS
 70
     8
  9
$HANDSEED
  5
35D
  9
$SURFTAB1
 70
     6
  9
$SURFTAB2
 70
     6
  9
$SURFTYPE
 70
     6
  9
$SURFU
 70
     6
  9
$SURFV
 70
     6
  9
$UCSBASE
  2

  9
$UCSNAME
  2

  9
$UCSORG
 10
0.0
 20
0.0
 30
0.0
  9
$UCSXDIR
 10
1.0
 20
0.0
 30
0.0
  9
$UCSYDIR
 10
0.0
 20
1.0
 30
0.0
  9
$UCSORTHOREF
  2

  9
$UCSORTHOVIEW
 70
     0
  9
$UCSORGTOP
 10
0.0
 20
0.0
 30
0.0
  9
$UCSORGBOTTOM
 10
0.0
 20
0.0
 30
0.0
  9
$UCSORGLEFT
 10
0.0
 20
0.0
 30
0.0
  9
$UCSORGRIGHT
 10
0.0
 20
0.0
 30
0.0
  9
$UCSORGFRONT
 10
0.0
 20
0.0
 30
0.0
  9
$UCSORGBACK
 10
0.0
 20
0.0
 30
0.0
  9
$PUCSBASE
  2

  9
$PUCSNAME
  2

  9
$PUCSORG
 10
0.0
 20
0.0
 30
0.0
  9
$PUCSXDIR
 10
1.0
 20
0.0
 30
0.0
  9
$PUCSYDIR
 10
0.0
 20
1.0
 30
0.0
  9
$PUCSORTHOREF
  2

  9
$PUCSORTHOVIEW
 70
     0
  9
$PUCSORGTOP
 10
0.0
 20
0.0
 30
0.0
  9
$PUCSORGBOTTOM
 10
0.0
 20
0.0
 30
0.0
  9
$PUCSORGLEFT
 10
0.0
 20
0.0
 30
0.0
  9
$PUCSORGRIGHT
 10
0.0
 20
0.0
 30
0.0
  9
$PUCSORGFRONT
 10
0.0
 20
0.0
 30
0.0
  9
$PUCSORGBACK
 10
0.0
 20
0.0
 30
0.0
  9
$USERI1
 70
     0
  9
$USERI2
 70
     0
  9
$USERI3
 70
     0
  9
$USERI4
 70
     0
  9
$USERI5
 70
     0
  9
$USERR1
 40
18.1
  9
$USERR2
 40
0.0
  9
$USERR3
 40
0.0
  9
$USERR4
 40
0.0
  9
$USERR5
 40
0.0
  9
$WORLDVIEW
 70
     1
  9
$SHADEDGE
 70
     3
  9
$SHADEDIF
 70
    70
  9
$TILEMODE
 70
     1
  9
$MAXACTVP
 70
    64
  9
$PINSBASE
 10
0.0
 20
0.0
 30
0.0
  9
$PLIMCHECK
 70
     0
  9
$PEXTMIN
 10
1.00000000000000E+20
 20
1.00000000000000E+20
 30
1.00000000000000E+20
  9
$PEXTMAX
 10
-1.00000000000000E+20
 20
-1.00000000000000E+20
 30
-1.00000000000000E+20
  9
$PLIMMIN
 10
0.0
 20
0.0
  9
$PLIMMAX
 10
12.0
 20
9.0
  9
$UNITMODE
 70
     0
  9
$VISRETAIN
 70
     1
  9
$PLINEGEN
 70
     0
  9
$PSLTSCALE
 70
     1
  9
$TREEDEPTH
 70
  3020
  9
$CMLSTYLE
  2
Standard
  9
$CMLJUST
 70
     0
  9
$CMLSCALE
 40
1.0
  9
$PROXYGRAPHICS
 70
     1
  9
$MEASUREMENT
 70
     1
  9
$CELWEIGHT
370
    -1
  9
$ENDCAPS
280
     0
  9
$JOINSTYLE
280
     0
  9
$LWDISPLAY
290
     0
  9
$INSUNITS
 70
     4
  9
$HYPERLINKBASE
  1

  9
$STYLESHEET
  1

  9
$XEDIT
290
     1
  9
$CEPSNTYPE
380
     0
  9
$PSTYLEMODE
290
     1
  9
$FINGERPRINTGUID
  2
{E8EAC62B-F3D7-4B5B-A2CB-99634A2E8B99}
  9
$VERSIONGUID
  2
{FAEB1C32-E019-11D5-929B-00C0DF256EC4}
  9
$EXTNAMES
290
     1
  9
$PSVPSCALE
 40
0.0
  9
$OLESTARTUP
290
     0
  0
ENDSEC
  0
SECTION
  2
CLASSES
  0
CLASS
  1
ACDBDICTIONARYWDFLT
  2
AcDbDictionaryWithDefault
  3
ObjectDBX Classes
 90
        0
280
     0
281
     0
  0
CLASS
  1
VISUALSTYLE
  2
AcDbVisualStyle
  3
ObjectDBX Classes
 90
     4095
280
     0
281
     0
  0
CLASS
  1
MATERIAL
  2
AcDbMaterial
  3
ObjectDBX Classes
 90
     1153
280
     0
281
     0
  0
CLASS
  1
DICTIONARYVAR
  2
AcDbDictionaryVar
  3
ObjectDBX Classes
 90
        0
280
     0
281
     0
  0
CLASS
  1
ACDBPLACEHOLDER
  2
AcDbPlaceHolder
  3
ObjectDBX Classes
 90
        0
280
     0
281
     0
  0
CLASS
  1
LAYOUT
  2
AcDbLayout
  3
ObjectDBX Classes
 90
        0
280
     0
281
     0
  0
ENDSEC
  0
SECTION
  2
TABLES
  0
TABLE
  2
VPORT
  5
8
330
0
100
AcDbSymbolTable
 70
     1
  0
VPORT
  5
29
330
8
100
AcDbSymbolTableRecord
100
AcDbViewportTableRecord
  2
*Active
 70
     0
 10
0.0
 20
0.0
 11
1.0
 21
1.0
 12
157.5
 22
222.75
 13
0.0
 23
0.0
 14
0.5
 24
0.5
 15
0.5
 25
0.5
 16
0.0
 26
0.0
 36
1.0
 17
0.0
 27
0.0
 37
0.0
 40
490.05
 41
1.60267857142857
 42
50.0
 43
0.0
 44
0.0
 50
0.0
 51
0.0
 71
     0
 72
   100
 73
     1
 74
     3
 75
     0
 76
     0
 77
     0
 78
     0
281
     0
 65
     1
110
0.0
120
0.0
130
0.0
111
1.0
121
0.0
131
0.0
112
0.0
122
1.0
132
0.0
 79
     0
146
0.0
  0
ENDTAB
  0
TABLE
  2
LTYPE
  5
5
330
0
100
AcDbSymbolTable
 70
     8
  0
LTYPE
  5
14
330
5
100
AcDbSymbolTableRecord
100
AcDbLinetypeTableRecord
  2
ByBlock
 70
     0
  3

 72
    65
 73
     0
 40
0.0
  0
LTYPE
  5
15
330
5
100
AcDbSymbolTableRecord
100
AcDbLinetypeTableRecord
  2
ByLayer
 70
     0
  3

 72
    65
 73
     0
 40
0.0
  0
LTYPE
  5
16
330
5
100
AcDbSymbolTableRecord
100
AcDbLinetypeTableRecord
  2
Continuous
 70
     0
  3
Solid line
 72
    65
 73
     0
 40
0.0
  0
LTYPE
  5
3F
330
5
100
AcDbSymbolTableRecord
100
AcDbLinetypeTableRecord
  2
DASHED
 70
     0
  3
Dashed
 72
    65
 73
     2
 40
15.0
 49
7.0
 74
     0
 49
-8.0
 74
     0
  0
LTYPE
  5
40
330
5
100
AcDbSymbolTableRecord
100
AcDbLinetypeTableRecord
  2
DOTTED
 70
     0
  3
Dotted
 72
    65
 73
     2
 40
1.0
 49
0.0
 74
     0
 49
-1.0
 74
     0
  0
LTYPE
  5
41
330
5
100
AcDbSymbolTableRecord
100
AcDbLinetypeTableRecord
  2
DOT_CENTER
 70
     0
  3
Dot_Center
 72
    65
 73
     4
 40
14.0
 49
12.0
 74
     0
 49
-1.0
 74
     0
 49
0.0
 74
     0
 49
-1.0
 74
     0
  0
LTYPE
  5
42
330
5
100
AcDbSymbolTableRecord
100
AcDbLinetypeTableRecord
  2
LONG_DASHED
 70
     0
  3
Long_Dashed
 72
    65
 73
     2
 40
15.0
 49
10.0
 74
     0
 49
-5.0
 74
     0
  0
LTYPE
  5
43
330
5
100
AcDbSymbolTableRecord
100
AcDbLinetypeTableRecord
  2
DASH_CENTER
 70
     0
  3
Dash_Center
 72
    65
 73
     4
 40
14.0
 49
11.0
 74
     0
 49
-1.0
 74
     0
 49
1.0
 74
     0
 49
-1.0
 74
     0
  0
LTYPE
  5
44
330
5
100
AcDbSymbolTableRecord
100
AcDbLinetypeTableRecord
  2
PHANTOM
 70
     0
  3
Phantom
 72
    65
 73
     6
 40
13.0
 49
10.0
 74
     0
 49
-1.0
 74
     0
 49
0.0
 74
     0
 49
-1.0
 74
     0
 49
0.0
 74
     0
 49
-1.0
 74
     0
  0
LTYPE
  5
45
330
5
100
AcDbSymbolTableRecord
100
AcDbLinetypeTableRecord
  2
CENTER_DASH_DASH
 70
     0
  3
Center_Dash_Dash
 72
    65
 73
     6
 40
14.0
 49
9.0
 74
     0
 49
-1.0
 74
     0
 49
1.0
 74
     0
 49
-1.0
 74
     0
 49
1.0
 74
     0
 49
-1.0
 74
     0
  0
ENDTAB
  0
TABLE
  2
LAYER
  5
2
330
0
100
AcDbSymbolTable
 70
     2
  0
LAYER
  5
10
330
2
100
AcDbSymbolTableRecord
100
AcDbLayerTableRecord
  2
0
 70
     0
 62
     7
  6
Continuous
370
    -3
390
F
  0
LAYER
  5
46
330
2
100
AcDbSymbolTableRecord
100
AcDbLayerTableRecord
  2
1
 70
     0
 62
     7
  6
Continuous
370
    -3
390
F
  0
ENDTAB
  0
TABLE
  2
STYLE
  5
3
330
0
100
AcDbSymbolTable
 70
     3
  0
STYLE
  5
11
330
3
100
AcDbSymbolTableRecord
100
AcDbTextStyleTableRecord
  2
Standard
 70
     0
 40
0.0
 41
1.0
 50
0.0
 71
     0
 42
0.2
  3
txt
  4

  0
STYLE
  5
BA
330
3
100
AcDbSymbolTableRecord
100
AcDbTextStyleTableRecord
  2
CONVERTER_11
 70
     0
 40
0.0
 41
0.89
 50
0.0
 71
     0
 42
0.2
  3
MS Mincho.ttf
  4

1001
ACAD
1000
MS Mincho
1071
    32785
  0
STYLE
  5
2D6
330
3
100
AcDbSymbolTableRecord
100
AcDbTextStyleTableRecord
  2
CONVERTER_12
 70
     0
 40
0.0
 41
0.9
 50
0.0
 71
     0
 42
0.2
  3
txt.shx
  4

  0
ENDTAB
  0
TABLE
  2
VIEW
  5
6
330
0
100
AcDbSymbolTable
 70
     0
  0
ENDTAB
  0
TABLE
  2
UCS
  5
7
330
0
100
AcDbSymbolTable
 70
     0
  0
ENDTAB
  0
TABLE
  2
APPID
  5
9
330
0
100
AcDbSymbolTable
 70
     1
  0
APPID
  5
12
330
9
100
AcDbSymbolTableRecord
100
AcDbRegAppTableRecord
  2
ACAD
 70
     0
  0
ENDTAB
  0
TABLE
  2
DIMSTYLE
  5
A
330
0
100
AcDbSymbolTable
 70
     8
100
AcDbDimStyleTable
  0
DIMSTYLE
105
27
330
A
100
AcDbSymbolTableRecord
100
AcDbDimStyleTableRecord
  2
Standard
 70
     0
178
     0
340
11
  0
DIMSTYLE
105
2E8
102
{ACAD_REACTORS
330
2E9
102
}
330
A
100
AcDbSymbolTableRecord
100
AcDbDimStyleTableRecord
  2
ME10_DIM_10
 70
     0
 41
5.25
 42
0.0
 44
1.5
 73
     0
 74
     0
 77
     1
 78
     8
140
5.25
147
1.5
172
     1
173
     1
174
     1
175
     1
176
     2
177
     2
271
     2
178
     7
271
     2
340
2D6
  0
DIMSTYLE
105
2F3
102
{ACAD_REACTORS
330
2F4
102
}
330
A
100
AcDbSymbolTableRecord
100
AcDbDimStyleTableRecord
  2
ME10_DIM_11
 70
     0
 41
5.25
 42
0.0
 44
1.5
 77
     1
 78
     8
140
5.25
147
1.5
172
     1
173
     1
174
     1
175
     1
176
     2
177
     2
271
     2
178
     7
271
     2
340
2D6
  0
DIMSTYLE
105
2FE
102
{ACAD_REACTORS
330
2FF
102
}
330
A
100
AcDbSymbolTableRecord
100
AcDbDimStyleTableRecord
  2
ME10_DIM_12
 70
     0
 41
5.25
 42
0.0
 44
1.5
 73
     0
 74
     0
 77
     1
 78
     8
140
5.25
147
1.5
172
     1
173
     1
174
     1
175
     1
176
     2
177
     2
271
     2
178
     7
271
     2
340
BA
  0
DIMSTYLE
105
309
102
{ACAD_REACTORS
330
30A
102
}
330
A
100
AcDbSymbolTableRecord
100
AcDbDimStyleTableRecord
  2
ME10_DIM_13
 70
     0
 41
5.25
 42
0.0
 44
1.5
 73
     0
 74
     0
 77
     1
 78
     8
140
5.25
147
1.5
172
     1
173
     1
174
     1
175
     1
176
     2
177
     2
271
     2
178
     7
271
     2
340
2D6
  0
DIMSTYLE
105
314
102
{ACAD_REACTORS
330
315
102
}
330
A
100
AcDbSymbolTableRecord
100
AcDbDimStyleTableRecord
  2
ME10_DIM_14
 70
     0
 41
5.25
 42
0.0
 44
1.5
 73
     0
 74
     0
 77
     1
 78
     8
140
5.25
147
1.5
172
     1
173
     1
174
     1
175
     1
176
     2
177
     2
271
     2
178
     7
271
     2
340
2D6
  0
DIMSTYLE
105
321
102
{ACAD_REACTORS
330
322
102
}
330
A
100
AcDbSymbolTableRecord
100
AcDbDimStyleTableRecord
  2
ME10_DIM_15
 70
     0
 41
5.25
 42
0.0
 44
1.5
 73
     0
 74
     0
 77
     1
 78
     8
140
5.25
147
1.5
172
     1
173
     1
174
     1
175
     1
176
     2
177
     2
271
     2
178
     7
271
     2
340
2D6
  0
DIMSTYLE
105
330
102
{ACAD_REACTORS
330
331
102
}
330
A
100
AcDbSymbolTableRecord
100
AcDbDimStyleTableRecord
  2
ME10_DIM_16
 70
     0
 41
5.25
 42
0.0
 44
1.5
 73
     0
 74
     0
 77
     1
 78
     8
140
5.25
147
1.5
172
     1
173
     1
174
     1
175
     1
176
     2
177
     2
271
     2
178
     7
271
     2
340
2D6
344
32D
  0
ENDTAB
  0
TABLE
  2
BLOCK_RECORD
  5
1
330
0
100
AcDbSymbolTable
 70
    19
  0
BLOCK_RECORD
  5
1F
330
1
100
AcDbSymbolTableRecord
100
AcDbBlockTableRecord
  2
*Model_Space
340
22
  0
BLOCK_RECORD
  5
1B
330
1
100
AcDbSymbolTableRecord
100
AcDbBlockTableRecord
  2
*Paper_Space
340
1E
  0
BLOCK_RECORD
  5
23
330
1
100
AcDbSymbolTableRecord
100
AcDbBlockTableRecord
  2
*Paper_Space0
340
26
  0
BLOCK_RECORD
  5
47
330
1
100
AcDbSymbolTableRecord
100
AcDbBlockTableRecord
  2
開示A4
340
0
102
{BLKREFS
331
69
102
}
  0
BLOCK_RECORD
  5
4A
330
1
100
AcDbSymbolTableRecord
100
AcDbBlockTableRecord
  2
42-1
340
0
102
{BLKREFS
331
57
102
}
  0
BLOCK_RECORD
  5
4D
330
1
100
AcDbSymbolTableRecord
100
AcDbBlockTableRecord
  2
21-1C
340
0
102
{BLKREFS
331
58
102
}
  0
BLOCK_RECORD
  5
50
330
1
100
AcDbSymbolTableRecord
100
AcDbBlockTableRecord
  2
37-1-13
340
0
102
{BLKREFS
331
59
102
}
  0
BLOCK_RECORD
  5
53
330
1
100
AcDbSymbolTableRecord
100
AcDbBlockTableRecord
  2
36-1A-13-M4
340
0
102
{BLKREFS
331
5A
102
}
  0
BLOCK_RECORD
  5
56
330
1
100
AcDbSymbolTableRecord
100
AcDbBlockTableRecord
  2
R10A-13
340
0
102
{BLKREFS
331
6A
102
}
  0
BLOCK_RECORD
  5
5D
330
1
100
AcDbSymbolTableRecord
100
AcDbBlockTableRecord
  2
62-1B
340
0
102
{BLKREFS
331
6B
102
}
  0
BLOCK_RECORD
  5
60
330
1
100
AcDbSymbolTableRecord
100
AcDbBlockTableRecord
  2
32-1-16
340
0
102
{BLKREFS
331
6C
102
}
  0
BLOCK_RECORD
  5
63
330
1
100
AcDbSymbolTableRecord
100
AcDbBlockTableRecord
  2
75-2
340
0
102
{BLKREFS
331
6D
102
}
  0
BLOCK_RECORD
  5
66
330
1
100
AcDbSymbolTableRecord
100
AcDbBlockTableRecord
  2
Y22-0B-13
340
0
102
{BLKREFS
331
6E
102
}
  0
BLOCK_RECORD
  5
2DD
330
1
100
AcDbSymbolTableRecord
100
AcDbBlockTableRecord
  2
*D11
340
0
  0
BLOCK_RECORD
  5
2EA
330
1
100
AcDbSymbolTableRecord
100
AcDbBlockTableRecord
  2
*D12
340
0
  0
BLOCK_RECORD
  5
2F5
330
1
100
AcDbSymbolTableRecord
100
AcDbBlockTableRecord
  2
*D13
340
0
  0
BLOCK_RECORD
  5
300
330
1
100
AcDbSymbolTableRecord
100
AcDbBlockTableRecord
  2
*D14
340
0
  0
BLOCK_RECORD
  5
30B
330
1
100
AcDbSymbolTableRecord
100
AcDbBlockTableRecord
  2
*D15
340
0
  0
BLOCK_RECORD
  5
316
330
1
100
AcDbSymbolTableRecord
100
AcDbBlockTableRecord
  2
*D16
340
0
  0
BLOCK_RECORD
  5
323
330
1
100
AcDbSymbolTableRecord
100
AcDbBlockTableRecord
  2
*D17
340
0
  0
BLOCK_RECORD
  5
32D
330
1
100
AcDbSymbolTableRecord
100
AcDbBlockTableRecord
  2
_NONE
340
0
  0
ENDTAB
  0
ENDSEC
  0
SECTION
  2
BLOCKS
  0
BLOCK
  5
20
330
1F
100
AcDbEntity
  8
0
100
AcDbBlockBegin
  2
*Model_Space
 70
     0
 10
0.0
 20
0.0
 30
0.0
  3
*Model_Space
  1

  0
ENDBLK
  5
21
330
1F
100
AcDbEntity
  8
0
100
AcDbBlockEnd
  0
BLOCK
  5
1C
330
1B
100
AcDbEntity
 67
     1
  8
0
100
AcDbBlockBegin
  2
*Paper_Space
 70
     0
 10
0.0
 20
0.0
 30
0.0
  3
*Paper_Space
  1

  0
ENDBLK
  5
1D
330
1B
100
AcDbEntity
 67
     1
  8
0
100
AcDbBlockEnd
  0
BLOCK
  5
24
330
23
100
AcDbEntity
  8
0
100
AcDbBlockBegin
  2
*Paper_Space0
 70
     0
 10
0.0
 20
0.0
 30
0.0
  3
*Paper_Space0
  1

  0
ENDBLK
  5
25
330
23
100
AcDbEntity
  8
0
100
AcDbBlockEnd
  0
BLOCK
  5
48
330
47
100
AcDbEntity
  8
0
100
AcDbBlockBegin
  2
開示A4
 70
     0
 10
0.0
 20
0.0
 30
0.0
  3
開示A4
  1

  0
POINT
  5
6F
330
47
100
AcDbEntity
  8
1
 62
     4
100
AcDbPoint
 10
34.0
 20
34.00000000000001
 30
0.0
  0
POINT
  5
70
330
47
100
AcDbEntity
  8
1
 62
     4
100
AcDbPoint
 10
57.0
 20
12.25
 30
0.0
  0
POINT
  5
71
330
47
100
AcDbEntity
  8
1
 62
     4
100
AcDbPoint
 10
57.0
 20
20.75000000000001
 30
0.0
  0
POINT
  5
72
330
47
100
AcDbEntity
  8
1
 62
     4
100
AcDbPoint
 10
57.0
 20
24.75000000000001
 30
0.0
  0
POINT
  5
73
330
47
100
AcDbEntity
  8
1
 62
     4
100
AcDbPoint
 10
57.0
 20
16.25
 30
0.0
  0
POINT
  5
74
330
47
100
AcDbEntity
  8
1
 62
     4
100
AcDbPoint
 10
157.5
 20
19.00000000000001
 30
0.0
  0
POINT
  5
75
330
47
100
AcDbEntity
  8
1
 62
     4
100
AcDbPoint
 10
47.5
 20
282.0000000000003
 30
0.0
  0
POINT
  5
76
330
47
100
AcDbEntity
  8
1
 62
     4
100
AcDbPoint
 10
57.0
 20
22.75000000000001
 30
0.0
  0
POINT
  5
77
330
47
100
AcDbEntity
  8
1
 62
     4
100
AcDbPoint
 10
57.0
 20
14.25
 30
0.0
  0
POINT
  5
78
330
47
100
AcDbEntity
  8
1
 62
     4
100
AcDbPoint
 10
157.5
 20
12.5
 30
0.0
  0
POINT
  5
79
330
47
100
AcDbEntity
  8
1
 62
     4
100
AcDbPoint
 10
163.25
 20
12.5
 30
0.0
  0
POINT
  5
7A
330
47
100
AcDbEntity
  8
1
 62
     4
100
AcDbPoint
 10
151.75
 20
12.5
 30
0.0
  0
POINT
  5
7B
330
47
100
AcDbEntity
  8
1
 62
     4
100
AcDbPoint
 10
134.75
 20
12.5
 30
0.0
  0
POINT
  5
7C
330
47
100
AcDbEntity
  8
1
 62
     4
100
AcDbPoint
 10
146.25
 20
12.5
 30
0.0
  0
POINT
  5
7D
330
47
100
AcDbEntity
  8
1
 62
     4
100
AcDbPoint
 10
140.5
 20
12.5
 30
0.0
  0
POINT
  5
7E
330
47
100
AcDbEntity
  8
1
 62
     4
100
AcDbPoint
 10
140.5
 20
19.00000000000001
 30
0.0
  0
POINT
  5
7F
330
47
100
AcDbEntity
  8
1
 62
     4
100
AcDbPoint
 10
117.75
 20
12.5
 30
0.0
  0
POINT
  5
80
330
47
100
AcDbEntity
  8
1
 62
     4
100
AcDbPoint
 10
129.25
 20
12.5
 30
0.0
  0
POINT
  5
81
330
47
100
AcDbEntity
  8
1
 62
     4
100
AcDbPoint
 10
123.5
 20
12.5
 30
0.0
  0
POINT
  5
82
330
47
100
AcDbEntity
  8
1
 62
     4
100
AcDbPoint
 10
123.5
 20
19.00000000000001
 30
0.0
  0
POINT
  5
83
330
47
100
AcDbEntity
  8
1
 62
     4
100
AcDbPoint
 10
100.75
 20
12.5
 30
0.0
  0
POINT
  5
84
330
47
100
AcDbEntity
  8
1
 62
     4
100
AcDbPoint
 10
112.25
 20
12.5
 30
0.0
  0
POINT
  5
85
330
47
100
AcDbEntity
  8
1
 62
     4
100
AcDbPoint
 10
106.5
 20
12.5
 30
0.0
  0
POINT
  5
86
330
47
100
AcDbEntity
  8
1
 62
     4
100
AcDbPoint
 10
106.5
 20
19.00000000000001
 30
0.0
  0
POINT
  5
87
330
47
100
AcDbEntity
  8
1
 62
     4
100
AcDbPoint
 10
85.25
 20
17.0
 30
0.0
  0
POINT
  5
88
330
47
100
AcDbEntity
  8
1
 62
     4
100
AcDbPoint
 10
93.75
 20
17.0
 30
0.0
  0
LINE
  5
89
330
47
100
AcDbEntity
  8
1
  6
Continuous
 62
     2
100
AcDbLine
 10
81.0
 20
27.00000000000001
 30
0.0
 11
81.0
 21
10.0
 31
0.0
  0
LINE
  5
8A
330
47
100
AcDbEntity
  8
1
  6
DOT_CENTER
 62
     2
100
AcDbLine
 10
187.0
 20
26.50000000000001
 30
0.0
 11
187.0
 21
20.50000000000001
 31
0.0
  0
LINE
  5
8B
330
47
100
AcDbEntity
  8
1
  6
DOT_CENTER
 62
     2
100
AcDbLine
 10
184.0
 20
23.50000000000001
 30
0.0
 11
197.0
 21
23.50000000000001
 31
0.0
  0
LINE
  5
8C
330
47
100
AcDbEntity
  8
1
  6
Continuous
 62
     7
100
AcDbLine
 10
196.0
 20
21.50000000000001
 30
0.0
 11
191.0
 21
22.30000000000001
 31
0.0
  0
LINE
  5
8D
330
47
100
AcDbEntity
  8
1
  6
Continuous
 62
     7
100
AcDbLine
 10
196.0
 20
25.50000000000001
 30
0.0
 11
196.0
 21
21.50000000000001
 31
0.0
  0
LINE
  5
8E
330
47
100
AcDbEntity
  8
1
  6
Continuous
 62
     7
100
AcDbLine
 10
191.0
 20
24.70000000000001
 30
0.0
 11
196.0
 21
25.50000000000001
 31
0.0
  0
LINE
  5
8F
330
47
100
AcDbEntity
  8
1
  6
Continuous
 62
     7
100
AcDbLine
 10
191.0
 20
24.70000000000001
 30
0.0
 11
191.0
 21
22.30000000000001
 31
0.0
  0
LINE
  5
90
330
47
100
AcDbEntity
  8
1
  6
Continuous
 62
     2
100
AcDbLine
 10
33.0
 20
27.0
 30
0.0
 11
33.0
 21
10.0
 31
0.0
  0
LINE
  5
91
330
47
100
AcDbEntity
  8
1
  6
Continuous
 62
     2
100
AcDbLine
 10
25.0
 20
18.50000000000001
 30
0.0
 11
81.0
 21
18.50000000000001
 31
0.0
  0
LINE
  5
92
330
47
100
AcDbEntity
  8
1
  6
Continuous
 62
     7
100
AcDbLine
 10
200.0
 20
287.0000000000003
 30
0.0
 11
105.0
 21
287.0000000000003
 31
0.0
  0
LINE
  5
93
330
47
100
AcDbEntity
  8
1
  6
Continuous
 62
     7
100
AcDbLine
 10
200.0
 20
10.0
 30
0.0
 11
200.0
 21
148.5
 31
0.0
  0
LINE
  5
94
330
47
100
AcDbEntity
  8
1
  6
Continuous
 62
     7
100
AcDbLine
 10
25.0
 20
10.0
 30
0.0
 11
105.0
 21
10.0
 31
0.0
  0
LINE
  5
95
330
47
100
AcDbEntity
  8
1
  6
PHANTOM
 62
     4
100
AcDbLine
 10
0.0
 20
297.0
 30
0.0
 11
0.0
 21
0.0
 31
0.0
  0
LINE
  5
96
330
47
100
AcDbEntity
  8
1
  6
PHANTOM
 62
     4
100
AcDbLine
 10
210.0
 20
297.0
 30
0.0
 11
0.0
 21
297.0
 31
0.0
  0
LINE
  5
97
330
47
100
AcDbEntity
  8
1
  6
PHANTOM
 62
     4
100
AcDbLine
 10
210.0
 20
0.0
 30
0.0
 11
210.0
 21
297.0
 31
0.0
  0
LINE
  5
98
330
47
100
AcDbEntity
  8
1
  6
PHANTOM
 62
     4
100
AcDbLine
 10
0.0
 20
0.0
 30
0.0
 11
210.0
 21
0.0
 31
0.0
  0
LINE
  5
99
330
47
100
AcDbEntity
  8
1
  6
Continuous
 62
     7
100
AcDbLine
 10
25.0
 20
41.0
 30
0.0
 11
200.0
 21
41.0
 31
0.0
  0
LINE
  5
9A
330
47
100
AcDbEntity
  8
1
  6
Continuous
 62
     7
100
AcDbLine
 10
200.0
 20
27.00000000000001
 30
0.0
 11
25.0
 21
27.00000000000001
 31
0.0
  0
LINE
  5
9B
330
47
100
AcDbEntity
  8
1
  6
Continuous
 62
     2
100
AcDbLine
 10
33.0
 20
41.00000000000001
 30
0.0
 11
33.0
 21
27.0
 31
0.0
  0
LINE
  5
9C
330
47
100
AcDbEntity
  8
1
  6
Continuous
 62
     2
100
AcDbLine
 10
55.0
 20
287.0000000000003
 30
0.0
 11
55.0
 21
277.0000000000003
 31
0.0
  0
LINE
  5
9D
330
47
100
AcDbEntity
  8
1
  6
Continuous
 62
     2
100
AcDbLine
 10
40.0
 20
287.0000000000003
 30
0.0
 11
40.0
 21
277.0000000000003
 31
0.0
  0
LINE
  5
9E
330
47
100
AcDbEntity
  8
1
  6
Continuous
 62
     7
100
AcDbLine
 10
25.0
 20
10.0
 30
0.0
 11
25.0
 21
148.5
 31
0.0
  0
LINE
  5
9F
330
47
100
AcDbEntity
  8
1
  6
Continuous
 62
     2
100
AcDbLine
 10
55.0
 20
277.0000000000003
 30
0.0
 11
25.0
 21
277.0000000000003
 31
0.0
  0
LINE
  5
A0
330
47
100
AcDbEntity
  8
1
  6
Continuous
 62
     2
100
AcDbLine
 10
166.0
 20
27.00000000000001
 30
0.0
 11
166.0
 21
10.0
 31
0.0
  0
LINE
  5
A1
330
47
100
AcDbEntity
  8
1
  6
Continuous
 62
     2
100
AcDbLine
 10
132.0
 20
27.00000000000001
 30
0.0
 11
132.0
 21
9.99999999999999
 31
0.0
  0
LINE
  5
A2
330
47
100
AcDbEntity
  8
1
  6
Continuous
 62
     2
100
AcDbLine
 10
149.0
 20
27.00000000000001
 30
0.0
 11
149.0
 21
10.0
 31
0.0
  0
LINE
  5
A3
330
47
100
AcDbEntity
  8
1
  6
Continuous
 62
     2
100
AcDbLine
 10
115.0
 20
27.00000000000001
 30
0.0
 11
115.0
 21
9.99999999999999
 31
0.0
  0
LINE
  5
A4
330
47
100
AcDbEntity
  8
1
  6
Continuous
 62
     2
100
AcDbLine
 10
98.0
 20
27.00000000000001
 30
0.0
 11
98.0
 21
9.99999999999999
 31
0.0
  0
LINE
  5
A5
330
47
100
AcDbEntity
  8
1
  6
Continuous
 62
     2
100
AcDbLine
 10
166.0
 20
20.00000000000001
 30
0.0
 11
200.0
 21
20.00000000000001
 31
0.0
  0
LINE
  5
A6
330
47
100
AcDbEntity
  8
1
  6
Continuous
 62
     2
100
AcDbLine
 10
105.0
 20
287.0000000000003
 30
0.0
 11
105.0
 21
292.0000000000003
 31
0.0
  0
LINE
  5
A7
330
47
100
AcDbEntity
  8
1
  6
Continuous
 62
     7
100
AcDbLine
 10
105.0
 20
287.0000000000003
 30
0.0
 11
25.0
 21
287.0000000000003
 31
0.0
  0
LINE
  5
A8
330
47
100
AcDbEntity
  8
1
  6
Continuous
 62
     2
100
AcDbLine
 10
25.0
 20
148.5
 30
0.0
 11
20.0
 21
148.5
 31
0.0
  0
LINE
  5
A9
330
47
100
AcDbEntity
  8
1
  6
Continuous
 62
     7
100
AcDbLine
 10
25.0
 20
148.5
 30
0.0
 11
25.0
 21
287.0000000000003
 31
0.0
  0
LINE
  5
AA
330
47
100
AcDbEntity
  8
1
  6
Continuous
 62
     2
100
AcDbLine
 10
200.0
 20
148.5
 30
0.0
 11
205.0
 21
148.5
 31
0.0
  0
LINE
  5
AB
330
47
100
AcDbEntity
  8
1
  6
Continuous
 62
     7
100
AcDbLine
 10
200.0
 20
148.5
 30
0.0
 11
200.0
 21
287.0000000000003
 31
0.0
  0
LINE
  5
AC
330
47
100
AcDbEntity
  8
1
  6
Continuous
 62
     2
100
AcDbLine
 10
105.0
 20
10.0
 30
0.0
 11
105.0
 21
5.0
 31
0.0
  0
LINE
  5
AD
330
47
100
AcDbEntity
  8
1
  6
Continuous
 62
     7
100
AcDbLine
 10
105.0
 20
10.0
 30
0.0
 11
200.0
 21
10.0
 31
0.0
  0
CIRCLE
  5
AE
330
47
100
AcDbEntity
  8
1
  6
DOT_CENTER
 62
     7
100
AcDbCircle
 10
89.5
 20
18.0
 30
0.0
 40
0.1000000000000227
  0
CIRCLE
  5
AF
330
47
100
AcDbEntity
  8
1
  6
DOT_CENTER
 62
     7
100
AcDbCircle
 10
89.5
 20
16.0
 30
0.0
 40
0.1000000000000227
  0
CIRCLE
  5
B0
330
47
100
AcDbEntity
  8
1
  6
Continuous
 62
     7
100
AcDbCircle
 10
187.0
 20
23.50000000000001
 30
0.0
 40
2.0
  0
CIRCLE
  5
B1
330
47
100
AcDbEntity
  8
1
  6
Continuous
 62
     7
100
AcDbCircle
 10
187.0
 20
23.50000000000001
 30
0.0
 40
1.200000000000102
  0
CIRCLE
  5
B2
330
47
100
AcDbEntity
  8
1
  6
Continuous
 62
     7
100
AcDbCircle
 10
154.5
 20
12.5
 30
0.0
 40
0.3000000000000114
  0
CIRCLE
  5
B3
330
47
100
AcDbEntity
  8
1
  6
Continuous
 62
     7
100
AcDbCircle
 10
160.5
 20
12.5
 30
0.0
 40
0.3000000000000114
  0
CIRCLE
  5
B4
330
47
100
AcDbEntity
  8
1
  6
Continuous
 62
     7
100
AcDbCircle
 10
143.5
 20
12.5
 30
0.0
 40
0.3000000000000114
  0
CIRCLE
  5
B5
330
47
100
AcDbEntity
  8
1
  6
Continuous
 62
     7
100
AcDbCircle
 10
137.5
 20
12.5
 30
0.0
 40
0.3000000000000114
  0
CIRCLE
  5
B6
330
47
100
AcDbEntity
  8
1
  6
Continuous
 62
     7
100
AcDbCircle
 10
126.5
 20
12.5
 30
0.0
 40
0.2999999999999972
  0
CIRCLE
  5
B7
330
47
100
AcDbEntity
  8
1
  6
Continuous
 62
     7
100
AcDbCircle
 10
120.5
 20
12.5
 30
0.0
 40
0.2999999999999972
  0
CIRCLE
  5
B8
330
47
100
AcDbEntity
  8
1
  6
Continuous
 62
     7
100
AcDbCircle
 10
109.5
 20
12.5
 30
0.0
 40
0.2999999999999972
  0
CIRCLE
  5
B9
330
47
100
AcDbEntity
  8
1
  6
Continuous
 62
     7
100
AcDbCircle
 10
103.5
 20
12.5
 30
0.0
 40
0.2999999999999972
  0
MTEXT
  5
BB
330
47
100
AcDbEntity
  8
1
 62
   250
100
AcDbMText
 10
25.0
 20
5.0
 30
0.0
 40
3.5
 41
0.0
 71
     4
 72
     1
  1
備考欄の文字列 原点位置=4
  7
CONVERTER_11
 73
     1
 44
0.54545454545455
  0
MTEXT
  5
BC
330
47
100
AcDbEntity
  8
1
 62
     2
100
AcDbMText
 10
89.5
 20
24.00000000000001
 30
0.0
 40
3.5
 41
0.0
 71
     5
 72
     1
  1
尺度
  7
CONVERTER_11
 73
     1
 44
0.54545454545455
  0
MTEXT
  5
BD
330
47
100
AcDbEntity
  8
1
 62
     2
100
AcDbMText
 10
135.5
 20
25.00000000000001
 30
0.0
 40
3.0
 41
0.0
 71
     5
 72
     1
  1
製図
  7
CONVERTER_11
 73
     1
 44
0.59090909090909
  0
MTEXT
  5
BE
330
47
100
AcDbEntity
  8
1
 62
     2
100
AcDbMText
 10
152.5
 20
25.00000000000001
 30
0.0
 40
3.0
 41
0.0
 71
     5
 72
     1
  1
設計
  7
CONVERTER_11
 73
     1
 44
0.59090909090909
  0
MTEXT
  5
BF
330
47
100
AcDbEntity
  8
1
 62
     2
100
AcDbMText
 10
118.5
 20
25.00000000000001
 30
0.0
 40
3.0
 41
0.0
 71
     5
 72
     1
  1
検図
  7
CONVERTER_11
 73
     1
 44
0.59090909090909
  0
MTEXT
  5
C0
330
47
100
AcDbEntity
  8
1
 62
     2
100
AcDbMText
 10
175.0
 20
23.50000000000001
 30
0.0
 40
3.5
 41
0.0
 71
     5
 72
     1
  1
第三角法
  7
CONVERTER_11
 73
     1
 44
0.54545454545455
  0
MTEXT
  5
C1
330
47
100
AcDbEntity
  8
1
 62
     2
100
AcDbMText
 10
101.5
 20
25.00000000000001
 30
0.0
 40
3.0
 41
0.0
 71
     5
 72
     1
  1
承認
  7
CONVERTER_11
 73
     1
 44
0.59090909090909
  0
MTEXT
  5
C2
330
47
100
AcDbEntity
  8
1
 62
     2
100
AcDbMText
 10
29.0
 20
14.25
 30
0.0
 40
3.5
 41
0.0
 71
     5
 72
     1
  1
品番
  7
CONVERTER_11
 73
     1
 44
0.72727272727273
  0
MTEXT
  5
C3
330
47
100
AcDbEntity
  8
1
 62
     2
100
AcDbMText
 10
29.0
 20
22.75
 30
0.0
 40
3.5
 41
0.0
 71
     5
 72
     1
  1
品名
  7
CONVERTER_11
 73
     1
 44
0.72727272727273
  0
MTEXT
  5
C4
330
47
100
AcDbEntity
  8
1
 62
     2
100
AcDbMText
 10
29.0
 20
34.00000000000001
 30
0.0
 40
3.5
 41
0.0
 71
     5
 72
     1
  1
備考
  7
CONVERTER_11
 73
     1
 44
0.45454545454545
  0
MTEXT
  5
C5
330
47
100
AcDbEntity
  8
1
 62
     2
100
AcDbMText
 10
32.5
 20
282.0000000000003
 30
0.0
 40
5.0
 41
0.0
 71
     5
 72
     1
  1
図番
  7
CONVERTER_11
 73
     1
 44
0.45454545454545
  0
MTEXT
  5
C6
330
47
100
AcDbEntity
  8
1
 62
     7
100
AcDbMText
 10
171.5
 20
15.0
 30
0.0
 40
2.5
 41
0.0
 71
     5
 72
     1
  1
株式会社
  7
CONVERTER_11
 73
     1
 44
1.0
  0
MTEXT
  5
C7
330
47
100
AcDbEntity
  8
1
 62
     7
100
AcDbMText
 10
188.5
 20
15.0
 30
0.0
 40
3.0
 41
0.0
 71
     5
 72
     1
  1
三栄水栓製作所
  7
CONVERTER_11
 73
     1
 44
1.0
  0
ENDBLK
  5
49
330
47
100
AcDbEntity
  8
0
100
AcDbBlockEnd
  0
BLOCK
  5
4B
330
4A
100
AcDbEntity
  8
0
100
AcDbBlockBegin
  2
42-1
 70
     0
 10
170.9384230464026
 20
99.84498618925049
 30
0.0
  3
42-1
  1

  0
LINE
  5
C8
330
4A
100
AcDbEntity
  8
1
  6
Continuous
 62
     7
100
AcDbLine
 10
63.91341326227936
 20
194.3441805959729
 30
0.0
 11
64.41341326227933
 21
194.3441805959729
 31
0.0
  0
LINE
  5
C9
330
4A
100
AcDbEntity
  8
1
  6
Continuous
 62
     7
100
AcDbLine
 10
63.41341326227935
 20
194.3441805959729
 30
0.0
 11
63.91341326227936
 21
194.3441805959729
 31
0.0
  0
LINE
  5
CA
330
4A
100
AcDbEntity
  8
1
  6
Continuous
 62
     7
100
AcDbLine
 10
62.91341326227934
 20
194.3441805959729
 30
0.0
 11
63.41341326227935
 21
194.3441805959729
 31
0.0
  0
LINE
  5
CB
330
4A
100
AcDbEntity
  8
1
  6
Continuous
 62
     7
100
AcDbLine
 10
62.41341326227934
 20
194.3441805959729
 30
0.0
 11
62.91341326227934
 21
194.3441805959729
 31
0.0
  0
LINE
  5
CC
330
4A
100
AcDbEntity
  8
1
  6
Continuous
 62
     7
100
AcDbLine
 10
74.41341326227945
 20
194.3441805959729
 30
0.0
 11
64.41341326227933
 21
194.3441805959729
 31
0.0
  0
LINE
  5
CD
330
4A
100
AcDbEntity
  8
1
  6
Continuous
 62
     7
100
AcDbLine
 10
74.41341326227945
 20
194.3441805959729
 30
0.0
 11
74.91341326227942
 21
194.3441805959729
 31
0.0
  0
LINE
  5
CE
330
4A
100
AcDbEntity
  8
1
  6
Continuous
 62
     7
100
AcDbLine
 10
74.91341326227942
 20
194.3441805959729
 30
0.0
 11
75.41341326227939
 21
194.3441805959729
 31
0.0
  0
LINE
  5
CF
330
4A
100
AcDbEntity
  8
1
  6
Continuous
 62
     7
100
AcDbLine
 10
75.41341326227939
 20
194.3441805959729
 30
0.0
 11
75.91341326227936
 21
194.3441805959729
 31
0.0
  0
LINE
  5
D0
330
4A
100
AcDbEntity
  8
1
  6
Continuous
 62
     7
100
AcDbLine
 10
75.91341326227936
 20
194.3441805959729
 30
0.0
 11
76.41341326227933
 21
194.3441805959729
 31
0.0
  0
LINE
  5
D1
330
4A
100
AcDbEntity
  8
1
  6
Continuous
 62
     7
100
AcDbLine
 10
76.41341326227933
 20
197.3441805959727
 30
0.0
 11
76.41341326227933
 21
194.3441805959729
 31
0.0
  0
LINE
  5
D2
330
4A
100
AcDbEntity
  8
1
  6
Continuous
 62
     2
100
AcDbLine
 10
75.41341326227939
 20
194.3441805959729
 30
0.0
 11
75.41341326227939
 21
197.3441805959727
 31
0.0
  0
LINE
  5
D3
330
4A
100
AcDbEntity
  8
1
  6
Continuous
 62
     2
100
AcDbLine
 10
74.41341326227945
 20
194.3441805959729
 30
0.0
 11
74.41341326227945
 21
197.3441805959727
 31
0.0
  0
LINE
  5
D4
330
4A
100
AcDbEntity
  8
1
  6
Continuous
 62
     2
100
AcDbLine
 10
73.41341326227945
 20
194.5102289084244
 30
0.0
 11
73.41341326227945
 21
197.1542541875207
 31
0.0
  0
LINE
  5
D5
330
4A
100
AcDbEntity
  8
1
  6
Continuous
 62
     2
100
AcDbLine
 10
72.41341326227945
 20
194.7048810762107
 30
0.0
 11
72.41341326227945
 21
197.0407070896453
 31
0.0
  0
LINE
  5
D6
330
4A
100
AcDbEntity
  8
1
  6
Continuous
 62
     7
100
AcDbLine
 10
74.41341326227945
 20
197.3441805959727
 30
0.0
 11
64.41341326227933
 21
197.3441805959727
 31
0.0
  0
LINE
  5
D7
330
4A
100
AcDbEntity
  8
1
  6
Continuous
 62
     7
100
AcDbLine
 10
69.41341326227945
 20
197.6739463161765
 30
0.0
 11
75.16341326227945
 21
197.6739463161765
 31
0.0
  0
LINE
  5
D8
330
4A
100
AcDbEntity
  8
1
  6
Continuous
 62
     7
100
AcDbLine
 10
74.91341326227942
 20
197.3441805959727
 30
0.0
 11
75.41341326227939
 21
197.3441805959727
 31
0.0
  0
LINE
  5
D9
330
4A
100
AcDbEntity
  8
1
  6
Continuous
 62
     7
100
AcDbLine
 10
75.91341326227936
 20
197.3441805959727
 30
0.0
 11
76.41341326227933
 21
197.3441805959727
 31
0.0
  0
LINE
  5
DA
330
4A
100
AcDbEntity
  8
1
  6
Continuous
 62
     7
100
AcDbLine
 10
75.41341326227965
 20
197.613502794996
 30
0.0
 11
76.41341326227933
 21
197.3441805959727
 31
0.0
  0
LINE
  5
DB
330
4A
100
AcDbEntity
  8
1
  6
Continuous
 62
     7
100
AcDbLine
 10
75.41341326227939
 20
197.3441805959727
 30
0.0
 11
75.91341326227936
 21
197.3441805959727
 31
0.0
  0
LINE
  5
DC
330
4A
100
AcDbEntity
  8
1
  6
Continuous
 62
     7
100
AcDbLine
 10
74.41341326227945
 20
197.3441805959727
 30
0.0
 11
74.91341326227942
 21
197.3441805959727
 31
0.0
  0
LINE
  5
DD
330
4A
100
AcDbEntity
  8
1
  6
Continuous
 62
     7
100
AcDbLine
 10
63.66341326227942
 20
197.6739463161765
 30
0.0
 11
69.41341326227945
 21
197.6739463161765
 31
0.0
  0
LINE
  5
DE
330
4A
100
AcDbEntity
  8
1
  6
Continuous
 62
     7
100
AcDbLine
 10
63.41341326227935
 20
197.3441805959727
 30
0.0
 11
63.91341326227936
 21
197.3441805959727
 31
0.0
  0
LINE
  5
DF
330
4A
100
AcDbEntity
  8
1
  6
Continuous
 62
     7
100
AcDbLine
 10
62.41341326227934
 20
197.3441805959727
 30
0.0
 11
62.91341326227934
 21
197.3441805959727
 31
0.0
  0
LINE
  5
E0
330
4A
100
AcDbEntity
  8
1
  6
Continuous
 62
     7
100
AcDbLine
 10
62.91341326227934
 20
197.3441805959727
 30
0.0
 11
63.41341326227935
 21
197.3441805959727
 31
0.0
  0
LINE
  5
E1
330
4A
100
AcDbEntity
  8
1
  6
Continuous
 62
     7
100
AcDbLine
 10
63.91341326227936
 20
197.3441805959727
 30
0.0
 11
64.41341326227933
 21
197.3441805959727
 31
0.0
  0
LINE
  5
E2
330
4A
100
AcDbEntity
  8
1
  6
Continuous
 62
     2
100
AcDbLine
 10
71.41341326227945
 20
195.0617433838187
 30
0.0
 11
71.41341326227945
 21
196.8298339078768
 31
0.0
  0
LINE
  5
E3
330
4A
100
AcDbEntity
  8
1
  6
Continuous
 62
     2
100
AcDbLine
 10
70.41341326227933
 20
195.3212796075337
 30
0.0
 11
70.41341326227945
 21
196.5865186981442
 31
0.0
  0
LINE
  5
E4
330
4A
100
AcDbEntity
  8
1
  6
Continuous
 62
     2
100
AcDbLine
 10
68.41341326227945
 20
196.5865186981442
 30
0.0
 11
68.41341326227945
 21
195.3212796075337
 31
0.0
  0
LINE
  5
E5
330
4A
100
AcDbEntity
  8
1
  6
Continuous
 62
     2
100
AcDbLine
 10
67.41341326227945
 20
196.8298339078768
 30
0.0
 11
67.41341326227945
 21
195.0617433838187
 31
0.0
  0
LINE
  5
E6
330
4A
100
AcDbEntity
  8
1
  6
Continuous
 62
     2
100
AcDbLine
 10
66.41341326227945
 20
197.0407070896453
 30
0.0
 11
66.41341326227945
 21
194.7048810762107
 31
0.0
  0
LINE
  5
E7
330
4A
100
AcDbEntity
  8
1
  6
Continuous
 62
     2
100
AcDbLine
 10
65.41341326227945
 20
197.1542541875207
 30
0.0
 11
65.41341326227945
 21
194.5102289084244
 31
0.0
  0
LINE
  5
E8
330
4A
100
AcDbEntity
  8
1
  6
Continuous
 62
     2
100
AcDbLine
 10
64.41341326227933
 20
197.3441805959727
 30
0.0
 11
64.41341326227933
 21
194.3441805959729
 31
0.0
  0
LINE
  5
E9
330
4A
100
AcDbEntity
  8
1
  6
Continuous
 62
     2
100
AcDbLine
 10
63.41341326227935
 20
197.3441805959727
 30
0.0
 11
63.41341326227935
 21
194.3441805959729
 31
0.0
  0
LINE
  5
EA
330
4A
100
AcDbEntity
  8
1
  6
Continuous
 62
     7
100
AcDbLine
 10
62.41341326227934
 20
194.3441805959729
 30
0.0
 11
62.41341326227934
 21
197.3441805959727
 31
0.0
  0
LINE
  5
EB
330
4A
100
AcDbEntity
  8
1
  6
Continuous
 62
     7
100
AcDbLine
 10
62.41341326227934
 20
197.3441805959727
 30
0.0
 11
63.41341326227941
 21
197.613502794996
 31
0.0
  0
LINE
  5
EC
330
4A
100
AcDbEntity
  8
1
  6
Continuous
 62
     7
100
AcDbLine
 10
65.41341326227936
 20
194.3441805959729
 30
0.0
 11
73.41341326227945
 21
194.3441805959729
 31
0.0
  0
LINE
  5
ED
330
4A
100
AcDbEntity
  8
1
  6
Continuous
 62
     7
100
AcDbLine
 10
200.9316283859453
 20
197.6718171927502
 30
0.0
 11
206.6816283859452
 21
197.6718171927502
 31
0.0
  0
LINE
  5
EE
330
4A
100
AcDbEntity
  8
1
  6
Continuous
 62
     2
100
AcDbLine
 10
206.9316283859452
 20
194.3420514725464
 30
0.0
 11
206.9316283859452
 21
197.3420514725464
 31
0.0
  0
LINE
  5
EF
330
4A
100
AcDbEntity
  8
1
  6
Continuous
 62
     7
100
AcDbLine
 10
206.9316283859453
 20
197.6113736715697
 30
0.0
 11
207.9316283859452
 21
197.3420514725464
 31
0.0
  0
LINE
  5
F0
330
4A
100
AcDbEntity
  8
1
  6
Continuous
 62
     7
100
AcDbLine
 10
207.9316283859452
 20
197.3420514725464
 30
0.0
 11
207.9316283859452
 21
194.3420514725464
 31
0.0
  0
LINE
  5
F1
330
4A
100
AcDbEntity
  8
1
  6
Continuous
 62
     7
100
AcDbLine
 10
206.9316283859452
 20
197.3420514725464
 30
0.0
 11
207.9316283859452
 21
197.3420514725464
 31
0.0
  0
LINE
  5
F2
330
4A
100
AcDbEntity
  8
1
  6
Continuous
 62
     7
100
AcDbLine
 10
205.9316283859452
 20
197.3420514725464
 30
0.0
 11
206.9316283859452
 21
197.3420514725464
 31
0.0
  0
LINE
  5
F3
330
4A
100
AcDbEntity
  8
1
  6
Continuous
 62
     7
100
AcDbLine
 10
195.1816283859453
 20
197.6718171927502
 30
0.0
 11
200.9316283859453
 21
197.6718171927502
 31
0.0
  0
LINE
  5
F4
330
4A
100
AcDbEntity
  8
1
  6
Continuous
 62
     2
100
AcDbLine
 10
199.9316283859453
 20
196.5843895747177
 30
0.0
 11
199.9316283859453
 21
195.3191504841072
 31
0.0
  0
LINE
  5
F5
330
4A
100
AcDbEntity
  8
1
  6
Continuous
 62
     2
100
AcDbLine
 10
198.9316283859453
 20
196.8277047844505
 30
0.0
 11
198.9316283859453
 21
195.0596142603922
 31
0.0
  0
LINE
  5
F6
330
4A
100
AcDbEntity
  8
1
  6
Continuous
 62
     7
100
AcDbLine
 10
193.9316283859453
 20
197.3420514725464
 30
0.0
 11
194.9316283859452
 21
197.6113736715697
 31
0.0
  0
LINE
  5
F7
330
4A
100
AcDbEntity
  8
1
  6
Continuous
 62
     7
100
AcDbLine
 10
193.9316283859453
 20
197.3420514725464
 30
0.0
 11
194.9316283859453
 21
197.3420514725464
 31
0.0
  0
LINE
  5
F8
330
4A
100
AcDbEntity
  8
1
  6
Continuous
 62
     7
100
AcDbLine
 10
194.9316283859453
 20
197.3420514725464
 30
0.0
 11
195.9316283859452
 21
197.3420514725464
 31
0.0
  0
LINE
  5
F9
330
4A
100
AcDbEntity
  8
1
  6
Continuous
 62
     7
100
AcDbLine
 10
195.9316283859452
 20
197.3420514725464
 30
0.0
 11
205.9316283859452
 21
197.3420514725464
 31
0.0
  0
LINE
  5
FA
330
4A
100
AcDbEntity
  8
1
  6
Continuous
 62
     2
100
AcDbLine
 10
201.9316283859452
 20
195.3191504841072
 30
0.0
 11
201.9316283859452
 21
196.5843895747177
 31
0.0
  0
LINE
  5
FB
330
4A
100
AcDbEntity
  8
1
  6
Continuous
 62
     2
100
AcDbLine
 10
202.9316283859452
 20
195.0596142603922
 30
0.0
 11
202.9316283859452
 21
196.8277047844505
 31
0.0
  0
LINE
  5
FC
330
4A
100
AcDbEntity
  8
1
  6
Continuous
 62
     2
100
AcDbLine
 10
203.9316283859452
 20
194.7027519527842
 30
0.0
 11
203.9316283859452
 21
197.0385779662188
 31
0.0
  0
LINE
  5
FD
330
4A
100
AcDbEntity
  8
1
  6
Continuous
 62
     2
100
AcDbLine
 10
204.9316283859452
 20
194.5080997849979
 30
0.0
 11
204.9316283859452
 21
197.1521250640942
 31
0.0
  0
LINE
  5
FE
330
4A
100
AcDbEntity
  8
1
  6
Continuous
 62
     2
100
AcDbLine
 10
205.9316283859452
 20
194.3420514725464
 30
0.0
 11
205.9316283859452
 21
197.3420514725464
 31
0.0
  0
LINE
  5
FF
330
4A
100
AcDbEntity
  8
1
  6
Continuous
 62
     7
100
AcDbLine
 10
207.9316283859452
 20
194.3420514725464
 30
0.0
 11
193.9316283859453
 21
194.3420514725464
 31
0.0
  0
LINE
  5
100
330
4A
100
AcDbEntity
  8
1
  6
Continuous
 62
     2
100
AcDbLine
 10
197.9316283859453
 20
197.0385779662188
 30
0.0
 11
197.9316283859453
 21
194.7027519527842
 31
0.0
  0
LINE
  5
101
330
4A
100
AcDbEntity
  8
1
  6
Continuous
 62
     2
100
AcDbLine
 10
196.9316283859453
 20
197.1521250640942
 30
0.0
 11
196.9316283859453
 21
194.5080997849979
 31
0.0
  0
LINE
  5
102
330
4A
100
AcDbEntity
  8
1
  6
Continuous
 62
     2
100
AcDbLine
 10
195.9316283859452
 20
197.3420514725464
 30
0.0
 11
195.9316283859452
 21
194.3420514725464
 31
0.0
  0
LINE
  5
103
330
4A
100
AcDbEntity
  8
1
  6
Continuous
 62
     2
100
AcDbLine
 10
194.9316283859453
 20
197.3420514725464
 30
0.0
 11
194.9316283859453
 21
194.3420514725464
 31
0.0
  0
LINE
  5
104
330
4A
100
AcDbEntity
  8
1
  6
Continuous
 62
     7
100
AcDbLine
 10
193.9316283859453
 20
194.3420514725464
 30
0.0
 11
193.9316283859453
 21
197.3420514725464
 31
0.0
  0
ARC
  5
105
330
4A
100
AcDbEntity
  8
1
  6
Continuous
 62
     7
100
AcDbCircle
 10
69.41341326227945
 20
173.3441805959728
 30
0.0
 40
24.99999999999999
100
AcDbArc
 50
76.70292825279094
 51
90.0
  0
ARC
  5
106
330
4A
100
AcDbEntity
  8
1
  6
Continuous
 62
     7
100
AcDbCircle
 10
69.41341326227945
 20
173.3441805959728
 30
0.0
 40
24.99999999999989
100
AcDbArc
 50
90.0
 51
103.2970717472091
  0
ARC
  5
107
330
4A
100
AcDbEntity
  8
1
  6
Continuous
 62
     7
100
AcDbCircle
 10
69.41341326227945
 20
173.3441805959728
 30
0.0
 40
25.00000000000006
100
AcDbArc
 50
76.11345963737058
 51
76.70292825279094
  0
ARC
  5
108
330
4A
100
AcDbEntity
  8
1
  6
Continuous
 62
     7
100
AcDbCircle
 10
69.41341326227945
 20
173.3441805959728
 30
0.0
 40
25.0
100
AcDbArc
 50
103.2970717472091
 51
103.8865403626291
  0
ARC
  5
109
330
4A
100
AcDbEntity
  8
1
  6
Continuous
 62
     7
100
AcDbCircle
 10
200.9316283859453
 20
173.3420514725464
 30
0.0
 40
25.00000000000008
100
AcDbArc
 50
76.70292825279118
 51
90.0
  0
ARC
  5
10A
330
4A
100
AcDbEntity
  8
1
  6
Continuous
 62
     7
100
AcDbCircle
 10
200.9316283859453
 20
173.3420514725464
 30
0.0
 40
25.0
100
AcDbArc
 50
90.0
 51
103.297071747209
  0
ARC
  5
10B
330
4A
100
AcDbEntity
  8
1
  6
Continuous
 62
     7
100
AcDbCircle
 10
200.9316283859453
 20
173.3420514725464
 30
0.0
 40
25.00000000000012
100
AcDbArc
 50
76.11345963737108
 51
76.70292825279118
  0
ARC
  5
10C
330
4A
100
AcDbEntity
  8
1
  6
Continuous
 62
     7
100
AcDbCircle
 10
200.9316283859453
 20
173.3420514725464
 30
0.0
 40
25.0000000000001
100
AcDbArc
 50
103.297071747209
 51
103.8865403626291
  0
CIRCLE
  5
10D
330
4A
100
AcDbEntity
  8
1
  6
Continuous
 62
     7
100
AcDbCircle
 10
69.41341326227939
 20
301.6138438710988
 30
0.0
 40
5.749999999999886
  0
CIRCLE
  5
10E
330
4A
100
AcDbEntity
  8
1
  6
Continuous
 62
     7
100
AcDbCircle
 10
69.41341326227939
 20
301.6138438710988
 30
0.0
 40
6.999999999999886
  0
ENDBLK
  5
4C
330
4A
100
AcDbEntity
  8
0
100
AcDbBlockEnd
  0
BLOCK
  5
4E
330
4D
100
AcDbEntity
  8
0
100
AcDbBlockBegin
  2
21-1C
 70
     0
 10
176.0754051292696
 20
83.80745944323735
 30
0.0
  3
21-1C
  1

  0
LINE
  5
10F
330
4D
100
AcDbEntity
  8
1
  6
Continuous
 62
     7
100
AcDbLine
 10
97.05918239126136
 20
183.9137671464529
 30
0.0
 11
96.60727429226897
 21
187.1292603513236
 31
0.0
  0
LINE
  5
110
330
4D
100
AcDbEntity
  8
1
  6
Continuous
 62
     7
100
AcDbLine
 10
42.26277816766842
 20
183.3441805959728
 30
0.0
 11
96.56404835689058
 21
183.3441805959728
 31
0.0
  0
LINE
  5
111
330
4D
100
AcDbEntity
  8
1
  6
Continuous
 62
     7
100
AcDbLine
 10
42.21955223229004
 20
187.1292603513236
 30
0.0
 11
41.76764413329772
 21
183.9137671464529
 31
0.0
  0
LINE
  5
112
330
4D
100
AcDbEntity
  8
1
  6
Continuous
 62
     7
100
AcDbLine
 10
214.7239197894358
 20
183.3420514725464
 30
0.0
 11
218.856402673871
 21
183.3420514725464
 31
0.0
  0
LINE
  5
113
330
4D
100
AcDbEntity
  8
1
  6
Continuous
 62
     7
100
AcDbLine
 10
170.4635866541774
 20
187.1271312278971
 30
0.0
 11
170.011678555185
 21
183.9116380230265
 31
0.0
  0
LINE
  5
114
330
4D
100
AcDbEntity
  8
1
  6
Continuous
 62
     7
100
AcDbLine
 10
63.6178583045448
 20
275.0609296004835
 30
0.0
 11
59.96644909307429
 21
288.6881742969165
 31
0.0
  0
LINE
  5
115
330
4D
100
AcDbEntity
  8
1
  6
Continuous
 62
     7
100
AcDbLine
 10
43.5201374805489
 20
309.8712031839795
 30
0.0
 11
53.4959729655113
 21
299.8953676990171
 31
0.0
  0
LINE
  5
116
330
4D
100
AcDbEntity
  8
1
  6
Continuous
 62
     7
100
AcDbLine
 10
49.31569243828329
 20
319.9093988288331
 30
0.0
 11
62.94293713471615
 21
316.2579896173627
 31
0.0
  0
LINE
  5
117
330
4D
100
AcDbEntity
  8
1
  6
Continuous
 62
     7
100
AcDbLine
 10
90.27163898889563
 20
320.1131755033301
 30
0.0
 11
75.88388938984232
 21
316.2579896173627
 31
0.0
  0
LINE
  5
118
330
4D
100
AcDbEntity
  8
1
  6
Continuous
 62
     7
100
AcDbLine
 10
95.30668904400954
 20
309.8712031839795
 30
0.0
 11
85.33085355904723
 21
299.8953676990171
 31
0.0
  0
LINE
  5
119
330
4D
100
AcDbEntity
  8
1
  6
Continuous
 62
     7
100
AcDbLine
 10
75.20896822001362
 20
275.0609296004835
 30
0.0
 11
78.86037743148412
 21
288.6881742969165
 31
0.0
  0
LINE
  5
11A
330
4D
100
AcDbEntity
  8
1
  6
Continuous
 62
     7
100
AcDbLine
 10
218.7343142402965
 20
188.3011280782901
 30
0.0
 11
219.3515317343041
 21
183.911673405259
 31
0.0
  0
LINE
  5
11B
330
4D
100
AcDbEntity
  8
1
  6
Continuous
 62
     7
100
AcDbLine
 10
196.1816283859453
 20
183.3420514725464
 30
0.0
 11
195.1816283859453
 21
183.3420514725464
 31
0.0
  0
LINE
  5
11C
330
4D
100
AcDbEntity
  8
1
  6
Continuous
 62
     7
100
AcDbLine
 10
205.6816283859453
 20
183.3420514725464
 30
0.0
 11
214.7239197894358
 21
183.3420514725464
 31
0.0
  0
LINE
  5
11D
330
4D
100
AcDbEntity
  8
1
  6
Continuous
 62
     7
100
AcDbLine
 10
170.5068125895557
 20
183.3420514725464
 30
0.0
 11
205.6816283859453
 21
183.3420514725464
 31
0.0
  0
LINE
  5
11E
330
4D
100
AcDbEntity
  8
1
  6
Continuous
 62
     7
100
AcDbLine
 10
196.9316283859453
 20
194.3420514725464
 30
0.0
 11
204.9316283859453
 21
194.3420514725464
 31
0.0
  0
ARC
  5
11F
330
4D
100
AcDbEntity
  8
1
  6
Continuous
 62
     7
100
AcDbCircle
 10
67.77632291139037
 20
66.97402805564843
 30
0.0
 40
127.4948334081409
100
AcDbArc
 50
79.19050675364782
 51
87.4658831052027
  0
ARC
  5
120
330
4D
100
AcDbEntity
  8
1
  6
Continuous
 62
     7
100
AcDbCircle
 10
71.05050361316876
 20
66.97402805564843
 30
0.0
 40
127.4948334081409
100
AcDbArc
 50
92.53411689479739
 51
100.8094932463523
  0
ARC
  5
121
330
4D
100
AcDbEntity
  8
1
  6
Continuous
 62
     7
100
AcDbCircle
 10
200.9316283859453
 20
44.34205147254643
 30
0.0
 40
150.0533238552215
100
AcDbArc
 50
91.52752544221293
 51
99.80290179376779
  0
ARC
  5
122
330
4D
100
AcDbEntity
  8
1
  6
Continuous
 62
     7
100
AcDbCircle
 10
69.41341326227922
 20
276.6138438710988
 30
0.0
 40
6.00000000000006
100
AcDbArc
 50
195.0000000000016
 51
270.0
  0
ARC
  5
123
330
4D
100
AcDbEntity
  8
1
  6
Continuous
 62
     7
100
AcDbCircle
 10
47.7627781676682
 20
314.1138438710988
 30
0.0
 40
5.999999999999868
100
AcDbArc
 50
75.0
 51
225.0000000000001
  0
ARC
  5
124
330
4D
100
AcDbEntity
  8
1
  6
Continuous
 62
     7
100
AcDbCircle
 10
91.06404835689023
 20
314.1138438710988
 30
0.0
 40
6.000000000000049
100
AcDbArc
 50
315.0
 51
97.52424107894149
  0
ARC
  5
125
330
4D
100
AcDbEntity
  8
1
  6
Continuous
 62
     7
100
AcDbCircle
 10
69.41341326227922
 20
276.6138438710988
 30
0.0
 40
6.000000000000114
100
AcDbArc
 50
270.0
 51
344.9999999999983
  0
ARC
  5
126
330
4D
100
AcDbEntity
  8
1
  6
Continuous
 62
     7
100
AcDbCircle
 10
201.295824051192
 20
119.4302304638472
 30
0.0
 40
75.0000000000001
100
AcDbArc
 50
80.40850751733493
 51
87.22136103403739
  0
ARC
  5
127
330
4D
100
AcDbEntity
  8
1
  6
Continuous
 62
     7
100
AcDbCircle
 10
96.56404835689058
 20
183.8441805959728
 30
0.0
 40
0.5
100
AcDbArc
 50
270.0
 51
8.00000000000732
  0
ARC
  5
128
330
4D
100
AcDbEntity
  8
1
  6
Continuous
 62
     7
100
AcDbCircle
 10
90.66566587981956
 20
186.2942217455631
 30
0.0
 40
6.000000000000005
100
AcDbArc
 50
8.00000000000105
 51
80.19709820623221
  0
ARC
  5
129
330
4D
100
AcDbEntity
  8
1
  6
Continuous
 62
     7
100
AcDbCircle
 10
42.26277816766842
 20
183.8441805959728
 30
0.0
 40
0.4999999999999247
100
AcDbArc
 50
171.9999999999914
 51
270.0
  0
ARC
  5
12A
330
4D
100
AcDbEntity
  8
1
  6
Continuous
 62
     7
100
AcDbCircle
 10
48.16116064473951
 20
186.2942217455631
 30
0.0
 40
6.000000000000033
100
AcDbArc
 50
99.80290179376861
 51
171.999999999999
  0
ARC
  5
12B
330
4D
100
AcDbEntity
  8
1
  6
Continuous
 62
     7
100
AcDbCircle
 10
176.4051950666268
 20
186.2920926221368
 30
0.0
 40
6.000000000000019
100
AcDbArc
 50
99.8029017937678
 51
172.0000000000008
  0
ARC
  5
12C
330
4D
100
AcDbEntity
  8
1
  6
Continuous
 62
     7
100
AcDbCircle
 10
35.81830343584758
 20
282.2176981693534
 30
0.0
 40
25.00000000000001
100
AcDbArc
 50
15.00000000000012
 51
44.99999999999991
  0
ARC
  5
12D
330
4D
100
AcDbEntity
  8
1
  6
Continuous
 62
     7
100
AcDbCircle
 10
69.41341326227922
 20
340.4061352745894
 30
0.0
 40
25.00000000000004
100
AcDbArc
 50
254.9999999999999
 51
285.0000000000002
  0
ARC
  5
12E
330
4D
100
AcDbEntity
  8
1
  6
Continuous
 62
     7
100
AcDbCircle
 10
103.0085230887108
 20
282.2176981693534
 30
0.0
 40
24.9999999999999
100
AcDbArc
 50
134.9999999999999
 51
164.9999999999999
  0
ARC
  5
12F
330
4D
100
AcDbEntity
  8
1
  6
Continuous
 62
     7
100
AcDbCircle
 10
212.7927655150993
 20
187.4656648857387
 30
0.0
 40
6.000000000000063
100
AcDbArc
 50
8.00409437170091
 51
80.4085075173346
  0
ARC
  5
130
330
4D
100
AcDbEntity
  8
1
  6
Continuous
 62
     7
100
AcDbCircle
 10
170.5068125895557
 20
183.8420514725464
 30
0.0
 40
0.4999999999999217
100
AcDbArc
 50
171.9999999999881
 51
270.0
  0
ARC
  5
131
330
4D
100
AcDbEntity
  8
1
  6
Continuous
 62
     7
100
AcDbCircle
 10
218.856402673871
 20
183.8420514725464
 30
0.0
 40
0.5
100
AcDbArc
 50
270.0
 51
8.00409437169984
  0
ENDBLK
  5
4F
330
4D
100
AcDbEntity
  8
0
100
AcDbBlockEnd
  0
BLOCK
  5
51
330
50
100
AcDbEntity
  8
0
100
AcDbBlockBegin
  2
37-1-13
 70
     0
 10
254.0014969545775
 20
92.95359606137842
 30
0.0
  3
37-1-13
  1

  0
LINE
  5
132
330
50
100
AcDbEntity
  8
1
  6
Continuous
 62
     7
100
AcDbLine
 10
188.4323893826053
 20
173.7722552923917
 30
0.0
 11
213.4308673892854
 21
173.7722552923917
 31
0.0
  0
LINE
  5
133
330
50
100
AcDbEntity
  8
1
  6
Continuous
 62
     7
100
AcDbLine
 10
58.91341326227947
 20
173.7722552923917
 30
0.0
 11
79.41341326227939
 21
173.7722552923917
 31
0.0
  0
LINE
  5
134
330
50
100
AcDbEntity
  8
1
  6
Continuous
 62
     7
100
AcDbLine
 10
56.41341326227931
 20
166.2717427607315
 30
0.0
 11
56.41341326227931
 21
173.342456975003
 31
0.0
  0
LINE
  5
135
330
50
100
AcDbEntity
  8
1
  6
Continuous
 62
     7
100
AcDbLine
 10
82.41341326227945
 20
173.342456975003
 30
0.0
 11
82.41341326227945
 21
166.2717427607315
 31
0.0
  0
LINE
  5
136
330
50
100
AcDbEntity
  8
1
  6
Continuous
 62
     7
100
AcDbLine
 10
69.41341326227945
 20
166.2717427607315
 30
0.0
 11
56.41341326227931
 21
166.2717427607315
 31
0.0
  0
LINE
  5
137
330
50
100
AcDbEntity
  8
1
  6
Continuous
 62
     7
100
AcDbLine
 10
69.41341326227945
 20
166.2717427607315
 30
0.0
 11
82.41341326227945
 21
166.2717427607315
 31
0.0
  0
LINE
  5
138
330
50
100
AcDbEntity
  8
1
  6
Continuous
 62
     7
100
AcDbLine
 10
64.41341326227945
 20
180.2717427607315
 30
0.0
 11
63.41341326227941
 21
180.2717427607315
 31
0.0
  0
LINE
  5
139
330
50
100
AcDbEntity
  8
1
  6
Continuous
 62
     7
100
AcDbLine
 10
69.41341326227945
 20
180.2717427607315
 30
0.0
 11
75.41341326227945
 21
180.2717427607315
 31
0.0
  0
LINE
  5
13A
330
50
100
AcDbEntity
  8
1
  6
Continuous
 62
     7
100
AcDbLine
 10
69.41341326227945
 20
180.2717427607315
 30
0.0
 11
64.41341326227945
 21
180.2717427607315
 31
0.0
  0
LINE
  5
13B
330
50
100
AcDbEntity
  8
1
  6
Continuous
 62
     7
100
AcDbLine
 10
58.3890440980006
 20
292.9676593768105
 30
0.0
 11
57.35126439695747
 21
293.5668217665674
 31
0.0
  0
LINE
  5
13C
330
50
100
AcDbEntity
  8
1
  6
Continuous
 62
     7
100
AcDbLine
 10
82.41341326227933
 20
296.3895523612798
 30
0.0
 11
82.41341326227933
 21
295.1912275817662
 31
0.0
  0
LINE
  5
13D
330
50
100
AcDbEntity
  8
1
  6
Continuous
 62
     7
100
AcDbLine
 10
67.43778242655793
 20
315.484319875206
 30
0.0
 11
68.47556212760102
 21
316.0834822649628
 31
0.0
  0
LINE
  5
13E
330
50
100
AcDbEntity
  8
1
  6
Continuous
 62
     7
100
AcDbLine
 10
81.47556212760102
 20
293.5668217665674
 30
0.0
 11
80.43778242655793
 21
292.9676593768105
 31
0.0
  0
LINE
  5
13F
330
50
100
AcDbEntity
  8
1
  6
Continuous
 62
     7
100
AcDbLine
 10
70.35126439695753
 20
316.0834822649628
 30
0.0
 11
71.38904409800074
 21
315.484319875206
 31
0.0
  0
LINE
  5
140
330
50
100
AcDbEntity
  8
1
  6
Continuous
 62
     7
100
AcDbLine
 10
56.41341326227919
 20
295.1912275817662
 30
0.0
 11
56.41341326227919
 21
296.3895523612798
 31
0.0
  0
LINE
  5
141
330
50
100
AcDbEntity
  8
1
  6
Continuous
 62
     7
100
AcDbLine
 10
194.9316283859453
 20
180.2717427607315
 30
0.0
 11
196.1816283859453
 21
180.2717427607315
 31
0.0
  0
LINE
  5
142
330
50
100
AcDbEntity
  8
1
  6
Continuous
 62
     7
100
AcDbLine
 10
187.8609141716743
 20
166.2717427607315
 30
0.0
 11
188.9316283859453
 21
166.2717427607315
 31
0.0
  0
LINE
  5
143
330
50
100
AcDbEntity
  8
1
  6
Continuous
 62
     7
100
AcDbLine
 10
212.9316283859453
 20
166.2717427607315
 30
0.0
 11
214.0023426002174
 21
166.2717427607315
 31
0.0
  0
LINE
  5
144
330
50
100
AcDbEntity
  8
1
  6
Continuous
 62
     7
100
AcDbLine
 10
188.9316283859453
 20
166.2717427607315
 30
0.0
 11
212.9316283859453
 21
166.2717427607315
 31
0.0
  0
LINE
  5
145
330
50
100
AcDbEntity
  8
1
  6
Continuous
 62
     7
100
AcDbLine
 10
196.1816283859453
 20
180.2717427607315
 30
0.0
 11
205.6816283859453
 21
180.2717427607315
 31
0.0
  0
LINE
  5
146
330
50
100
AcDbEntity
  8
1
  6
Continuous
 62
     7
100
AcDbLine
 10
206.9316283859453
 20
180.2717427607315
 30
0.0
 11
205.6816283859453
 21
180.2717427607315
 31
0.0
  0
LINE
  5
147
330
50
100
AcDbEntity
  8
1
  6
Continuous
 62
     7
100
AcDbLine
 10
188.4316283859453
 20
173.7717427607315
 30
0.0
 11
188.4323893826053
 21
173.7722552923917
 31
0.0
  0
ARC
  5
148
330
50
100
AcDbEntity
  8
1
  6
Continuous
 62
     7
100
AcDbCircle
 10
226.8380835910603
 20
193.6781979658462
 30
0.0
 40
23.99999999999995
100
AcDbArc
 50
213.9591925000969
 51
236.0386171321195
  0
ARC
  5
149
330
50
100
AcDbEntity
  8
1
  6
Continuous
 62
     7
100
AcDbCircle
 10
59.91341326227931
 20
169.7717427607315
 30
0.0
 40
4.999999999999881
100
AcDbArc
 50
126.8698976458422
 51
134.4270040008053
  0
ARC
  5
14A
330
50
100
AcDbEntity
  8
1
  6
Continuous
 62
     7
100
AcDbCircle
 10
43.50695805716461
 20
193.6781979658464
 30
0.0
 40
23.99999999999997
100
AcDbArc
 50
303.9591925000975
 51
326.0408074999024
  0
ARC
  5
14B
330
50
100
AcDbEntity
  8
1
  6
Continuous
 62
     7
100
AcDbCircle
 10
78.91341326227945
 20
169.7717427607315
 30
0.0
 40
5.000000000000036
100
AcDbArc
 50
45.57299599919471
 51
53.13010235415597
  0
ARC
  5
14C
330
50
100
AcDbEntity
  8
1
  6
Continuous
 62
     7
100
AcDbCircle
 10
95.31986846739446
 20
193.6781979658464
 30
0.0
 40
24.00000000000006
100
AcDbArc
 50
213.9591925000973
 51
236.0408074999023
  0
ARC
  5
14D
330
50
100
AcDbEntity
  8
1
  6
Continuous
 62
     7
100
AcDbCircle
 10
69.41341326227933
 20
301.6138438710988
 30
0.0
 40
14.5
100
AcDbArc
 50
86.29155527472959
 51
90.0
  0
ARC
  5
14E
330
50
100
AcDbEntity
  8
1
  6
Continuous
 62
     7
100
AcDbCircle
 10
69.41341326227933
 20
301.6138438710988
 30
0.0
 40
14.49999999999996
100
AcDbArc
 50
326.2915552747291
 51
333.7084447252705
  0
ARC
  5
14F
330
50
100
AcDbEntity
  8
1
  6
Continuous
 62
     7
100
AcDbCircle
 10
69.41341326227933
 20
301.6138438710988
 30
0.0
 40
14.5
100
AcDbArc
 50
90.0
 51
93.70844472527087
  0
ARC
  5
150
330
50
100
AcDbEntity
  8
1
  6
Continuous
 62
     7
100
AcDbCircle
 10
69.41341326227933
 20
301.6138438710988
 30
0.0
 40
14.50000000000015
100
AcDbArc
 50
206.2915552747293
 51
213.7084447252704
  0
ARC
  5
151
330
50
100
AcDbEntity
  8
1
  6
Continuous
 62
     7
100
AcDbCircle
 10
175.0251731808304
 20
193.6781979658462
 30
0.0
 40
23.99999999999985
100
AcDbArc
 50
303.9613828678806
 51
326.0408074999029
  0
ARC
  5
152
330
50
100
AcDbEntity
  8
1
  6
Continuous
 62
     7
100
AcDbCircle
 10
191.4316283859453
 20
169.7717427607315
 30
0.0
 40
5.0
100
AcDbArc
 50
126.869897645844
 51
224.4270040008092
  0
ARC
  5
153
330
50
100
AcDbEntity
  8
1
  6
Continuous
 62
     7
100
AcDbCircle
 10
210.4316283859453
 20
169.7717427607315
 30
0.0
 40
5.000000000000483
100
AcDbArc
 50
315.5729959991997
 51
53.13010235415597
  0
LINE
  5
154
330
50
100
AcDbEntity
  8
1
  6
Continuous
 62
     7
100
AcDbLine
 10
213.4308673892854
 20
173.7722552923917
 30
0.0
 11
213.4316283859453
 21
173.7717427607315
 31
0.0
  0
SPLINE
  5
155
330
50
100
AcDbEntity
  8
1
  6
Continuous
 62
     7
100
AcDbSpline
210
0.0
220
0.0
230
1.0
 70
     8
 71
     3
 72
    31
 73
    27
 74
    25
 42
0.000000001
 43
0.0000000001
 44
0.00000001
 40
0.0
 40
0.0
 40
0.0
 40
0.0
 40
0.6136223199406022
 40
1.226312601230359
 40
1.823792573447247
 40
2.422492775333448
 40
3.386424968281395
 40
4.347717869217913
 40
4.885942160074792
 40
5.426447779521181
 40
6.277924436989202
 40
7.123147502844188
 40
7.597230763317718
 40
8.07030889353087
 40
8.677827060496412
 40
9.288219921636417
 40
9.899802251345747
 40
10.51167221090282
 40
11.03540178905173
 40
11.55846313488074
 40
12.234091466177
 40
12.91065507090153
 40
13.48715073248583
 40
14.06247287401961
 40
15.16486056797567
 40
16.27237002934427
 40
16.27237002934427
 40
16.27237002934427
 40
16.27237002934427
 10
200.9316283859453
 20
173.8220897276623
 30
0.0
 10
200.7271948173252
 20
173.8154902257253
 30
0.0
 10
200.3186381972387
 20
173.8023012345852
 30
0.0
 10
199.711791830101
 20
173.7606391471555
 30
0.0
 10
199.114235042819
 20
173.6761509319464
 30
0.0
 10
198.4090183028227
 20
173.5290409999793
 30
0.0
 10
197.5996765270502
 20
173.2937723698895
 30
0.0
 10
196.8410339404267
 20
172.9731121075462
 30
0.0
 10
196.2470537243794
 20
172.6402939073917
 30
0.0
 10
195.7178253357048
 20
172.2727628663012
 30
0.0
 10
195.1666635391126
 20
171.7636225966655
 30
0.0
 10
194.7588268669883
 20
171.1532404119099
 30
0.0
 10
194.5592203815192
 20
170.5865552201395
 30
0.0
 10
194.4855740024121
 20
170.0694951214886
 30
0.0
 10
194.5531275843094
 20
169.5025348285294
 30
0.0
 10
194.7719120989499
 20
168.9274756182564
 30
0.0
 10
195.1143833009067
 20
168.4157864962065
 30
0.0
 10
195.5217074152085
 20
167.9963026314765
 30
0.0
 10
195.954301121159
 20
167.6504020777658
 30
0.0
 10
196.4375295127339
 20
167.3387990494834
 30
0.0
 10
196.9948842902909
 20
167.0532755264111
 30
0.0
 10
197.5926763293114
 20
166.8147142670905
 30
0.0
 10
198.1736153452285
 20
166.6291343934886
 30
0.0
 10
198.9044016261142
 20
166.4510767046089
 30
0.0
 10
199.8275371665681
 20
166.3327412744706
 30
0.0
 10
200.5630297744933
 20
166.2924484108358
 30
0.0
 10
200.9316283859453
 20
166.2722552923916
 30
0.0
 11
200.9316283859453
 21
173.8220897276623
 31
0.0
 11
200.3184566098322
 21
173.7985794646208
 31
0.0
 11
199.7074723395763
 21
173.7528891687292
 31
0.0
 11
199.1157948045681
 21
173.6698228543422
 31
0.0
 11
198.5295878289393
 21
173.5481539836426
 31
0.0
 11
197.6049635980572
 21
173.2756924166198
 31
0.0
 11
196.7210965276054
 21
172.8977201367966
 31
0.0
 11
196.2522781540619
 21
172.6333440405199
 31
0.0
 11
195.8089269782472
 21
172.3241740872774
 31
0.0
 11
195.1901145435894
 21
171.7392948944687
 31
0.0
 11
194.7305297873702
 21
171.0299403396392
 31
0.0
 11
194.5742935101271
 21
170.582341005297
 31
0.0
 11
194.5100274018414
 21
170.113648371238
 31
0.0
 11
194.5771465019687
 21
169.5098492733486
 31
0.0
 11
194.7922477531493
 21
168.9386129845568
 31
0.0
 11
195.1285093637005
 21
168.4277694898073
 31
0.0
 11
195.5513803005324
 21
167.9855421513042
 31
0.0
 11
195.959648720796
 21
167.6575031772163
 31
0.0
 11
196.3985298702412
 21
167.3729394609757
 31
0.0
 11
196.9989043245395
 21
167.063061811948
 31
0.0
 11
197.6265365079893
 21
166.8104432175579
 31
0.0
 11
198.1758504273385
 21
166.6355104693554
 31
0.0
 11
198.7349642421414
 21
166.4999106565372
 31
0.0
 11
199.8265966614054
 21
166.3462965588251
 31
0.0
 11
200.9316283859453
 21
166.2722552923916
 31
0.0
  0
SPLINE
  5
156
330
50
100
AcDbEntity
  8
1
  6
Continuous
 62
     7
100
AcDbSpline
210
0.0
220
0.0
230
1.0
 70
    11
 71
     3
 72
    79
 73
    75
 74
    73
 42
0.000000001
 43
0.0000000001
 44
0.00000001
 40
0.0
 40
0.0
 40
0.0
 40
0.0
 40
0.2806530201385513
 40
0.5613101053390701
 40
0.845099106878878
 40
1.12889872644124
 40
1.418494775275131
 40
1.708104589298487
 40
2.005348627400866
 40
2.302606433949737
 40
2.608317745712949
 40
2.9140409682919
 40
3.227993290990123
 40
3.541954914338461
 40
3.862980891158924
 40
4.18401340881778
 40
4.510191417899152
 40
4.836373283028632
 40
5.165260516308757
 40
5.494149021269383
 40
5.823037526221812
 40
6.151924759477253
 40
6.478106624565263
 40
6.804284633587224
 40
7.12531715116859
 40
7.446343127890765
 40
7.760304751120546
 40
8.074257073675163
 40
8.379980296086943
 40
8.685691607652295
 40
8.98294941397481
 40
9.280193451811225
 40
9.56980326552845
 40
9.859399313992347
 40
10.14319893309139
 40
10.42698793393786
 40
10.7076450175729
 40
10.98829804633413
 40
11.26895107509537
 40
11.54960815873041
 40
11.83339715957639
 40
12.11719677867489
 40
12.40679282713928
 40
12.69640264085688
 40
12.99364667869339
 40
13.29090448501597
 40
13.59661579658126
 40
13.90233901899296
 40
14.21629134154767
 40
14.53025296477742
 40
14.85127894149937
 40
15.17231145908055
 40
15.49848946810268
 40
15.82467133319078
 40
16.15355856644622
 40
16.48244707139864
 40
16.81133557635932
 40
17.14022280963939
 40
17.46640467476894
 40
17.7925826838505
 40
18.11361520150918
 40
18.43464117832941
 40
18.7486028016778
 40
19.06255512437602
 40
19.3682783469549
 40
19.67398965871805
 40
19.97124746526698
 40
20.26849150336945
 40
20.55810131739322
 40
20.84769736622757
 40
21.13149698578935
 40
21.4152859873287
 40
21.69594307252924
 40
21.97659609266778
 40
21.97659609266778
 40
21.97659609266778
 40
21.97659609266778
 10
189.6732981367473
 20
173.8220897276623
 30
0.0
 10
189.5797073106561
 20
173.8192942374135
 30
0.0
 10
189.3925243026563
 20
173.8137032223639
 30
0.0
 10
189.1136598557302
 20
173.7688859532994
 30
0.0
 10
188.8396350467048
 20
173.6976928900839
 30
0.0
 10
188.5713287383014
 20
173.5979887368937
 30
0.0
 10
188.3124007944545
 20
173.4716275354884
 30
0.0
 10
188.0629523488525
 20
173.3187184281077
 30
0.0
 10
187.82690537336
 20
173.1415621139012
 30
0.0
 10
187.6039668144524
 20
172.94012108178
 30
0.0
 10
187.3978327979518
 20
172.7176480286593
 30
0.0
 10
187.2081733844201
 20
172.4739223015359
 30
0.0
 10
187.0380757491868
 20
172.2128761079522
 30
0.0
 10
186.887398689209
 20
171.9343740516837
 30
0.0
 10
186.7584044469504
 20
171.6426087260319
 30
0.0
 10
186.6511995960028
 20
171.3378522746891
 30
0.0
 10
186.5671795473021
 20
171.0241279727387
 30
0.0
 10
186.5066074075644
 20
170.7023925234139
 30
0.0
 10
186.4701163499139
 20
170.3761361140178
 30
0.0
 10
186.4579268098882
 20
170.0471725195692
 30
0.0
 10
186.4701163496236
 20
169.7182089251201
 30
0.0
 10
186.5066074069823
 20
169.3919525157106
 30
0.0
 10
186.567179546424
 20
169.0702170663934
 30
0.0
 10
186.6511995948235
 20
168.7564927643487
 30
0.0
 10
186.7584044454613
 20
168.451736313257
 30
0.0
 10
186.8873986874021
 20
168.1599709865514
 30
0.0
 10
187.0380757470494
 20
167.8814689339698
 30
0.0
 10
187.2081733819408
 20
167.620422726606
 30
0.0
 10
187.3978327951137
 20
167.376697049368
 30
0.0
 10
187.6039668112396
 20
167.1542238125155
 30
0.0
 10
187.8269053697499
 20
166.9527834475693
 30
0.0
 10
188.0629523448206
 20
166.7756246789691
 30
0.0
 10
188.3124007899616
 20
166.6227245060083
 30
0.0
 10
188.5713287332925
 20
166.4963303654228
 30
0.0
 10
188.8396350410389
 20
166.3967467923837
 30
0.0
 10
189.1136598490414
 20
166.3251072895733
 30
0.0
 10
189.3925242976472
 20
166.2819386655751
 30
0.0
 10
189.6732981367473
 20
166.2674136557759
 30
0.0
 10
189.9540719758474
 20
166.2819386655751
 30
0.0
 10
190.2329364244532
 20
166.3251072895732
 30
0.0
 10
190.5069612324552
 20
166.3967467923837
 30
0.0
 10
190.7752675402014
 20
166.496330365423
 30
0.0
 10
191.0341954835323
 20
166.6227245060083
 30
0.0
 10
191.283643928674
 20
166.775624678969
 30
0.0
 10
191.5196909037446
 20
166.9527834475693
 30
0.0
 10
191.7426294622551
 20
167.1542238125154
 30
0.0
 10
191.9487634783808
 20
167.3766970493681
 30
0.0
 10
192.1384228915538
 20
167.6204227266061
 30
0.0
 10
192.3085205264453
 20
167.8814689339696
 30
0.0
 10
192.4591975860925
 20
168.1599709865513
 30
0.0
 10
192.5881918280326
 20
168.451736313257
 30
0.0
 10
192.6953966786697
 20
168.7564927643489
 30
0.0
 10
192.7794167270701
 20
169.0702170663933
 30
0.0
 10
192.8399888665125
 20
169.3919525157106
 30
0.0
 10
192.876479923871
 20
169.7182089251201
 30
0.0
 10
192.8886694636062
 20
170.0471725195693
 30
0.0
 10
192.8764799235809
 20
170.3761361140178
 30
0.0
 10
192.8399888659305
 20
170.7023925234141
 30
0.0
 10
192.779416726192
 20
171.0241279727387
 30
0.0
 10
192.6953966774904
 20
171.3378522746889
 30
0.0
 10
192.5881918265437
 20
171.6426087260317
 30
0.0
 10
192.4591975842855
 20
171.9343740516838
 30
0.0
 10
192.3085205243079
 20
172.2128761079523
 30
0.0
 10
192.1384228890743
 20
172.4739223015358
 30
0.0
 10
191.9487634755427
 20
172.7176480286592
 30
0.0
 10
191.7426294590423
 20
172.94012108178
 30
0.0
 10
191.5196909001345
 20
173.1415621139012
 30
0.0
 10
191.283643924642
 20
173.3187184281078
 30
0.0
 10
191.0341954790395
 20
173.4716275354884
 30
0.0
 10
190.7752675351924
 20
173.5979887368935
 30
0.0
 10
190.5069612267892
 20
173.6976928900837
 30
0.0
 10
190.2329364177641
 20
173.7688859532995
 30
0.0
 10
189.9540719708384
 20
173.813703222364
 30
0.0
 10
189.7668889628385
 20
173.8192942374135
 30
0.0
 10
189.6732981367473
 20
173.8220897276623
 30
0.0
 11
189.6732981367473
 21
173.8220897276623
 31
0.0
 11
189.3930163426706
 21
173.8076592540556
 31
0.0
 11
189.1156603294993
 21
173.7647402529336
 31
0.0
 11
188.8410630794836
 21
173.6930984537523
 31
0.0
 11
188.5749660648452
 21
173.5944343635164
 31
0.0
 11
188.3146373832061
 21
173.4675688879066
 31
0.0
 11
188.0676440644142
 21
173.3163467176825
 31
0.0
 11
187.8297828649442
 21
173.1380882875645
 31
0.0
 11
187.6091090504703
 21
172.9389268678307
 31
0.0
 11
187.401182263698
 21
172.7148156065247
 31
0.0
 11
187.2132933773832
 21
172.4736425251153
 31
0.0
 11
187.0417511834159
 21
172.210698925463
 31
0.0
 11
186.8922237040863
 21
171.9346311188447
 31
0.0
 11
186.7622907622909
 21
171.6410751473038
 31
0.0
 11
186.6556555701342
 21
171.3382702378452
 31
0.0
 11
186.5711897189771
 21
171.023218474468
 31
0.0
 11
186.5107769785684
 21
170.7026800057129
 31
0.0
 11
186.4741833582608
 21
170.3758349060259
 31
0.0
 11
186.4619899920813
 21
170.0471725100269
 31
0.0
 11
186.4741833582608
 21
169.718510114028
 31
0.0
 11
186.5107769785684
 21
169.391665014341
 31
0.0
 11
186.5711897189771
 21
169.0711265455859
 31
0.0
 11
186.6556555701342
 21
168.7560747822087
 31
0.0
 11
186.7622907622909
 21
168.4532698727501
 31
0.0
 11
186.8922237040863
 21
168.1597139012092
 31
0.0
 11
187.0417511834159
 21
167.8836460945909
 31
0.0
 11
187.2132933773832
 21
167.6207024949385
 31
0.0
 11
187.401182263698
 21
167.3795294135293
 31
0.0
 11
187.6091090504703
 21
167.1554181522233
 31
0.0
 11
187.8297828649442
 21
166.9562567324895
 31
0.0
 11
188.0676440644142
 21
166.7779983023714
 31
0.0
 11
188.3146373832061
 21
166.6267761321471
 31
0.0
 11
188.5749660648452
 21
166.4999106565372
 31
0.0
 11
188.8410630794835
 21
166.4012465663015
 31
0.0
 11
189.1156603294993
 21
166.3296047671203
 31
0.0
 11
189.3930163426706
 21
166.2866857659982
 31
0.0
 11
189.6732981367473
 21
166.2722552923916
 31
0.0
 11
189.953579930824
 21
166.2866857659982
 31
0.0
 11
190.2309359439953
 21
166.3296047671203
 31
0.0
 11
190.5055331940105
 21
166.4012465663015
 31
0.0
 11
190.7716302086483
 21
166.4999106565372
 31
0.0
 11
191.0319588902879
 21
166.6267761321471
 31
0.0
 11
191.2789522090803
 21
166.7779983023714
 31
0.0
 11
191.5168134085504
 21
166.9562567324895
 31
0.0
 11
191.7374872230244
 21
167.1554181522233
 31
0.0
 11
191.9454140097965
 21
167.3795294135293
 31
0.0
 11
192.1333028961113
 21
167.6207024949385
 31
0.0
 11
192.3048450900788
 21
167.8836460945908
 31
0.0
 11
192.4543725694083
 21
168.1597139012092
 31
0.0
 11
192.584305511203
 21
168.4532698727502
 31
0.0
 11
192.6909407033593
 21
168.7560747822087
 31
0.0
 11
192.7754065545169
 21
169.0711265455859
 31
0.0
 11
192.8358192949263
 21
169.391665014341
 31
0.0
 11
192.8724129152339
 21
169.718510114028
 31
0.0
 11
192.8846062814132
 21
170.0471725100269
 31
0.0
 11
192.8724129152339
 21
170.3758349060259
 31
0.0
 11
192.8358192949263
 21
170.7026800057129
 31
0.0
 11
192.7754065545169
 21
171.0232184744679
 31
0.0
 11
192.6909407033593
 21
171.3382702378452
 31
0.0
 11
192.5843055112031
 21
171.6410751473038
 31
0.0
 11
192.4543725694083
 21
171.9346311188447
 31
0.0
 11
192.3048450900787
 21
172.210698925463
 31
0.0
 11
192.1333028961113
 21
172.4736425251153
 31
0.0
 11
191.9454140097966
 21
172.7148156065246
 31
0.0
 11
191.7374872230244
 21
172.9389268678307
 31
0.0
 11
191.5168134085504
 21
173.1380882875645
 31
0.0
 11
191.2789522090803
 21
173.3163467176825
 31
0.0
 11
191.0319588902879
 21
173.4675688879066
 31
0.0
 11
190.7716302086483
 21
173.5944343635164
 31
0.0
 11
190.5055331940105
 21
173.6930984537522
 31
0.0
 11
190.2309359439953
 21
173.7647402529336
 31
0.0
 11
189.9535799308239
 21
173.8076592540557
 31
0.0
 11
189.6732981367473
 21
173.8220897276623
 31
0.0
  0
SPLINE
  5
157
330
50
100
AcDbEntity
  8
1
  6
Continuous
 62
     7
100
AcDbSpline
210
0.0
220
0.0
230
1.0
 70
     8
 71
     3
 72
    31
 73
    27
 74
    25
 42
0.000000001
 43
0.0000000001
 44
0.00000001
 40
0.0
 40
0.0
 40
0.0
 40
0.0
 40
0.6136223199401761
 40
1.226312601229479
 40
1.823792573446311
 40
2.422492775332373
 40
3.386424968280402
 40
4.347717869217025
 40
4.885942160073903
 40
5.426447779520293
 40
6.277924436988187
 40
7.12314750284308
 40
7.597230763316637
 40
8.07030889352982
 40
8.677827060495284
 40
9.288219921635195
 40
9.899802251344706
 40
10.51167221090212
 40
11.03540178905113
 40
11.55846313488028
 40
12.23409146617646
 40
12.91065507090097
 40
13.48715073248516
 40
14.06247287401897
 40
15.16486056797458
 40
16.27237002934263
 40
16.27237002934263
 40
16.27237002934263
 40
16.27237002934263
 10
200.9316283859453
 20
173.8220897276623
 30
0.0
 10
201.1360619545652
 20
173.8154902257252
 30
0.0
 10
201.5446185746513
 20
173.8023012345852
 30
0.0
 10
202.1514649417888
 20
173.7606391471555
 30
0.0
 10
202.7490217290706
 20
173.6761509319464
 30
0.0
 10
203.4542384690669
 20
173.5290409999794
 30
0.0
 10
204.2635802448396
 20
173.2937723698894
 30
0.0
 10
205.0222228314628
 20
172.9731121075462
 30
0.0
 10
205.6162030475104
 20
172.6402939073917
 30
0.0
 10
206.1454314361848
 20
172.2727628663012
 30
0.0
 10
206.6965932327769
 20
171.7636225966653
 30
0.0
 10
207.104429904901
 20
171.15324041191
 30
0.0
 10
207.3040363903703
 20
170.5865552201395
 30
0.0
 10
207.3776827694776
 20
170.0694951214887
 30
0.0
 10
207.3101291875807
 20
169.5025348285295
 30
0.0
 10
207.0913446729407
 20
168.9274756182562
 30
0.0
 10
206.7488734709835
 20
168.4157864962063
 30
0.0
 10
206.3415493566812
 20
167.9963026314766
 30
0.0
 10
205.9089556507305
 20
167.6504020777658
 30
0.0
 10
205.4257272591555
 20
167.3387990494834
 30
0.0
 10
204.8683724815986
 20
167.0532755264111
 30
0.0
 10
204.2705804425781
 20
166.8147142670905
 30
0.0
 10
203.6896414266611
 20
166.6291343934886
 30
0.0
 10
202.9588551457755
 20
166.4510767046089
 30
0.0
 10
202.035719605322
 20
166.3327412744706
 30
0.0
 10
201.3002269973971
 20
166.2924484108358
 30
0.0
 10
200.9316283859453
 20
166.2722552923916
 30
0.0
 11
200.9316283859453
 21
173.8220897276623
 31
0.0
 11
201.544800162058
 21
173.7985794646208
 31
0.0
 11
202.1557844323134
 21
173.7528891687292
 31
0.0
 11
202.7474619673216
 21
173.6698228543422
 31
0.0
 11
203.3336689429502
 21
173.5481539836426
 31
0.0
 11
204.2582931738324
 21
173.2756924166198
 31
0.0
 11
205.1421602442843
 21
172.8977201367966
 31
0.0
 11
205.6109786178278
 21
172.6333440405199
 31
0.0
 11
206.0543297936425
 21
172.3241740872774
 31
0.0
 11
206.6731422283001
 21
171.7392948944687
 31
0.0
 11
207.1327269845192
 21
171.0299403396392
 31
0.0
 11
207.2889632617624
 21
170.582341005297
 31
0.0
 11
207.3532293700483
 21
170.113648371238
 31
0.0
 11
207.2861102699215
 21
169.5098492733486
 31
0.0
 11
207.0710090187412
 21
168.9386129845568
 31
0.0
 11
206.7347474081897
 21
168.4277694898073
 31
0.0
 11
206.3118764713573
 21
167.9855421513042
 31
0.0
 11
205.9036080510935
 21
167.6575031772163
 31
0.0
 11
205.4647269016482
 21
167.3729394609757
 31
0.0
 11
204.86435244735
 21
167.063061811948
 31
0.0
 11
204.2367202639002
 21
166.8104432175579
 31
0.0
 11
203.6874063445511
 21
166.6355104693554
 31
0.0
 11
203.1282925297482
 21
166.4999106565372
 31
0.0
 11
202.0366601104847
 21
166.3462965588251
 31
0.0
 11
200.9316283859453
 21
166.2722552923916
 31
0.0
  0
SPLINE
  5
158
330
50
100
AcDbEntity
  8
1
  6
Continuous
 62
     7
100
AcDbSpline
210
0.0
220
0.0
230
1.0
 70
    11
 71
     3
 72
    79
 73
    75
 74
    73
 42
0.000000001
 43
0.0000000001
 44
0.00000001
 40
0.0
 40
0.0
 40
0.0
 40
0.0
 40
0.2806530201384632
 40
0.5613101053388783
 40
0.845099106878728
 40
1.128898726441044
 40
1.418494775275434
 40
1.708104589299174
 40
2.005348627401155
 40
2.30260643394965
 40
2.608317745713271
 40
2.914040968292456
 40
3.227993290990383
 40
3.541954914338617
 40
3.862980891159138
 40
4.184013408817859
 40
4.510191417899216
 40
4.836373283028743
 40
5.165260516308925
 40
5.494149021269561
 40
5.823037526222002
 40
6.151924759477497
 40
6.478106624565539
 40
6.804284633587508
 40
7.125317151168766
 40
7.446343127890965
 40
7.760304751120579
 40
8.07425707367496
 40
8.379980296087014
 40
8.685691607652736
 40
8.982949413974916
 40
9.280193451810888
 40
9.569803265528481
 40
9.85939931399289
 40
10.14319893309195
 40
10.4269879339384
 40
10.70764501757341
 40
10.98829804633447
 40
11.26895107509571
 40
11.54960815873075
 40
11.8333971595767
 40
12.11719677867523
 40
12.4067928271396
 40
12.69640264085722
 40
12.99364667869373
 40
13.29090448501631
 40
13.59661579658158
 40
13.9023390189933
 40
14.21629134154803
 40
14.53025296477785
 40
14.85127894149978
 40
15.17231145908091
 40
15.49848946810304
 40
15.82467133319114
 40
16.15355856644658
 40
16.48244707139901
 40
16.81133557635968
 40
17.14022280963976
 40
17.46640467476925
 40
17.79258268385086
 40
18.1136152015095
 40
18.4346411783297
 40
18.74860280167813
 40
19.06255512437642
 40
19.36827834695529
 40
19.67398965871845
 40
19.97124746526738
 40
20.26849150336986
 40
20.55810131739367
 40
20.84769736622797
 40
21.13149698578975
 40
21.4152859873291
 40
21.69594307252961
 40
21.97659609266818
 40
21.97659609266818
 40
21.97659609266818
 40
21.97659609266818
 10
212.1899586351424
 20
173.8220897276623
 30
0.0
 10
212.2835494612336
 20
173.8192942374135
 30
0.0
 10
212.4707324692333
 20
173.813703222364
 30
0.0
 10
212.7495969161592
 20
173.7688859532994
 30
0.0
 10
213.0236217251847
 20
173.6976928900838
 30
0.0
 10
213.2919280335882
 20
173.5979887368935
 30
0.0
 10
213.5508559774355
 20
173.4716275354885
 30
0.0
 10
213.8003044230379
 20
173.3187184281079
 30
0.0
 10
214.0363513985299
 20
173.1415621139011
 30
0.0
 10
214.2592899574371
 20
172.9401210817797
 30
0.0
 10
214.4654239739382
 20
172.7176480286593
 30
0.0
 10
214.6550833874703
 20
172.4739223015361
 30
0.0
 10
214.8251810227035
 20
172.2128761079523
 30
0.0
 10
214.9758580826805
 20
171.9343740516836
 30
0.0
 10
215.1048523249392
 20
171.6426087260317
 30
0.0
 10
215.2120571758866
 20
171.3378522746891
 30
0.0
 10
215.2960772245873
 20
171.0241279727386
 30
0.0
 10
215.3566493643253
 20
170.7023925234141
 30
0.0
 10
215.3931404219763
 20
170.3761361140177
 30
0.0
 10
215.4053299620025
 20
170.0471725195692
 30
0.0
 10
215.3931404222665
 20
169.71820892512
 30
0.0
 10
215.3566493649074
 20
169.3919525157107
 30
0.0
 10
215.2960772254655
 20
169.0702170663933
 30
0.0
 10
215.212057177066
 20
168.7564927643488
 30
0.0
 10
215.1048523264281
 20
168.451736313257
 30
0.0
 10
214.9758580844875
 20
168.1599709865516
 30
0.0
 10
214.8251810248407
 20
167.8814689339697
 30
0.0
 10
214.6550833899499
 20
167.6204227266059
 30
0.0
 10
214.4654239767762
 20
167.3766970493681
 30
0.0
 10
214.25928996065
 20
167.1542238125156
 30
0.0
 10
214.0363514021399
 20
166.9527834475695
 30
0.0
 10
213.8003044270698
 20
166.7756246789688
 30
0.0
 10
213.5508559819283
 20
166.6227245060082
 30
0.0
 10
213.2919280385973
 20
166.496330365423
 30
0.0
 10
213.0236217308506
 20
166.3967467923837
 30
0.0
 10
212.7495969228483
 20
166.3251072895733
 30
0.0
 10
212.4707324742424
 20
166.2819386655751
 30
0.0
 10
212.1899586351424
 20
166.267413655776
 30
0.0
 10
211.9091847960423
 20
166.2819386655751
 30
0.0
 10
211.6303203474365
 20
166.3251072895733
 30
0.0
 10
211.3562955394346
 20
166.3967467923837
 30
0.0
 10
211.0879892316883
 20
166.496330365423
 30
0.0
 10
210.8290612883574
 20
166.6227245060084
 30
0.0
 10
210.5796128432157
 20
166.7756246789689
 30
0.0
 10
210.3435658681451
 20
166.9527834475693
 30
0.0
 10
210.1206273096346
 20
167.1542238125154
 30
0.0
 10
209.914493293509
 20
167.3766970493681
 30
0.0
 10
209.7248338803358
 20
167.620422726606
 30
0.0
 10
209.5547362454444
 20
167.8814689339698
 30
0.0
 10
209.4040591857969
 20
168.1599709865513
 30
0.0
 10
209.275064943857
 20
168.451736313257
 30
0.0
 10
209.1678600932199
 20
168.7564927643489
 30
0.0
 10
209.0838400448197
 20
169.0702170663934
 30
0.0
 10
209.0232679053771
 20
169.3919525157105
 30
0.0
 10
208.9867768480186
 20
169.7182089251201
 30
0.0
 10
208.9745873082836
 20
170.0471725195692
 30
0.0
 10
208.9867768483087
 20
170.3761361140178
 30
0.0
 10
209.0232679059592
 20
170.7023925234141
 30
0.0
 10
209.0838400456979
 20
171.0241279727386
 30
0.0
 10
209.1678600943993
 20
171.3378522746889
 30
0.0
 10
209.275064945346
 20
171.6426087260317
 30
0.0
 10
209.4040591876039
 20
171.9343740516839
 30
0.0
 10
209.5547362475817
 20
172.2128761079522
 30
0.0
 10
209.7248338828155
 20
172.4739223015358
 30
0.0
 10
209.9144932963469
 20
172.7176480286592
 30
0.0
 10
210.1206273128475
 20
172.94012108178
 30
0.0
 10
210.343565871755
 20
173.1415621139013
 30
0.0
 10
210.5796128472478
 20
173.3187184281078
 30
0.0
 10
210.8290612928503
 20
173.4716275354884
 30
0.0
 10
211.0879892366972
 20
173.5979887368934
 30
0.0
 10
211.3562955451005
 20
173.6976928900837
 30
0.0
 10
211.6303203541254
 20
173.7688859532994
 30
0.0
 10
211.9091848010515
 20
173.8137032223641
 30
0.0
 10
212.0963678090511
 20
173.8192942374135
 30
0.0
 10
212.1899586351424
 20
173.8220897276623
 30
0.0
 11
212.1899586351424
 21
173.8220897276623
 31
0.0
 11
212.470240429219
 21
173.8076592540557
 31
0.0
 11
212.7475964423902
 21
173.7647402529336
 31
0.0
 11
213.0221936924059
 21
173.6930984537523
 31
0.0
 11
213.2882907070443
 21
173.5944343635164
 31
0.0
 11
213.548619388684
 21
173.4675688879067
 31
0.0
 11
213.7956127074763
 21
173.3163467176825
 31
0.0
 11
214.0334739069457
 21
173.1380882875644
 31
0.0
 11
214.2541477214192
 21
172.9389268678307
 31
0.0
 11
214.462074508192
 21
172.7148156065246
 31
0.0
 11
214.6499633945073
 21
172.4736425251153
 31
0.0
 11
214.8215055884743
 21
172.2106989254631
 31
0.0
 11
214.9710330678034
 21
171.9346311188447
 31
0.0
 11
215.1009660095987
 21
171.6410751473037
 31
0.0
 11
215.2076012017553
 21
171.3382702378452
 31
0.0
 11
215.2920670529124
 21
171.023218474468
 31
0.0
 11
215.3524797933213
 21
170.7026800057129
 31
0.0
 11
215.3890734136294
 21
170.3758349060259
 31
0.0
 11
215.4012667798092
 21
170.0471725100269
 31
0.0
 11
215.3890734136294
 21
169.718510114028
 31
0.0
 11
215.3524797933213
 21
169.391665014341
 31
0.0
 11
215.2920670529124
 21
169.0711265455859
 31
0.0
 11
215.2076012017553
 21
168.7560747822087
 31
0.0
 11
215.1009660095986
 21
168.4532698727502
 31
0.0
 11
214.9710330678034
 21
168.1597139012092
 31
0.0
 11
214.8215055884743
 21
167.8836460945908
 31
0.0
 11
214.6499633945073
 21
167.6207024949385
 31
0.0
 11
214.462074508192
 21
167.3795294135293
 31
0.0
 11
214.2541477214192
 21
167.1554181522233
 31
0.0
 11
214.0334739069457
 21
166.9562567324895
 31
0.0
 11
213.7956127074763
 21
166.7779983023714
 31
0.0
 11
213.548619388684
 21
166.626776132147
 31
0.0
 11
213.2882907070443
 21
166.4999106565372
 31
0.0
 11
213.0221936924059
 21
166.4012465663015
 31
0.0
 11
212.7475964423902
 21
166.3296047671203
 31
0.0
 11
212.4702404292189
 21
166.2866857659982
 31
0.0
 11
212.1899586351424
 21
166.2722552923916
 31
0.0
 11
211.9096768410657
 21
166.2866857659982
 31
0.0
 11
211.6323208278944
 21
166.3296047671203
 31
0.0
 11
211.3577235778792
 21
166.4012465663015
 31
0.0
 11
211.0916265632414
 21
166.4999106565372
 31
0.0
 11
210.8312978816018
 21
166.6267761321471
 31
0.0
 11
210.5843045628094
 21
166.7779983023714
 31
0.0
 11
210.3464433633393
 21
166.9562567324895
 31
0.0
 11
210.1257695488653
 21
167.1554181522233
 31
0.0
 11
209.9178427620932
 21
167.3795294135293
 31
0.0
 11
209.7299538757784
 21
167.6207024949385
 31
0.0
 11
209.5584116818108
 21
167.8836460945908
 31
0.0
 11
209.4088842024812
 21
168.1597139012092
 31
0.0
 11
209.2789512606865
 21
168.4532698727502
 31
0.0
 11
209.1723160685304
 21
168.7560747822087
 31
0.0
 11
209.0878502173728
 21
169.0711265455859
 31
0.0
 11
209.0274374769634
 21
169.391665014341
 31
0.0
 11
208.9908438566558
 21
169.718510114028
 31
0.0
 11
208.9786504904765
 21
170.0471725100269
 31
0.0
 11
208.9908438566558
 21
170.3758349060259
 31
0.0
 11
209.0274374769634
 21
170.7026800057129
 31
0.0
 11
209.0878502173728
 21
171.0232184744679
 31
0.0
 11
209.1723160685304
 21
171.3382702378452
 31
0.0
 11
209.2789512606865
 21
171.6410751473038
 31
0.0
 11
209.4088842024812
 21
171.9346311188447
 31
0.0
 11
209.5584116818109
 21
172.210698925463
 31
0.0
 11
209.7299538757784
 21
172.4736425251153
 31
0.0
 11
209.9178427620931
 21
172.7148156065246
 31
0.0
 11
210.1257695488653
 21
172.9389268678307
 31
0.0
 11
210.3464433633392
 21
173.1380882875646
 31
0.0
 11
210.5843045628094
 21
173.3163467176825
 31
0.0
 11
210.8312978816019
 21
173.4675688879066
 31
0.0
 11
211.0916265632414
 21
173.5944343635164
 31
0.0
 11
211.3577235778792
 21
173.6930984537522
 31
0.0
 11
211.6323208278944
 21
173.7647402529336
 31
0.0
 11
211.9096768410657
 21
173.8076592540557
 31
0.0
 11
212.1899586351424
 21
173.8220897276623
 31
0.0
  0
SPLINE
  5
159
330
50
100
AcDbEntity
  8
1
  6
Continuous
 62
     7
100
AcDbSpline
210
0.0
220
0.0
230
1.0
 70
    11
 71
     3
 72
    79
 73
    75
 74
    73
 42
0.000000001
 43
0.0000000001
 44
0.00000001
 40
0.0
 40
0.0
 40
0.0
 40
0.0
 40
0.3102615582252457
 40
0.6205595420822332
 40
0.9422162975290602
 40
1.263944872753868
 40
1.606039020845065
 40
1.948193468907018
 40
2.316051885190491
 40
2.683951048239935
 40
3.079084664080396
 40
3.474244780173792
 40
3.894897959207634
 40
4.315568207494315
 40
4.757452126736498
 40
5.199346674241647
 40
5.656354161987101
 40
6.113367478658257
 40
6.578223037733465
 40
7.043080455843088
 40
7.507937873950461
 40
7.97279343301873
 40
8.429806749677637
 40
8.886814237403591
 40
9.328708784880392
 40
9.770592704081503
 40
10.19126295231283
 40
10.61191613126951
 40
11.00707624726334
 40
11.40220986296892
 40
11.77010902585007
 40
12.13796744191004
 40
12.48012188969642
 40
12.82221603741926
 40
13.14394461216156
 40
13.46560136682488
 40
13.77589934864159
 40
14.08616091447272
 40
14.39642248030379
 40
14.70672046212045
 40
15.02837721678369
 40
15.35010579152588
 40
15.69219993924871
 40
16.03435438703517
 40
16.40221280309519
 40
16.77011196597637
 40
17.16524558168193
 40
17.56040569767578
 40
17.98105887663246
 40
18.40172912486378
 40
18.84361304406484
 40
19.28550759154161
 40
19.74251507926758
 40
20.19952839592649
 40
20.66438395499475
 40
21.12924137310213
 40
21.59409879121176
 40
22.05895435028696
 40
22.51596766695805
 40
22.97297515470351
 40
23.41486970220867
 40
23.85675362145082
 40
24.27742386973749
 40
24.69807704877135
 40
25.09323716486477
 40
25.4883707807052
 40
25.85626994375469
 40
26.2241283600382
 40
26.56628280810021
 40
26.90837695619141
 40
27.23010553141621
 40
27.55176228686286
 40
27.86206027071982
 40
28.17232182894498
 40
28.17232182894498
 40
28.17232182894498
 40
28.17232182894498
 10
70.35126439695784
 20
169.8070998678671
 30
0.0
 10
70.35529758867385
 20
169.9105900497893
 30
0.0
 10
70.36336443734467
 20
170.117582564134
 30
0.0
 10
70.42734841515426
 20
170.4264314321566
 30
0.0
 10
70.52876921145146
 20
170.7283983458908
 30
0.0
 10
70.67119171154908
 20
171.0253080020057
 30
0.0
 10
70.85029428430917
 20
171.3096261103657
 30
0.0
 10
71.06826455216977
 20
171.5851271566621
 30
0.0
 10
71.31854670620476
 20
171.8437331773306
 30
0.0
 10
71.60500886797627
 20
172.0894910669435
 30
0.0
 10
71.91883962026355
 20
172.3151363271382
 30
0.0
 10
72.26475378529483
 20
172.523907995026
 30
0.0
 10
72.63287257744537
 20
172.7101287632973
 30
0.0
 10
73.02756651236217
 20
172.8758132936439
 30
0.0
 10
73.4391197123341
 20
173.0171210664936
 30
0.0
 10
73.87054541192853
 20
173.1349005550682
 30
0.0
 10
74.31331944063913
 20
173.2270188567067
 30
0.0
 10
74.76837743923312
 20
173.2935047840997
 30
0.0
 10
75.22914454131423
 20
173.3335623410099
 30
0.0
 10
75.6940667167452
 20
173.3469042983051
 30
0.0
 10
76.15898889217213
 20
173.3335623410885
 30
0.0
 10
76.61975599426475
 20
173.2935047842608
 30
0.0
 10
77.07481399281701
 20
173.2270188569593
 30
0.0
 10
77.51758802168192
 20
173.1349005554243
 30
0.0
 10
77.94901372072363
 20
173.0171210669715
 30
0.0
 10
78.3605669227224
 20
172.8758132942635
 30
0.0
 10
78.75526085044476
 20
172.7101287640863
 30
0.0
 10
79.12337966866687
 20
172.5239079960125
 30
0.0
 10
79.46929374208989
 20
172.3151363283599
 30
0.0
 10
79.78312482402794
 20
172.0894910684373
 30
0.0
 10
80.0695858365009
 20
171.8437331791459
 30
0.0
 10
80.31987211557396
 20
171.585127158847
 30
0.0
 10
80.53782801358093
 20
171.3096261129907
 30
0.0
 10
80.71698232732003
 20
171.0253080051513
 30
0.0
 10
80.85922267870775
 20
170.728398349739
 30
0.0
 10
80.96130633074789
 20
170.4264314372296
 30
0.0
 10
81.02289957067569
 20
170.1175825680831
 30
0.0
 10
81.0438533741372
 20
169.8070998678671
 30
0.0
 10
81.02289957067572
 20
169.4966171676511
 30
0.0
 10
80.96130633074787
 20
169.1877682985047
 30
0.0
 10
80.85922267870771
 20
168.8858013859954
 30
0.0
 10
80.71698232732004
 20
168.5888917305832
 30
0.0
 10
80.53782801358086
 20
168.3045736227439
 30
0.0
 10
80.31987211557399
 20
168.0290725768874
 30
0.0
 10
80.06958583650089
 20
167.7704665565884
 30
0.0
 10
79.78312482402794
 20
167.5247086672971
 30
0.0
 10
79.46929374208993
 20
167.2990634073743
 30
0.0
 10
79.12337966866684
 20
167.0902917397217
 30
0.0
 10
78.75526085044474
 20
166.9040709716481
 30
0.0
 10
78.36056692272243
 20
166.7383864414707
 30
0.0
 10
77.94901372072363
 20
166.597078668763
 30
0.0
 10
77.5175880216819
 20
166.4792991803102
 30
0.0
 10
77.07481399281701
 20
166.3871808787753
 30
0.0
 10
76.61975599426478
 20
166.3206949514737
 30
0.0
 10
76.15898889217213
 20
166.280637394646
 30
0.0
 10
75.69406671674518
 20
166.2672954374294
 30
0.0
 10
75.22914454131424
 20
166.2806373947246
 30
0.0
 10
74.76837743923312
 20
166.3206949516348
 30
0.0
 10
74.31331944063918
 20
166.3871808790278
 30
0.0
 10
73.87054541192863
 20
166.4792991806666
 30
0.0
 10
73.43911971233419
 20
166.5970786692409
 30
0.0
 10
73.02756651236217
 20
166.7383864420904
 30
0.0
 10
72.63287257744534
 20
166.9040709724369
 30
0.0
 10
72.26475378529481
 20
167.0902917407083
 30
0.0
 10
71.9188396202636
 20
167.2990634085962
 30
0.0
 10
71.60500886797624
 20
167.5247086687908
 30
0.0
 10
71.31854670620474
 20
167.7704665584038
 30
0.0
 10
71.06826455216972
 20
168.0290725790723
 30
0.0
 10
70.85029428430923
 20
168.3045736253687
 30
0.0
 10
70.67119171154906
 20
168.5888917337289
 30
0.0
 10
70.52876921145155
 20
168.8858013898437
 30
0.0
 10
70.42734841515421
 20
169.1877683035776
 30
0.0
 10
70.36336443734469
 20
169.4966171716002
 30
0.0
 10
70.35529758867385
 20
169.7036096859449
 30
0.0
 10
70.35126439695784
 20
169.8070998678671
 30
0.0
 11
70.35126439695784
 21
169.8070998678671
 31
0.0
 11
70.37188149015867
 21
170.1166756660038
 31
0.0
 11
70.43243356955676
 21
170.4210081869231
 31
0.0
 11
70.53490045818857
 21
170.7259075221866
 31
0.0
 11
70.67347480311736
 21
171.0162632123572
 31
0.0
 11
70.85526684747468
 21
171.3060563430486
 31
0.0
 11
71.06706418173096
 21
171.574778421435
 31
0.0
 11
71.3224206920048
 21
171.8395667652039
 31
0.0
 11
71.60124269129395
 21
172.0795836121512
 31
0.0
 11
71.92173461891892
 21
172.3107015444765
 31
0.0
 11
72.25977958810086
 21
172.5153405342297
 31
0.0
 11
72.63494331194505
 21
172.7056068668208
 31
0.0
 11
73.02266556177788
 21
172.8688089340965
 31
0.0
 11
73.44050188623916
 21
173.0125942046785
 31
0.0
 11
73.86672070805366
 21
173.1292488532857
 31
0.0
 11
74.31411067414362
 21
173.2225122549851
 31
0.0
 11
74.76629883842136
 21
173.2887469566413
 31
0.0
 11
75.22940205163377
 21
173.329071945408
 31
0.0
 11
75.69406672659807
 21
173.342456975003
 31
0.0
 11
76.15873140156228
 21
173.329071945408
 31
0.0
 11
76.62183461477458
 21
173.2887469566413
 31
0.0
 11
77.07402277905231
 21
173.2225122549851
 31
0.0
 11
77.52141274514229
 21
173.1292488532857
 31
0.0
 11
77.94763156695672
 21
173.0125942046785
 31
0.0
 11
78.36546789141795
 21
172.8688089340965
 31
0.0
 11
78.75319014125083
 21
172.7056068668208
 31
0.0
 11
79.12835386509506
 21
172.5153405342297
 31
0.0
 11
79.46639883427697
 21
172.3107015444765
 31
0.0
 11
79.78689076190196
 21
172.0795836121512
 31
0.0
 11
80.0657127611912
 21
171.8395667652039
 31
0.0
 11
80.32106927146506
 21
171.574778421435
 31
0.0
 11
80.53286660572115
 21
171.3060563430486
 31
0.0
 11
80.71465865007835
 21
171.0162632123572
 31
0.0
 11
80.85323299500726
 21
170.7259075221865
 31
0.0
 11
80.95569988363917
 21
170.4210081869231
 31
0.0
 11
81.01625196303719
 21
170.1166756660038
 31
0.0
 11
81.03686905623795
 21
169.8070998678671
 31
0.0
 11
81.0162519630372
 21
169.4975240697304
 31
0.0
 11
80.95569988363917
 21
169.1931915488112
 31
0.0
 11
80.85323299500725
 21
168.8882922135479
 31
0.0
 11
80.71465865007835
 21
168.5979365233773
 31
0.0
 11
80.53286660572114
 21
168.3081433926859
 31
0.0
 11
80.32106927146506
 21
168.0394213142994
 31
0.0
 11
80.06571276119121
 21
167.7746329705304
 31
0.0
 11
79.78689076190196
 21
167.5346161235831
 31
0.0
 11
79.46639883427699
 21
167.3034981912578
 31
0.0
 11
79.12835386509506
 21
167.0988592015046
 31
0.0
 11
78.75319014125083
 21
166.9085928689135
 31
0.0
 11
78.36546789141795
 21
166.7453908016378
 31
0.0
 11
77.94763156695672
 21
166.6016055310559
 31
0.0
 11
77.52141274514229
 21
166.4849508824489
 31
0.0
 11
77.0740227790523
 21
166.3916874807495
 31
0.0
 11
76.62183461477458
 21
166.3254527790932
 31
0.0
 11
76.15873140156228
 21
166.2851277903265
 31
0.0
 11
75.69406672659807
 21
166.2717427607315
 31
0.0
 11
75.22940205163376
 21
166.2851277903265
 31
0.0
 11
74.76629883842136
 21
166.3254527790932
 31
0.0
 11
74.31411067414369
 21
166.3916874807494
 31
0.0
 11
73.86672070805375
 21
166.4849508824489
 31
0.0
 11
73.4405018862392
 21
166.601605531056
 31
0.0
 11
73.02266556177788
 21
166.7453908016378
 31
0.0
 11
72.63494331194505
 21
166.9085928689134
 31
0.0
 11
72.25977958810086
 21
167.0988592015046
 31
0.0
 11
71.92173461891892
 21
167.3034981912578
 31
0.0
 11
71.60124269129395
 21
167.5346161235831
 31
0.0
 11
71.32242069200478
 21
167.7746329705305
 31
0.0
 11
71.06706418173096
 21
168.0394213142994
 31
0.0
 11
70.8552668474747
 21
168.3081433926859
 31
0.0
 11
70.67347480311736
 21
168.5979365233773
 31
0.0
 11
70.53490045818859
 21
168.8882922135479
 31
0.0
 11
70.43243356955676
 21
169.1931915488112
 31
0.0
 11
70.37188149015867
 21
169.4975240697305
 31
0.0
 11
70.35126439695784
 21
169.8070998678671
 31
0.0
  0
SPLINE
  5
15A
330
50
100
AcDbEntity
  8
1
  6
Continuous
 62
     7
100
AcDbSpline
210
0.0
220
0.0
230
1.0
 70
    11
 71
     3
 72
    79
 73
    75
 74
    73
 42
0.000000001
 43
0.0000000001
 44
0.00000001
 40
0.0
 40
0.0
 40
0.0
 40
0.0
 40
0.3102615582252457
 40
0.6205595420822332
 40
0.9422162975290739
 40
1.2639448727539
 40
1.606039020845075
 40
1.948193468907001
 40
2.316051885190503
 40
2.68395104824
 40
3.079084664080412
 40
3.474244780173828
 40
3.894897959207607
 40
4.315568207494236
 40
4.757452126736526
 40
5.199346674241799
 40
5.65635416198717
 40
6.113367478658213
 40
6.57822303773342
 40
7.043080455843072
 40
7.50793787395053
 40
7.972793433018877
 40
8.429806749677725
 40
8.886814237403632
 40
9.32870878488052
 40
9.770592704081718
 40
10.19126295231295
 40
10.6119161312695
 40
11.00707624726339
 40
11.40220986296901
 40
11.77010902585016
 40
12.13796744191014
 40
12.48012188969654
 40
12.82221603741942
 40
13.14394461216171
 40
13.46560136682503
 40
13.77589934864175
 40
14.08616091447288
 40
14.39642248030395
 40
14.70672046212063
 40
15.02837721678387
 40
15.35010579152605
 40
15.69219993924893
 40
16.0343543870354
 40
16.40221280309541
 40
16.7701119659766
 40
17.16524558168219
 40
17.56040569767611
 40
17.98105887663271
 40
18.4017291248639
 40
18.84361304406503
 40
19.28550759154189
 40
19.74251507926782
 40
20.19952839592667
 40
20.66438395499501
 40
21.12924137310247
 40
21.59409879121213
 40
22.05895435028733
 40
22.51596766695835
 40
22.97297515470376
 40
23.41486970220899
 40
23.85675362145124
 40
24.27742386973787
 40
24.69807704877164
 40
25.09323716486506
 40
25.48837078070547
 40
25.85626994375502
 40
26.22412836003855
 40
26.56628280810054
 40
26.90837695619172
 40
27.23010553141654
 40
27.5517622868632
 40
27.8620602707201
 40
28.17232182894532
 40
28.17232182894532
 40
28.17232182894532
 40
28.17232182894532
 10
68.47556212760136
 20
169.8070998678671
 30
0.0
 10
68.47152893588535
 20
169.9105900497893
 30
0.0
 10
68.46346208721454
 20
170.117582564134
 30
0.0
 10
68.39947810940497
 20
170.4264314321567
 30
0.0
 10
68.2980573131077
 20
170.7283983458908
 30
0.0
 10
68.15563481301002
 20
171.0253080020056
 30
0.0
 10
67.97653224025
 20
171.3096261103658
 30
0.0
 10
67.75856197238943
 20
171.5851271566621
 30
0.0
 10
67.50827981835442
 20
171.8437331773306
 30
0.0
 10
67.22181765658286
 20
172.0894910669435
 30
0.0
 10
66.90798690429548
 20
172.3151363271381
 30
0.0
 10
66.56207273926435
 20
172.523907995026
 30
0.0
 10
66.19395394711381
 20
172.7101287632973
 30
0.0
 10
65.79926001219704
 20
172.8758132936439
 30
0.0
 10
65.38770681222502
 20
173.0171210664936
 30
0.0
 10
64.95628111263053
 20
173.1349005550681
 30
0.0
 10
64.51350708391996
 20
173.2270188567066
 30
0.0
 10
64.05844908532609
 20
173.2935047840998
 30
0.0
 10
63.59768198324493
 20
173.3335623410099
 30
0.0
 10
63.13275980781399
 20
173.3469042983052
 30
0.0
 10
62.66783763238696
 20
173.3335623410884
 30
0.0
 10
62.20707053029432
 20
173.2935047842609
 30
0.0
 10
61.75201253174205
 20
173.2270188569592
 30
0.0
 10
61.30923850287715
 20
173.1349005554243
 30
0.0
 10
60.8778128038354
 20
173.0171210669716
 30
0.0
 10
60.46625960183658
 20
172.8758132942635
 30
0.0
 10
60.07156567411437
 20
172.7101287640863
 30
0.0
 10
59.70344685589228
 20
172.5239079960126
 30
0.0
 10
59.35753278246921
 20
172.3151363283599
 30
0.0
 10
59.04370170053114
 20
172.0894910684373
 30
0.0
 10
58.7572406880582
 20
171.8437331791459
 30
0.0
 10
58.50695440898507
 20
171.585127158847
 30
0.0
 10
58.28899851097812
 20
171.3096261129907
 30
0.0
 10
58.10984419723889
 20
171.0253080051513
 30
0.0
 10
57.96760384585127
 20
170.7283983497389
 30
0.0
 10
57.8655201938111
 20
170.4264314372296
 30
0.0
 10
57.80392695388323
 20
170.1175825680832
 30
0.0
 10
57.78297315042164
 20
169.8070998678671
 30
0.0
 10
57.80392695388321
 20
169.4966171676511
 30
0.0
 10
57.86552019381111
 20
169.1877682985047
 30
0.0
 10
57.96760384585127
 20
168.8858013859954
 30
0.0
 10
58.10984419723893
 20
168.5888917305832
 30
0.0
 10
58.28899851097811
 20
168.3045736227438
 30
0.0
 10
58.50695440898509
 20
168.0290725768874
 30
0.0
 10
58.75724068805818
 20
167.7704665565884
 30
0.0
 10
59.0437017005311
 20
167.5247086672971
 30
0.0
 10
59.35753278246926
 20
167.2990634073744
 30
0.0
 10
59.70344685589228
 20
167.0902917397218
 30
0.0
 10
60.0715656741143
 20
166.9040709716479
 30
0.0
 10
60.4662596018366
 20
166.7383864414708
 30
0.0
 10
60.8778128038354
 20
166.5970786687629
 30
0.0
 10
61.30923850287719
 20
166.4792991803104
 30
0.0
 10
61.75201253174203
 20
166.3871808787753
 30
0.0
 10
62.20707053029431
 20
166.3206949514736
 30
0.0
 10
62.66783763238696
 20
166.2806373946461
 30
0.0
 10
63.13275980781398
 20
166.2672954374293
 30
0.0
 10
63.59768198324495
 20
166.2806373947246
 30
0.0
 10
64.0584490853261
 20
166.3206949516348
 30
0.0
 10
64.51350708391995
 20
166.3871808790278
 30
0.0
 10
64.95628111263049
 20
166.4792991806665
 30
0.0
 10
65.38770681222502
 20
166.5970786692408
 30
0.0
 10
65.79926001219704
 20
166.7383864420904
 30
0.0
 10
66.19395394711384
 20
166.904070972437
 30
0.0
 10
66.56207273926435
 20
167.0902917407083
 30
0.0
 10
66.90798690429547
 20
167.2990634085962
 30
0.0
 10
67.22181765658289
 20
167.5247086687908
 30
0.0
 10
67.50827981835441
 20
167.7704665584037
 30
0.0
 10
67.75856197238949
 20
168.0290725790723
 30
0.0
 10
67.97653224024992
 20
168.3045736253687
 30
0.0
 10
68.15563481301007
 20
168.5888917337289
 30
0.0
 10
68.29805731310765
 20
168.8858013898436
 30
0.0
 10
68.399478109405
 20
169.1877683035777
 30
0.0
 10
68.46346208721451
 20
169.4966171716002
 30
0.0
 10
68.47152893588536
 20
169.7036096859449
 30
0.0
 10
68.47556212760136
 20
169.8070998678671
 30
0.0
 11
68.47556212760136
 21
169.8070998678671
 31
0.0
 11
68.45494503440054
 21
170.1166756660038
 31
0.0
 11
68.39439295500244
 21
170.4210081869231
 31
0.0
 11
68.29192606637059
 21
170.7259075221866
 31
0.0
 11
68.15335172144177
 21
171.0162632123572
 31
0.0
 11
67.97155967708449
 21
171.3060563430486
 31
0.0
 11
67.75976234282825
 21
171.574778421435
 31
0.0
 11
67.50440583255437
 21
171.8395667652039
 31
0.0
 11
67.22558383326515
 21
172.0795836121512
 31
0.0
 11
66.90509190564018
 21
172.3107015444764
 31
0.0
 11
66.56704693645827
 21
172.5153405342297
 31
0.0
 11
66.19188321261414
 21
172.7056068668208
 31
0.0
 11
65.80416096278137
 21
172.8688089340965
 31
0.0
 11
65.38632463831998
 21
173.0125942046785
 31
0.0
 11
64.96010581650535
 21
173.1292488532857
 31
0.0
 11
64.51271585041547
 21
173.2225122549851
 31
0.0
 11
64.06052768613785
 21
173.2887469566413
 31
0.0
 11
63.59742447292543
 21
173.329071945408
 31
0.0
 11
63.13275979796111
 21
173.342456975003
 31
0.0
 11
62.66809512299682
 21
173.329071945408
 31
0.0
 11
62.20499190978443
 21
173.2887469566413
 31
0.0
 11
61.75280374550676
 21
173.2225122549851
 31
0.0
 11
61.30541377941683
 21
173.1292488532857
 31
0.0
 11
60.8791949576023
 21
173.0125942046786
 31
0.0
 11
60.461358633141
 21
172.8688089340965
 31
0.0
 11
60.07363638330825
 21
172.7056068668208
 31
0.0
 11
59.69847265946413
 21
172.5153405342297
 31
0.0
 11
59.36042769028215
 21
172.3107015444765
 31
0.0
 11
59.03993576265711
 21
172.0795836121512
 31
0.0
 11
58.76111376336787
 21
171.8395667652039
 31
0.0
 11
58.505757253094
 21
171.574778421435
 31
0.0
 11
58.29395991883786
 21
171.3060563430486
 31
0.0
 11
58.11216787448061
 21
171.0162632123572
 31
0.0
 11
57.97359352955172
 21
170.7259075221865
 31
0.0
 11
57.87112664091981
 21
170.4210081869231
 31
0.0
 11
57.81057456152173
 21
170.1166756660038
 31
0.0
 11
57.78995746832092
 21
169.8070998678671
 31
0.0
 11
57.81057456152172
 21
169.4975240697304
 31
0.0
 11
57.87112664091981
 21
169.1931915488112
 31
0.0
 11
57.97359352955174
 21
168.8882922135479
 31
0.0
 11
58.11216787448061
 21
168.5979365233773
 31
0.0
 11
58.29395991883786
 21
168.3081433926859
 31
0.0
 11
58.505757253094
 21
168.0394213142994
 31
0.0
 11
58.76111376336786
 21
167.7746329705305
 31
0.0
 11
59.03993576265711
 21
167.5346161235831
 31
0.0
 11
59.36042769028215
 21
167.3034981912579
 31
0.0
 11
59.69847265946413
 21
167.0988592015046
 31
0.0
 11
60.07363638330824
 21
166.9085928689134
 31
0.0
 11
60.461358633141
 21
166.7453908016378
 31
0.0
 11
60.8791949576023
 21
166.6016055310559
 31
0.0
 11
61.30541377941683
 21
166.4849508824489
 31
0.0
 11
61.75280374550677
 21
166.3916874807495
 31
0.0
 11
62.20499190978443
 21
166.3254527790932
 31
0.0
 11
62.66809512299681
 21
166.2851277903265
 31
0.0
 11
63.13275979796111
 21
166.2717427607315
 31
0.0
 11
63.59742447292544
 21
166.2851277903265
 31
0.0
 11
64.06052768613785
 21
166.3254527790932
 31
0.0
 11
64.51271585041545
 21
166.3916874807494
 31
0.0
 11
64.96010581650535
 21
166.4849508824489
 31
0.0
 11
65.38632463831998
 21
166.6016055310559
 31
0.0
 11
65.80416096278137
 21
166.7453908016378
 31
0.0
 11
66.19188321261416
 21
166.9085928689134
 31
0.0
 11
66.56704693645827
 21
167.0988592015046
 31
0.0
 11
66.90509190564018
 21
167.3034981912579
 31
0.0
 11
67.22558383326515
 21
167.5346161235831
 31
0.0
 11
67.50440583255438
 21
167.7746329705305
 31
0.0
 11
67.75976234282825
 21
168.0394213142994
 31
0.0
 11
67.97155967708447
 21
168.3081433926859
 31
0.0
 11
68.15335172144177
 21
168.5979365233773
 31
0.0
 11
68.29192606637059
 21
168.8882922135479
 31
0.0
 11
68.39439295500244
 21
169.1931915488112
 31
0.0
 11
68.45494503440054
 21
169.4975240697304
 31
0.0
 11
68.47556212760136
 21
169.8070998678671
 31
0.0
  0
ENDBLK
  5
52
330
50
100
AcDbEntity
  8
0
100
AcDbBlockEnd
  0
BLOCK
  5
54
330
53
100
AcDbEntity
  8
0
100
AcDbBlockBegin
  2
36-1A-13-M4
 70
     0
 10
-2.2454330570538
 20
44.44791488045885
 30
0.0
  3
36-1A-13-M4
  1

  0
LINE
  5
15B
330
53
100
AcDbEntity
  8
1
  6
Continuous
 62
     7
100
AcDbLine
 10
74.16341326227945
 20
183.3441805959728
 30
0.0
 11
74.16341326227945
 21
180.2717427607315
 31
0.0
  0
LINE
  5
15C
330
53
100
AcDbEntity
  8
1
  6
Continuous
 62
     7
100
AcDbLine
 10
64.66341326227945
 20
180.2717427607315
 30
0.0
 11
64.66341326227945
 21
183.3441805959728
 31
0.0
  0
LINE
  5
15D
330
53
100
AcDbEntity
  8
1
  6
Continuous
 62
     7
100
AcDbLine
 10
196.1816283859452
 20
180.2717427607315
 30
0.0
 11
196.1816283859452
 21
183.3420514725464
 31
0.0
  0
LINE
  5
15E
330
53
100
AcDbEntity
  8
1
  6
Continuous
 62
     7
100
AcDbLine
 10
205.6816283859453
 20
183.3420514725464
 30
0.0
 11
205.6816283859453
 21
180.2717427607315
 31
0.0
  0
ENDBLK
  5
55
330
53
100
AcDbEntity
  8
0
100
AcDbBlockEnd
  0
BLOCK
  5
5B
330
56
100
AcDbEntity
  8
0
100
AcDbBlockBegin
  2
R10A-13
 70
     0
 10
46.13298420913426
 20
102.8675551682287
 30
0.0
  3
R10A-13
  1

  0
INSERT
  5
57
330
56
100
AcDbEntity
  8
1
100
AcDbBlockReference
  2
42-1
 10
170.9384230464026
 20
99.84498618925049
 30
0.0
  0
INSERT
  5
58
330
56
100
AcDbEntity
  8
0
100
AcDbBlockReference
  2
21-1C
 10
176.0754051292696
 20
83.80745944323735
 30
0.0
  0
INSERT
  5
59
330
56
100
AcDbEntity
  8
1
100
AcDbBlockReference
  2
37-1-13
 10
254.0014969545775
 20
92.95359606137842
 30
0.0
  0
INSERT
  5
5A
330
56
100
AcDbEntity
  8
1
100
AcDbBlockReference
  2
36-1A-13-M4
 10
-2.2454330570538
 20
44.44791488045885
 30
0.0
  0
LINE
  5
15F
330
56
100
AcDbEntity
  8
1
  6
PHANTOM
 62
     4
100
AcDbLine
 10
200.9316283859453
 20
180.0163819200782
 30
0.0
 11
200.9316283859453
 21
195.3420514725464
 31
0.0
  0
ENDBLK
  5
5C
330
56
100
AcDbEntity
  8
0
100
AcDbBlockEnd
  0
BLOCK
  5
5E
330
5D
100
AcDbEntity
  8
0
100
AcDbBlockBegin
  2
62-1B
 70
     0
 10
22.83752120224862
 20
-325.1235230708886
 30
0.0
  3
62-1B
  1

  0
LINE
  5
160
330
5D
100
AcDbEntity
  8
1
  6
Continuous
 62
     7
100
AcDbLine
 10
61.82099730384718
 20
229.6594784986312
 30
0.0
 11
61.82099730384718
 21
266.6138438710987
 31
0.0
  0
LINE
  5
161
330
5D
100
AcDbEntity
  8
1
  6
Continuous
 62
     7
100
AcDbLine
 10
77.00582922071132
 20
229.6594784986312
 30
0.0
 11
77.00582922071132
 21
266.6138438710987
 31
0.0
  0
LINE
  5
162
330
5D
100
AcDbEntity
  8
1
  6
Continuous
 62
     7
100
AcDbLine
 10
61.82099730384732
 20
105.9567349342347
 30
0.0
 11
61.82099730384732
 21
140.8420514725464
 31
0.0
  0
LINE
  5
163
330
5D
100
AcDbEntity
  8
1
  6
Continuous
 62
     7
100
AcDbLine
 10
77.00582922071148
 20
105.9567349342347
 30
0.0
 11
77.00582922071148
 21
140.8420514725464
 31
0.0
  0
LINE
  5
164
330
5D
100
AcDbEntity
  8
1
  6
Continuous
 62
     7
100
AcDbLine
 10
124.9316283859451
 20
100.8420514725464
 30
0.0
 11
131.8126940914933
 21
97.63335783778155
 31
0.0
  0
LINE
  5
165
330
5D
100
AcDbEntity
  8
1
  6
PHANTOM
 62
     4
100
AcDbLine
 10
135.5068089252703
 20
123.5205993247674
 30
0.0
 11
124.0863918624637
 21
99.02943589847314
 31
0.0
  0
LINE
  5
166
330
5D
100
AcDbEntity
  8
1
  6
PHANTOM
 62
     4
100
AcDbLine
 10
184.431628385945
 20
140.8420514725464
 30
0.0
 11
162.6960425363698
 21
140.8420514725464
 31
0.0
  0
LINE
  5
167
330
5D
100
AcDbEntity
  8
1
  6
Continuous
 62
     7
100
AcDbLine
 10
119.884888177059
 20
108.7122746754812
 30
0.0
 11
128.3469774076808
 21
126.8592835925189
 31
0.0
  0
LINE
  5
168
330
5D
100
AcDbEntity
  8
1
  6
Continuous
 62
     7
100
AcDbLine
 10
118.0505626803969
 20
104.0507451073114
 30
0.0
 11
124.9316283859451
 21
100.8420514725464
 31
0.0
  0
LINE
  5
169
330
5D
100
AcDbEntity
  8
1
  6
Continuous
 62
     7
100
AcDbLine
 10
134.2045512122381
 20
102.0349061399783
 30
0.0
 11
142.6666404428598
 21
120.1819150570159
 31
0.0
  0
LINE
  5
16A
330
5D
100
AcDbEntity
  8
1
  6
Continuous
 62
     7
100
AcDbLine
 10
165.9316283859453
 20
132.8420514725464
 30
0.0
 11
160.5960425363694
 21
132.8420514725464
 31
0.0
  0
LINE
  5
16B
330
5D
100
AcDbEntity
  8
1
  6
Continuous
 62
     7
100
AcDbLine
 10
165.9316283859453
 20
148.7420514725465
 30
0.0
 11
162.6960425363698
 21
148.7420514725465
 31
0.0
  0
LINE
  5
16C
330
5D
100
AcDbEntity
  8
1
  6
Continuous
 62
     7
100
AcDbLine
 10
119.884888177059
 20
108.7122746754812
 30
0.0
 11
134.2045512122381
 21
102.0349061399783
 31
0.0
  0
ARC
  5
16D
330
5D
100
AcDbEntity
  8
1
  6
Continuous
 62
     7
100
AcDbCircle
 10
69.41341326227945
 20
140.8420514725464
 30
0.0
 40
7.592415958432028
100
AcDbArc
 50
0.0
 51
180.0
  0
ARC
  5
16E
330
5D
100
AcDbEntity
  8
1
  6
Continuous
 62
     7
100
AcDbCircle
 10
68.96013946453803
 20
227.6373085039321
 30
0.0
 40
7.746784951759349
100
AcDbArc
 50
157.1555055611243
 51
245.4902173675773
  0
ARC
  5
16F
330
5D
100
AcDbEntity
  8
1
  6
Continuous
 62
     7
100
AcDbCircle
 10
69.86668706002052
 20
227.6373085039321
 30
0.0
 40
7.746784951759315
100
AcDbArc
 50
294.5097826324227
 51
22.84449443887585
  0
ARC
  5
170
330
5D
100
AcDbEntity
  8
1
  6
Continuous
 62
     7
100
AcDbCircle
 10
68.28801583160015
 20
103.3993932033906
 30
0.0
 40
7.074602569320787
100
AcDbArc
 50
156.0807198663533
 51
208.3723264163732
  0
ARC
  5
171
330
5D
100
AcDbEntity
  8
1
  6
Continuous
 62
     7
100
AcDbCircle
 10
70.53881069295875
 20
103.3993932033906
 30
0.0
 40
7.074602569320717
100
AcDbArc
 50
331.6276735836263
 51
23.91928013364709
  0
ARC
  5
172
330
5D
100
AcDbEntity
  8
1
  6
Continuous
 62
     7
100
AcDbCircle
 10
162.6960425363698
 20
110.8420514725464
 30
0.0
 40
37.90000000000011
100
AcDbArc
 50
90.0
 51
155.0
  0
ARC
  5
173
330
5D
100
AcDbEntity
  8
1
  6
Continuous
 62
     7
100
AcDbCircle
 10
126.8600992390053
 20
103.4937626299345
 30
0.0
 40
8.82712659122795
100
AcDbArc
 50
155.0000000000004
 51
176.3822927462786
  0
ARC
  5
174
330
5D
100
AcDbEntity
  8
1
  6
Continuous
 62
     7
100
AcDbCircle
 10
127.3409940152593
 20
102.9936732332598
 30
0.0
 40
6.930198535060723
100
AcDbArc
 50
337.06733664725
 51
352.0478368977885
  0
ARC
  5
175
330
5D
100
AcDbEntity
  8
1
  6
Continuous
 62
     7
100
AcDbCircle
 10
125.72335981283
 20
104.0238329296867
 30
0.0
 40
8.827126591227994
100
AcDbArc
 50
313.6177072537211
 51
335.0000000000001
  0
ARC
  5
176
330
5D
100
AcDbEntity
  8
1
  6
Continuous
 62
     7
100
AcDbCircle
 10
125.0311559057056
 20
104.070768432843
 30
0.0
 40
6.930198535060802
100
AcDbArc
 50
137.9521631022131
 51
152.9326633527506
  0
ARC
  5
177
330
5D
100
AcDbEntity
  8
1
  6
Continuous
 62
     7
100
AcDbCircle
 10
162.6960425363698
 20
110.8420514725464
 30
0.0
 40
22.10000000000002
100
AcDbArc
 50
95.45262198781356
 51
154.9999999999999
  0
SPLINE
  5
178
330
5D
100
AcDbEntity
  8
1
  6
Continuous
 62
     7
100
AcDbSpline
210
0.0
220
0.0
230
1.0
 70
     8
 71
     3
 72
    33
 73
    29
 74
    27
 42
0.000000001
 43
0.0000000001
 44
0.00000001
 40
0.0
 40
0.0
 40
0.0
 40
0.0
 40
0.2870784893954186
 40
0.5699261059353706
 40
0.888808743148803
 40
1.212179210377067
 40
1.591137264253535
 40
1.968155542866439
 40
2.41141044117058
 40
2.855565247712038
 40
3.927988818640917
 40
5.00223641157161
 40
6.257314812292148
 40
7.511290368991019
 40
8.17106315983477
 40
8.830825268752339
 40
10.1332814933624
 40
11.43667449669904
 40
12.61401952536059
 40
13.7898387493556
 40
14.29814947440332
 40
14.80630127004061
 40
15.48777326894454
 40
16.17206483598583
 40
16.49538740142734
 40
16.81337677956695
 40
17.22934564013791
 40
17.65606988184221
 40
17.65606988184221
 40
17.65606988184221
 40
17.65606988184221
 10
61.82099730384732
 20
105.9567349342347
 30
0.0
 10
61.8332505665969
 20
106.0516231224774
 30
0.0
 10
61.85757652230787
 20
106.2400010641762
 30
0.0
 10
61.92884202885307
 20
106.529464411103
 30
0.0
 10
62.07531445166221
 20
106.8042374129585
 30
0.0
 10
62.28598538028773
 20
107.0726324908991
 30
0.0
 10
62.54024271652229
 20
107.3283956219142
 30
0.0
 10
62.85211716351753
 20
107.5794863402304
 30
0.0
 10
63.20500132447835
 20
107.8111283298018
 30
0.0
 10
63.77930243089992
 20
108.1234915072872
 30
0.0
 10
64.58009346254566
 20
108.454503425794
 30
0.0
 10
65.67194986394406
 20
108.7659138158477
 30
0.0
 10
66.8459217399826
 20
108.9940258967236
 30
0.0
 10
67.89692597042898
 20
109.1098517550589
 30
0.0
 10
68.75361057633236
 20
109.1572826222912
 30
0.0
 10
69.62762505434263
 20
109.1733560336171
 30
0.0
 10
70.71653501857985
 20
109.134673685159
 30
0.0
 10
71.97099877471564
 20
108.9939859489045
 30
0.0
 10
73.1694689226522
 20
108.7652180460424
 30
0.0
 10
74.0873131234288
 20
108.4984656677637
 30
0.0
 10
74.76994902584899
 20
108.2366750669205
 30
0.0
 10
75.28493384299294
 20
108.0009497632074
 30
0.0
 10
75.82891038271761
 20
107.6909925360327
 30
0.0
 10
76.27557766347796
 20
107.3437505673106
 30
0.0
 10
76.58645609567131
 20
107.0289332263838
 30
0.0
 10
76.79434778000203
 20
106.7407380470096
 30
0.0
 10
76.92582940862118
 20
106.3720719514326
 30
0.0
 10
76.97893668345692
 20
106.0963536149842
 30
0.0
 10
77.00582922071148
 20
105.9567349342347
 30
0.0
 11
61.82099730384732
 21
105.9567349342347
 31
0.0
 11
61.86317953093334
 21
106.2406974704109
 31
0.0
 11
61.93634316232181
 21
106.5139187366031
 31
0.0
 11
62.0821978787659
 21
106.7974897771101
 31
0.0
 11
62.27887601220364
 21
107.0541727910852
 31
0.0
 11
62.54535306766107
 21
107.3236151498924
 31
0.0
 11
62.83818816617887
 21
107.5610817516171
 31
0.0
 11
63.20783867962058
 21
107.8056904230895
 31
0.0
 11
63.59728520747472
 21
108.0192434459416
 31
0.0
 11
64.58589549822912
 21
108.4348658775712
 31
0.0
 11
65.61720528306347
 21
108.7355451349025
 31
0.0
 11
66.84882374563844
 21
108.9770772246874
 31
0.0
 11
68.09500406700835
 21
109.1166813027921
 31
0.0
 11
68.75376402633059
 21
109.153225113034
 31
0.0
 11
69.41341326227945
 21
109.1654285689996
 31
0.0
 11
70.7150124555294
 21
109.1181871575058
 31
0.0
 11
72.01017245657044
 21
108.971920665186
 31
0.0
 11
73.16584560962578
 21
108.7470632098637
 31
0.0
 11
74.29372416794587
 21
108.4147368628176
 31
0.0
 11
74.76794442834381
 21
108.2317206421244
 31
0.0
 11
75.22954131708417
 21
108.0192434459416
 31
0.0
 11
75.81930354568021
 21
107.6777985786938
 31
0.0
 11
76.35712691240359
 21
107.2547135134518
 31
0.0
 11
76.58153056813526
 21
107.0219465074654
 31
0.0
 11
76.76359922804077
 21
106.7612393044711
 31
0.0
 11
76.91429143996753
 21
106.3735255493471
 31
0.0
 11
77.00582922071148
 21
105.9567349342347
 31
0.0
  0
SPLINE
  5
179
330
5D
100
AcDbEntity
  8
1
  6
Continuous
 62
     7
100
AcDbSpline
210
0.0
220
0.0
230
1.0
 70
     8
 71
     3
 72
    43
 73
    39
 74
    37
 42
0.000000001
 43
0.0000000001
 44
0.00000001
 40
0.0
 40
0.0
 40
0.0
 40
0.0
 40
0.6015183847899026
 40
1.200991401848846
 40
1.805061043000032
 40
2.410777391999772
 40
3.023012716552773
 40
3.634542887598704
 40
4.255841351281356
 40
4.877420645783336
 40
5.509535102201493
 40
6.141577284415384
 40
6.784111040759401
 40
7.426685456298415
 40
8.078310587746252
 40
8.729937210331297
 40
9.38821234804231
 40
10.04649580895656
 40
10.70828759031596
 40
11.37008052999386
 40
12.0318734696717
 40
12.69366525103104
 40
13.35194871194529
 40
14.01022384965631
 40
14.66185047224142
 40
15.31347560368929
 40
15.95605001922826
 40
16.59858377557223
 40
17.23062595778613
 40
17.86274041420433
 40
18.4843197087063
 40
19.10561817238894
 40
19.71714834343487
 40
20.32938366798781
 40
20.93510001698751
 40
21.53916965813873
 40
22.1386426751977
 40
22.74016105998757
 40
22.74016105998757
 40
22.74016105998757
 40
22.74016105998757
 10
61.82099730384718
 20
228.6594784986312
 30
0.0
 10
61.83218608571966
 20
228.4592889422642
 30
0.0
 10
61.85452561656901
 20
228.0595905431709
 30
0.0
 10
61.92451388692855
 20
227.4609989858789
 30
0.0
 10
62.06742211055051
 20
226.8735621553317
 30
0.0
 10
62.27145627756484
 20
226.3006481421423
 30
0.0
 10
62.5258211769039
 20
225.7455359894634
 30
0.0
 10
62.83184125339955
 20
225.2110490049445
 30
0.0
 10
63.18811582652911
 20
224.7048305941004
 30
0.0
 10
63.59291577101882
 20
224.2275728780185
 30
0.0
 10
64.04068925137241
 20
223.7852749319482
 30
0.0
 10
64.53038384942872
 20
223.3789166530713
 30
0.0
 10
65.05587587331604
 20
223.0139040460611
 30
0.0
 10
65.6157397204226
 20
222.6909834647287
 30
0.0
 10
66.2031276687328
 20
222.4141694008849
 30
0.0
 10
66.81599791483913
 20
222.1843189420882
 30
0.0
 10
67.44754510468687
 20
222.0040455421059
 30
0.0
 10
68.09477978380741
 20
221.8741279110318
 30
0.0
 10
68.75144898009206
 20
221.7958604823557
 30
0.0
 10
69.41341326227933
 20
221.7696889558123
 30
0.0
 10
70.07537754446653
 20
221.7958604823557
 30
0.0
 10
70.73204674075117
 20
221.8741279110319
 30
0.0
 10
71.3792814198717
 20
222.0040455421059
 30
0.0
 10
72.01082860971944
 20
222.1843189420883
 30
0.0
 10
72.62369885582584
 20
222.4141694008849
 30
0.0
 10
73.21108680413604
 20
222.6909834647287
 30
0.0
 10
73.77095065124257
 20
223.0139040460612
 30
0.0
 10
74.29644267512982
 20
223.3789166530714
 30
0.0
 10
74.78613727318623
 20
223.7852749319481
 30
0.0
 10
75.23391075353979
 20
224.2275728780185
 30
0.0
 10
75.63871069802951
 20
224.7048305941005
 30
0.0
 10
75.99498527115907
 20
225.2110490049445
 30
0.0
 10
76.30100534765464
 20
225.7455359894634
 30
0.0
 10
76.55537024699362
 20
226.3006481421423
 30
0.0
 10
76.75940441400795
 20
226.8735621553317
 30
0.0
 10
76.90231263762988
 20
227.4609989858789
 30
0.0
 10
76.97230090798942
 20
228.0595905431709
 30
0.0
 10
76.99464043883884
 20
228.4592889422642
 30
0.0
 10
77.00582922071132
 20
228.6594784986312
 30
0.0
 11
61.82099730384718
 21
228.6594784986312
 31
0.0
 11
61.86064103503016
 21
228.0592679122878
 31
0.0
 11
61.93634316232169
 21
227.4645939784564
 31
0.0
 11
62.07724415813698
 21
226.8771869283744
 31
0.0
 11
62.27887601220341
 21
226.3060154197864
 31
0.0
 11
62.53413469846394
 21
225.7495308318151
 31
0.0
 11
62.83818816617875
 21
225.2189456458571
 31
0.0
 11
63.19544467964742
 21
224.7106351451382
 31
0.0
 11
63.59728520747461
 21
224.2364147216659
 31
0.0
 11
64.04683091602664
 21
223.7920304933623
 31
0.0
 11
64.53310235661283
 21
223.3882763521594
 31
0.0
 11
65.0606758027558
 21
223.021512276354
 31
0.0
 11
65.61720528306333
 21
222.7003007925165
 31
0.0
 11
66.20657260906299
 21
222.4223413220027
 31
0.0
 11
66.81665406798822
 21
222.1933918319847
 31
0.0
 11
67.44960968283476
 21
222.0125788158943
 31
0.0
 11
68.09500406700823
 21
221.882951642821
 31
0.0
 11
68.75213730483273
 21
221.8045662499181
 31
0.0
 11
69.41341326227933
 21
221.7784127930831
 31
0.0
 11
70.07468921972588
 21
221.804566249918
 31
0.0
 11
70.73182245755032
 21
221.882951642821
 31
0.0
 11
71.3772168417238
 21
222.0125788158943
 31
0.0
 11
72.01017245657033
 21
222.1933918319847
 31
0.0
 11
72.62025391549564
 21
222.4223413220027
 31
0.0
 11
73.20962124149534
 21
222.7003007925165
 31
0.0
 11
73.7661507218028
 21
223.0215122763541
 31
0.0
 11
74.29372416794573
 21
223.3882763521594
 31
0.0
 11
74.77999560853196
 21
223.7920304933622
 31
0.0
 11
75.22954131708403
 21
224.2364147216659
 31
0.0
 11
75.6313818449112
 21
224.7106351451382
 31
0.0
 11
75.98863835837983
 21
225.2189456458571
 31
0.0
 11
76.2926918260946
 21
225.7495308318151
 31
0.0
 11
76.54795051235504
 21
226.3060154197864
 31
0.0
 11
76.74958236642144
 21
226.8771869283743
 31
0.0
 11
76.89048336223672
 21
227.4645939784564
 31
0.0
 11
76.96618548952827
 21
228.0592679122878
 31
0.0
 11
77.00582922071132
 21
228.6594784986312
 31
0.0
  0
SPLINE
  5
17A
330
5D
100
AcDbEntity
  8
1
  6
Continuous
 62
     7
100
AcDbSpline
210
0.0
220
0.0
230
1.0
 70
     8
 71
     3
 72
    19
 73
    15
 74
    13
 42
0.000000001
 43
0.0000000001
 44
0.00000001
 40
0.0
 40
0.0
 40
0.0
 40
0.0
 40
0.579442919569012
 40
1.157780542040564
 40
1.815537311288383
 40
2.474543505714738
 40
3.136675590062961
 40
3.798090700085223
 40
4.459505810107541
 40
5.121637894455825
 40
5.780644088882179
 40
6.438400858129999
 40
7.01673848060153
 40
7.596181400170565
 40
7.596181400170565
 40
7.596181400170565
 40
7.596181400170565
 10
73.08042997206002
 20
220.5885828329955
 30
0.0
 10
72.90412302924251
 20
220.5097074079555
 30
0.0
 10
72.55184544620992
 20
220.3521070274199
 30
0.0
 10
71.98839561503408
 20
220.1298262846517
 30
0.0
 10
71.3801475081615
 20
219.9552860385309
 30
0.0
 10
70.73204354800734
 20
219.8291465043665
 30
0.0
 10
70.07523370309305
 20
219.7508490389015
 30
0.0
 10
69.41341326227932
 20
219.7237476384284
 30
0.0
 10
68.75159282146555
 20
219.7508490389015
 30
0.0
 10
68.09478297655124
 20
219.8291465043665
 30
0.0
 10
67.44667901639704
 20
219.955286038531
 30
0.0
 10
66.8384309095245
 20
220.1298262846518
 30
0.0
 10
66.27498107834859
 20
220.3521070274198
 30
0.0
 10
65.92270349531604
 20
220.5097074079555
 30
0.0
 10
65.74639655249854
 20
220.5885828329955
 30
0.0
 11
73.08042997206002
 21
220.5885828329955
 31
0.0
 11
72.54974622427625
 21
220.3559267395725
 31
0.0
 11
72.01017245657033
 21
220.147757204452
 31
0.0
 11
71.37839648558774
 21
219.9647187087691
 31
0.0
 11
70.73182245755032
 21
219.8373170152885
 31
0.0
 11
70.07429319698076
 21
219.7593800564189
 31
0.0
 11
69.41341326227933
 21
219.7327781655505
 31
0.0
 11
68.75253332757785
 21
219.7593800564189
 31
0.0
 11
68.09500406700823
 21
219.8373170152885
 31
0.0
 11
67.44843003897081
 21
219.9647187087691
 31
0.0
 11
66.81665406798822
 21
220.147757204452
 31
0.0
 11
66.27708030028231
 21
220.3559267395724
 31
0.0
 11
65.74639655249854
 21
220.5885828329955
 31
0.0
  0
SPLINE
  5
17B
330
5D
100
AcDbEntity
  8
1
  6
Continuous
 62
     7
100
AcDbSpline
210
0.0
220
0.0
230
1.0
 70
    11
 71
     3
 72
    79
 73
    75
 74
    73
 42
0.000000001
 43
0.0000000001
 44
0.00000001
 40
0.0
 40
0.0
 40
0.0
 40
0.0
 40
0.2855726084442883
 40
0.5717260090421532
 40
0.8923749886569388
 40
1.213437199823994
 40
1.591463198323375
 40
1.969508218243925
 40
2.413184301792513
 40
2.856910861124658
 40
3.365133719223847
 40
3.873369850375377
 40
4.438831337852779
 40
5.004307077531976
 40
5.615706132905558
 40
6.227112309965675
 40
6.870493293562413
 40
7.513878598421023
 40
8.1736470246219
 40
8.833416719800445
 40
9.493186414985377
 40
10.15295484120517
 40
10.79634014609326
 40
11.43972112972837
 40
12.05112730683026
 40
12.66252636224671
 40
13.22800210196095
 40
13.79346358946128
 40
14.30169972061282
 40
14.80992257867847
 40
15.25364913793504
 40
15.69732522133933
 40
16.07537024104703
 40
16.45339623920347
 40
16.77445844989655
 40
17.09510742871107
 40
17.3812608272569
 40
17.66683344034062
 40
17.95240605342438
 40
18.23855945197018
 40
18.55920843078477
 40
18.88027064147787
 40
19.25829663963432
 40
19.63634165934201
 40
20.08001774274629
 40
20.52374430200286
 40
21.0319671600685
 40
21.54020329122004
 40
22.10566477872039
 40
22.67114051843463
 40
23.28253957385108
 40
23.89394575095296
 40
24.53732673458807
 40
25.18071203947615
 40
25.84048046569593
 40
26.50025016088088
 40
27.16001985605943
 40
27.8197882822603
 40
28.4631735871189
 40
29.10655457071565
 40
29.71796074777576
 40
30.32935980314934
 40
30.89483554282852
 40
31.46029703030595
 40
31.9685331614575
 40
32.47675601955667
 40
32.92048257888879
 40
33.36415866243739
 40
33.74220368235795
 40
34.12022968085732
 40
34.44129189202439
 40
34.76194087163925
 40
35.04809427223709
 40
35.33366688068141
 40
35.33366688068141
 40
35.33366688068141
 40
35.33366688068141
 10
61.82099730384732
 20
100.8420514725464
 30
0.0
 10
61.82714332024019
 20
100.7467309604691
 30
0.0
 10
61.83944784045167
 20
100.5558960740542
 30
0.0
 10
61.93285946057966
 20
100.2705502839414
 30
0.0
 10
62.07876834036524
 20
99.99645822696169
 30
0.0
 10
62.28561378609793
 20
99.72520240815622
 30
0.0
 10
62.53928894278295
 20
99.46978761176447
 30
0.0
 10
62.85213614601533
 20
99.21963803250306
 30
0.0
 10
63.20515092973623
 20
98.98767542560876
 30
0.0
 10
63.61404627957323
 20
98.76497348071379
 30
0.0
 10
64.05693122558984
 20
98.56216930440881
 30
0.0
 10
64.54946289477498
 20
98.37307325495115
 30
0.0
 10
65.06974489768476
 20
98.20531315562732
 30
0.0
 10
65.63102363014417
 20
98.05526609948345
 30
0.0
 10
66.21352314641567
 20
97.92772299007667
 30
0.0
 10
66.82655215230113
 20
97.82108343471609
 30
0.0
 10
67.45394578663766
 20
97.73781669965165
 30
0.0
 10
68.10014975394218
 20
97.67764739164387
 30
0.0
 10
68.75360571391806
 20
97.64138870160794
 30
0.0
 10
69.41341325228538
 20
97.62934240171558
 30
0.0
 10
70.07322079064303
 20
97.6413887018656
 30
0.0
 10
70.72667675065662
 20
97.67764739215164
 30
0.0
 10
71.37288071784846
 20
97.73781670039646
 30
0.0
 10
72.00027435262855
 20
97.82108343567573
 30
0.0
 10
72.61330335697487
 20
97.92772299122466
 30
0.0
 10
73.19580287882361
 20
98.05526610078307
 30
0.0
 10
73.75708159198913
 20
98.20531315703735
 30
0.0
 10
74.27736366332343
 20
98.3730732564212
 30
0.0
 10
74.76989510170623
 20
98.56216930587979
 30
0.0
 10
75.21278085349275
 20
98.76497348212088
 30
0.0
 10
75.62167355771595
 20
98.98767542686926
 30
0.0
 10
75.97469744757929
 20
99.2196380335341
 30
0.0
 10
76.2875154154845
 20
99.46978761244875
 30
0.0
 10
76.5412905232311
 20
99.72520240836887
 30
0.0
 10
76.74781608945051
 20
99.99645822651786
 30
0.0
 10
76.89483294106444
 20
100.270550282197
 30
0.0
 10
76.98453283131602
 20
100.5558960728528
 30
0.0
 10
77.01646658349053
 20
100.8420514725464
 30
0.0
 10
76.98453283131606
 20
101.12820687224
 30
0.0
 10
76.8948329410644
 20
101.4135526628959
 30
0.0
 10
76.74781608945054
 20
101.687644718575
 30
0.0
 10
76.54129052323108
 20
101.958900536724
 30
0.0
 10
76.2875154154845
 20
102.2143153326441
 30
0.0
 10
75.9746974475793
 20
102.4644649115588
 30
0.0
 10
75.62167355771595
 20
102.6964275182237
 30
0.0
 10
75.21278085349272
 20
102.919129462972
 30
0.0
 10
74.76989510170623
 20
103.1219336392131
 30
0.0
 10
74.27736366332341
 20
103.3110296886717
 30
0.0
 10
73.75708159198918
 20
103.4787897880555
 30
0.0
 10
73.19580287882363
 20
103.6288368443099
 30
0.0
 10
72.61330335697485
 20
103.7563799538683
 30
0.0
 10
72.00027435262854
 20
103.8630195094171
 30
0.0
 10
71.37288071784849
 20
103.9462862446964
 30
0.0
 10
70.72667675065664
 20
104.0064555529412
 30
0.0
 10
70.07322079064303
 20
104.0427142432273
 30
0.0
 10
69.41341325228541
 20
104.0547605433773
 30
0.0
 10
68.75360571391806
 20
104.0427142434849
 30
0.0
 10
68.10014975394216
 20
104.006455553449
 30
0.0
 10
67.45394578663769
 20
103.9462862454412
 30
0.0
 10
66.82655215230113
 20
103.8630195103768
 30
0.0
 10
66.21352314641565
 20
103.7563799550162
 30
0.0
 10
65.6310236301442
 20
103.6288368456095
 30
0.0
 10
65.06974489768474
 20
103.4787897894656
 30
0.0
 10
64.54946289477499
 20
103.3110296901417
 30
0.0
 10
64.05693122558984
 20
103.121933640684
 30
0.0
 10
63.61404627957322
 20
102.9191294643791
 30
0.0
 10
63.20515092973623
 20
102.6964275194842
 30
0.0
 10
62.85213614601535
 20
102.4644649125899
 30
0.0
 10
62.53928894278295
 20
102.2143153333284
 30
0.0
 10
62.28561378609794
 20
101.9589005369367
 30
0.0
 10
62.07876834036519
 20
101.6876447181312
 30
0.0
 10
61.93285946057968
 20
101.4135526611514
 30
0.0
 10
61.83944784045165
 20
101.1282068710387
 30
0.0
 10
61.82714332024021
 20
100.9373719846237
 30
0.0
 10
61.82099730384732
 20
100.8420514725464
 30
0.0
 11
61.82099730384732
 21
100.8420514725464
 31
0.0
 11
61.85129680245231
 21
100.5580908101604
 31
0.0
 11
61.93634316232181
 21
100.284867670178
 31
0.0
 11
62.08600778729251
 21
100.0012900481804
 31
0.0
 11
62.27887601220364
 21
99.744613615696
 31
0.0
 11
62.54405719823508
 21
99.47520204598442
 31
0.0
 11
62.83818816617887
 21
99.23770465516401
 31
0.0
 11
63.20824667965088
 21
98.9929493414084
 31
0.0
 11
63.59728520747472
 21
98.77954296083948
 31
0.0
 11
64.05897104039518
 21
98.5670890478535
 31
0.0
 11
64.53310235661306
 21
98.38404954396356
 31
0.0
 11
65.07107947484525
 21
98.20990215210115
 31
0.0
 11
65.61720528306347
 21
98.06324127187861
 31
0.0
 11
66.21436499167585
 21
97.93205786075468
 31
0.0
 11
66.81665406798847
 21
97.82686574159516
 31
0.0
 11
67.45441130065734
 21
97.74198463496552
 31
0.0
 11
68.09500406700835
 21
97.68210510398904
 31
0.0
 11
68.75375483868234
 21
97.64547455599514
 31
0.0
 11
69.41341326227945
 21
97.63335783778155
 31
0.0
 11
70.07307168587651
 21
97.64547455599515
 31
0.0
 11
70.73182245755046
 21
97.68210510398904
 31
0.0
 11
71.37241522390151
 21
97.74198463496552
 31
0.0
 11
72.01017245657044
 21
97.82686574159516
 31
0.0
 11
72.61246153288307
 21
97.93205786075468
 31
0.0
 11
73.20962124149546
 21
98.06324127187861
 31
0.0
 11
73.75574704971368
 21
98.20990215210114
 31
0.0
 11
74.29372416794587
 21
98.38404954396356
 31
0.0
 11
74.76785548416373
 21
98.5670890478535
 31
0.0
 11
75.22954131708417
 21
98.77954296083948
 31
0.0
 11
75.61857984490798
 21
98.9929493414084
 31
0.0
 11
75.98863835837997
 21
99.23770465516401
 31
0.0
 11
76.28276932632377
 21
99.47520204598443
 31
0.0
 11
76.54795051235516
 21
99.744613615696
 31
0.0
 11
76.74081873726621
 21
100.0012900481804
 31
0.0
 11
76.89048336223686
 21
100.284867670178
 31
0.0
 11
76.97552972210643
 21
100.5580908101604
 31
0.0
 11
77.00582922071148
 21
100.8420514725464
 31
0.0
 11
76.97552972210643
 21
101.1260121349324
 31
0.0
 11
76.89048336223686
 21
101.3992352749148
 31
0.0
 11
76.74081873726621
 21
101.6828128969125
 31
0.0
 11
76.54795051235516
 21
101.9394893293969
 31
0.0
 11
76.28276932632376
 21
102.2089008991085
 31
0.0
 11
75.98863835837997
 21
102.4463982899289
 31
0.0
 11
75.618579844908
 21
102.6911536036845
 31
0.0
 11
75.22954131708417
 21
102.9045599842534
 31
0.0
 11
74.76785548416373
 21
103.1170138972393
 31
0.0
 11
74.29372416794587
 21
103.3000534011293
 31
0.0
 11
73.75574704971368
 21
103.4742007929918
 31
0.0
 11
73.20962124149546
 21
103.6208616732143
 31
0.0
 11
72.61246153288307
 21
103.7520450843382
 31
0.0
 11
72.01017245657044
 21
103.8572372034977
 31
0.0
 11
71.37241522390151
 21
103.9421183101273
 31
0.0
 11
70.73182245755046
 21
104.0019978411038
 31
0.0
 11
70.07307168587653
 21
104.0386283890977
 31
0.0
 11
69.41341326227945
 21
104.0507451073113
 31
0.0
 11
68.75375483868234
 21
104.0386283890977
 31
0.0
 11
68.09500406700835
 21
104.0019978411038
 31
0.0
 11
67.45441130065736
 21
103.9421183101273
 31
0.0
 11
66.81665406798847
 21
103.8572372034977
 31
0.0
 11
66.21436499167585
 21
103.7520450843382
 31
0.0
 11
65.61720528306347
 21
103.6208616732143
 31
0.0
 11
65.07107947484526
 21
103.4742007929918
 31
0.0
 11
64.53310235661306
 21
103.3000534011293
 31
0.0
 11
64.05897104039516
 21
103.1170138972393
 31
0.0
 11
63.59728520747472
 21
102.9045599842534
 31
0.0
 11
63.20824667965088
 21
102.6911536036845
 31
0.0
 11
62.83818816617887
 21
102.4463982899289
 31
0.0
 11
62.54405719823507
 21
102.2089008991085
 31
0.0
 11
62.27887601220364
 21
101.9394893293969
 31
0.0
 11
62.0860077872925
 21
101.6828128969125
 31
0.0
 11
61.93634316232181
 21
101.3992352749148
 31
0.0
 11
61.85129680245231
 21
101.1260121349324
 31
0.0
 11
61.82099730384732
 21
100.8420514725464
 31
0.0
  0
SPLINE
  5
17C
330
5D
100
AcDbEntity
  8
1
  6
Continuous
 62
     7
100
AcDbSpline
210
0.0
220
0.0
230
1.0
 70
     8
 71
     3
 72
    41
 73
    37
 74
    35
 42
0.000000001
 43
0.0000000001
 44
0.00000001
 40
0.0
 40
0.0
 40
0.0
 40
0.0
 40
0.100316201602639
 40
0.2006657829785237
 40
0.4678383789133814
 40
0.7355150007192133
 40
1.002789109172984
 40
1.270122575990833
 40
1.569879281724531
 40
1.87021895146785
 40
2.223772344309114
 40
2.577257304781912
 40
2.992126825125811
 40
3.407093618714136
 40
4.409622126157591
 40
5.414554539535128
 40
6.588375490687885
 40
7.760878906835867
 40
8.37779511671538
 40
8.99483352643576
 40
10.21331109419488
 40
11.43168445402222
 40
12.5310257590928
 40
13.63217355512715
 40
14.52401185317107
 40
15.41165471146033
 40
15.76513734518536
 40
16.11866370144217
 40
16.41899056786279
 40
16.71876828811406
 40
16.98610851104033
 40
17.25337400757652
 40
17.5210481526581
 40
17.7882235058645
 40
17.88857332059401
 40
17.98888928674015
 40
17.98888928674015
 40
17.98888928674015
 40
17.98888928674015
 10
62.50969141129824
 20
102.1776120894782
 30
0.0
 10
62.49419999768522
 20
102.147976656996
 30
0.0
 10
62.46321202405277
 20
102.0886959267256
 30
0.0
 10
62.39624964663276
 20
101.9477904413942
 30
0.0
 10
62.33201494476533
 20
101.7443999384177
 30
0.0
 10
62.30371755435173
 20
101.4765735022923
 30
0.0
 10
62.33357604935372
 20
101.20886004019
 30
0.0
 10
62.41718284188163
 20
100.9419630264476
 30
0.0
 10
62.55465407322815
 20
100.685725956493
 30
0.0
 10
62.74782090613175
 20
100.4320759495049
 30
0.0
 10
62.98512251412937
 20
100.1931643451114
 30
0.0
 10
63.27765558389487
 20
99.95924981809304
 30
0.0
 10
63.60790836771999
 20
99.74253743350432
 30
0.0
 10
64.1446381596694
 20
99.45007621120413
 30
0.0
 10
64.89341169355698
 20
99.14058629049276
 30
0.0
 10
65.91454597447195
 20
98.84953013496116
 30
0.0
 10
67.01248938691046
 20
98.63617823522073
 30
0.0
 10
67.99530527743948
 20
98.52784443935292
 30
0.0
 10
68.79638125857555
 20
98.48350014447337
 30
0.0
 10
69.61387402802484
 20
98.46846986962527
 30
0.0
 10
70.6321908411579
 20
98.50454143806913
 30
0.0
 10
71.80475120981482
 20
98.6359910171402
 30
0.0
 10
72.92525044213252
 20
98.8507253311606
 30
0.0
 10
73.9167744819206
 20
99.139037735246
 30
0.0
 10
74.8087807758312
 20
99.49913227410518
 30
0.0
 10
75.42587688216334
 20
99.86084792977186
 30
0.0
 10
75.8414566368119
 20
100.1934178982543
 30
0.0
 10
76.07904489218076
 20
100.432041616982
 30
0.0
 10
76.27222842937705
 20
100.6856874203466
 30
0.0
 10
76.40963268616672
 20
100.9419641847063
 30
0.0
 10
76.493238789285
 20
101.2088641700522
 30
0.0
 10
76.52311130791907
 20
101.4765752955043
 30
0.0
 10
76.4948132237428
 20
101.7443995896039
 30
0.0
 10
76.43057717939381
 20
101.9477896537804
 30
0.0
 10
76.36361440787374
 20
102.0886959679789
 30
0.0
 10
76.33262647186606
 20
102.1479767169136
 30
0.0
 10
76.31713511326046
 20
102.1776120894783
 30
0.0
 11
62.50969141129824
 21
102.1776120894782
 31
0.0
 11
62.46378357957325
 21
102.0884167256215
 31
0.0
 11
62.42127821589264
 21
101.9975138495724
 31
0.0
 11
62.34085391638298
 21
101.7427333008205
 31
0.0
 11
62.31341326227933
 21
101.4764669234721
 31
0.0
 11
62.34199035284693
 21
101.2107249462306
 31
0.0
 11
62.42127821589264
 21
100.9554199973719
 31
0.0
 11
62.56116104744885
 21
100.6903032763777
 31
0.0
 11
62.74159565469937
 21
100.4502048184586
 31
0.0
 11
62.98959074580591
 21
100.1982158581008
 31
0.0
 11
63.26463289540979
 21
99.97617209429264
 31
0.0
 11
63.61074904029743
 21
99.74743571115167
 31
0.0
 11
63.97449771613466
 21
99.5477250693254
 31
0.0
 11
64.89861732163185
 21
99.15905250495001
 31
0.0
 11
65.86341326227947
 21
98.87788005300035
 31
0.0
 11
67.01529813542345
 21
98.65201092449647
 31
0.0
 11
68.18051120084426
 21
98.52146296431194
 31
0.0
 11
68.79648051653882
 21
98.4872955949336
 31
0.0
 11
69.41341326227945
 21
98.47587726511313
 31
0.0
 11
70.63109189666505
 21
98.51999421027935
 31
0.0
 11
71.84175627989177
 21
98.65683496350567
 31
0.0
 11
72.92075874610971
 21
98.86732244983307
 31
0.0
 11
73.97720529105385
 21
99.17788188960596
 31
0.0
 11
74.80098725128917
 21
99.51958180372438
 31
0.0
 11
75.56219362914896
 21
99.97617209429264
 31
0.0
 11
75.83707108180195
 21
100.1984160102788
 31
0.0
 11
76.08523086985946
 21
100.4502048184586
 31
0.0
 11
76.26570002314565
 21
100.6902612934251
 31
0.0
 11
76.40554830866617
 21
100.9554199973719
 31
0.0
 11
76.48482835243462
 21
101.2107344488071
 31
0.0
 11
76.51341326227949
 21
101.4764669234721
 31
0.0
 11
76.48597449680916
 21
101.7427310056107
 31
0.0
 11
76.40554830866617
 21
101.9975138495724
 31
0.0
 11
76.36304279191108
 21
102.0884169116492
 31
0.0
 11
76.31713511326046
 21
102.1776120894783
 31
0.0
  0
ARC
  5
17D
330
5D
100
AcDbEntity
  8
1
  6
PHANTOM
 62
     4
100
AcDbCircle
 10
162.6960425363698
 20
110.8420514725464
 30
0.0
 40
29.99999999999999
100
AcDbArc
 50
90.0
 51
155.0
  0
ENDBLK
  5
5F
330
5D
100
AcDbEntity
  8
0
100
AcDbBlockEnd
  0
BLOCK
  5
61
330
60
100
AcDbEntity
  8
0
100
AcDbBlockBegin
  2
32-1-16
 70
     0
 10
62.14909989121775
 20
-182.8968728765194
 30
0.0
  3
32-1-16
  1

  0
LINE
  5
17E
330
60
100
AcDbEntity
  8
1
  6
Continuous
 62
     7
100
AcDbLine
 10
175.9316283859453
 20
153.8420514725464
 30
0.0
 11
175.9316283859453
 21
127.5420514725464
 31
0.0
  0
LINE
  5
17F
330
60
100
AcDbEntity
  8
1
  6
Continuous
 62
     7
100
AcDbLine
 10
165.9316283859453
 20
148.7420514725465
 30
0.0
 11
165.9316283859453
 21
132.9420514725464
 31
0.0
  0
LINE
  5
180
330
60
100
AcDbEntity
  8
0
  6
Continuous
 62
     7
100
AcDbLine
 10
168.2184511362321
 20
126.8420514725464
 30
0.0
 11
175.3598795647753
 21
126.8420514725464
 31
0.0
  0
LINE
  5
181
330
60
100
AcDbEntity
  8
0
  6
Continuous
 62
     7
100
AcDbLine
 10
168.2184511362323
 20
154.8420514725464
 30
0.0
 11
175.359879564775
 21
154.8420514725464
 31
0.0
  0
LINE
  5
182
330
60
100
AcDbEntity
  8
1
  6
Continuous
 62
     7
100
AcDbLine
 10
166.9316283859453
 20
152.3420514725464
 30
0.0
 11
166.9316283859453
 21
152.4000725342771
 31
0.0
  0
LINE
  5
183
330
60
100
AcDbEntity
  8
1
  6
Continuous
 62
     7
100
AcDbLine
 10
175.9316283859453
 20
154.1420514725465
 30
0.0
 11
175.9316283859453
 21
154.0290514725465
 31
0.0
  0
LINE
  5
184
330
60
100
AcDbEntity
  8
1
  6
Continuous
 62
     7
100
AcDbLine
 10
165.9316283859453
 20
150.6100006649776
 30
0.0
 11
165.9316283859453
 21
148.7420514725465
 31
0.0
  0
LINE
  5
185
330
60
100
AcDbEntity
  8
1
  6
Continuous
 62
     7
100
AcDbLine
 10
166.9316283859453
 20
129.2840304108158
 30
0.0
 11
166.9316283859453
 21
129.3420514725464
 31
0.0
  0
LINE
  5
186
330
60
100
AcDbEntity
  8
1
  6
Continuous
 62
     7
100
AcDbLine
 10
165.9316283859453
 20
132.9420514725464
 30
0.0
 11
165.9316283859453
 21
131.0741022801153
 31
0.0
  0
LINE
  5
187
330
60
100
AcDbEntity
  8
1
  6
Continuous
 62
     7
100
AcDbLine
 10
175.9316283859453
 20
154.0290514725465
 30
0.0
 11
175.9316283859453
 21
153.8420514725464
 31
0.0
  0
LINE
  5
188
330
60
100
AcDbEntity
  8
1
  6
Continuous
 62
     7
100
AcDbLine
 10
166.9316283859453
 20
132.0437294934768
 30
0.0
 11
166.9316283859453
 21
140.8420514725464
 31
0.0
  0
LINE
  5
189
330
60
100
AcDbEntity
  8
1
  6
Continuous
 62
     7
100
AcDbLine
 10
166.9316283859453
 20
140.8420514725464
 30
0.0
 11
166.9316283859453
 21
149.640373451616
 31
0.0
  0
LINE
  5
18A
330
60
100
AcDbEntity
  8
1
  6
Continuous
 62
     7
100
AcDbLine
 10
77.61341326227938
 20
266.6138438710987
 30
0.0
 11
79.1813624547105
 21
266.6138438710987
 31
0.0
  0
LINE
  5
18B
330
60
100
AcDbEntity
  8
1
  6
Continuous
 62
     7
100
AcDbLine
 10
82.71341326227937
 20
276.6138438710988
 30
0.0
 11
75.6250703447399
 21
276.6138438710988
 31
0.0
  0
LINE
  5
18C
330
60
100
AcDbEntity
  8
1
  6
Continuous
 62
     7
100
AcDbLine
 10
82.60041326227937
 20
276.6138438710988
 30
0.0
 11
82.71341326227937
 21
276.6138438710988
 31
0.0
  0
LINE
  5
18D
330
60
100
AcDbEntity
  8
1
  6
Continuous
 62
     7
100
AcDbLine
 10
80.97143432400998
 20
267.6138438710987
 30
0.0
 11
80.91341326227939
 21
267.6138438710987
 31
0.0
  0
LINE
  5
18E
330
60
100
AcDbEntity
  8
1
  6
Continuous
 62
     7
100
AcDbLine
 10
69.41341326227939
 20
266.6138438710987
 30
0.0
 11
77.61341326227938
 21
266.6138438710987
 31
0.0
  0
LINE
  5
18F
330
60
100
AcDbEntity
  8
1
  6
Continuous
 62
     7
100
AcDbLine
 10
78.21173524134898
 20
267.6138438710987
 30
0.0
 11
69.41341326227939
 21
267.6138438710987
 31
0.0
  0
LINE
  5
190
330
60
100
AcDbEntity
  8
1
  6
Continuous
 62
     7
100
AcDbLine
 10
59.64546406984814
 20
266.6138438710987
 30
0.0
 11
61.21341326227923
 21
266.6138438710987
 31
0.0
  0
LINE
  5
191
330
60
100
AcDbEntity
  8
1
  6
Continuous
 62
     7
100
AcDbLine
 10
56.11341326227925
 20
276.6138438710988
 30
0.0
 11
56.22641326227925
 21
276.6138438710988
 31
0.0
  0
LINE
  5
192
330
60
100
AcDbEntity
  8
1
  6
Continuous
 62
     7
100
AcDbLine
 10
57.91341326227925
 20
267.6138438710987
 30
0.0
 11
57.85539220054863
 21
267.6138438710987
 31
0.0
  0
LINE
  5
193
330
60
100
AcDbEntity
  8
1
  6
Continuous
 62
     7
100
AcDbLine
 10
61.21341326227923
 20
266.6138438710987
 30
0.0
 11
69.41341326227939
 21
266.6138438710987
 31
0.0
  0
LINE
  5
194
330
60
100
AcDbEntity
  8
1
  6
Continuous
 62
     7
100
AcDbLine
 10
69.41341326227939
 20
267.6138438710987
 30
0.0
 11
60.61509128320964
 21
267.6138438710987
 31
0.0
  0
LINE
  5
195
330
60
100
AcDbEntity
  8
1
  6
Continuous
 62
     7
100
AcDbLine
 10
63.20175617981883
 20
276.6138438710988
 30
0.0
 11
56.11341326227925
 21
276.6138438710988
 31
0.0
  0
LINE
  5
196
330
60
100
AcDbEntity
  8
1
  6
Continuous
 62
     7
100
AcDbLine
 10
62.76134591445437
 20
154.8420514725464
 30
0.0
 11
76.06548061010446
 21
154.8420514725464
 31
0.0
  0
LINE
  5
197
330
60
100
AcDbEntity
  8
1
  6
Continuous
 62
     7
100
AcDbLine
 10
78.21173524134907
 20
153.6029107834479
 30
0.0
 11
84.86380258917407
 21
142.081192161645
 31
0.0
  0
LINE
  5
198
330
60
100
AcDbEntity
  8
1
  6
Continuous
 62
     7
100
AcDbLine
 10
78.21173524134907
 20
128.081192161645
 30
0.0
 11
84.86380258917407
 21
139.6029107834479
 31
0.0
  0
LINE
  5
199
330
60
100
AcDbEntity
  8
1
  6
Continuous
 62
     7
100
AcDbLine
 10
53.96302393538463
 20
139.6029107834479
 30
0.0
 11
60.61509128320972
 21
128.081192161645
 31
0.0
  0
LINE
  5
19A
330
60
100
AcDbEntity
  8
1
  6
Continuous
 62
     7
100
AcDbLine
 10
60.61509128320972
 20
153.6029107834479
 30
0.0
 11
53.96302393538463
 21
142.081192161645
 31
0.0
  0
ARC
  5
19B
330
60
100
AcDbEntity
  8
1
  6
Continuous
 62
     7
100
AcDbCircle
 10
171.7891653505044
 20
130.3420514725464
 30
0.0
 40
5.000000000000774
100
AcDbArc
 50
195.3375576695527
 51
224.4270040007986
  0
ARC
  5
19C
330
60
100
AcDbEntity
  8
1
  6
Continuous
 62
     7
100
AcDbCircle
 10
171.7891653505044
 20
151.3420514725464
 30
0.0
 40
4.999999999999492
100
AcDbArc
 50
34.05579774257357
 51
44.42700400081214
  0
ARC
  5
19D
330
60
100
AcDbEntity
  8
1
  6
Continuous
 62
     7
100
AcDbCircle
 10
171.7891653505044
 20
151.3420514725464
 30
0.0
 40
5.000000000000483
100
AcDbArc
 50
135.5729959991997
 51
164.6624423304449
  0
ARC
  5
19E
330
60
100
AcDbEntity
  8
1
  6
Continuous
 62
     7
100
AcDbCircle
 10
171.7891653505044
 20
130.3420514725464
 30
0.0
 40
4.999999999999621
100
AcDbArc
 50
315.5729959991903
 51
325.9442022574278
  0
ARC
  5
19F
330
60
100
AcDbEntity
  8
1
  6
Continuous
 62
     7
100
AcDbCircle
 10
79.91341326227939
 20
272.471380835657
 30
0.0
 40
4.999999999999985
100
AcDbArc
 50
285.3375576695541
 51
55.94420225743379
  0
ARC
  5
1A0
330
60
100
AcDbEntity
  8
1
  6
Continuous
 62
     7
100
AcDbCircle
 10
74.1802418421255
 20
272.4712115933301
 30
0.0
 40
1.885238775575546
100
AcDbArc
 50
0.00514357713391
 51
3.83791798966738
  0
ARC
  5
1A1
330
60
100
AcDbEntity
  8
1
  6
Continuous
 62
     7
100
AcDbCircle
 10
74.10642486194558
 20
272.4662596056207
 30
0.0
 40
1.959221670525301
100
AcDbArc
 50
3.83791798967063
 51
9.37260108640118
  0
ARC
  5
1A2
330
60
100
AcDbEntity
  8
1
  6
Continuous
 62
     7
100
AcDbCircle
 10
74.02219142453208
 20
272.4523562316929
 30
0.0
 40
2.04459482664056
100
AcDbArc
 50
9.37260108639669
 51
14.67807157128463
  0
ARC
  5
1A3
330
60
100
AcDbEntity
  8
1
  6
Continuous
 62
     7
100
AcDbCircle
 10
73.9794853167262
 20
272.4411699618306
 30
0.0
 40
2.088741675648811
100
AcDbArc
 50
14.67807157128624
 51
19.98794307345857
  0
ARC
  5
1A4
330
60
100
AcDbEntity
  8
1
  6
Continuous
 62
     7
100
AcDbCircle
 10
73.84519254081349
 20
272.3923233895885
 30
0.0
 40
2.231642121002063
100
AcDbArc
 50
19.98794307345647
 51
23.44839996530657
  0
ARC
  5
1A5
330
60
100
AcDbEntity
  8
1
  6
Continuous
 62
     7
100
AcDbCircle
 10
73.74725590308259
 20
272.3498441627257
 30
0.0
 40
2.338394496736298
100
AcDbArc
 50
23.44839996531115
 51
26.75137744777829
  0
ARC
  5
1A6
330
60
100
AcDbEntity
  8
1
  6
Continuous
 62
     7
100
AcDbCircle
 10
73.58679642986229
 20
272.2689610923457
 30
0.0
 40
2.518086771529185
100
AcDbArc
 50
26.75137744777394
 51
29.81983142576664
  0
ARC
  5
1A7
330
60
100
AcDbEntity
  8
1
  6
Continuous
 62
     7
100
AcDbCircle
 10
73.48479477920378
 20
272.2104973019266
 30
0.0
 40
2.635655268700877
100
AcDbArc
 50
29.81983142576922
 51
32.75164132976806
  0
ARC
  5
1A8
330
60
100
AcDbEntity
  8
1
  6
Continuous
 62
     7
100
AcDbCircle
 10
73.3172582939331
 20
272.1027274283321
 30
0.0
 40
2.834860739387412
100
AcDbArc
 50
32.75164132976566
 51
35.62806700316914
  0
ARC
  5
1A9
330
60
100
AcDbEntity
  8
1
  6
Continuous
 62
     7
100
AcDbCircle
 10
73.20835135343299
 20
272.0246769948076
 30
0.0
 40
2.96884802185272
100
AcDbArc
 50
35.62806700316988
 51
38.51810528404838
  0
ARC
  5
1AA
330
60
100
AcDbEntity
  8
1
  6
Continuous
 62
     7
100
AcDbCircle
 10
73.00489406335379
 20
271.8627347618854
 30
0.0
 40
3.228886779906601
100
AcDbArc
 50
38.51810528404756
 51
41.17514053461989
  0
ARC
  5
1AB
330
60
100
AcDbEntity
  8
1
  6
Continuous
 62
     7
100
AcDbCircle
 10
72.87160487550437
 20
271.7461510124003
 30
0.0
 40
3.405968055714071
100
AcDbArc
 50
41.17514053462212
 51
43.69457626015145
  0
ARC
  5
1AC
330
60
100
AcDbEntity
  8
1
  6
Continuous
 62
     7
100
AcDbCircle
 10
72.6315200740921
 20
271.516764470283
 30
0.0
 40
3.738020608141545
100
AcDbArc
 50
43.69457626014911
 51
45.99039746615465
  0
ARC
  5
1AD
330
60
100
AcDbEntity
  8
1
  6
Continuous
 62
     7
100
AcDbCircle
 10
72.48365094508799
 20
271.3636928526412
 30
0.0
 40
3.950849646197854
100
AcDbArc
 50
45.99039746615623
 51
48.29355234314141
  0
ARC
  5
1AE
330
60
100
AcDbEntity
  8
1
  6
Continuous
 62
     7
100
AcDbCircle
 10
72.2656440266363
 20
271.1190626820909
 30
0.0
 40
4.2785246938231
100
AcDbArc
 50
48.2935523431407
 51
50.54097616601218
  0
ARC
  5
1AF
330
60
100
AcDbEntity
  8
1
  6
Continuous
 62
     7
100
AcDbCircle
 10
69.42268560577389
 20
281.0177435227873
 30
0.0
 40
12.11718326374996
100
AcDbArc
 50
269.9561559655643
 51
276.4967731826921
  0
ARC
  5
1B0
330
60
100
AcDbEntity
  8
1
  6
Continuous
 62
     7
100
AcDbCircle
 10
69.46787471930429
 20
280.6209250704765
 30
0.0
 40
11.71780006420845
100
AcDbArc
 50
276.4967731826921
 51
278.7108014309696
  0
ARC
  5
1B1
330
60
100
AcDbEntity
  8
1
  6
Continuous
 62
     7
100
AcDbCircle
 10
69.56818256370869
 20
279.9662358507301
 30
0.0
 40
11.05547111413814
100
AcDbArc
 50
278.7108014309696
 51
281.0574916643671
  0
ARC
  5
1B2
330
60
100
AcDbEntity
  8
1
  6
Continuous
 62
     7
100
AcDbCircle
 10
69.59922073539548
 20
279.807409329621
 30
0.0
 40
10.89364023973747
100
AcDbArc
 50
281.0574916643673
 51
282.1975878865729
  0
ARC
  5
1B3
330
60
100
AcDbEntity
  8
1
  6
Continuous
 62
     7
100
AcDbCircle
 10
69.7249122565095
 20
279.2259445075189
 30
0.0
 40
10.29874554500375
100
AcDbArc
 50
282.1975878865729
 51
283.403553429709
  0
ARC
  5
1B4
330
60
100
AcDbEntity
  8
1
  6
Continuous
 62
     7
100
AcDbCircle
 10
69.74987381240669
 20
279.1211956801807
 30
0.0
 40
10.1910636240443
100
AcDbArc
 50
283.4035534297088
 51
284.622235644478
  0
ARC
  5
1B5
330
60
100
AcDbEntity
  8
1
  6
Continuous
 62
     7
100
AcDbCircle
 10
69.88399794854078
 20
278.607103179987
 30
0.0
 40
9.659762972200975
100
AcDbArc
 50
284.622235644478
 51
285.9079391252785
  0
ARC
  5
1B6
330
60
100
AcDbEntity
  8
1
  6
Continuous
 62
     7
100
AcDbCircle
 10
69.92954148157719
 20
278.4473054065296
 30
0.0
 40
9.49360177997076
100
AcDbArc
 50
285.9079391252784
 51
287.8289763758408
  0
ARC
  5
1B7
330
60
100
AcDbEntity
  8
1
  6
Continuous
 62
     7
100
AcDbCircle
 10
70.17963221303478
 20
277.6697153014507
 30
0.0
 40
8.676783718541193
100
AcDbArc
 50
287.8289763758409
 51
289.1699312060527
  0
ARC
  5
1B8
330
60
100
AcDbEntity
  8
1
  6
Continuous
 62
     7
100
AcDbCircle
 10
70.18292640984788
 20
277.6602396479772
 30
0.0
 40
8.666751782467191
100
AcDbArc
 50
289.1699312060521
 51
290.5124119700255
  0
ARC
  5
1B9
330
60
100
AcDbEntity
  8
1
  6
Continuous
 62
     7
100
AcDbCircle
 10
70.4413761646598
 20
276.9694406173006
 30
0.0
 40
7.929188512946488
100
AcDbArc
 50
290.5124119700266
 51
291.9797207566682
  0
ARC
  5
1BA
330
60
100
AcDbEntity
  8
1
  6
Continuous
 62
     7
100
AcDbCircle
 10
70.44740862528317
 20
276.9544945249481
 30
0.0
 40
7.913070936894786
100
AcDbArc
 50
291.9797207566683
 51
293.4500581114128
  0
ARC
  5
1BB
330
60
100
AcDbEntity
  8
1
  6
Continuous
 62
     7
100
AcDbCircle
 10
70.69955042962528
 20
276.373223044629
 30
0.0
 40
7.279468519499316
100
AcDbArc
 50
293.4500581114115
 51
294.9823606023689
  0
ARC
  5
1BC
330
60
100
AcDbEntity
  8
1
  6
Continuous
 62
     7
100
AcDbCircle
 10
70.76406789466208
 20
276.2347536113874
 30
0.0
 40
7.126706327720652
100
AcDbArc
 50
294.9823606023695
 51
296.4800021356235
  0
ARC
  5
1BD
330
60
100
AcDbEntity
  8
1
  6
Continuous
 62
     7
100
AcDbCircle
 10
71.06377737046648
 20
275.6331036122209
 30
0.0
 40
6.454539316194668
100
AcDbArc
 50
296.4800021356228
 51
298.1335589234616
  0
ARC
  5
1BE
330
60
100
AcDbEntity
  8
1
  6
Continuous
 62
     7
100
AcDbCircle
 10
71.12661838171638
 20
275.5155785816517
 30
0.0
 40
6.321268443513326
100
AcDbArc
 50
298.1335589234619
 51
299.8218682100309
  0
ARC
  5
1BF
330
60
100
AcDbEntity
  8
1
  6
Continuous
 62
     7
100
AcDbCircle
 10
71.3960433333279
 20
275.0455521717
 30
0.0
 40
5.779498537923514
100
AcDbArc
 50
299.8218682100307
 51
301.6685426704609
  0
ARC
  5
1C0
330
60
100
AcDbEntity
  8
1
  6
Continuous
 62
     7
100
AcDbCircle
 10
71.45284604606908
 20
274.953467695735
 30
0.0
 40
5.671303811210395
100
AcDbArc
 50
301.6685426704609
 51
303.4573887050699
  0
ARC
  5
1C1
330
60
100
AcDbEntity
  8
1
  6
Continuous
 62
     7
100
AcDbCircle
 10
71.81196124325407
 20
274.4100261190289
 30
0.0
 40
5.019926445820734
100
AcDbArc
 50
303.4573887050703
 51
304.415209816725
  0
ARC
  5
1C2
330
60
100
AcDbEntity
  8
1
  6
Continuous
 62
     7
100
AcDbCircle
 10
71.72509857797797
 20
274.536813628363
 30
0.0
 40
5.173615076311104
100
AcDbArc
 50
304.4152098167249
 51
306.273952796523
  0
ARC
  5
1C3
330
60
100
AcDbEntity
  8
1
  6
Continuous
 62
     7
100
AcDbCircle
 10
72.1070974825266
 20
274.016289335542
 30
0.0
 40
4.52796137463103
100
AcDbArc
 50
306.2739527965216
 51
308.3975050043317
  0
ARC
  5
1C4
330
60
100
AcDbEntity
  8
1
  6
Continuous
 62
     7
100
AcDbCircle
 10
72.12334281918609
 20
273.9957909881167
 30
0.0
 40
4.5018061990371
100
AcDbArc
 50
308.3975050043333
 51
310.5332751770269
  0
ARC
  5
1C5
330
60
100
AcDbEntity
  8
1
  6
Continuous
 62
     7
100
AcDbCircle
 10
72.448891009694
 20
273.6150709799865
 30
0.0
 40
4.000877712191368
100
AcDbArc
 50
310.5332751770272
 51
312.9371670760264
  0
ARC
  5
1C6
330
60
100
AcDbEntity
  8
1
  6
Continuous
 62
     7
100
AcDbCircle
 10
72.47380426224638
 20
273.5882959790505
 30
0.0
 40
3.964304896769704
100
AcDbArc
 50
312.9371670760257
 51
315.1016581317783
  0
ARC
  5
1C7
330
60
100
AcDbEntity
  8
1
  6
Continuous
 62
     7
100
AcDbCircle
 10
72.8257210747382
 20
273.2376257463588
 30
0.0
 40
3.467500050768292
100
AcDbArc
 50
315.1016581317783
 51
317.5766003475906
  0
ARC
  5
1C8
330
60
100
AcDbEntity
  8
1
  6
Continuous
 62
     7
100
AcDbCircle
 10
72.87148500823719
 20
273.1958032460624
 30
0.0
 40
3.405504412693185
100
AcDbArc
 50
317.5766003475919
 51
320.0960707231229
  0
ARC
  5
1C9
330
60
100
AcDbEntity
  8
1
  6
Continuous
 62
     7
100
AcDbCircle
 10
73.16774920248938
 20
272.9480534061236
 30
0.0
 40
3.019301802674004
100
AcDbArc
 50
320.0960707231205
 51
322.9375036232095
  0
ARC
  5
1CA
330
60
100
AcDbEntity
  8
1
  6
Continuous
 62
     7
100
AcDbCircle
 10
73.20956100126688
 20
272.9164743923882
 30
0.0
 40
2.966904659378634
100
AcDbArc
 50
322.93750362321
 51
325.8303028980613
  0
ARC
  5
1CB
330
60
100
AcDbEntity
  8
1
  6
Continuous
 62
     7
100
AcDbCircle
 10
73.45932876890888
 20
272.7469254323104
 30
0.0
 40
2.665025896269494
100
AcDbArc
 50
325.8303028980625
 51
328.7291301953138
  0
ARC
  5
1CC
330
60
100
AcDbEntity
  8
1
  6
Continuous
 62
     7
100
AcDbCircle
 10
73.4795575812104
 20
272.7346402039815
 30
0.0
 40
2.641358795005954
100
AcDbArc
 50
328.7291301953152
 51
331.6546868768891
  0
ARC
  5
1CD
330
60
100
AcDbEntity
  8
1
  6
Continuous
 62
     7
100
AcDbCircle
 10
73.71689384010489
 20
272.6066055728447
 30
0.0
 40
2.37168980057696
100
AcDbArc
 50
331.6546868768872
 51
334.9119595528059
  0
ARC
  5
1CE
330
60
100
AcDbEntity
  8
1
  6
Continuous
 62
     7
100
AcDbCircle
 10
73.75058312501528
 20
272.5908329329221
 30
0.0
 40
2.334491089740273
100
AcDbArc
 50
334.9119595528068
 51
338.219968182275
  0
ARC
  5
1CF
330
60
100
AcDbEntity
  8
1
  6
Continuous
 62
     7
100
AcDbCircle
 10
73.95691942605438
 20
272.5083877032722
 30
0.0
 40
2.112293238673963
100
AcDbArc
 50
338.2199681822755
 51
341.876736130063
  0
ARC
  5
1D0
330
60
100
AcDbEntity
  8
1
  6
Continuous
 62
     7
100
AcDbCircle
 10
73.9787780270911
 20
272.5012333864488
 30
0.0
 40
2.08929361501413
100
AcDbArc
 50
341.8767361300636
 51
348.7976217525912
  0
ARC
  5
1D1
330
60
100
AcDbEntity
  8
1
  6
Continuous
 62
     7
100
AcDbCircle
 10
74.10620102939419
 20
272.4759974560564
 30
0.0
 40
1.959395679315751
100
AcDbArc
 50
348.7976217525889
 51
354.3329218835761
  0
ARC
  5
1D2
330
60
100
AcDbEntity
  8
1
  6
Continuous
 62
     7
100
AcDbCircle
 10
74.11119625887198
 20
272.475501764535
 30
0.0
 40
1.954375915614177
100
AcDbArc
 50
354.3329218835759
 51
358.0306705209233
  0
ARC
  5
1D3
330
60
100
AcDbEntity
  8
1
  6
Continuous
 62
     7
100
AcDbCircle
 10
74.26547312086859
 20
272.4701969816173
 30
0.0
 40
1.800007878542563
100
AcDbArc
 50
358.0306705209223
 51
0.03768308224288
  0
ARC
  5
1D4
330
60
100
AcDbEntity
  8
1
  6
Continuous
 62
     7
100
AcDbCircle
 10
58.91341326227925
 20
272.471380835657
 30
0.0
 40
5.000000000000197
100
AcDbArc
 50
124.0557977425664
 51
254.6624423304446
  0
ARC
  5
1D5
330
60
100
AcDbEntity
  8
1
  6
Continuous
 62
     7
100
AcDbCircle
 10
64.6465846824332
 20
272.4712115933301
 30
0.0
 40
1.885238775575594
100
AcDbArc
 50
176.1620820103329
 51
179.9948564228661
  0
ARC
  5
1D6
330
60
100
AcDbEntity
  8
1
  6
Continuous
 62
     7
100
AcDbCircle
 10
64.72040166261309
 20
272.4662596056207
 30
0.0
 40
1.959221670525413
100
AcDbArc
 50
170.6273989135991
 51
176.1620820103296
  0
ARC
  5
1D7
330
60
100
AcDbEntity
  8
1
  6
Continuous
 62
     7
100
AcDbCircle
 10
64.80463510002659
 20
272.4523562316929
 30
0.0
 40
2.044594826640594
100
AcDbArc
 50
165.3219284287158
 51
170.6273989136036
  0
ARC
  5
1D8
330
60
100
AcDbEntity
  8
1
  6
Continuous
 62
     7
100
AcDbCircle
 10
64.84734120783259
 20
272.4411699618306
 30
0.0
 40
2.088741675648931
100
AcDbArc
 50
160.0120569265422
 51
165.321928428715
  0
ARC
  5
1D9
330
60
100
AcDbEntity
  8
1
  6
Continuous
 62
     7
100
AcDbCircle
 10
64.9816339837453
 20
272.3923233895885
 30
0.0
 40
2.231642121002241
100
AcDbArc
 50
156.5516000346951
 51
160.0120569265442
  0
ARC
  5
1DA
330
60
100
AcDbEntity
  8
1
  6
Continuous
 62
     7
100
AcDbCircle
 10
65.0795706214762
 20
272.3498441627257
 30
0.0
 40
2.338394496736487
100
AcDbArc
 50
153.2486225522235
 51
156.5516000346905
  0
ARC
  5
1DB
330
60
100
AcDbEntity
  8
1
  6
Continuous
 62
     7
100
AcDbCircle
 10
65.2400300946965
 20
272.2689610923457
 30
0.0
 40
2.518086771529253
100
AcDbArc
 50
150.1801685742355
 51
153.2486225522277
  0
ARC
  5
1DC
330
60
100
AcDbEntity
  8
1
  6
Continuous
 62
     7
100
AcDbCircle
 10
65.34203174535489
 20
272.2104973019266
 30
0.0
 40
2.63565526870089
100
AcDbArc
 50
147.2483586702314
 51
150.1801685742316
  0
ARC
  5
1DD
330
60
100
AcDbEntity
  8
1
  6
Continuous
 62
     7
100
AcDbCircle
 10
65.50956823062569
 20
272.1027274283321
 30
0.0
 40
2.834860739387462
100
AcDbArc
 50
144.3719329968329
 51
147.2483586702351
  0
ARC
  5
1DE
330
60
100
AcDbEntity
  8
1
  6
Continuous
 62
     7
100
AcDbCircle
 10
65.61847517112568
 20
272.0246769948076
 30
0.0
 40
2.968848021852792
100
AcDbArc
 50
141.4818947159523
 51
144.3719329968308
  0
ARC
  5
1DF
330
60
100
AcDbEntity
  8
1
  6
Continuous
 62
     7
100
AcDbCircle
 10
65.821932461205
 20
271.8627347618854
 30
0.0
 40
3.228886779906818
100
AcDbArc
 50
138.824859465382
 51
141.4818947159543
  0
ARC
  5
1E0
330
60
100
AcDbEntity
  8
1
  6
Continuous
 62
     7
100
AcDbCircle
 10
65.95522164905438
 20
271.7461510124003
 30
0.0
 40
3.405968055714022
100
AcDbArc
 50
136.3054237398498
 51
138.8248594653794
  0
ARC
  5
1E1
330
60
100
AcDbEntity
  8
1
  6
Continuous
 62
     7
100
AcDbCircle
 10
66.19530645046657
 20
271.516764470283
 30
0.0
 40
3.738020608141682
100
AcDbArc
 50
134.0096025338457
 51
136.3054237398511
  0
ARC
  5
1E2
330
60
100
AcDbEntity
  8
1
  6
Continuous
 62
     7
100
AcDbCircle
 10
66.3431755794708
 20
271.3636928526412
 30
0.0
 40
3.95084964619785
100
AcDbArc
 50
131.7064476568601
 51
134.0096025338453
  0
ARC
  5
1E3
330
60
100
AcDbEntity
  8
1
  6
Continuous
 62
     7
100
AcDbCircle
 10
66.56118249792249
 20
271.1190626820909
 30
0.0
 40
4.27852469382321
100
AcDbArc
 50
129.4590238339891
 51
131.7064476568606
  0
ARC
  5
1E4
330
60
100
AcDbEntity
  8
1
  6
Continuous
 62
     7
100
AcDbCircle
 10
69.40414091878478
 20
281.0177435227873
 30
0.0
 40
12.11718326374995
100
AcDbArc
 50
263.5032268173083
 51
270.0438440344362
  0
ARC
  5
1E5
330
60
100
AcDbEntity
  8
1
  6
Continuous
 62
     7
100
AcDbCircle
 10
69.35895180525438
 20
280.6209250704765
 30
0.0
 40
11.71780006420847
100
AcDbArc
 50
261.2891985690304
 51
263.5032268173083
  0
ARC
  5
1E6
330
60
100
AcDbEntity
  8
1
  6
Continuous
 62
     7
100
AcDbCircle
 10
69.25864396084998
 20
279.9662358507301
 30
0.0
 40
11.05547111413806
100
AcDbArc
 50
258.9425083356334
 51
261.2891985690304
  0
ARC
  5
1E7
330
60
100
AcDbEntity
  8
1
  6
Continuous
 62
     7
100
AcDbCircle
 10
69.22760578916319
 20
279.807409329621
 30
0.0
 40
10.89364023973738
100
AcDbArc
 50
257.8024121134271
 51
258.9425083356333
  0
ARC
  5
1E8
330
60
100
AcDbEntity
  8
1
  6
Continuous
 62
     7
100
AcDbCircle
 10
69.1019142680492
 20
279.2259445075189
 30
0.0
 40
10.29874554500384
100
AcDbArc
 50
256.596446570291
 51
257.8024121134269
  0
ARC
  5
1E9
330
60
100
AcDbEntity
  8
1
  6
Continuous
 62
     7
100
AcDbCircle
 10
69.07695271215198
 20
279.1211956801807
 30
0.0
 40
10.19106362404425
100
AcDbArc
 50
255.377764355522
 51
256.5964465702913
  0
ARC
  5
1EA
330
60
100
AcDbEntity
  8
1
  6
Continuous
 62
     7
100
AcDbCircle
 10
68.94282857601789
 20
278.607103179987
 30
0.0
 40
9.659762972201008
100
AcDbArc
 50
254.0920608747217
 51
255.377764355522
  0
ARC
  5
1EB
330
60
100
AcDbEntity
  8
1
  6
Continuous
 62
     7
100
AcDbCircle
 10
68.89728504298148
 20
278.4473054065296
 30
0.0
 40
9.493601779970756
100
AcDbArc
 50
252.1710236241598
 51
254.0920608747218
  0
ARC
  5
1EC
330
60
100
AcDbEntity
  8
1
  6
Continuous
 62
     7
100
AcDbCircle
 10
68.64719431152389
 20
277.6697153014507
 30
0.0
 40
8.676783718541193
100
AcDbArc
 50
250.8300687939475
 51
252.1710236241598
  0
ARC
  5
1ED
330
60
100
AcDbEntity
  8
1
  6
Continuous
 62
     7
100
AcDbCircle
 10
68.64390011471087
 20
277.6602396479772
 30
0.0
 40
8.666751782467223
100
AcDbArc
 50
249.487588029974
 51
250.8300687939475
  0
ARC
  5
1EE
330
60
100
AcDbEntity
  8
1
  6
Continuous
 62
     7
100
AcDbCircle
 10
68.3854503598989
 20
276.9694406173006
 30
0.0
 40
7.92918851294653
100
AcDbArc
 50
248.0202792433316
 51
249.4875880299732
  0
ARC
  5
1EF
330
60
100
AcDbEntity
  8
1
  6
Continuous
 62
     7
100
AcDbCircle
 10
68.3794178992755
 20
276.9544945249481
 30
0.0
 40
7.913070936894643
100
AcDbArc
 50
246.5499418885872
 51
248.0202792433317
  0
ARC
  5
1F0
330
60
100
AcDbEntity
  8
1
  6
Continuous
 62
     7
100
AcDbCircle
 10
68.12727609493348
 20
276.373223044629
 30
0.0
 40
7.27946851949936
100
AcDbArc
 50
245.0176393976304
 51
246.5499418885879
  0
ARC
  5
1F1
330
60
100
AcDbEntity
  8
1
  6
Continuous
 62
     7
100
AcDbCircle
 10
68.06275862989668
 20
276.2347536113874
 30
0.0
 40
7.12670632772087
100
AcDbArc
 50
243.5199978643759
 51
245.0176393976299
  0
ARC
  5
1F2
330
60
100
AcDbEntity
  8
1
  6
Continuous
 62
     7
100
AcDbCircle
 10
67.7630491540923
 20
275.6331036122209
 30
0.0
 40
6.454539316194552
100
AcDbArc
 50
241.8664410765375
 51
243.5199978643763
  0
ARC
  5
1F3
330
60
100
AcDbEntity
  8
1
  6
Continuous
 62
     7
100
AcDbCircle
 10
67.70020814284229
 20
275.5155785816517
 30
0.0
 40
6.321268443513457
100
AcDbArc
 50
240.1781317899691
 51
241.8664410765381
  0
ARC
  5
1F4
330
60
100
AcDbEntity
  8
1
  6
Continuous
 62
     7
100
AcDbCircle
 10
67.43078319123089
 20
275.0455521717
 30
0.0
 40
5.779498537923489
100
AcDbArc
 50
238.3314573295382
 51
240.1781317899683
  0
ARC
  5
1F5
330
60
100
AcDbEntity
  8
1
  6
Continuous
 62
     7
100
AcDbCircle
 10
67.3739804784897
 20
274.953467695735
 30
0.0
 40
5.671303811210522
100
AcDbArc
 50
236.542611294929
 51
238.3314573295381
  0
ARC
  5
1F6
330
60
100
AcDbEntity
  8
1
  6
Continuous
 62
     7
100
AcDbCircle
 10
67.0148652813046
 20
274.4100261190289
 30
0.0
 40
5.019926445820628
100
AcDbArc
 50
235.5847901832761
 51
236.5426112949297
  0
ARC
  5
1F7
330
60
100
AcDbEntity
  8
1
  6
Continuous
 62
     7
100
AcDbCircle
 10
67.10172794658078
 20
274.536813628363
 30
0.0
 40
5.173615076311125
100
AcDbArc
 50
233.7260472034763
 51
235.5847901832753
  0
ARC
  5
1F8
330
60
100
AcDbEntity
  8
1
  6
Continuous
 62
     7
100
AcDbCircle
 10
66.71972904203218
 20
274.016289335542
 30
0.0
 40
4.527961374631094
100
AcDbArc
 50
231.602494995667
 51
233.7260472034772
  0
ARC
  5
1F9
330
60
100
AcDbEntity
  8
1
  6
Continuous
 62
     7
100
AcDbCircle
 10
66.70348370537258
 20
273.9957909881167
 30
0.0
 40
4.501806199037112
100
AcDbArc
 50
229.466724822974
 51
231.6024949956666
  0
ARC
  5
1FA
330
60
100
AcDbEntity
  8
1
  6
Continuous
 62
     7
100
AcDbCircle
 10
66.37793551486479
 20
273.6150709799865
 30
0.0
 40
4.000877712191413
100
AcDbArc
 50
227.062832923972
 51
229.4667248229726
  0
ARC
  5
1FB
330
60
100
AcDbEntity
  8
1
  6
Continuous
 62
     7
100
AcDbCircle
 10
66.3530222623123
 20
273.5882959790505
 30
0.0
 40
3.964304896769691
100
AcDbArc
 50
224.8983418682213
 51
227.062832923974
  0
ARC
  5
1FC
330
60
100
AcDbEntity
  8
1
  6
Continuous
 62
     7
100
AcDbCircle
 10
66.0011054498205
 20
273.2376257463588
 30
0.0
 40
3.467500050768344
100
AcDbArc
 50
222.423399652409
 51
224.898341868221
  0
ARC
  5
1FD
330
60
100
AcDbEntity
  8
1
  6
Continuous
 62
     7
100
AcDbCircle
 10
65.95534151632148
 20
273.1958032460624
 30
0.0
 40
3.405504412693163
100
AcDbArc
 50
219.9039292768765
 51
222.423399652408
  0
ARC
  5
1FE
330
60
100
AcDbEntity
  8
1
  6
Continuous
 62
     7
100
AcDbCircle
 10
65.65907732206938
 20
272.9480534061236
 30
0.0
 40
3.019301802674097
100
AcDbArc
 50
217.0624963767889
 51
219.9039292768778
  0
ARC
  5
1FF
330
60
100
AcDbEntity
  8
1
  6
Continuous
 62
     7
100
AcDbCircle
 10
65.61726552329188
 20
272.9164743923882
 30
0.0
 40
2.966904659378774
100
AcDbArc
 50
214.1696971019374
 51
217.0624963767883
  0
ARC
  5
200
330
60
100
AcDbEntity
  8
1
  6
Continuous
 62
     7
100
AcDbCircle
 10
65.36749775564988
 20
272.7469254323104
 30
0.0
 40
2.665025896269629
100
AcDbArc
 50
211.2708698046857
 51
214.1696971019362
  0
ARC
  5
201
330
60
100
AcDbEntity
  8
1
  6
Continuous
 62
     7
100
AcDbCircle
 10
65.3472689433483
 20
272.7346402039815
 30
0.0
 40
2.64135879500607
100
AcDbArc
 50
208.3453131231098
 51
211.2708698046849
  0
ARC
  5
202
330
60
100
AcDbEntity
  8
1
  6
Continuous
 62
     7
100
AcDbCircle
 10
65.10993268445378
 20
272.6066055728447
 30
0.0
 40
2.371689800576901
100
AcDbArc
 50
205.0880404471933
 51
208.3453131231119
  0
ARC
  5
203
330
60
100
AcDbEntity
  8
1
  6
Continuous
 62
     7
100
AcDbCircle
 10
65.07624339954339
 20
272.5908329329221
 30
0.0
 40
2.334491089740332
100
AcDbArc
 50
201.7800318177253
 51
205.0880404471924
  0
ARC
  5
204
330
60
100
AcDbEntity
  8
1
  6
Continuous
 62
     7
100
AcDbCircle
 10
64.86990709850429
 20
272.5083877032722
 30
0.0
 40
2.112293238673997
100
AcDbArc
 50
198.1232638699363
 51
201.7800318177248
  0
ARC
  5
205
330
60
100
AcDbEntity
  8
1
  6
Continuous
 62
     7
100
AcDbCircle
 10
64.84804849746769
 20
272.5012333864488
 30
0.0
 40
2.089293615014344
100
AcDbArc
 50
191.2023782474078
 51
198.1232638699346
  0
ARC
  5
206
330
60
100
AcDbEntity
  8
1
  6
Continuous
 62
     7
100
AcDbCircle
 10
64.72062549516448
 20
272.4759974560564
 30
0.0
 40
1.959395679315791
100
AcDbArc
 50
185.667078116424
 51
191.2023782474106
  0
ARC
  5
207
330
60
100
AcDbEntity
  8
1
  6
Continuous
 62
     7
100
AcDbCircle
 10
64.71563026568668
 20
272.475501764535
 30
0.0
 40
1.954375915614209
100
AcDbArc
 50
181.9693294790767
 51
185.6670781164242
  0
ARC
  5
208
330
60
100
AcDbEntity
  8
1
  6
Continuous
 62
     7
100
AcDbCircle
 10
64.56135340369008
 20
272.4701969816173
 30
0.0
 40
1.800007878542653
100
AcDbArc
 50
179.9623169177571
 51
181.9693294790776
  0
ARC
  5
209
330
60
100
AcDbEntity
  8
1
  6
Continuous
 62
     7
100
AcDbCircle
 10
69.41341326227945
 20
140.8420514725464
 30
0.0
 40
15.50000000000001
100
AcDbArc
 50
235.4146209151605
 51
240.6703753545156
  0
ARC
  5
20A
330
60
100
AcDbEntity
  8
1
  6
Continuous
 62
     7
100
AcDbCircle
 10
69.41341326227945
 20
140.8420514725464
 30
0.0
 40
10.50000000000001
100
AcDbArc
 50
316.3099599792354
 51
0.0
  0
ARC
  5
20B
330
60
100
AcDbEntity
  8
1
  6
Continuous
 62
     7
100
AcDbCircle
 10
69.41341326227945
 20
140.8420514725464
 30
0.0
 40
10.5
100
AcDbArc
 50
0.0
 51
223.6900400207642
  0
ARC
  5
20C
330
60
100
AcDbEntity
  8
1
  6
Continuous
 62
     7
100
AcDbCircle
 10
69.41341326227945
 20
140.8420514725464
 30
0.0
 40
8.19999999999998
100
AcDbArc
 50
337.8051260494282
 51
0.0
  0
ARC
  5
20D
330
60
100
AcDbEntity
  8
1
  6
Continuous
 62
     7
100
AcDbCircle
 10
69.41341326227945
 20
140.8420514725464
 30
0.0
 40
8.200000000000017
100
AcDbArc
 50
0.0
 51
202.1948739505723
  0
ARC
  5
20E
330
60
100
AcDbEntity
  8
1
  6
Continuous
 62
     7
100
AcDbCircle
 10
69.41341326227945
 20
140.8420514725464
 30
0.0
 40
15.50000000000004
100
AcDbArc
 50
55.41462091516107
 51
64.5853790848391
  0
ARC
  5
20F
330
60
100
AcDbEntity
  8
1
  6
Continuous
 62
     7
100
AcDbCircle
 10
69.41341326227945
 20
140.8420514725464
 30
0.0
 40
15.5
100
AcDbArc
 50
0.0
 51
4.58537908483926
  0
ARC
  5
210
330
60
100
AcDbEntity
  8
1
  6
Continuous
 62
     7
100
AcDbCircle
 10
69.41341326227945
 20
140.8420514725464
 30
0.0
 40
15.49999999999996
100
AcDbArc
 50
299.329624645484
 51
304.5853790848391
  0
ARC
  5
211
330
60
100
AcDbEntity
  8
1
  6
Continuous
 62
     7
100
AcDbCircle
 10
69.41341326227945
 20
140.8420514725464
 30
0.0
 40
15.50000000000014
100
AcDbArc
 50
180.0
 51
184.5853790848388
  0
ARC
  5
212
330
60
100
AcDbEntity
  8
1
  6
Continuous
 62
     7
100
AcDbCircle
 10
69.41341326227945
 20
140.8420514725464
 30
0.0
 40
15.50000000000002
100
AcDbArc
 50
115.4146209151612
 51
124.5853790848392
  0
ARC
  5
213
330
60
100
AcDbEntity
  8
1
  6
Continuous
 62
     7
100
AcDbCircle
 10
69.41341326227945
 20
140.8420514725464
 30
0.0
 40
15.50000000000016
100
AcDbArc
 50
175.4146209151608
 51
180.0
  0
ARC
  5
214
330
60
100
AcDbEntity
  8
1
  6
Continuous
 62
     7
100
AcDbCircle
 10
69.41341326227945
 20
140.8420514725464
 30
0.0
 40
15.49999999999996
100
AcDbArc
 50
355.4146209151612
 51
0.0
  0
SPLINE
  5
215
330
60
100
AcDbEntity
  8
1
  6
Continuous
 62
     7
100
AcDbSpline
210
0.0
220
0.0
230
1.0
 70
    11
 71
     3
 72
    79
 73
    75
 74
    73
 42
0.000000001
 43
0.0000000001
 44
0.00000001
 40
0.0
 40
0.0
 40
0.0
 40
0.0
 40
0.2903672471831651
 40
0.5807357518971573
 40
0.872407097735826
 40
1.164081911023912
 40
1.458189924522181
 40
1.75230292047272
 40
2.049663201046312
 40
2.34702910641529
 40
2.648045786115876
 40
2.94906793632533
 40
3.253697746552294
 40
3.558332275329908
 40
3.86610485778001
 40
4.173881019540044
 40
4.483966061108325
 40
4.794053321447482
 40
5.105362217358452
 40
5.416671863434601
 40
5.727981509499951
 40
6.039290405378592
 40
6.349377665663591
 40
6.659462707155391
 40
6.967238868816699
 40
7.275011451144576
 40
7.57964597977734
 40
7.884275789834328
 40
8.185297939849566
 40
8.486314619328386
 40
8.783680524448775
 40
9.08104080474086
 40
9.375153800374092
 40
9.66926181350223
 40
9.960936626337189
 40
10.25260797152397
 40
10.54297647485865
 40
10.83334373090414
 40
11.12371098694969
 40
11.41407949028443
 40
11.7057508354712
 40
11.99742564830618
 40
12.29153366143427
 40
12.58564665706747
 40
12.88300693735952
 40
13.18037284248001
 40
13.48138952195876
 40
13.78241167197401
 40
14.08704148203103
 40
14.39167601066376
 40
14.69944859299172
 40
15.007224754653
 40
15.31730979614478
 40
15.62739705642977
 40
15.93870595230841
 40
16.25001559837376
 40
16.56132524444985
 40
16.87263414036088
 40
17.18272140070007
 40
17.49280644226829
 40
17.8005826040283
 40
18.10835518647842
 40
18.41298971525607
 40
18.71761952548307
 40
19.0186416756925
 40
19.31965835539305
 40
19.61702426076205
 40
19.91438454133561
 40
20.20849753728616
 40
20.50260555078442
 40
20.79428036407252
 40
21.08595170991119
 40
21.37632021462523
 40
21.66668746180846
 40
21.66668746180846
 40
21.66668746180846
 40
21.66668746180846
 10
57.28905760929703
 20
268.9006666213857
 30
0.0
 10
57.19223380258737
 20
268.9032982187063
 30
0.0
 10
56.99858576967165
 20
268.9085614195247
 30
0.0
 10
56.7102248933649
 20
268.9508564917068
 30
0.0
 10
56.42651274938568
 20
269.0180673842
 30
0.0
 10
56.14908768660002
 20
269.1121225494695
 30
0.0
 10
55.88076677521888
 20
269.2315540071529
 30
0.0
 10
55.622767011848
 20
269.3758295026392
 30
0.0
 10
55.37796500859164
 20
269.543433577842
 30
0.0
 10
55.14726878352941
 20
269.733596132002
 30
0.0
 10
54.93337307625271
 20
269.9442188523137
 30
0.0
 10
54.73699953367327
 20
270.1744404681455
 30
0.0
 10
54.56045018850978
 20
270.4216768915435
 30
0.0
 10
54.40434739183949
 20
270.6849110657901
 30
0.0
 10
54.2704583772301
 20
270.961274620372
 30
0.0
 10
54.15933036022697
 20
271.2494880642334
 30
0.0
 10
54.07213960024494
 20
271.5466265073863
 30
0.0
 10
54.00931399360463
 20
271.851049661418
 30
0.0
 10
53.97146544364954
 20
272.1599862737102
 30
0.0
 10
53.95880318151121
 20
272.4713808262848
 30
0.0
 10
53.97146544328797
 20
272.7827753788616
 30
0.0
 10
54.00931399288071
 20
273.0917119911702
 30
0.0
 10
54.07213959915671
 20
273.3961351452047
 30
0.0
 10
54.15933035877215
 20
273.6932735884479
 30
0.0
 10
54.2704583754048
 20
273.9814870321141
 30
0.0
 10
54.40434738963983
 20
274.2578505876023
 30
0.0
 10
54.56045018592974
 20
274.521084758724
 30
0.0
 10
54.73699953070695
 20
274.7683211939884
 30
0.0
 10
54.93337307289191
 20
274.9985427663646
 30
0.0
 10
55.14726877976476
 20
275.2091656481815
 30
0.0
 10
55.37796500441004
 20
275.3993276070582
 30
0.0
 10
55.62276700723216
 20
275.5669338906519
 30
0.0
 10
55.88076677014035
 20
275.7112012311131
 30
0.0
 10
56.14908768101286
 20
275.8306629704517
 30
0.0
 10
56.42651274316803
 20
275.9246060175058
 30
0.0
 10
56.71022488620848
 20
275.992233989943
 30
0.0
 10
56.99858576439019
 20
276.0329791147857
 30
0.0
 10
57.28905760929704
 20
276.0466529927106
 30
0.0
 10
57.57952945420395
 20
276.0329791147856
 30
0.0
 10
57.86789033238567
 20
275.9922339899431
 30
0.0
 10
58.15160247542615
 20
275.9246060175059
 30
0.0
 10
58.42902753758128
 20
275.8306629704516
 30
0.0
 10
58.69734844845379
 20
275.7112012311133
 30
0.0
 10
58.95534821136191
 20
275.5669338906517
 30
0.0
 10
59.20015021418416
 20
275.3993276070585
 30
0.0
 10
59.43084643882936
 20
275.2091656481814
 30
0.0
 10
59.64474214570227
 20
274.9985427663646
 30
0.0
 10
59.84111568788714
 20
274.7683211939883
 30
0.0
 10
60.01766503266428
 20
274.521084758724
 30
0.0
 10
60.17376782895428
 20
274.2578505876023
 30
0.0
 10
60.30765684318934
 20
273.981487032114
 30
0.0
 10
60.41878485982209
 20
273.6932735884481
 30
0.0
 10
60.50597561943744
 20
273.3961351452047
 30
0.0
 10
60.56880122571334
 20
273.0917119911703
 30
0.0
 10
60.60664977530611
 20
272.7827753788616
 30
0.0
 10
60.61931203708289
 20
272.4713808262848
 30
0.0
 10
60.60664977494456
 20
272.1599862737103
 30
0.0
 10
60.56880122498941
 20
271.8510496614178
 30
0.0
 10
60.50597561834925
 20
271.5466265073863
 30
0.0
 10
60.4187848583672
 20
271.2494880642333
 30
0.0
 10
60.30765684136416
 20
270.9612746203719
 30
0.0
 10
60.17376782675474
 20
270.6849110657902
 30
0.0
 10
60.01766503008434
 20
270.4216768915434
 30
0.0
 10
59.84111568492083
 20
270.1744404681455
 30
0.0
 10
59.6447421423414
 20
269.9442188523137
 30
0.0
 10
59.43084643506478
 20
269.733596132002
 30
0.0
 10
59.20015021000256
 20
269.5434335778419
 30
0.0
 10
58.95534820674617
 20
269.3758295026392
 30
0.0
 10
58.6973484433753
 20
269.2315540071529
 30
0.0
 10
58.42902753199417
 20
269.1121225494695
 30
0.0
 10
58.15160246920848
 20
269.0180673842001
 30
0.0
 10
57.86789032522928
 20
268.9508564917067
 30
0.0
 10
57.57952944892243
 20
268.9085614195247
 30
0.0
 10
57.38588141600674
 20
268.9032982187064
 30
0.0
 10
57.28905760929703
 20
268.9006666213857
 30
0.0
 11
57.28905760929703
 21
268.9006666213857
 31
0.0
 11
56.99900984749901
 21
268.9142842342382
 31
0.0
 11
56.71149792296333
 21
268.9549137936517
 31
0.0
 11
56.42776061309475
 21
269.0224808914902
 31
0.0
 11
56.15148709543954
 21
269.1160070375709
 31
0.0
 11
55.88277003334079
 21
269.2355506030086
 31
0.0
 11
55.62604077234084
 21
269.3790516164438
 31
0.0
 11
55.38062348255868
 21
269.5469607891505
 31
0.0
 11
55.15112437430594
 21
269.7360550538485
 31
0.0
 11
54.93656981526908
 21
269.9471886196782
 31
0.0
 11
54.74116799576976
 21
270.1761699809919
 31
0.0
 11
54.56406459062953
 21
270.4240282169893
 31
0.0
 11
54.40862795384635
 21
270.6860237285214
 31
0.0
 11
54.27437472522324
 21
270.9629714367883
 31
0.0
 11
54.16360830943606
 21
271.250124648317
 31
0.0
 11
54.07625055396307
 21
271.5476500347643
 31
0.0
 11
54.01355386044835
 21
271.8513328193794
 31
0.0
 11
53.9756714404792
 21
272.1603282092518
 31
0.0
 11
53.96302393538454
 21
272.471380835657
 31
0.0
 11
53.9756714404792
 21
272.7824334620622
 31
0.0
 11
54.01355386044835
 21
273.0914288519348
 31
0.0
 11
54.07625055396305
 21
273.39511163655
 31
0.0
 11
54.16360830943606
 21
273.6926370229973
 31
0.0
 11
54.27437472522325
 21
273.9797902345259
 31
0.0
 11
54.40862795384635
 21
274.2567379427928
 31
0.0
 11
54.56406459062951
 21
274.5187334543251
 31
0.0
 11
54.74116799576976
 21
274.7665916903225
 31
0.0
 11
54.93656981526907
 21
274.9955730516361
 31
0.0
 11
55.15112437430594
 21
275.2067066174657
 31
0.0
 11
55.38062348255863
 21
275.3958008821635
 31
0.0
 11
55.62604077234076
 21
275.5637100548703
 31
0.0
 11
55.88277003334075
 21
275.7072110683054
 31
0.0
 11
56.15148709543954
 21
275.8267546337432
 31
0.0
 11
56.42776061309475
 21
275.920280779824
 31
0.0
 11
56.71149792296333
 21
275.9878478776626
 31
0.0
 11
56.999009847499
 21
276.0284774370762
 31
0.0
 11
57.28905760929703
 21
276.0420950499286
 31
0.0
 11
57.57910537109512
 21
276.0284774370762
 31
0.0
 11
57.86661729563084
 21
275.9878478776626
 31
0.0
 11
58.15035460549942
 21
275.920280779824
 31
0.0
 11
58.42662812315464
 21
275.8267546337432
 31
0.0
 11
58.69534518525338
 21
275.7072110683054
 31
0.0
 11
58.95207444625334
 21
275.5637100548703
 31
0.0
 11
59.1974917360355
 21
275.3958008821637
 31
0.0
 11
59.42699084428824
 21
275.2067066174657
 31
0.0
 11
59.64154540332507
 21
274.9955730516362
 31
0.0
 11
59.83694722282433
 21
274.7665916903225
 31
0.0
 11
60.01405062796454
 21
274.518733454325
 31
0.0
 11
60.16948726474774
 21
274.2567379427928
 31
0.0
 11
60.30374049337091
 21
273.9797902345259
 31
0.0
 11
60.41450690915815
 21
273.6926370229973
 31
0.0
 11
60.5018646646311
 21
273.39511163655
 31
0.0
 11
60.56456135814574
 21
273.0914288519348
 31
0.0
 11
60.60244377811488
 21
272.7824334620622
 31
0.0
 11
60.61509128320955
 21
272.471380835657
 31
0.0
 11
60.60244377811489
 21
272.1603282092519
 31
0.0
 11
60.56456135814574
 21
271.8513328193794
 31
0.0
 11
60.50186466463109
 21
271.5476500347642
 31
0.0
 11
60.41450690915815
 21
271.250124648317
 31
0.0
 11
60.30374049337101
 21
270.9629714367883
 31
0.0
 11
60.16948726474787
 21
270.6860237285214
 31
0.0
 11
60.01405062796461
 21
270.4240282169893
 31
0.0
 11
59.83694722282433
 21
270.1761699809919
 31
0.0
 11
59.64154540332505
 21
269.9471886196782
 31
0.0
 11
59.42699084428824
 21
269.7360550538485
 31
0.0
 11
59.19749173603552
 21
269.5469607891505
 31
0.0
 11
58.95207444625334
 21
269.3790516164438
 31
0.0
 11
58.69534518525339
 21
269.2355506030086
 31
0.0
 11
58.42662812315464
 21
269.1160070375709
 31
0.0
 11
58.15035460549942
 21
269.0224808914902
 31
0.0
 11
57.86661729563084
 21
268.9549137936517
 31
0.0
 11
57.57910537109511
 21
268.9142842342382
 31
0.0
 11
57.28905760929703
 21
268.9006666213857
 31
0.0
  0
SPLINE
  5
216
330
60
100
AcDbEntity
  8
1
  6
Continuous
 62
     7
100
AcDbSpline
210
0.0
220
0.0
230
1.0
 70
    11
 71
     3
 72
    79
 73
    75
 74
    73
 42
0.000000001
 43
0.0000000001
 44
0.00000001
 40
0.0
 40
0.0
 40
0.0
 40
0.0
 40
0.2903672471832148
 40
0.5807357518972422
 40
0.8724070977359178
 40
1.164081911023997
 40
1.458189924522227
 40
1.752302920472729
 40
2.049663201046324
 40
2.347029106415371
 40
2.648045786115947
 40
2.949067936325373
 40
3.253697746552325
 40
3.558332275329932
 40
3.866104857780061
 40
4.173881019540116
 40
4.483966061108401
 40
4.794053321447555
 40
5.105362217358514
 40
5.416671863434662
 40
5.727981509500011
 40
6.039290405378643
 40
6.349377665663634
 40
6.659462707155442
 40
6.967238868816769
 40
7.275011451144675
 40
7.579645979777397
 40
7.884275789834403
 40
8.185297939849612
 40
8.486314619328432
 40
8.783680524448874
 40
9.081040804740956
 40
9.375153800374168
 40
9.66926181350226
 40
9.960936626337226
 40
10.25260797152401
 40
10.54297647485873
 40
10.83334373090427
 40
11.12371098694976
 40
11.41407949028443
 40
11.70575083547121
 40
11.99742564830619
 40
12.29153366143429
 40
12.58564665706749
 40
12.88300693735959
 40
13.18037284248011
 40
13.48138952195892
 40
13.78241167197406
 40
14.08704148203111
 40
14.39167601066385
 40
14.69944859299178
 40
15.00722475465303
 40
15.31730979614483
 40
15.62739705642983
 40
15.93870595230847
 40
16.25001559837382
 40
16.56132524444991
 40
16.87263414036094
 40
17.18272140070015
 40
17.49280644226838
 40
17.80058260402836
 40
18.10835518647852
 40
18.41298971525607
 40
18.71761952548309
 40
19.01864167569251
 40
19.31965835539307
 40
19.61702426076211
 40
19.91438454133571
 40
20.20849753728623
 40
20.50260555078454
 40
20.79428036407264
 40
21.0859517099113
 40
21.37632021462528
 40
21.66668746180846
 40
21.66668746180846
 40
21.66668746180846
 40
21.66668746180846
 10
81.5377689152615
 20
268.9006666213857
 30
0.0
 10
81.6345927219712
 20
268.9032982187064
 30
0.0
 10
81.82824075488683
 20
268.9085614195247
 30
0.0
 10
82.11660163119376
 20
268.9508564917068
 30
0.0
 10
82.4003137751729
 20
269.0180673842001
 30
0.0
 10
82.6777388379586
 20
269.1121225494695
 30
0.0
 10
82.9460597493397
 20
269.2315540071529
 30
0.0
 10
83.2040595127105
 20
269.3758295026392
 30
0.0
 10
83.44886151596698
 20
269.543433577842
 30
0.0
 10
83.67955774102919
 20
269.7335961320019
 30
0.0
 10
83.8934534483059
 20
269.9442188523138
 30
0.0
 10
84.08982699088529
 20
270.1744404681455
 30
0.0
 10
84.26637633604876
 20
270.4216768915434
 30
0.0
 10
84.42247913271902
 20
270.6849110657902
 30
0.0
 10
84.55636814732847
 20
270.9612746203719
 30
0.0
 10
84.66749616433168
 20
271.2494880642333
 30
0.0
 10
84.75468692431372
 20
271.5466265073863
 30
0.0
 10
84.81751253095403
 20
271.8510496614179
 30
0.0
 10
84.855361080909
 20
272.1599862737103
 30
0.0
 10
84.8680233430473
 20
272.4713808262848
 30
0.0
 10
84.85536108127062
 20
272.7827753788617
 30
0.0
 10
84.81751253167792
 20
273.0917119911702
 30
0.0
 10
84.75468692540198
 20
273.3961351452047
 30
0.0
 10
84.66749616578647
 20
273.6932735884479
 30
0.0
 10
84.55636814915378
 20
273.9814870321141
 30
0.0
 10
84.4224791349187
 20
274.2578505876023
 30
0.0
 10
84.26637633862873
 20
274.521084758724
 30
0.0
 10
84.0898269938516
 20
274.7683211939882
 30
0.0
 10
83.8934534516667
 20
274.9985427663646
 30
0.0
 10
83.67955774479381
 20
275.2091656481813
 30
0.0
 10
83.44886152014858
 20
275.3993276070585
 30
0.0
 10
83.20405951732636
 20
275.5669338906517
 30
0.0
 10
82.94605975441821
 20
275.7112012311131
 30
0.0
 10
82.67773884354575
 20
275.8306629704517
 30
0.0
 10
82.40031378139057
 20
275.9246060175058
 30
0.0
 10
82.11660163835015
 20
275.9922339899432
 30
0.0
 10
81.82824076016837
 20
276.0329791147856
 30
0.0
 10
81.53776891526152
 20
276.0466529927106
 30
0.0
 10
81.24729707035465
 20
276.0329791147856
 30
0.0
 10
80.95893619217296
 20
275.9922339899431
 30
0.0
 10
80.67522404913251
 20
275.9246060175058
 30
0.0
 10
80.39779898697734
 20
275.8306629704517
 30
0.0
 10
80.12947807610486
 20
275.7112012311131
 30
0.0
 10
79.8714783131967
 20
275.5669338906517
 30
0.0
 10
79.62667631037442
 20
275.3993276070585
 30
0.0
 10
79.39598008572912
 20
275.2091656481814
 30
0.0
 10
79.18208437885637
 20
274.9985427663646
 30
0.0
 10
78.98571083667143
 20
274.7683211939882
 30
0.0
 10
78.80916149189427
 20
274.5210847587241
 30
0.0
 10
78.65305869560423
 20
274.2578505876023
 30
0.0
 10
78.51916968136928
 20
273.9814870321142
 30
0.0
 10
78.40804166473656
 20
273.6932735884479
 30
0.0
 10
78.32085090512119
 20
273.3961351452047
 30
0.0
 10
78.25802529884513
 20
273.0917119911703
 30
0.0
 10
78.22017674925243
 20
272.7827753788616
 30
0.0
 10
78.20751448747563
 20
272.4713808262848
 30
0.0
 10
78.220176749614
 20
272.1599862737103
 30
0.0
 10
78.25802529956907
 20
271.851049661418
 30
0.0
 10
78.32085090620936
 20
271.5466265073863
 30
0.0
 10
78.40804166619142
 20
271.2494880642334
 30
0.0
 10
78.51916968319455
 20
270.9612746203719
 30
0.0
 10
78.65305869780391
 20
270.6849110657902
 30
0.0
 10
78.80916149447424
 20
270.4216768915435
 30
0.0
 10
78.98571083963768
 20
270.1744404681455
 30
0.0
 10
79.1820843822171
 20
269.9442188523138
 30
0.0
 10
79.39598008949378
 20
269.733596132002
 30
0.0
 10
79.626676314556
 20
269.5434335778419
 30
0.0
 10
79.87147831781243
 20
269.3758295026392
 30
0.0
 10
80.12947808118335
 20
269.231554007153
 30
0.0
 10
80.39779899256443
 20
269.1121225494695
 30
0.0
 10
80.67522405535018
 20
269.0180673842002
 30
0.0
 10
80.95893619932932
 20
268.9508564917066
 30
0.0
 10
81.24729707563614
 20
268.9085614195247
 30
0.0
 10
81.44094510855183
 20
268.9032982187064
 30
0.0
 10
81.5377689152615
 20
268.9006666213857
 30
0.0
 11
81.5377689152615
 21
268.9006666213857
 31
0.0
 11
81.82781667705956
 21
268.9142842342382
 31
0.0
 11
82.11532860159528
 21
268.9549137936517
 31
0.0
 11
82.39906591146386
 21
269.0224808914902
 31
0.0
 11
82.67533942911908
 21
269.1160070375709
 31
0.0
 11
82.94405649121778
 21
269.2355506030086
 31
0.0
 11
83.20078575221768
 21
269.3790516164438
 31
0.0
 11
83.4462030419999
 21
269.5469607891505
 31
0.0
 11
83.67570215025268
 21
269.7360550538485
 31
0.0
 11
83.89025670928952
 21
269.9471886196782
 31
0.0
 11
84.0856585287888
 21
270.1761699809919
 31
0.0
 11
84.262761933929
 21
270.4240282169893
 31
0.0
 11
84.41819857071218
 21
270.6860237285214
 31
0.0
 11
84.55245179933534
 21
270.9629714367883
 31
0.0
 11
84.66321821512258
 21
271.250124648317
 31
0.0
 11
84.75057597059559
 21
271.5476500347643
 31
0.0
 11
84.81327266411029
 21
271.8513328193794
 31
0.0
 11
84.85115508407935
 21
272.1603282092518
 31
0.0
 11
84.86380258917399
 21
272.471380835657
 31
0.0
 11
84.85115508407937
 21
272.7824334620622
 31
0.0
 11
84.81327266411029
 21
273.0914288519348
 31
0.0
 11
84.75057597059562
 21
273.39511163655
 31
0.0
 11
84.66321821512258
 21
273.6926370229973
 31
0.0
 11
84.55245179933534
 21
273.9797902345259
 31
0.0
 11
84.41819857071218
 21
274.2567379427928
 31
0.0
 11
84.262761933929
 21
274.518733454325
 31
0.0
 11
84.0856585287888
 21
274.7665916903225
 31
0.0
 11
83.89025670928953
 21
274.9955730516361
 31
0.0
 11
83.67570215025268
 21
275.2067066174657
 31
0.0
 11
83.44620304199995
 21
275.3958008821636
 31
0.0
 11
83.2007857522178
 21
275.5637100548703
 31
0.0
 11
82.94405649121782
 21
275.7072110683054
 31
0.0
 11
82.67533942911908
 21
275.8267546337432
 31
0.0
 11
82.39906591146386
 21
275.920280779824
 31
0.0
 11
82.11532860159528
 21
275.9878478776626
 31
0.0
 11
81.82781667705957
 21
276.0284774370762
 31
0.0
 11
81.5377689152615
 21
276.0420950499286
 31
0.0
 11
81.24772115346346
 21
276.0284774370762
 31
0.0
 11
80.9602092289278
 21
275.9878478776626
 31
0.0
 11
80.67647191905922
 21
275.920280779824
 31
0.0
 11
80.400198401404
 21
275.8267546337432
 31
0.0
 11
80.13148133930524
 21
275.7072110683054
 31
0.0
 11
79.87475207830528
 21
275.5637100548703
 31
0.0
 11
79.62933478852307
 21
275.3958008821637
 31
0.0
 11
79.39983568027029
 21
275.2067066174657
 31
0.0
 11
79.1852811212335
 21
274.9955730516361
 31
0.0
 11
78.98987930173428
 21
274.7665916903225
 31
0.0
 11
78.812775896594
 21
274.518733454325
 31
0.0
 11
78.65733925981078
 21
274.2567379427928
 31
0.0
 11
78.52308603118769
 21
273.9797902345259
 31
0.0
 11
78.41231961540049
 21
273.6926370229973
 31
0.0
 11
78.3249618599275
 21
273.39511163655
 31
0.0
 11
78.26226516641279
 21
273.0914288519348
 31
0.0
 11
78.22438274644364
 21
272.7824334620622
 31
0.0
 11
78.21173524134898
 21
272.471380835657
 31
0.0
 11
78.22438274644364
 21
272.1603282092519
 31
0.0
 11
78.26226516641279
 21
271.8513328193794
 31
0.0
 11
78.3249618599275
 21
271.5476500347642
 31
0.0
 11
78.41231961540049
 21
271.250124648317
 31
0.0
 11
78.52308603118767
 21
270.9629714367884
 31
0.0
 11
78.65733925981078
 21
270.6860237285214
 31
0.0
 11
78.81277589659396
 21
270.4240282169894
 31
0.0
 11
78.98987930173419
 21
270.1761699809919
 31
0.0
 11
79.18528112123347
 21
269.9471886196782
 31
0.0
 11
79.39983568027029
 21
269.7360550538485
 31
0.0
 11
79.62933478852305
 21
269.5469607891505
 31
0.0
 11
79.87475207830528
 21
269.3790516164438
 31
0.0
 11
80.13148133930522
 21
269.2355506030087
 31
0.0
 11
80.400198401404
 21
269.1160070375709
 31
0.0
 11
80.67647191905922
 21
269.0224808914902
 31
0.0
 11
80.9602092289278
 21
268.9549137936517
 31
0.0
 11
81.24772115346347
 21
268.9142842342382
 31
0.0
 11
81.5377689152615
 21
268.9006666213857
 31
0.0
  0
SPLINE
  5
217
330
60
100
AcDbEntity
  8
1
  6
Continuous
 62
     7
100
AcDbSpline
210
0.0
220
0.0
230
1.0
 70
    11
 71
     3
 72
    79
 73
    75
 74
    73
 42
0.000000001
 43
0.0000000001
 44
0.00000001
 40
0.0
 40
0.0
 40
0.0
 40
0.0
 40
0.310261558225325
 40
0.6205595420823998
 40
0.9422162975293602
 40
1.263944872754391
 40
1.606039020845107
 40
1.948193468906759
 40
2.31605188519043
 40
2.683951048240047
 40
3.079084664080211
 40
3.474244780173422
 40
3.894897959207634
 40
4.315568207494644
 40
4.757452126736814
 40
5.199346674242007
 40
5.656354161987164
 40
6.113367478657977
 40
6.578223037733408
 40
7.043080455843288
 40
7.507937873950784
 40
7.972793433019213
 40
8.429806749677736
 40
8.886814237403287
 40
9.328708784880149
 40
9.770592704081274
 40
10.19126295231281
 40
10.61191613126973
 40
11.00707624726336
 40
11.40220986296871
 40
11.77010902584979
 40
12.13796744190978
 40
12.48012188969644
 40
12.82221603741952
 40
13.14394461216164
 40
13.46560136682488
 40
13.77589934864151
 40
14.08616091447241
 40
14.39642248030352
 40
14.70672046212026
 40
15.0283772167835
 40
15.35010579152562
 40
15.692199939249
 40
16.03435438703591
 40
16.40221280309567
 40
16.77011196597654
 40
17.16524558168216
 40
17.5604056976761
 40
17.98105887663269
 40
18.40172912486399
 40
18.84361304406516
 40
19.28550759154207
 40
19.74251507926777
 40
20.19952839592641
 40
20.66438395499484
 40
21.12924137310237
 40
21.59409879121221
 40
22.05895435028762
 40
22.51596766695848
 40
22.97297515470379
 40
23.41486970220885
 40
23.85675362145095
 40
24.27742386973785
 40
24.69807704877198
 40
25.09323716486539
 40
25.48837078070581
 40
25.85626994375501
 40
26.22412836003825
 40
26.56628280810026
 40
26.90837695619155
 40
27.23010553141634
 40
27.55176228686308
 40
27.86206027071985
 40
28.1723218289449
 40
28.1723218289449
 40
28.1723218289449
 40
28.1723218289449
 10
171.2200179756623
 20
142.371891801736
 30
0.0
 10
171.1166093639556
 20
142.3776488334896
 30
0.0
 10
170.9097799994809
 20
142.3891635646283
 30
0.0
 10
170.6020401382235
 20
142.4582848384058
 30
0.0
 10
170.301805064953
 20
142.5647230631654
 30
0.0
 10
170.0073097360418
 20
142.7120730332291
 30
0.0
 10
169.7260153866915
 20
142.8958881776929
 30
0.0
 10
169.4541845063651
 20
143.1184187074689
 30
0.0
 10
169.1997847013399
 20
143.3729751251007
 30
0.0
 10
168.9588340912484
 20
143.6634924463233
 30
0.0
 10
168.7384493461396
 20
143.981039432851
 30
0.0
 10
168.5354704390597
 20
144.330384222654
 30
0.0
 10
168.3554092843775
 20
144.7015548037143
 30
0.0
 10
168.1963243235919
 20
145.0989546541273
 30
0.0
 10
168.0618936527782
 20
145.5128052525558
 30
0.0
 10
167.9513191243762
 20
145.946133552887
 30
0.0
 10
167.8665913113755
 20
146.390381028627
 30
0.0
 10
167.8076969951541
 20
146.8464836707399
 30
0.0
 10
167.7753225080614
 20
147.3078542623595
 30
0.0
 10
167.7697291454051
 20
147.7729342031506
 30
0.0
 10
167.7908159927796
 20
148.2375695245523
 30
0.0
 10
167.8385454971839
 20
148.6976052021243
 30
0.0
 10
167.9126045754061
 20
149.151492207345
 30
0.0
 10
168.0120877883357
 20
149.5926698500921
 30
0.0
 10
168.1370395347103
 20
150.0220731602467
 30
0.0
 10
168.2851851744655
 20
150.4312146933678
 30
0.0
 10
168.4574232706966
 20
150.8230931162591
 30
0.0
 10
168.649751947387
 20
151.1880579349935
 30
0.0
 10
168.864258407509
 20
151.5304453383431
 30
0.0
 10
169.0951015361352
 20
151.8404730488495
 30
0.0
 10
169.3455984495212
 20
152.1227993639532
 30
0.0
 10
169.6083389505527
 20
152.3687418863946
 30
0.0
 10
169.8874334282841
 20
152.5820770036255
 30
0.0
 10
170.1746972144919
 20
152.7564690094924
 30
0.0
 10
170.4739357231671
 20
152.8937423716787
 30
0.0
 10
170.7775616778625
 20
152.9907803431095
 30
0.0
 10
171.0873939643268
 20
153.0472188533851
 30
0.0
 10
171.3981827024696
 20
153.0629963454683
 30
0.0
 10
171.7082731572171
 20
153.0368720485878
 30
0.0
 10
172.0160528551476
 20
152.970141180771
 30
0.0
 10
172.3162768823931
 20
152.863040192313
 30
0.0
 10
172.6107752456461
 20
152.715872345684
 30
0.0
 10
172.8920687323445
 20
152.5320054674326
 30
0.0
 10
173.1638998516679
 20
152.3094893055217
 30
0.0
 10
173.41829958759
 20
152.0549287634304
 30
0.0
 10
173.6592502165097
 20
151.7644125913521
 30
0.0
 10
173.8796349558546
 20
151.4468652752244
 30
0.0
 10
174.0826138642263
 20
151.097520577021
 30
0.0
 10
174.2626750182759
 20
150.726349969896
 30
0.0
 10
174.4217599790113
 20
150.3289501266792
 30
0.0
 10
174.5561906496495
 20
149.9150995262267
 30
0.0
 10
174.6667651779394
 20
149.4817712264501
 30
0.0
 10
174.7514929908335
 20
149.0375237505574
 30
0.0
 10
174.8103873069642
 20
148.5814211084877
 30
0.0
 10
174.842761793974
 20
148.1200505168581
 30
0.0
 10
174.8483551565522
 20
147.6549705760723
 30
0.0
 10
174.8272683090999
 20
147.1903352546678
 30
0.0
 10
174.7795388046137
 20
146.7302995771086
 30
0.0
 10
174.7054797262985
 20
146.2764125718477
 30
0.0
 10
174.6059965132669
 20
145.8352349292567
 30
0.0
 10
174.4810447667615
 20
145.4058316185515
 30
0.0
 10
174.3328991268986
 20
144.9966900874594
 30
0.0
 10
174.1606610303783
 20
144.6048116573774
 30
0.0
 10
173.9683323539248
 20
144.2398468647141
 30
0.0
 10
173.7538258920412
 20
143.8974593697729
 30
0.0
 10
173.5229827686358
 20
143.5874319888758
 30
0.0
 10
173.2724858357783
 20
143.3051045246385
 30
0.0
 10
173.0097454031105
 20
143.0591661266688
 30
0.0
 10
172.7306506855021
 20
142.845816641587
 30
0.0
 10
172.4433877609047
 20
142.6714763695254
 30
0.0
 10
172.1441462164839
 20
142.5340208839277
 30
0.0
 10
171.8405313053644
 20
142.4376456762364
 30
0.0
 10
171.530659184474
 20
142.3788167599625
 30
0.0
 10
171.3235609930777
 20
142.3742000335725
 30
0.0
 10
171.2200179756623
 20
142.371891801736
 30
0.0
 11
171.2200179756623
 21
142.371891801736
 31
0.0
 11
170.9108286866727
 21
142.3976643238902
 31
0.0
 11
170.6075473616873
 21
142.4632789222939
 31
0.0
 11
170.3043977044513
 21
142.5708119554873
 31
0.0
 11
170.0163913119163
 21
142.7142050994866
 31
0.0
 11
169.7296675135081
 21
142.9008005694574
 31
0.0
 11
169.4645118037833
 21
143.1170460683943
 31
0.0
 11
169.2040150851446
 21
143.3767791504492
 31
0.0
 11
168.9686774168763
 21
143.6595617100251
 31
0.0
 11
168.7429317508978
 21
143.9838601352553
 31
0.0
 11
168.5439538281394
 21
144.3252679611337
 31
0.0
 11
168.3599650565967
 21
144.7035499048646
 31
0.0
 11
168.2032460488933
 21
145.0939376741444
 31
0.0
 11
168.0664429165402
 21
145.5141118059684
 31
0.0
 11
167.9569063126063
 21
145.9422152087921
 31
0.0
 11
167.871110471342
 21
146.3910970612611
 31
0.0
 11
167.8124195275101
 21
146.8443260814354
 31
0.0
 11
167.7798165710223
 21
147.3080369159381
 31
0.0
 11
167.7741758514573
 21
147.772860109701
 31
0.0
 11
167.7953014746418
 21
148.2372372486969
 31
0.0
 11
167.8433372991923
 21
148.6996042569993
 31
0.0
 11
167.9170973681769
 21
149.1506260123941
 31
0.0
 11
168.0178024351211
 21
149.5963998713696
 31
0.0
 11
168.1415427384791
 21
150.0206157697462
 31
0.0
 11
168.2922702243742
 21
150.4359982718709
 31
0.0
 11
168.4619100371071
 21
150.820947348652
 31
0.0
 11
168.6584011020623
 21
151.1928886859612
 31
0.0
 11
168.8686443394631
 21
151.5274769380615
 31
0.0
 11
169.1050703667371
 21
151.8440733814122
 31
0.0
 11
169.3496997501244
 21
152.1188574036727
 31
0.0
 11
169.6187061988174
 21
152.3697664407692
 31
0.0
 11
169.8909200334319
 21
152.577056803437
 31
0.0
 11
170.1837020334582
 21
152.753994946437
 31
0.0
 11
170.4763264021183
 21
152.8877120162265
 31
0.0
 11
170.7828907581253
 21
152.9850843096983
 31
0.0
 11
171.0881899750741
 21
153.040557057412
 31
0.0
 11
171.3980663266234
 21
153.0560129971896
 31
0.0
 11
171.7072556156129
 21
153.0302404750354
 31
0.0
 11
172.0105369405982
 21
152.9646258766316
 31
0.0
 11
172.3136865978341
 21
152.8570928434388
 31
0.0
 11
172.6016929903691
 21
152.71369969944
 31
0.0
 11
172.888416788778
 21
152.5271042294688
 31
0.0
 11
173.1535724985032
 21
152.310858730531
 31
0.0
 11
173.4140692171412
 21
152.051125648476
 31
0.0
 11
173.6494068854092
 21
151.7683430889004
 31
0.0
 11
173.8751525513883
 21
151.4440446636702
 31
0.0
 11
174.0741304741473
 21
151.1026368377918
 31
0.0
 11
174.2581192456895
 21
150.7243548940611
 31
0.0
 11
174.4148382533922
 21
150.3339671247814
 31
0.0
 11
174.5516413857453
 21
149.9137929929574
 31
0.0
 11
174.6611779896793
 21
149.4856895901337
 31
0.0
 11
174.7469738309435
 21
149.0368077376646
 31
0.0
 11
174.8056647747753
 21
148.5835787174902
 31
0.0
 11
174.838267731263
 21
148.1198678829877
 31
0.0
 11
174.8439084508284
 21
147.655044689225
 31
0.0
 11
174.8227828276445
 21
147.1906675502289
 31
0.0
 11
174.7747470030943
 21
146.7283005419263
 31
0.0
 11
174.7009869341091
 21
146.2772787865315
 31
0.0
 11
174.6002818671642
 21
145.8315049275559
 31
0.0
 11
174.4765415638061
 21
145.4072890291794
 31
0.0
 11
174.3258140779112
 21
144.9919065270547
 31
0.0
 11
174.1561742651784
 21
144.6069574502736
 31
0.0
 11
173.9596832002232
 21
144.2350161129644
 31
0.0
 11
173.7494399628224
 21
143.9004278608639
 31
0.0
 11
173.5130139355482
 21
143.583831417513
 31
0.0
 11
173.2683845521611
 21
143.3090473952526
 31
0.0
 11
172.9993781034682
 21
143.0581383581564
 31
0.0
 11
172.7271642688536
 21
142.850847995489
 31
0.0
 11
172.4343822688272
 21
142.6739098524893
 31
0.0
 11
172.1417579001672
 21
142.5401927826994
 31
0.0
 11
171.8351935441603
 21
142.4428204892272
 31
0.0
 11
171.5298943272116
 21
142.3873477415135
 31
0.0
 11
171.2200179756623
 21
142.371891801736
 31
0.0
  0
SPLINE
  5
218
330
60
100
AcDbEntity
  8
1
  6
Continuous
 62
     7
100
AcDbSpline
210
0.0
220
0.0
230
1.0
 70
    11
 71
     3
 72
    79
 73
    75
 74
    73
 42
0.000000001
 43
0.0000000001
 44
0.00000001
 40
0.0
 40
0.0
 40
0.0
 40
0.0
 40
0.3102615582253165
 40
0.6205595420823438
 40
0.9422162975294986
 40
1.263944872754709
 40
1.606039020845897
 40
1.948193468908016
 40
2.316051885191504
 40
2.683951048240925
 40
3.079084664081524
 40
3.474244780175123
 40
3.894897959208456
 40
4.315568207494678
 40
4.757452126737331
 40
5.199346674242958
 40
5.656354161988183
 40
6.113367478659046
 40
6.57822303773442
 40
7.043080455844185
 40
7.507937873951245
 40
7.972793433019239
 40
8.429806749678209
 40
8.886814237404206
 40
9.328708784881414
 40
9.770592704082924
 40
10.19126295231366
 40
10.61191613126974
 40
11.00707624726382
 40
11.40220986296958
 40
11.77010902585104
 40
12.13796744191142
 40
12.48012188969766
 40
12.82221603742034
 40
13.14394461216243
 40
13.4656013668256
 40
13.77589934864225
 40
14.08616091447336
 40
14.39642248030454
 40
14.70672046212127
 40
15.02837721678441
 40
15.35010579152646
 40
15.69219993924952
 40
16.03435438703599
 40
16.40221280309595
 40
16.77011196597707
 40
17.16524558168285
 40
17.56040569767692
 40
17.98105887663326
 40
18.40172912486421
 40
18.84361304406546
 40
19.28550759154257
 40
19.74251507926868
 40
20.1995283959277
 40
20.66438395499552
 40
21.12924137310254
 40
21.59409879121245
 40
22.05895435028787
 40
22.51596766695877
 40
22.97297515470397
 40
23.41486970220952
 40
23.85675362145203
 40
24.27742386973815
 40
24.69807704877148
 40
25.09323716486511
 40
25.48837078070585
 40
25.85626994375522
 40
26.22412836003863
 40
26.56628280810074
 40
26.90837695619206
 40
27.23010553141686
 40
27.55176228686354
 40
27.86206027072037
 40
28.17232182894548
 40
28.17232182894548
 40
28.17232182894548
 40
28.17232182894548
 10
171.2967554689833
 20
139.5391343775523
 30
0.0
 10
171.1932444815945
 20
139.5356760716825
 30
0.0
 10
170.9862103539196
 20
139.5287590621998
 30
0.0
 10
170.6770108588757
 20
139.466491534869
 30
0.0
 10
170.3744852737052
 20
139.3667495415608
 30
0.0
 10
170.0767891291643
 20
139.2259783870087
 30
0.0
 10
169.791480603142
 20
139.0484577873875
 30
0.0
 10
169.514773117288
 20
138.8320211189276
 30
0.0
 10
169.2547809240016
 20
138.5831792213611
 30
0.0
 10
169.0074357061258
 20
138.2980865107777
 30
0.0
 10
168.7800507919094
 20
137.9855139187027
 30
0.0
 10
168.5693610062987
 20
137.6407646864756
 30
0.0
 10
168.3810984395401
 20
137.2736859134211
 30
0.0
 10
168.2132241855216
 20
136.8799183415035
 30
0.0
 10
168.0696326702343
 20
136.4691563668607
 30
0.0
 10
167.9494586968997
 20
136.0383915141479
 30
0.0
 10
167.8548824817456
 20
135.5961359754325
 30
0.0
 10
167.7858700156231
 20
135.1414542844164
 30
0.0
 10
167.7432538017868
 20
134.6809167848095
 30
0.0
 10
167.7273296966097
 20
134.2160758873982
 30
0.0
 10
167.7380890943274
 20
133.7510867774324
 30
0.0
 10
167.7755867583994
 20
133.2901042881568
 30
0.0
 10
167.8395440957907
 20
132.8346840211843
 30
0.0
 10
167.9292016418343
 20
132.3914051625044
 30
0.0
 10
168.0445830118732
 20
131.9593319266496
 30
0.0
 10
168.1836026825958
 20
131.5470001962972
 30
0.0
 10
168.3470923775488
 20
131.1513920824208
 30
0.0
 10
168.5312656018268
 20
130.7822446020691
 30
0.0
 10
168.7381127113752
 20
130.435176267763
 30
0.0
 10
168.9620113539823
 20
130.1200967077232
 30
0.0
 10
169.2061743394305
 20
129.8322750817928
 30
0.0
 10
169.4633861858532
 20
129.5805562678613
 30
0.0
 10
169.7376723723863
 20
129.3610734949129
 30
0.0
 10
170.0209910035745
 20
129.1803427343928
 30
0.0
 10
170.317106022218
 20
129.0364554285814
 30
0.0
 10
170.6185012654503
 20
128.9326961127535
 30
0.0
 10
170.9270032582316
 20
128.8693883594542
 30
0.0
 10
171.2373647836878
 20
128.8467103408144
 30
0.0
 10
171.5479590798509
 20
128.8659392826445
 30
0.0
 10
171.8571452969555
 20
128.9258161089663
 30
0.0
 10
172.1596745626524
 20
129.0262209477995
 30
0.0
 10
172.4573696947676
 20
129.1668099564552
 30
0.0
 10
172.7426785076587
 20
129.3443822962589
 30
0.0
 10
173.0193859132578
 20
129.5608045950887
 30
0.0
 10
173.2793781290862
 20
129.8096506176319
 30
0.0
 10
173.5267233402561
 20
130.094742178937
 30
0.0
 10
173.7541082560313
 20
130.4073151006594
 30
0.0
 10
173.9647980408982
 20
130.7520642412809
 30
0.0
 10
174.1530606076046
 20
131.1191430404075
 30
0.0
 10
174.3209348614142
 20
131.5129106051314
 30
0.0
 10
174.4645263765706
 20
131.9236725818019
 30
0.0
 10
174.58470034978
 20
132.3544374339627
 30
0.0
 10
174.6792765648313
 20
132.7966929728332
 30
0.0
 10
174.7482890308619
 20
133.2513746638082
 30
0.0
 10
174.7909052446154
 20
133.7119121634268
 30
0.0
 10
174.806829349714
 20
134.1767530608344
 30
0.0
 10
174.7960699519188
 20
134.6417421708048
 30
0.0
 10
174.7585722877646
 20
135.1027246600698
 30
0.0
 10
174.6946149502815
 20
135.5581449270844
 30
0.0
 10
174.6049574041326
 20
136.0014237856101
 30
0.0
 10
174.4895760339757
 20
136.4334970220183
 30
0.0
 10
174.3505563631007
 20
136.8458287503449
 30
0.0
 10
174.1870666680187
 20
137.2414368714168
 30
0.0
 10
174.0028934433981
 20
137.6105843256984
 30
0.0
 10
173.7960463341227
 20
137.9576527516122
 30
0.0
 10
173.572147689412
 20
138.2727319820074
 30
0.0
 10
173.3279847100262
 20
138.5605547572203
 30
0.0
 10
173.0707728403224
 20
138.8122694461796
 30
0.0
 10
172.7964867331653
 20
139.0317665887628
 30
0.0
 10
172.5131678140671
 20
139.2124456091053
 30
0.0
 10
172.2170538064441
 20
139.3565150608211
 30
0.0
 10
171.9156548802353
 20
139.4596115311381
 30
0.0
 10
171.6071661676407
 20
139.5253099854339
 30
0.0
 10
171.4002216526262
 20
139.5345264244195
 30
0.0
 10
171.2967554689833
 20
139.5391343775523
 30
0.0
 11
171.2967554689833
 21
139.5391343775523
 31
0.0
 11
170.9870699311261
 21
139.5202371035117
 31
0.0
 11
170.6824057755803
 21
139.4613763361523
 31
0.0
 11
170.3769420037223
 21
139.360604554425
 31
0.0
 11
170.0858210981362
 21
139.2236450924742
 31
0.0
 11
169.7950226958956
 21
139.0434654730888
 31
0.0
 11
169.5251283601904
 21
138.8331639900585
 31
0.0
 11
169.2589257542754
 21
138.5792821534904
 31
0.0
 11
169.0173639268594
 21
138.3017975996112
 31
0.0
 11
168.7844694262436
 21
137.9825943322437
 31
0.0
 11
168.5779559635094
 21
137.6456912200198
 31
0.0
 11
168.3856087646203
 21
137.2715900945398
 31
0.0
 11
168.2202556587562
 21
136.8847803116242
 31
0.0
 11
168.0741517851025
 21
136.4677490703731
 31
0.0
 11
167.9551315553533
 21
136.0421847673336
 31
0.0
 11
167.8593846191395
 21
135.595319722762
 31
0.0
 11
167.7906393150243
 21
135.1435064263904
 31
0.0
 11
167.7477426978115
 21
134.6806343371059
 31
0.0
 11
167.7317769512542
 21
134.2160511754288
 31
0.0
 11
167.7425808509408
 21
133.7513193227136
 31
0.0
 11
167.7803329671813
 21
133.2879992729362
 31
0.0
 11
167.8440550229481
 21
132.8354501913713
 31
0.0
 11
167.9348320128303
 21
132.3875491063508
 31
0.0
 11
168.0491174813412
 21
131.9606889151896
 31
0.0
 11
168.1905797128813
 21
131.5420603983353
 31
0.0
 11
168.3516257065633
 21
131.1534376433441
 31
0.0
 11
168.5398053028813
 21
130.7772228954467
 31
0.0
 11
168.7425635062626
 21
130.4380464984522
 31
0.0
 11
168.9718977399952
 21
130.1162757981802
 31
0.0
 11
169.2103622016286
 21
129.8361249555181
 31
0.0
 11
169.4737281141722
 21
129.5793016496335
 31
0.0
 11
169.7412696447988
 21
129.3660149983865
 31
0.0
 11
170.0300485634293
 21
129.1826161375885
 31
0.0
 11
170.3196300803175
 21
129.0424311848882
 31
0.0
 11
170.6239555724282
 21
128.9382723505945
 31
0.0
 11
170.9279470696496
 21
128.8760308272715
 31
0.0
 11
171.2374035772323
 21
128.8536945509758
 31
0.0
 11
171.5470891150895
 21
128.8725918250165
 31
0.0
 11
171.8517532706352
 21
128.9314525923761
 31
0.0
 11
172.1572170424925
 21
129.0322243741037
 31
0.0
 11
172.4483379480782
 21
129.1691838360542
 31
0.0
 11
172.7391363503195
 21
129.3493634554387
 31
0.0
 11
173.0090306860251
 21
129.5596649384682
 31
0.0
 11
173.2752332919399
 21
129.8135467750365
 31
0.0
 11
173.5167951193553
 21
130.0910313289163
 31
0.0
 11
173.7496896199708
 21
130.4102345962841
 31
0.0
 11
173.9562030827052
 21
130.7471377085079
 31
0.0
 11
174.1485502815949
 21
131.1212388339878
 31
0.0
 11
174.3139033874593
 21
131.5080486169034
 31
0.0
 11
174.4600072611127
 21
131.9250798581543
 31
0.0
 11
174.5790274908614
 21
132.3506441611936
 31
0.0
 11
174.6747744270751
 21
132.7975092057656
 31
0.0
 11
174.7435197311902
 21
133.2493225021377
 31
0.0
 11
174.7864163484027
 21
133.7121945914215
 31
0.0
 11
174.8023820949602
 21
134.176777753098
 31
0.0
 11
174.7915781952744
 21
134.6415096058139
 31
0.0
 11
174.7538260790342
 21
135.1048296555919
 31
0.0
 11
174.690104023267
 21
135.5573787371565
 31
0.0
 11
174.5993270333843
 21
136.0052798221765
 31
0.0
 11
174.4850415648737
 21
136.4321400133378
 31
0.0
 11
174.3435793333342
 21
136.8507685301923
 31
0.0
 11
174.1825333396525
 21
137.2393912851837
 31
0.0
 11
173.9943537433343
 21
137.615606033081
 31
0.0
 11
173.7915955399525
 21
137.9547824300752
 31
0.0
 11
173.5622613062193
 21
138.2765531303469
 31
0.0
 11
173.3237968445862
 21
138.5567039730087
 31
0.0
 11
173.0604309320433
 21
138.8135272788933
 31
0.0
 11
172.7928894014167
 21
139.026813930141
 31
0.0
 11
172.5041104827862
 21
139.2102127909396
 31
0.0
 11
172.214528965898
 21
139.35039774364
 31
0.0
 11
171.9102034737872
 21
139.4545565779337
 31
0.0
 11
171.6062119765658
 21
139.5167981012566
 31
0.0
 11
171.2967554689833
 21
139.5391343775523
 31
0.0
  0
ARC
  5
219
330
60
100
AcDbEntity
  8
1
  6
Continuous
 62
     7
100
AcDbCircle
 10
166.9316283859453
 20
150.6100006649776
 30
0.0
 40
0.9999999999999589
100
AcDbArc
 50
120.0000000000014
 51
132.9414028648739
  0
ARC
  5
21A
330
60
100
AcDbEntity
  8
1
  6
Continuous
 62
     7
100
AcDbCircle
 10
165.9316283859453
 20
152.3420514725464
 30
0.0
 40
0.9999999999999589
100
AcDbArc
 50
300.0000000000013
 51
0.0
  0
ARC
  5
21B
330
60
100
AcDbEntity
  8
1
  6
Continuous
 62
     7
100
AcDbCircle
 10
166.9316283859453
 20
150.6100006649776
 30
0.0
 40
0.9999999999997728
100
AcDbArc
 50
132.9414028648739
 51
180.0
  0
ARC
  5
21C
330
60
100
AcDbEntity
  8
1
  6
Continuous
 62
     7
100
AcDbCircle
 10
167.9316283859453
 20
152.4000725342771
 30
0.0
 40
0.9999999999993958
100
AcDbArc
 50
164.6624423304385
 51
180.0
  0
ARC
  5
21D
330
60
100
AcDbEntity
  8
1
  6
Continuous
 62
     7
100
AcDbCircle
 10
166.9316283859453
 20
131.0741022801153
 30
0.0
 40
0.9999999999998769
100
AcDbArc
 50
227.0585971351316
 51
240.0000000000019
  0
ARC
  5
21E
330
60
100
AcDbEntity
  8
1
  6
Continuous
 62
     7
100
AcDbCircle
 10
165.9316283859453
 20
129.3420514725464
 30
0.0
 40
1.0
100
AcDbArc
 50
0.0
 51
59.99999999999946
  0
ARC
  5
21F
330
60
100
AcDbEntity
  8
1
  6
Continuous
 62
     7
100
AcDbCircle
 10
166.9316283859453
 20
131.0741022801153
 30
0.0
 40
1.0
100
AcDbArc
 50
180.0
 51
227.0585971351316
  0
ARC
  5
220
330
60
100
AcDbEntity
  8
1
  6
Continuous
 62
     7
100
AcDbCircle
 10
167.9316283859453
 20
129.2840304108158
 30
0.0
 40
1.0
100
AcDbArc
 50
180.0
 51
195.3375576695555
  0
ARC
  5
221
330
60
100
AcDbEntity
  8
1
  6
Continuous
 62
     7
100
AcDbCircle
 10
79.1813624547105
 20
267.6138438710987
 30
0.0
 40
1.0
100
AcDbArc
 50
270.0
 51
317.0585971351162
  0
ARC
  5
222
330
60
100
AcDbEntity
  8
1
  6
Continuous
 62
     7
100
AcDbCircle
 10
80.97143432400998
 20
268.6138438710987
 30
0.0
 40
1.0
100
AcDbArc
 50
270.0
 51
285.3375576695503
  0
ARC
  5
223
330
60
100
AcDbEntity
  8
1
  6
Continuous
 62
     7
100
AcDbCircle
 10
79.1813624547105
 20
267.6138438710987
 30
0.0
 40
1.000000000000088
100
AcDbArc
 50
317.0585971351162
 51
329.9999999999987
  0
ARC
  5
224
330
60
100
AcDbEntity
  8
1
  6
Continuous
 62
     7
100
AcDbCircle
 10
80.91341326227939
 20
266.6138438710987
 30
0.0
 40
1.0
100
AcDbArc
 50
90.0
 51
150.0000000000019
  0
ARC
  5
225
330
60
100
AcDbEntity
  8
1
  6
Continuous
 62
     7
100
AcDbCircle
 10
59.64546406984814
 20
267.6138438710987
 30
0.0
 40
1.000000000000083
100
AcDbArc
 50
222.941402864884
 51
270.0
  0
ARC
  5
226
330
60
100
AcDbEntity
  8
1
  6
Continuous
 62
     7
100
AcDbCircle
 10
57.85539220054863
 20
268.6138438710987
 30
0.0
 40
1.000000000000129
100
AcDbArc
 50
254.6624423304453
 51
270.0
  0
ARC
  5
227
330
60
100
AcDbEntity
  8
1
  6
Continuous
 62
     7
100
AcDbCircle
 10
59.64546406984814
 20
267.6138438710987
 30
0.0
 40
1.000000000000051
100
AcDbArc
 50
209.9999999999983
 51
222.941402864884
  0
ARC
  5
228
330
60
100
AcDbEntity
  8
1
  6
Continuous
 62
     7
100
AcDbCircle
 10
57.91341326227925
 20
266.6138438710987
 30
0.0
 40
0.9999999999999589
100
AcDbArc
 50
30.00000000000136
 51
90.0
  0
ENDBLK
  5
62
330
60
100
AcDbEntity
  8
0
100
AcDbBlockEnd
  0
BLOCK
  5
64
330
63
100
AcDbEntity
  8
0
100
AcDbBlockBegin
  2
75-2
 70
     0
 10
33.69023821452067
 20
5.62522389759565
 30
0.0
  3
75-2
  1

  0
LINE
  5
229
330
63
100
AcDbEntity
  8
1
  6
Continuous
 62
     7
100
AcDbLine
 10
70.94577216885519
 20
103.9847212601494
 30
0.0
 11
70.31356575460276
 21
103.3525148458971
 31
0.0
  0
LINE
  5
22A
330
63
100
AcDbEntity
  8
1
  6
Continuous
 62
     7
100
AcDbLine
 10
70.31356575460276
 20
104.0281264645566
 30
0.0
 11
70.31356575460276
 21
103.3525148458971
 31
0.0
  0
LINE
  5
22B
330
63
100
AcDbEntity
  8
1
  6
Continuous
 62
     7
100
AcDbLine
 10
68.51356572336107
 20
104.0281418609195
 30
0.0
 11
68.51356572336107
 21
103.3522098924922
 31
0.0
  0
LINE
  5
22C
330
63
100
AcDbEntity
  8
1
  6
Continuous
 62
     7
100
AcDbLine
 10
66.50482982144617
 20
102.2485008084754
 30
0.0
 11
66.50482982144617
 21
99.92346636319047
 31
0.0
  0
LINE
  5
22D
330
63
100
AcDbEntity
  8
1
  6
Continuous
 62
     7
100
AcDbLine
 10
72.32199670311275
 20
102.2916169821933
 30
0.0
 11
72.32199670311275
 21
99.92346636319047
 31
0.0
  0
LINE
  5
22E
330
63
100
AcDbEntity
  8
1
  6
Continuous
 62
     7
100
AcDbLine
 10
70.31356575460276
 20
98.85230528560263
 30
0.0
 11
70.31356575460276
 21
103.1323823696937
 31
0.0
  0
LINE
  5
22F
330
63
100
AcDbEntity
  8
1
  6
Continuous
 62
     7
100
AcDbLine
 10
72.59047627405737
 20
103.6776345051483
 30
0.0
 11
72.65622204140686
 21
103.7433802724979
 31
0.0
  0
LINE
  5
230
330
63
100
AcDbEntity
  8
1
  6
Continuous
 62
     7
100
AcDbLine
 10
64.91587547063205
 20
101.0960569192373
 30
0.0
 11
63.2035651439642
 21
101.0960569192373
 31
0.0
  0
LINE
  5
231
330
63
100
AcDbEntity
  8
1
  6
Continuous
 62
     7
100
AcDbLine
 10
72.59047627405737
 20
99.27529934179591
 30
0.0
 11
72.72061883707696
 21
99.14515677877625
 31
0.0
  0
LINE
  5
232
330
63
100
AcDbEntity
  8
1
  6
Continuous
 62
     7
100
AcDbLine
 10
75.62395707011115
 20
101.0960569192373
 30
0.0
 11
73.91095105392687
 21
101.0960569192373
 31
0.0
  0
LINE
  5
233
330
63
100
AcDbEntity
  8
1
  6
Continuous
 62
     7
100
AcDbLine
 10
73.91095105392687
 20
101.856876927707
 30
0.0
 11
75.62395707011115
 21
101.856876927707
 31
0.0
  0
LINE
  5
234
330
63
100
AcDbEntity
  8
1
  6
Continuous
 62
     7
100
AcDbLine
 10
66.23635025050166
 20
103.6776345051483
 30
0.0
 11
66.17060448315497
 21
103.743380272495
 31
0.0
  0
LINE
  5
235
330
63
100
AcDbEntity
  8
1
  6
Continuous
 62
     7
100
AcDbLine
 10
68.51356572336107
 20
103.3522098924922
 30
0.0
 11
67.88105435570375
 21
103.9847212601495
 31
0.0
  0
LINE
  5
236
330
63
100
AcDbEntity
  8
1
  6
Continuous
 62
     7
100
AcDbLine
 10
63.20286945444769
 20
101.856876927707
 30
0.0
 11
64.91587547063205
 21
101.856876927707
 31
0.0
  0
LINE
  5
237
330
63
100
AcDbEntity
  8
1
  6
Continuous
 62
     7
100
AcDbLine
 10
70.31356575460276
 20
99.60041900104709
 30
0.0
 11
71.02919764895907
 21
98.88478710669084
 31
0.0
  0
LINE
  5
238
330
63
100
AcDbEntity
  8
1
  6
Continuous
 62
     7
100
AcDbLine
 10
68.51356572336107
 20
98.85230528560263
 30
0.0
 11
68.51356572336107
 21
103.1323823696937
 31
0.0
  0
LINE
  5
239
330
63
100
AcDbEntity
  8
1
  6
Continuous
 62
     7
100
AcDbLine
 10
67.79762887559986
 20
98.88478710669084
 30
0.0
 11
68.51356572336107
 21
99.60072395445198
 31
0.0
  0
LINE
  5
23A
330
63
100
AcDbEntity
  8
1
  6
Continuous
 62
     7
100
AcDbLine
 10
66.10620768748197
 20
99.14515677877625
 30
0.0
 11
66.23635025050166
 21
99.27529934179591
 31
0.0
  0
ARC
  5
23B
330
63
100
AcDbEntity
  8
1
  6
Continuous
 62
     7
100
AcDbCircle
 10
73.91095105392687
 20
99.17706229454481
 30
0.0
 40
1.918994624692488
100
AcDbArc
 50
90.0
 51
134.6296991517852
  0
ARC
  5
23C
330
63
100
AcDbEntity
  8
1
  6
Continuous
 62
     7
100
AcDbCircle
 10
73.23864329545187
 20
99.92346636319047
 30
0.0
 40
0.9166465923392074
100
AcDbArc
 50
137.5005082888372
 51
225.0000000000025
  0
ARC
  5
23D
330
63
100
AcDbEntity
  8
1
  6
Continuous
 62
     7
100
AcDbCircle
 10
65.58818322910705
 20
99.92346636319047
 30
0.0
 40
0.9166465923391938
100
AcDbArc
 50
315.0000000000025
 51
42.49949171116274
  0
ARC
  5
23E
330
63
100
AcDbEntity
  8
1
  6
Continuous
 62
     7
100
AcDbCircle
 10
64.91587547063205
 20
99.17706229454481
 30
0.0
 40
1.918994624692476
100
AcDbArc
 50
45.37030084821475
 51
90.0
  0
ARC
  5
23F
330
63
100
AcDbEntity
  8
1
  6
Continuous
 62
     7
100
AcDbCircle
 10
73.91095105392687
 20
103.7758715523994
 30
0.0
 40
1.918994624692476
100
AcDbArc
 50
225.3703008482147
 51
270.0
  0
ARC
  5
240
330
63
100
AcDbEntity
  8
1
  6
Continuous
 62
     7
100
AcDbCircle
 10
73.23864329545187
 20
103.0294674837538
 30
0.0
 40
0.9166465923390732
100
AcDbArc
 50
135.0
 51
222.499491711166
  0
ARC
  5
241
330
63
100
AcDbEntity
  8
1
  6
Continuous
 62
     7
100
AcDbCircle
 10
64.91587547063205
 20
103.7758715523994
 30
0.0
 40
1.918994624692388
100
AcDbArc
 50
270.0
 51
314.6296991517852
  0
ARC
  5
242
330
63
100
AcDbEntity
  8
1
  6
Continuous
 62
     7
100
AcDbCircle
 10
65.58818322910705
 20
103.0294674837538
 30
0.0
 40
0.9166465923392554
100
AcDbArc
 50
317.500508288834
 51
44.99999999999498
  0
SPLINE
  5
243
330
63
100
AcDbEntity
  8
1
  6
Continuous
 62
     7
100
AcDbSpline
210
0.0
220
0.0
230
1.0
 70
     8
 71
     3
 72
    41
 73
    37
 74
    35
 42
0.000000001
 43
0.0000000001
 44
0.00000001
 40
0.0
 40
0.0
 40
0.0
 40
0.0
 40
0.0729288036756669
 40
0.1458278634705057
 40
0.2220831371644912
 40
0.2983654586368694
 40
0.3708466255313986
 40
0.4433152243475263
 40
0.5103449923836136
 40
0.5773771529836559
 40
0.6376245804700739
 40
0.6978691614447593
 40
0.7504693655677426
 40
0.8030639565728259
 40
0.847879118074501
 40
0.8926919057562879
 40
0.930752908002413
 40
0.9687649982676328
 40
1.002688508119403
 40
1.036543066964939
 40
1.070397470691172
 40
1.104321114879393
 40
1.142333938195981
 40
1.180394324779486
 40
1.222230617126836
 40
1.264055526364929
 40
1.31019171164818
 40
1.356333454697322
 40
1.426004524433086
 40
1.495712726976147
 40
1.625131683998892
 40
1.754651194938321
 40
1.840966285748879
 40
1.927202321083057
 40
2.000131704865362
 40
2.073101510382952
 40
2.073101510382952
 40
2.073101510382952
 40
2.073101510382952
 10
75.62395707011115
 20
101.0960569192373
 30
0.0
 10
75.64825883607907
 20
101.0966730669978
 30
0.0
 10
75.69685245628352
 20
101.0979051214964
 30
0.0
 10
75.77081270489239
 20
101.1014027981112
 30
0.0
 10
75.84566718477683
 20
101.1083166750976
 30
0.0
 10
75.92001589159757
 20
101.1183696285815
 30
0.0
 10
75.99268601822678
 20
101.131016931502
 30
0.0
 10
76.06174567840009
 20
101.1460852590994
 30
0.0
 10
76.12828033507724
 20
101.1638639217843
 30
0.0
 10
76.18995322273095
 20
101.1837560696298
 30
0.0
 10
76.24834008183981
 20
101.2061684773988
 30
0.0
 10
76.3008427862244
 20
101.2302037881417
 30
0.0
 10
76.34931512429185
 20
101.2566002903261
 30
0.0
 10
76.39116489288156
 20
101.2840959157286
 30
0.0
 10
76.42824902307586
 20
101.3137476890819
 30
0.0
 10
76.45833443296732
 20
101.3440242985783
 30
0.0
 10
76.48281887848663
 20
101.3761793717808
 30
0.0
 10
76.50024930433244
 20
101.4086714436323
 30
0.0
 10
76.51088551941606
 20
101.4424981223683
 30
0.0
 10
76.51467419364448
 20
101.4764213770091
 30
0.0
 10
76.51089208678272
 20
101.5103454108998
 30
0.0
 10
76.50026236128588
 20
101.5441743678497
 30
0.0
 10
76.48283946774605
 20
101.5766703367726
 30
0.0
 10
76.45896289157511
 20
101.6080387763901
 30
0.0
 10
76.43043317089446
 20
101.6370270520569
 30
0.0
 10
76.39688570677141
 20
101.6644483549155
 30
0.0
 10
76.35989937789307
 20
101.6896450502562
 30
0.0
 10
76.31306936161218
 20
101.7165766458167
 30
0.0
 10
76.25719476625623
 20
101.7432589427681
 30
0.0
 10
76.1736141000564
 20
101.7757040849935
 30
0.0
 10
76.0683269906215
 20
101.8066684856551
 30
0.0
 10
75.95539222953697
 20
101.8293586488681
 30
0.0
 10
75.85569948260041
 20
101.8436927304526
 30
0.0
 10
75.77419939238655
 20
101.8514316966321
 30
0.0
 10
75.69689072481333
 20
101.8550559630941
 30
0.0
 10
75.64827277835163
 20
101.8562698308203
 30
0.0
 10
75.62395707011115
 20
101.856876927707
 30
0.0
 11
75.62395707011115
 21
101.0960569192373
 31
0.0
 11
75.69685521433847
 21
101.0981716364773
 31
0.0
 11
75.76965981502926
 21
101.1018815030052
 31
0.0
 11
75.84559603537375
 21
101.1088498084826
 31
0.0
 11
75.92119627244546
 21
101.1190280587945
 31
0.0
 11
75.99259249383924
 21
101.1315220238833
 31
0.0
 11
76.06338089844067
 21
101.1470365210801
 31
0.0
 11
76.12812008754867
 21
101.1644096965609
 31
0.0
 11
76.19189348510297
 21
101.1850558669083
 31
0.0
 11
76.24809894934226
 21
101.2067514502164
 31
0.0
 11
76.30282924251705
 21
101.231930897695
 31
0.0
 11
76.34894825224563
 21
101.2572255303417
 31
0.0
 11
76.39281744383015
 21
101.2862373393495
 31
0.0
 11
76.42768648102646
 21
101.3143895856211
 31
0.0
 11
76.45912384308156
 21
101.3463251181226
 31
0.0
 11
76.4819894197891
 21
101.3767521672539
 31
0.0
 11
76.49973375388277
 21
101.4103684972622
 31
0.0
 11
76.50981832716919
 21
101.4427584019984
 31
0.0
 11
76.51341326464357
 21
101.4764215511006
 31
0.0
 11
76.50982486555499
 21
101.5100852418064
 31
0.0
 11
76.49974673035167
 21
101.5424772910214
 31
0.0
 11
76.48200926350789
 21
101.5760980738167
 31
0.0
 11
76.45914940173598
 21
101.6065286467929
 31
0.0
 11
76.42992683577097
 21
101.6364672008906
 31
0.0
 11
76.39765505253617
 21
101.6630727465804
 31
0.0
 11
76.35959276084635
 21
101.6891459045562
 31
0.0
 11
76.31965242026317
 21
101.7122506587404
 31
0.0
 11
76.25686586725904
 21
101.7424484527081
 31
0.0
 11
76.19195073045996
 21
101.7678503926331
 31
0.0
 11
76.06792317261763
 21
101.8048156661425
 31
0.0
 11
75.94103247992916
 21
101.8307782534213
 31
0.0
 11
75.85558829577494
 21
101.8430088038521
 31
0.0
 11
75.76973340824165
 21
101.8511077032633
 31
0.0
 11
75.69689701898494
 21
101.8547894815415
 31
0.0
 11
75.62395707011115
 21
101.856876927707
 31
0.0
  0
SPLINE
  5
244
330
63
100
AcDbEntity
  8
1
  6
Continuous
 62
     7
100
AcDbSpline
210
0.0
220
0.0
230
1.0
 70
     8
 71
     3
 72
    41
 73
    37
 74
    35
 42
0.000000001
 43
0.0000000001
 44
0.00000001
 40
0.0
 40
0.0
 40
0.0
 40
0.0
 40
0.0729288036756527
 40
0.1458278634704986
 40
0.2220831371644982
 40
0.2983654586368553
 40
0.3708466255314126
 40
0.4433152243475264
 40
0.5103449923836275
 40
0.5773771529836833
 40
0.637624580470108
 40
0.6978691614448063
 40
0.7504693655678032
 40
0.803063956572859
 40
0.8478791180745396
 40
0.8926919057563215
 40
0.9307529080024508
 40
0.9687649982676674
 40
1.002688508119433
 40
1.036543066964969
 40
1.070397470691195
 40
1.104321114879404
 40
1.142333938195982
 40
1.180394324779517
 40
1.222230617126892
 40
1.264055526364996
 40
1.310191711648224
 40
1.356333454697347
 40
1.426004524433137
 40
1.49571272697625
 40
1.625131683998954
 40
1.754651194938335
 40
1.840966285748949
 40
1.92720232108317
 40
2.000131704865475
 40
2.073101510383072
 40
2.073101510383072
 40
2.073101510383072
 40
2.073101510383072
 10
63.20286945444769
 20
101.0960569192373
 30
0.0
 10
63.17856768847977
 20
101.0966730669978
 30
0.0
 10
63.12997406827532
 20
101.0979051214964
 30
0.0
 10
63.05601381966646
 20
101.1014027981112
 30
0.0
 10
62.98115933978198
 20
101.1083166750976
 30
0.0
 10
62.90681063296127
 20
101.1183696285815
 30
0.0
 10
62.83414050633206
 20
101.131016931502
 30
0.0
 10
62.76508084615874
 20
101.1460852590994
 30
0.0
 10
62.69854618948163
 20
101.1638639217842
 30
0.0
 10
62.63687330182785
 20
101.1837560696298
 30
0.0
 10
62.57848644271901
 20
101.2061684773988
 30
0.0
 10
62.52598373833438
 20
101.2302037881418
 30
0.0
 10
62.47751140026697
 20
101.2566002903261
 30
0.0
 10
62.43566163167723
 20
101.2840959157286
 30
0.0
 10
62.39857750148295
 20
101.3137476890819
 30
0.0
 10
62.36849209159146
 20
101.3440242985784
 30
0.0
 10
62.3440076460722
 20
101.3761793717807
 30
0.0
 10
62.32657722022635
 20
101.4086714436322
 30
0.0
 10
62.31594100514276
 20
101.4424981223683
 30
0.0
 10
62.31215233091433
 20
101.4764213770091
 30
0.0
 10
62.315934437776
 20
101.5103454108998
 30
0.0
 10
62.32656416327286
 20
101.5441743678497
 30
0.0
 10
62.34398705681259
 20
101.5766703367727
 30
0.0
 10
62.36786363298364
 20
101.60803877639
 30
0.0
 10
62.3963933536643
 20
101.6370270520569
 30
0.0
 10
62.42994081778732
 20
101.6644483549155
 30
0.0
 10
62.46692714666574
 20
101.6896450502563
 30
0.0
 10
62.51375716294653
 20
101.7165766458167
 30
0.0
 10
62.56963175830256
 20
101.7432589427681
 30
0.0
 10
62.65321242450241
 20
101.7757040849935
 30
0.0
 10
62.75849953393727
 20
101.8066684856551
 30
0.0
 10
62.87143429502177
 20
101.8293586488681
 30
0.0
 10
62.97112704195837
 20
101.8436927304526
 30
0.0
 10
63.05262713217224
 20
101.8514316966321
 30
0.0
 10
63.1299357997455
 20
101.8550559630942
 30
0.0
 10
63.17855374620721
 20
101.8562698308203
 30
0.0
 10
63.20286945444769
 20
101.856876927707
 30
0.0
 11
63.20286945444769
 21
101.0960569192373
 31
0.0
 11
63.12997131022038
 21
101.0981716364773
 31
0.0
 11
63.0571667095296
 21
101.1018815030052
 31
0.0
 11
62.98123048918509
 21
101.1088498084826
 31
0.0
 11
62.90563025211339
 21
101.1190280587945
 31
0.0
 11
62.83423403071959
 21
101.1315220238833
 31
0.0
 11
62.76344562611816
 21
101.1470365210801
 31
0.0
 11
62.69870643701016
 21
101.1644096965609
 31
0.0
 11
62.63493303945585
 21
101.1850558669083
 31
0.0
 11
62.57872757521654
 21
101.2067514502164
 31
0.0
 11
62.52399728204174
 21
101.231930897695
 31
0.0
 11
62.47787827231315
 21
101.2572255303417
 31
0.0
 11
62.43400908072866
 21
101.2862373393495
 31
0.0
 11
62.39914004353235
 21
101.3143895856211
 31
0.0
 11
62.36770268147725
 21
101.3463251181226
 31
0.0
 11
62.3448371047697
 21
101.3767521672539
 31
0.0
 11
62.32709277067604
 21
101.4103684972622
 31
0.0
 11
62.31700819738963
 21
101.4427584019984
 31
0.0
 11
62.31341325991524
 21
101.4764215511006
 31
0.0
 11
62.31700165900377
 21
101.5100852418064
 31
0.0
 11
62.32707979420703
 21
101.5424772910214
 31
0.0
 11
62.3448172610508
 21
101.5760980738167
 31
0.0
 11
62.36767712282275
 21
101.6065286467929
 31
0.0
 11
62.3968996887878
 21
101.6364672008906
 31
0.0
 11
62.42917147202263
 21
101.6630727465804
 31
0.0
 11
62.46723376371241
 21
101.6891459045562
 31
0.0
 11
62.50717410429557
 21
101.7122506587404
 31
0.0
 11
62.56996065729974
 21
101.7424484527081
 31
0.0
 11
62.63487579409885
 21
101.7678503926331
 31
0.0
 11
62.75890335194116
 21
101.8048156661425
 31
0.0
 11
62.88579404462956
 21
101.8307782534213
 31
0.0
 11
62.97123822878385
 21
101.8430088038521
 31
0.0
 11
63.05709311631718
 21
101.8511077032633
 31
0.0
 11
63.12992950557389
 21
101.8547894815415
 31
0.0
 11
63.20286945444769
 21
101.856876927707
 31
0.0
  0
SPLINE
  5
245
330
63
100
AcDbEntity
  8
1
  6
Continuous
 62
     7
100
AcDbSpline
210
0.0
220
0.0
230
1.0
 70
     8
 71
     3
 72
    43
 73
    39
 74
    37
 42
0.000000001
 43
0.0000000001
 44
0.00000001
 40
0.0
 40
0.0
 40
0.0
 40
0.0
 40
0.0448557901637633
 40
0.089522944451049
 40
0.1420251082514676
 40
0.1947532401613061
 40
0.2550487154288446
 40
0.3152379064368109
 40
0.3822477338289326
 40
0.4493013354606065
 40
0.5217835067269778
 40
0.5942519415060659
 40
0.670515716077914
 40
0.7467846702037674
 40
0.8249938919558886
 40
0.9032018536927161
 40
0.9814103232139203
 40
1.059619074000573
 40
1.135885763744174
 40
1.212151681689551
 40
1.284627294180541
 40
1.357102770454501
 40
1.424135757138338
 40
1.491164191024591
 40
1.551405676236719
 40
1.611656884965297
 40
1.664277407453762
 40
1.716849526799845
 40
1.761592188488727
 40
1.806484764559263
 40
1.857965131830101
 40
1.908967480764678
 40
1.929576319566409
 40
1.950229041233145
 40
1.972260135517627
 40
1.994167368541311
 40
2.043389227994352
 40
2.093764128064793
 40
2.093764128064793
 40
2.093764128064793
 40
2.093764128064793
 10
71.02919764895196
 20
98.8847871066979
 30
0.0
 10
71.0398650466634
 20
98.87431088099906
 30
0.0
 10
71.06115499120084
 20
98.85340249614991
 30
0.0
 10
71.09692262317976
 20
98.82226661608712
 30
0.0
 10
71.13872166706173
 20
98.79462513387806
 30
0.0
 10
71.18751093707967
 20
98.76878007355685
 30
0.0
 10
71.24005751668835
 20
98.74477140082374
 30
0.0
 10
71.29836633214452
 20
98.72218063691892
 30
0.0
 10
71.3600238331562
 20
98.70229094058654
 30
0.0
 10
71.42657634737716
 20
98.6845638103995
 30
0.0
 10
71.4956340360056
 20
98.66945246125637
 30
0.0
 10
71.56829978856955
 20
98.65680180864382
 30
0.0
 10
71.6426692337172
 20
98.64693713327527
 30
0.0
 10
71.71927117688517
 20
98.63981580796849
 30
0.0
 10
71.79673261610863
 20
98.63552516782319
 30
0.0
 10
71.87494582808067
 20
98.63410364644096
 30
0.0
 10
71.95315863273834
 20
98.63553923498168
 30
0.0
 10
72.03061850363018
 20
98.63984563659653
 30
0.0
 10
72.10721843012148
 20
98.6469867371064
 30
0.0
 10
72.18158821223135
 20
98.6568651527846
 30
0.0
 10
72.25425526067272
 20
98.66951291678484
 30
0.0
 10
72.32330335517761
 20
98.68464056472774
 30
0.0
 10
72.38983400200965
 20
98.70244018262859
 30
0.0
 10
72.45150443453049
 20
98.7223322486732
 30
0.0
 10
72.50989181350884
 20
98.7447407646819
 30
0.0
 10
72.5623940284874
 20
98.76879611913422
 30
0.0
 10
72.61084185266375
 20
98.79524189195783
 30
0.0
 10
72.65266951154504
 20
98.82271701660297
 30
0.0
 10
72.6898182201781
 20
98.85228459296573
 30
0.0
 10
72.72301809753436
 20
98.88579600687653
 30
0.0
 10
72.75188498330223
 20
98.92587996012176
 30
0.0
 10
72.7681330000309
 20
98.96414243550957
 30
0.0
 10
72.7739708915046
 20
98.99441114699117
 30
0.0
 10
72.77538013813646
 20
99.01551883075834
 30
0.0
 10
72.77396658696779
 20
99.03706729752632
 30
0.0
 10
72.7676503485202
 20
99.0675982941528
 30
0.0
 10
72.74968286318423
 20
99.10450425332989
 30
0.0
 10
72.73038133303604
 20
99.13150175415001
 30
0.0
 10
72.72061883706985
 20
99.14515677878333
 30
0.0
 11
71.02919764895196
 21
98.8847871066979
 31
0.0
 11
71.06151504998245
 21
98.85368039986838
 31
0.0
 11
71.09550404820337
 21
98.82469932792478
 31
0.0
 11
71.13907520411831
 21
98.79540715690696
 31
0.0
 11
71.18549224951656
 21
98.77039288627022
 31
0.0
 11
71.24031983603241
 21
98.7453034440789
 31
0.0
 11
71.29642800693065
 21
98.72351785548355
 31
0.0
 11
71.36017097604882
 21
98.70285022763186
 31
0.0
 11
71.42494059359286
 21
98.6854985096553
 31
0.0
 11
71.49573811280716
 21
98.66996221657537
 31
0.0
 11
71.56712521958815
 21
98.65749004736975
 31
0.0
 11
71.64272287182291
 21
98.64743230065388
 31
0.0
 11
71.71866167700435
 21
98.64034349158048
 31
0.0
 11
71.79675071050237
 21
98.63600930206574
 31
0.0
 11
71.87494560726407
 21
98.63457983170856
 31
0.0
 11
71.95314074753549
 21
98.63602369114022
 31
0.0
 11
72.03122840222986
 21
98.64037419364267
 31
0.0
 11
72.10716327515563
 21
98.64748074183741
 31
0.0
 11
72.18276148825969
 21
98.65755051862752
 31
0.0
 11
72.25415511243826
 21
98.67002708956755
 31
0.0
 11
72.32494060921377
 21
98.68558691272005
 31
0.0
 11
72.38967687019168
 21
98.7029834011053
 31
0.0
 11
72.45344572444829
 21
98.72363150427289
 31
0.0
 11
72.50964536799204
 21
98.74532566466486
 31
0.0
 11
72.56437227106326
 21
98.7705283276232
 31
0.0
 11
72.61049108243616
 21
98.79586554554305
 31
0.0
 11
72.65434980207156
 21
98.82485244652443
 31
0.0
 11
72.68919921805207
 21
98.85291352215968
 31
0.0
 11
72.72064439572426
 21
98.88495325011307
 31
0.0
 11
72.75032681403945
 21
98.9270148979695
 31
0.0
 11
72.76964849991349
 21
98.97421566068542
 31
0.0
 11
72.77354599507365
 21
98.99445260112002
 31
0.0
 11
72.77490825863177
 21
99.01506034580537
 31
0.0
 11
72.77345667160182
 21
99.03704356680646
 31
0.0
 11
72.76896198429495
 21
99.05848475738998
 31
0.0
 11
72.74873630143128
 21
99.10335917495385
 31
0.0
 11
72.72061883706985
 21
99.14515677878333
 31
0.0
  0
SPLINE
  5
246
330
63
100
AcDbEntity
  8
1
  6
Continuous
 62
     7
100
AcDbSpline
210
0.0
220
0.0
230
1.0
 70
     8
 71
     3
 72
    27
 73
    23
 74
    21
 42
0.000000001
 43
0.0000000001
 44
0.00000001
 40
0.0
 40
0.0
 40
0.0
 40
0.0
 40
0.0340794409749698
 40
0.067540252809865
 40
0.1486179150034607
 40
0.233182978217807
 40
0.3468645482932342
 40
0.4587323364806677
 40
0.5978897934231917
 40
0.7376658409656647
 40
0.8922263830692899
 40
1.046563329381497
 40
1.200901780637814
 40
1.35546086374957
 40
1.495230670999101
 40
1.634394107566072
 40
1.746277737395588
 40
1.859945121254383
 40
1.944482087465464
 40
2.025576304279021
 40
2.058971125347592
 40
2.092973121985982
 40
2.092973121985982
 40
2.092973121985982
 40
2.092973121985982
 10
68.51341324665856
 20
98.85212847947318
 30
0.0
 10
68.51497359326086
 20
98.84087965279268
 30
0.0
 10
68.51806597611007
 20
98.8185861966374
 30
0.0
 10
68.52968864114133
 20
98.77015373287813
 30
0.0
 10
68.568234993791
 20
98.7134985574166
 30
0.0
 10
68.64046643634363
 20
98.65427275576351
 30
0.0
 10
68.72987562859907
 20
98.60139556455773
 30
0.0
 10
68.84284125264915
 20
98.55574191705732
 30
0.0
 10
68.9681583693447
 20
98.5194017127304
 30
0.0
 10
69.11021604490045
 20
98.49208579679403
 30
0.0
 10
69.25899963418115
 20
98.47542307903822
 30
0.0
 10
69.41345130301156
 20
98.47001948188395
 30
0.0
 10
69.56790143637785
 20
98.47545275881089
 30
0.0
 10
69.71667977248809
 20
98.49214443314555
 30
0.0
 10
69.85873086228659
 20
98.51949207179993
 30
0.0
 10
69.98404534974227
 20
98.55585825260289
 30
0.0
 10
70.09701029479146
 20
98.60151929558486
 30
0.0
 10
70.18640384758295
 20
98.65441034101258
 30
0.0
 10
70.25857975762645
 20
98.71369664790788
 30
0.0
 10
70.29709613443393
 20
98.77031398385982
 30
0.0
 10
70.30882153135505
 20
98.81867308172204
 30
0.0
 10
70.3119748820598
 20
98.84090990256132
 30
0.0
 10
70.31356575460276
 20
98.85212847947315
 30
0.0
 11
68.51341324665856
 21
98.85212847947318
 31
0.0
 11
68.51865176698423
 21
98.8184540600287
 31
0.0
 11
68.52709275741935
 21
98.7860754256348
 31
0.0
 11
68.57013915110912
 21
98.71736884117313
 31
0.0
 11
68.63400906747196
 21
98.66194426772206
 31
0.0
 11
68.73162665324921
 21
98.60368359505247
 31
0.0
 11
68.83493302619917
 21
98.56076279528085
 31
0.0
 11
68.96844853753107
 21
98.52154028122513
 31
0.0
 11
69.10563023885668
 21
98.49473498716706
 31
0.0
 11
69.25921386437946
 21
98.47738475785115
 31
0.0
 11
69.41345062653257
 21
98.47182477150588
 31
0.0
 11
69.56768781708605
 21
98.47741456891274
 31
0.0
 11
69.72126650752816
 21
98.4947954584248
 31
0.0
 11
69.85843633119099
 21
98.52162898207872
 31
0.0
 11
69.99195074371676
 21
98.5608764440702
 31
0.0
 11
70.09526728637212
 21
98.6038140539916
 31
0.0
 11
70.19285482134015
 21
98.66209738632173
 31
0.0
 11
70.25666942671788
 21
98.71754280486402
 31
0.0
 11
70.29974674360847
 21
98.78624954568187
 31
0.0
 11
70.30824118140106
 21
98.81854596893342
 31
0.0
 11
70.31356575460276
 21
98.85212847947315
 31
0.0
  0
SPLINE
  5
247
330
63
100
AcDbEntity
  8
1
  6
Continuous
 62
     7
100
AcDbSpline
210
0.0
220
0.0
230
1.0
 70
     8
 71
     3
 72
    43
 73
    39
 74
    37
 42
0.000000001
 43
0.0000000001
 44
0.00000001
 40
0.0
 40
0.0
 40
0.0
 40
0.0
 40
0.0448557901637633
 40
0.089522944451049
 40
0.1420251082514204
 40
0.1947532401612088
 40
0.2550487154287403
 40
0.3152379064367015
 40
0.3822477338288772
 40
0.4493013354605923
 40
0.5217835067269467
 40
0.5942519415059953
 40
0.6705157160778434
 40
0.7467846702036968
 40
0.8249938919558037
 40
0.9032018536926171
 40
0.9814103232138213
 40
1.059619074000474
 40
1.135885763744075
 40
1.212151681689438
 40
1.284627294180468
 40
1.357102770454472
 40
1.424135757138253
 40
1.491164191024467
 40
1.551405676236607
 40
1.611656884965186
 40
1.66427740745367
 40
1.716849526799757
 40
1.761592188488696
 40
1.806484764559253
 40
1.857965131830033
 40
1.908967480764594
 40
1.92957631956635
 40
1.950229041233074
 40
1.972260135517554
 40
1.994167368541236
 40
2.043389227994282
 40
2.093764128064763
 40
2.093764128064763
 40
2.093764128064763
 40
2.093764128064763
 10
67.79762887560685
 20
98.8847871066979
 30
0.0
 10
67.78696147789545
 20
98.87431088099906
 30
0.0
 10
67.76567153335793
 20
98.8534024961499
 30
0.0
 10
67.72990390137909
 20
98.82226661608713
 30
0.0
 10
67.68810485749711
 20
98.79462513387806
 30
0.0
 10
67.63931558747926
 20
98.7687800735569
 30
0.0
 10
67.58676900787057
 20
98.74477140082368
 30
0.0
 10
67.5284601924144
 20
98.7221806369189
 30
0.0
 10
67.46680269140268
 20
98.70229094058652
 30
0.0
 10
67.40025017718169
 20
98.68456381039947
 30
0.0
 10
67.33119248855327
 20
98.66945246125638
 30
0.0
 10
67.25852673598934
 20
98.65680180864382
 30
0.0
 10
67.18415729084171
 20
98.64693713327526
 30
0.0
 10
67.10755534767371
 20
98.63981580796852
 30
0.0
 10
67.03009390845025
 20
98.63552516782318
 30
0.0
 10
66.95188069647828
 20
98.63410364644096
 30
0.0
 10
66.87366789182056
 20
98.63553923498169
 30
0.0
 10
66.79620802092876
 20
98.63984563659653
 30
0.0
 10
66.71960809443745
 20
98.64698673710635
 30
0.0
 10
66.64523831232759
 20
98.65686515278469
 30
0.0
 10
66.57257126388618
 20
98.66951291678474
 30
0.0
 10
66.5035231693813
 20
98.68464056472777
 30
0.0
 10
66.43699252254923
 20
98.70244018262856
 30
0.0
 10
66.37532209002845
 20
98.72233224867324
 30
0.0
 10
66.3169347110501
 20
98.74474076468184
 30
0.0
 10
66.26443249607152
 20
98.76879611913428
 30
0.0
 10
66.21598467189519
 20
98.79524189195779
 30
0.0
 10
66.17415701301388
 20
98.82271701660302
 30
0.0
 10
66.13700830438071
 20
98.85228459296567
 30
0.0
 10
66.10380842702446
 20
98.8857960068765
 30
0.0
 10
66.07494154125666
 20
98.92587996012179
 30
0.0
 10
66.05869352452808
 20
98.96414243550964
 30
0.0
 10
66.05285563305429
 20
98.99441114699117
 30
0.0
 10
66.0514463864224
 20
99.01551883075834
 30
0.0
 10
66.05285993759102
 20
99.03706729752633
 30
0.0
 10
66.0591761760386
 20
99.0675982941528
 30
0.0
 10
66.07714366137459
 20
99.10450425332988
 30
0.0
 10
66.09644519152283
 20
99.13150175415001
 30
0.0
 10
66.10620768748905
 20
99.14515677878333
 30
0.0
 11
67.79762887560685
 21
98.8847871066979
 31
0.0
 11
67.76531147457636
 21
98.85368039986838
 31
0.0
 11
67.73132247635544
 21
98.82469932792478
 31
0.0
 11
67.68775132044055
 21
98.79540715690696
 31
0.0
 11
67.64133427504237
 21
98.77039288627022
 31
0.0
 11
67.58650668852653
 21
98.74530344407889
 31
0.0
 11
67.53039851762829
 21
98.72351785548355
 31
0.0
 11
67.46665554851006
 21
98.70285022763186
 31
0.0
 11
67.40188593096597
 21
98.6854985096553
 31
0.0
 11
67.3310884117517
 21
98.66996221657539
 31
0.0
 11
67.25970130497075
 21
98.65749004736975
 31
0.0
 11
67.18410365273598
 21
98.64743230065388
 31
0.0
 11
67.10816484755455
 21
98.64034349158048
 31
0.0
 11
67.03007581405654
 21
98.63600930206574
 31
0.0
 11
66.95188091729486
 21
98.63457983170856
 31
0.0
 11
66.87368577702344
 21
98.63602369114022
 31
0.0
 11
66.79559812232907
 21
98.64037419364267
 31
0.0
 11
66.7196632494033
 21
98.64748074183741
 31
0.0
 11
66.64406503629925
 21
98.65755051862752
 31
0.0
 11
66.57267141212064
 21
98.67002708956754
 31
0.0
 11
66.50188591534508
 21
98.68558691272005
 31
0.0
 11
66.43714965436723
 21
98.7029834011053
 31
0.0
 11
66.37338080011067
 21
98.72363150427289
 31
0.0
 11
66.3171811565669
 21
98.74532566466486
 31
0.0
 11
66.26245425349568
 21
98.7705283276232
 31
0.0
 11
66.21633544212277
 21
98.79586554554307
 31
0.0
 11
66.17247672248735
 21
98.82485244652443
 31
0.0
 11
66.13762730650676
 21
98.85291352215967
 31
0.0
 11
66.10618212883455
 21
98.88495325011307
 31
0.0
 11
66.07649971051946
 21
98.9270148979695
 31
0.0
 11
66.05717802464547
 21
98.97421566068542
 31
0.0
 11
66.05328052948525
 21
98.99445260112003
 31
0.0
 11
66.05191826592709
 21
99.01506034580537
 31
0.0
 11
66.053369852957
 21
99.03704356680646
 31
0.0
 11
66.05786454026386
 21
99.05848475738998
 31
0.0
 11
66.07809022312755
 21
99.10335917495385
 31
0.0
 11
66.10620768748905
 21
99.14515677878333
 31
0.0
  0
ENDBLK
  5
65
330
63
100
AcDbEntity
  8
0
100
AcDbBlockEnd
  0
BLOCK
  5
67
330
66
100
AcDbEntity
  8
0
100
AcDbBlockBegin
  2
Y22-0B-13
 70
     0
 10
1.99999999999988
 20
743.25
 30
0.0
  3
Y22-0B-13
  1

  0
LINE
  5
248
330
66
100
AcDbEntity
  8
1
  6
Continuous
 62
     7
100
AcDbLine
 10
273.4316283859448
 20
128.1558878554578
 30
0.0
 11
273.4316283859448
 21
153.528215089635
 31
0.0
  0
LINE
  5
249
330
66
100
AcDbEntity
  8
1
  6
Continuous
 62
     7
100
AcDbLine
 10
288.9316283859448
 20
151.3420514725464
 30
0.0
 11
288.9316283859448
 21
130.3420514725464
 31
0.0
  0
LINE
  5
24A
330
66
100
AcDbEntity
  8
1
  6
Continuous
 62
     7
100
AcDbLine
 10
275.9316283859448
 20
130.3420514725464
 30
0.0
 11
275.9316283859448
 21
151.3420514725464
 31
0.0
  0
LINE
  5
24B
330
66
100
AcDbEntity
  8
1
  6
Continuous
 62
     7
100
AcDbLine
 10
277.6636791935136
 20
150.3420514725464
 30
0.0
 11
277.6636791935136
 21
131.3420514725464
 31
0.0
  0
LINE
  5
24C
330
66
100
AcDbEntity
  8
1
  6
Continuous
 62
     7
100
AcDbLine
 10
212.9316283859453
 20
163.1100006649775
 30
0.0
 11
188.9316283859453
 21
163.1100006649775
 31
0.0
  0
LINE
  5
24D
330
66
100
AcDbEntity
  8
1
  6
Continuous
 62
     7
100
AcDbLine
 10
189.9316283859453
 20
164.8420514725464
 30
0.0
 11
211.9316283859453
 21
164.8420514725464
 31
0.0
  0
LINE
  5
24E
330
66
100
AcDbEntity
  8
1
  6
Continuous
 62
     7
100
AcDbLine
 10
176.4316283859453
 20
153.8420514725464
 30
0.0
 11
176.4316283859453
 21
127.8420514725463
 31
0.0
  0
LINE
  5
24F
330
66
100
AcDbEntity
  8
1
  6
Continuous
 62
     2
100
AcDbLine
 10
211.9316283859453
 20
166.2717427607315
 30
0.0
 11
211.9316283859453
 21
164.8420514725464
 31
0.0
  0
LINE
  5
250
330
66
100
AcDbEntity
  8
1
  6
Continuous
 62
     7
100
AcDbLine
 10
188.9316283859453
 20
166.2717427607315
 30
0.0
 11
188.9316283859453
 21
164.8420514725464
 31
0.0
  0
LINE
  5
251
330
66
100
AcDbEntity
  8
1
  6
Continuous
 62
     2
100
AcDbLine
 10
175.9316283859453
 20
128.6550514725465
 30
0.0
 11
177.8400099191717
 21
128.6550514725465
 31
0.0
  0
LINE
  5
252
330
66
100
AcDbEntity
  8
1
  6
Continuous
 62
     7
100
AcDbLine
 10
175.9316283859453
 20
153.8420514725464
 30
0.0
 11
176.4316283859453
 21
153.8420514725464
 31
0.0
  0
LINE
  5
253
330
66
100
AcDbEntity
  8
1
  6
Continuous
 62
     7
100
AcDbLine
 10
213.4012265645446
 20
163.1100006649775
 30
0.0
 11
213.5322403859791
 21
157.6074201647276
 31
0.0
  0
LINE
  5
254
330
66
100
AcDbEntity
  8
1
  6
Continuous
 62
     7
100
AcDbLine
 10
56.94381508368002
 20
163.1100006649776
 30
0.0
 11
56.87268061401841
 21
160.1223529391949
 31
0.0
  0
LINE
  5
255
330
66
100
AcDbEntity
  8
1
  6
Continuous
 62
     7
100
AcDbLine
 10
81.95414591054023
 20
160.1223529391951
 30
0.0
 11
82.27702025200327
 21
146.5616305977466
 31
0.0
  0
LINE
  5
256
330
66
100
AcDbEntity
  8
1
  6
Continuous
 62
     7
100
AcDbLine
 10
56.87268061401841
 20
160.1223529391949
 30
0.0
 11
56.5498062725544
 21
146.561630597745
 31
0.0
  0
LINE
  5
257
330
66
100
AcDbEntity
  8
1
  6
Continuous
 62
     7
100
AcDbLine
 10
81.88301144087873
 20
163.1100006649776
 30
0.0
 11
81.95414591054023
 21
160.1223529391951
 31
0.0
  0
LINE
  5
258
330
66
100
AcDbEntity
  8
1
  6
Continuous
 62
     7
100
AcDbLine
 10
188.4620302073461
 20
163.1100006649775
 30
0.0
 11
188.3455274943011
 21
158.2168867171012
 31
0.0
  0
LINE
  5
259
330
66
100
AcDbEntity
  8
1
  6
Continuous
 62
     7
100
AcDbLine
 10
188.9316283859453
 20
163.1100006649775
 30
0.0
 11
188.4620302073461
 21
163.1100006649775
 31
0.0
  0
LINE
  5
25A
330
66
100
AcDbEntity
  8
1
  6
Continuous
 62
     7
100
AcDbLine
 10
212.9316283859453
 20
163.1100006649775
 30
0.0
 11
213.4012265645446
 21
163.1100006649775
 31
0.0
  0
LINE
  5
25B
330
66
100
AcDbEntity
  8
1
  6
PHANTOM
 62
     4
100
AcDbLine
 10
95.41341326227953
 20
140.8420514725465
 30
0.0
 11
43.41341326227934
 21
140.8420514725465
 31
0.0
  0
LINE
  5
25C
330
66
100
AcDbEntity
  8
1
  6
PHANTOM
 62
     4
100
AcDbLine
 10
69.41341326227948
 20
173.8420514725465
 30
0.0
 11
69.41341326227948
 21
114.8420514725465
 31
0.0
  0
LINE
  5
25D
330
66
100
AcDbEntity
  8
1
  6
Continuous
 62
     7
100
AcDbLine
 10
81.41341326227948
 20
163.1100006649776
 30
0.0
 11
81.41341326227942
 21
164.8420514725465
 31
0.0
  0
LINE
  5
25E
330
66
100
AcDbEntity
  8
1
  6
Continuous
 62
     2
100
AcDbLine
 10
80.41341326227948
 20
164.8420514725465
 30
0.0
 11
81.41341326227948
 21
163.1100006649776
 31
0.0
  0
LINE
  5
25F
330
66
100
AcDbEntity
  8
1
  6
Continuous
 62
     7
100
AcDbLine
 10
58.41341326227934
 20
164.8420514725465
 30
0.0
 11
81.41341326227942
 21
164.8420514725465
 31
0.0
  0
LINE
  5
260
330
66
100
AcDbEntity
  8
1
  6
Continuous
 62
     7
100
AcDbLine
 10
81.41341326227942
 20
164.8420514725465
 30
0.0
 11
81.41341326227948
 21
166.2717427607315
 31
0.0
  0
LINE
  5
261
330
66
100
AcDbEntity
  8
1
  6
Continuous
 62
     7
100
AcDbLine
 10
57.41341326227934
 20
164.8420514725465
 30
0.0
 11
58.41341326227934
 21
164.8420514725465
 31
0.0
  0
LINE
  5
262
330
66
100
AcDbEntity
  8
1
  6
Continuous
 62
     2
100
AcDbLine
 10
58.41341326227934
 20
164.8420514725465
 30
0.0
 11
58.41341326227935
 21
166.2717427607315
 31
0.0
  0
LINE
  5
263
330
66
100
AcDbEntity
  8
1
  6
Continuous
 62
     2
100
AcDbLine
 10
57.41341326227934
 20
163.1100006649776
 30
0.0
 11
58.41341326227934
 21
164.8420514725465
 31
0.0
  0
LINE
  5
264
330
66
100
AcDbEntity
  8
1
  6
Continuous
 62
     7
100
AcDbLine
 10
57.41341326227934
 20
164.8420514725465
 30
0.0
 11
57.41341326227934
 21
163.1100006649776
 31
0.0
  0
LINE
  5
265
330
66
100
AcDbEntity
  8
1
  6
Continuous
 62
     7
100
AcDbLine
 10
81.41341326227948
 20
163.1100006649776
 30
0.0
 11
81.88301144087873
 21
163.1100006649776
 31
0.0
  0
LINE
  5
266
330
66
100
AcDbEntity
  8
1
  6
Continuous
 62
     7
100
AcDbLine
 10
57.41341326227934
 20
163.1100006649776
 30
0.0
 11
56.94381508368002
 21
163.1100006649776
 31
0.0
  0
LINE
  5
267
330
66
100
AcDbEntity
  8
1
  6
Continuous
 62
     7
100
AcDbLine
 10
273.4316283859448
 20
163.3812810204103
 30
0.0
 11
273.4316283859448
 21
153.528215089635
 31
0.0
  0
LINE
  5
268
330
66
100
AcDbEntity
  8
1
  6
Continuous
 62
     7
100
AcDbLine
 10
275.9316283859448
 20
163.8420514725464
 30
0.0
 11
273.9300870528114
 21
163.8420514725464
 31
0.0
  0
LINE
  5
269
330
66
100
AcDbEntity
  8
1
  6
Continuous
 62
     7
100
AcDbLine
 10
275.9316283859448
 20
163.8420514725464
 30
0.0
 11
275.9316283859448
 21
151.3420514725464
 31
0.0
  0
LINE
  5
26A
330
66
100
AcDbEntity
  8
1
  6
Continuous
 62
     7
100
AcDbLine
 10
275.9316283859448
 20
151.3420514725464
 30
0.0
 11
277.6636791935136
 21
151.3420514725464
 31
0.0
  0
LINE
  5
26B
330
66
100
AcDbEntity
  8
1
  6
Continuous
 62
     2
100
AcDbLine
 10
275.9316283859448
 20
151.3420514725464
 30
0.0
 11
277.6636791935136
 21
150.3420514725464
 31
0.0
  0
LINE
  5
26C
330
66
100
AcDbEntity
  8
1
  6
Continuous
 62
     7
100
AcDbLine
 10
289.9316283859448
 20
150.3420514725464
 30
0.0
 11
289.9316283859448
 21
131.3420514725464
 31
0.0
  0
LINE
  5
26D
330
66
100
AcDbEntity
  8
1
  6
Continuous
 62
     7
100
AcDbLine
 10
289.9316283859448
 20
150.3420514725464
 30
0.0
 11
288.9316283859448
 21
151.3420514725464
 31
0.0
  0
LINE
  5
26E
330
66
100
AcDbEntity
  8
1
  6
Continuous
 62
     7
100
AcDbLine
 10
277.6636791935136
 20
150.3420514725464
 30
0.0
 11
277.6636791935136
 21
151.3420514725464
 31
0.0
  0
LINE
  5
26F
330
66
100
AcDbEntity
  8
1
  6
Continuous
 62
     7
100
AcDbLine
 10
277.6636791935136
 20
151.3420514725464
 30
0.0
 11
288.9316283859448
 21
151.3420514725464
 31
0.0
  0
LINE
  5
270
330
66
100
AcDbEntity
  8
1
  6
Continuous
 62
     2
100
AcDbLine
 10
277.6636791935136
 20
150.3420514725464
 30
0.0
 11
289.9316283859448
 21
150.3420514725464
 31
0.0
  0
LINE
  5
271
330
66
100
AcDbEntity
  8
1
  6
Continuous
 62
     7
100
AcDbLine
 10
288.9316283859448
 20
130.3420514725464
 30
0.0
 11
277.6636791935136
 21
130.3420514725464
 31
0.0
  0
LINE
  5
272
102
{ACAD_REACTORS
330
2C4
102
}
330
66
100
AcDbEntity
  8
1
  6
Continuous
 62
     7
100
AcDbLine
 10
277.6636791935136
 20
130.3420514725464
 30
0.0
 11
277.6636791935136
 21
131.3420514725464
 31
0.0
  0
LINE
  5
273
330
66
100
AcDbEntity
  8
1
  6
Continuous
 62
     7
100
AcDbLine
 10
288.9316283859448
 20
130.3420514725464
 30
0.0
 11
289.9316283859448
 21
131.3420514725464
 31
0.0
  0
LINE
  5
274
330
66
100
AcDbEntity
  8
1
  6
Continuous
 62
     2
100
AcDbLine
 10
289.9316283859448
 20
131.3420514725464
 30
0.0
 11
277.6636791935136
 21
131.3420514725464
 31
0.0
  0
LINE
  5
275
102
{ACAD_REACTORS
330
2C4
102
}
330
66
100
AcDbEntity
  8
1
  6
Continuous
 62
     2
100
AcDbLine
 10
277.6636791935136
 20
131.3420514725464
 30
0.0
 11
275.9316283859448
 21
130.3420514725464
 31
0.0
  0
LINE
  5
276
102
{ACAD_REACTORS
330
2C4
102
}
330
66
100
AcDbEntity
  8
1
  6
Continuous
 62
     7
100
AcDbLine
 10
277.6636791935136
 20
130.3420514725464
 30
0.0
 11
275.9316283859448
 21
130.3420514725464
 31
0.0
  0
LINE
  5
277
330
66
100
AcDbEntity
  8
1
  6
Continuous
 62
     7
100
AcDbLine
 10
275.9316283859448
 20
130.3420514725464
 30
0.0
 11
275.9316283859448
 21
117.8420514725464
 31
0.0
  0
LINE
  5
278
330
66
100
AcDbEntity
  8
1
  6
Continuous
 62
     7
100
AcDbLine
 10
273.9300870528114
 20
117.8420514725464
 30
0.0
 11
275.9316283859448
 21
117.8420514725464
 31
0.0
  0
LINE
  5
279
330
66
100
AcDbEntity
  8
1
  6
Continuous
 62
     7
100
AcDbLine
 10
273.4316283859448
 20
128.1558878554578
 30
0.0
 11
273.4316283859448
 21
118.3028219246825
 31
0.0
  0
LINE
  5
27A
330
66
100
AcDbEntity
  8
1
  6
Continuous
 62
     7
100
AcDbLine
 10
212.9316283859453
 20
163.1100006649775
 30
0.0
 11
212.9316283859453
 21
164.8420514725464
 31
0.0
  0
LINE
  5
27B
330
66
100
AcDbEntity
  8
1
  6
Continuous
 62
     7
100
AcDbLine
 10
269.4439590510123
 20
149.8420514725464
 30
0.0
 11
224.2554359653265
 21
149.8420514725464
 31
0.0
  0
LINE
  5
27C
330
66
100
AcDbEntity
  8
1
  6
Continuous
 62
     2
100
AcDbLine
 10
211.9316283859453
 20
164.8420514725464
 30
0.0
 11
212.9316283859453
 21
163.1100006649775
 31
0.0
  0
LINE
  5
27D
330
66
100
AcDbEntity
  8
1
  6
Continuous
 62
     7
100
AcDbLine
 10
211.9316283859453
 20
164.8420514725464
 30
0.0
 11
212.9316283859453
 21
164.8420514725464
 31
0.0
  0
LINE
  5
27E
330
66
100
AcDbEntity
  8
1
  6
Continuous
 62
     7
100
AcDbLine
 10
212.9316283859453
 20
164.8420514725464
 30
0.0
 11
212.9316283859453
 21
166.2717427607315
 31
0.0
  0
LINE
  5
27F
102
{ACAD_REACTORS
330
2C3
102
}
330
66
100
AcDbEntity
  8
1
  6
Continuous
 62
     7
100
AcDbLine
 10
188.9316283859453
 20
164.8420514725464
 30
0.0
 11
189.9316283859453
 21
164.8420514725464
 31
0.0
  0
LINE
  5
280
330
66
100
AcDbEntity
  8
1
  6
Continuous
 62
     2
100
AcDbLine
 10
189.9316283859453
 20
164.8420514725464
 30
0.0
 11
189.9316283859453
 21
166.2717427607315
 31
0.0
  0
LINE
  5
281
102
{ACAD_REACTORS
330
2C3
102
}
330
66
100
AcDbEntity
  8
1
  6
Continuous
 62
     2
100
AcDbLine
 10
188.9316283859453
 20
163.1100006649775
 30
0.0
 11
189.9316283859453
 21
164.8420514725464
 31
0.0
  0
LINE
  5
282
102
{ACAD_REACTORS
330
2C3
102
}
330
66
100
AcDbEntity
  8
1
  6
Continuous
 62
     7
100
AcDbLine
 10
188.9316283859453
 20
164.8420514725464
 30
0.0
 11
188.9316283859453
 21
163.1100006649775
 31
0.0
  0
LINE
  5
283
330
66
100
AcDbEntity
  8
1
  6
PHANTOM
 62
     4
100
AcDbLine
 10
200.9316283859453
 20
124.8216989580245
 30
0.0
 11
200.9316283859453
 21
172.9559304066164
 31
0.0
  0
LINE
  5
284
330
66
100
AcDbEntity
  8
1
  6
PHANTOM
 62
     4
100
AcDbLine
 10
164.4120269674392
 20
140.8420514725464
 30
0.0
 11
293.4694349176978
 21
140.8420514725464
 31
0.0
  0
LINE
  5
285
330
66
100
AcDbEntity
  8
1
  6
Continuous
 62
     7
100
AcDbLine
 10
224.2554359653265
 20
131.8420514725464
 30
0.0
 11
269.4439590510123
 21
131.8420514725464
 31
0.0
  0
LINE
  5
286
330
66
100
AcDbEntity
  8
1
  6
Continuous
 62
     7
100
AcDbLine
 10
176.4316283859453
 20
127.8420514725463
 30
0.0
 11
175.9316283859453
 21
127.8420514725463
 31
0.0
  0
LINE
  5
287
330
66
100
AcDbEntity
  8
1
  6
Continuous
 62
     2
100
AcDbLine
 10
177.8400099191717
 20
153.0290514725465
 30
0.0
 11
175.9316283859453
 21
153.0290514725465
 31
0.0
  0
LINE
  5
288
330
66
100
AcDbEntity
  8
1
  6
Continuous
 62
     7
100
AcDbLine
 10
91.95264281014323
 20
374.1138438710985
 30
0.0
 11
46.87418371441541
 21
374.1138438710985
 31
0.0
  0
LINE
  5
289
330
66
100
AcDbEntity
  8
1
  6
Continuous
 62
     2
100
AcDbLine
 10
81.60041326227935
 20
278.5222254043249
 30
0.0
 11
81.60041326227935
 21
276.6138438710984
 31
0.0
  0
LINE
  5
28A
330
66
100
AcDbEntity
  8
1
  6
Continuous
 62
     7
100
AcDbLine
 10
82.41341326227933
 20
277.1138438710985
 30
0.0
 11
75.75904494095533
 21
277.1138438710985
 31
0.0
  0
LINE
  5
28B
330
66
100
AcDbEntity
  8
1
  6
Continuous
 62
     2
100
AcDbLine
 10
57.22641326227929
 20
278.5222254043249
 30
0.0
 11
57.22641326227929
 21
276.6138438710984
 31
0.0
  0
LINE
  5
28C
330
66
100
AcDbEntity
  8
1
  6
PHANTOM
 62
     4
100
AcDbLine
 10
69.41341326227933
 20
266.6138438710985
 30
0.0
 11
69.41341326227933
 21
393.6138438710985
 31
0.0
  0
LINE
  5
28D
330
66
100
AcDbEntity
  8
1
  6
Continuous
 62
     7
100
AcDbLine
 10
82.41341326227933
 20
277.1138438710985
 30
0.0
 11
82.41341326227933
 21
276.6138438710984
 31
0.0
  0
LINE
  5
28E
330
66
100
AcDbEntity
  8
1
  6
PHANTOM
 62
     4
100
AcDbLine
 10
86.15742529120058
 20
301.6138438710985
 30
0.0
 11
52.66940123335817
 21
301.6138438710985
 31
0.0
  0
LINE
  5
28F
330
66
100
AcDbEntity
  8
1
  6
Continuous
 62
     2
100
AcDbLine
 10
78.91341326227933
 20
378.3458946786674
 30
0.0
 11
78.91341326227933
 21
390.6138438710985
 31
0.0
  0
LINE
  5
290
330
66
100
AcDbEntity
  8
1
  6
Continuous
 62
     2
100
AcDbLine
 10
78.91341326227933
 20
378.3458946786674
 30
0.0
 11
79.91341326227933
 21
376.6138438710985
 31
0.0
  0
LINE
  5
291
330
66
100
AcDbEntity
  8
1
  6
Continuous
 62
     7
100
AcDbLine
 10
92.4134132622793
 20
374.6123025379651
 30
0.0
 11
92.41341326227933
 21
376.6138438710985
 31
0.0
  0
LINE
  5
292
330
66
100
AcDbEntity
  8
1
  6
Continuous
 62
     7
100
AcDbLine
 10
82.09957687936793
 20
374.1138438710985
 30
0.0
 11
82.8748695740922
 21
374.1138438710985
 31
0.0
  0
LINE
  5
293
330
66
100
AcDbEntity
  8
1
  6
Continuous
 62
     7
100
AcDbLine
 10
78.41341326227933
 20
370.126174536166
 30
0.0
 11
78.41341326227933
 21
324.9376514504796
 31
0.0
  0
LINE
  5
294
330
66
100
AcDbEntity
  8
1
  6
Continuous
 62
     7
100
AcDbLine
 10
46.41341326227931
 20
376.6138438710985
 30
0.0
 11
46.41341326227931
 21
374.6123025379651
 31
0.0
  0
LINE
  5
295
330
66
100
AcDbEntity
  8
1
  6
Continuous
 62
     7
100
AcDbLine
 10
46.41341326227931
 20
376.6138438710985
 30
0.0
 11
92.41341326227933
 21
376.6138438710985
 31
0.0
  0
LINE
  5
296
330
66
100
AcDbEntity
  8
1
  6
Continuous
 62
     2
100
AcDbLine
 10
58.91341326227919
 20
376.6138438710985
 30
0.0
 11
59.91341326227921
 21
378.3458946786674
 31
0.0
  0
LINE
  5
297
330
66
100
AcDbEntity
  8
1
  6
Continuous
 62
     2
100
AcDbLine
 10
59.91341326227921
 20
378.3458946786674
 30
0.0
 11
59.91341326227919
 21
390.6138438710985
 31
0.0
  0
LINE
  5
298
330
66
100
AcDbEntity
  8
1
  6
Continuous
 62
     7
100
AcDbLine
 10
60.41341326227919
 20
370.126174536166
 30
0.0
 11
60.41341326227919
 21
324.9376514504796
 31
0.0
  0
LINE
  5
299
330
66
100
AcDbEntity
  8
1
  6
Continuous
 62
     7
100
AcDbLine
 10
58.91341326227919
 20
376.6138438710985
 30
0.0
 11
58.91341326227919
 21
378.3458946786674
 31
0.0
  0
LINE
  5
29A
330
66
100
AcDbEntity
  8
1
  6
Continuous
 62
     7
100
AcDbLine
 10
59.91341326227919
 20
390.6138438710985
 30
0.0
 11
58.91341326227919
 21
389.6138438710985
 31
0.0
  0
LINE
  5
29B
330
66
100
AcDbEntity
  8
1
  6
Continuous
 62
     7
100
AcDbLine
 10
58.91341326227919
 20
378.3458946786674
 30
0.0
 11
58.91341326227919
 21
389.6138438710985
 31
0.0
  0
LINE
  5
29C
330
66
100
AcDbEntity
  8
1
  6
Continuous
 62
     7
100
AcDbLine
 10
78.91341326227933
 20
389.6138438710985
 30
0.0
 11
79.91341326227928
 21
389.6138438710985
 31
0.0
  0
LINE
  5
29D
330
66
100
AcDbEntity
  8
1
  6
Continuous
 62
     7
100
AcDbLine
 10
79.91341326227928
 20
389.6138438710985
 30
0.0
 11
79.91341326227928
 21
378.3458946786674
 31
0.0
  0
LINE
  5
29E
330
66
100
AcDbEntity
  8
1
  6
Continuous
 62
     7
100
AcDbLine
 10
79.91341326227928
 20
378.3458946786674
 30
0.0
 11
58.91341326227919
 21
378.3458946786674
 31
0.0
  0
LINE
  5
29F
330
66
100
AcDbEntity
  8
1
  6
Continuous
 62
     7
100
AcDbLine
 10
79.91341326227928
 20
389.6138438710985
 30
0.0
 11
78.91341326227933
 21
390.6138438710985
 31
0.0
  0
LINE
  5
2A0
330
66
100
AcDbEntity
  8
1
  6
Continuous
 62
     7
100
AcDbLine
 10
78.91341326227933
 20
390.6138438710985
 30
0.0
 11
59.91341326227919
 21
390.6138438710985
 31
0.0
  0
LINE
  5
2A1
330
66
100
AcDbEntity
  8
1
  6
Continuous
 62
     7
100
AcDbLine
 10
79.91341326227928
 20
378.3458946786674
 30
0.0
 11
79.91341326227933
 21
376.6138438710985
 31
0.0
  0
LINE
  5
2A2
330
66
100
AcDbEntity
  8
1
  6
Continuous
 62
     7
100
AcDbLine
 10
78.91341326227933
 20
389.6138438710985
 30
0.0
 11
58.91341326227919
 21
389.6138438710985
 31
0.0
  0
LINE
  5
2A3
330
66
100
AcDbEntity
  8
1
  6
Continuous
 62
     7
100
AcDbLine
 10
57.41341326227934
 20
163.1100006649776
 30
0.0
 11
81.41341326227948
 21
163.1100006649776
 31
0.0
  0
LINE
  5
2A4
330
66
100
AcDbEntity
  8
1
  6
Continuous
 62
     2
100
AcDbLine
 10
80.41341326227948
 20
166.2717427607315
 30
0.0
 11
80.41341326227948
 21
164.8420514725465
 31
0.0
  0
LINE
  5
2A5
330
66
100
AcDbEntity
  8
1
  6
Continuous
 62
     7
100
AcDbLine
 10
57.41341326227934
 20
166.2717427607315
 30
0.0
 11
57.41341326227934
 21
164.8420514725465
 31
0.0
  0
LINE
  5
2A6
330
66
100
AcDbEntity
  8
1
  6
Continuous
 62
     7
100
AcDbLine
 10
56.41341326227919
 20
276.6138438710984
 30
0.0
 11
56.41341326227919
 21
277.1138438710985
 31
0.0
  0
LINE
  5
2A7
330
66
100
AcDbEntity
  8
1
  6
Continuous
 62
     7
100
AcDbLine
 10
63.06778158360326
 20
277.1138438710985
 30
0.0
 11
56.41341326227919
 21
277.1138438710985
 31
0.0
  0
ARC
  5
2A8
330
66
100
AcDbEntity
  8
1
  6
Continuous
 62
     7
100
AcDbCircle
 10
69.41341326227948
 20
140.8420514725465
 30
0.0
 40
23.00000000000015
100
AcDbArc
 50
290.0889308035116
 51
56.95830215333493
  0
ARC
  5
2A9
330
66
100
AcDbEntity
  8
1
  6
Continuous
 62
     7
100
AcDbCircle
 10
224.2554359653265
 20
101.8420514725464
 30
0.0
 40
29.99999999999999
100
AcDbArc
 50
90.0
 51
109.4629509463153
  0
ARC
  5
2AA
330
66
100
AcDbEntity
  8
1
  6
Continuous
 62
     7
100
AcDbCircle
 10
200.9316283859453
 20
167.8420514725464
 30
0.0
 40
39.99999999999996
100
AcDbArc
 50
252.8522708431299
 51
289.4629509463153
  0
ARC
  5
2AB
330
66
100
AcDbEntity
  8
1
  6
Continuous
 62
     7
100
AcDbCircle
 10
184.6816283859453
 20
115.1767453500976
 30
0.0
 40
15.11530612244887
100
AcDbArc
 50
116.912451808192
 51
123.0796480024585
  0
ARC
  5
2AC
330
66
100
AcDbEntity
  8
1
  6
Continuous
 62
     7
100
AcDbCircle
 10
184.6816283859453
 20
115.1767453500976
 30
0.0
 40
15.11530612244884
100
AcDbArc
 50
72.85227084312996
 51
116.912451808192
  0
ARC
  5
2AD
330
66
100
AcDbEntity
  8
1
  6
Continuous
 62
     7
100
AcDbCircle
 10
184.6816283859453
 20
166.5073575949954
 30
0.0
 40
15.115306122449
100
AcDbArc
 50
236.9203519975422
 51
243.087548191808
  0
ARC
  5
2AE
330
66
100
AcDbEntity
  8
1
  6
Continuous
 62
     7
100
AcDbCircle
 10
184.6816283859453
 20
166.5073575949954
 30
0.0
 40
15.11530612244887
100
AcDbArc
 50
243.087548191808
 51
250.7931517940244
  0
ARC
  5
2AF
330
66
100
AcDbEntity
  8
1
  6
Continuous
 62
     7
100
AcDbCircle
 10
96.41341326227933
 20
301.6138438710985
 30
0.0
 40
39.99999999999999
100
AcDbArc
 50
191.2154399726499
 51
197.1477291568701
  0
ARC
  5
2B0
330
66
100
AcDbEntity
  8
1
  6
Continuous
 62
     7
100
AcDbCircle
 10
43.74810713983041
 20
285.3638438710985
 30
0.0
 40
15.11530612244887
100
AcDbArc
 50
333.087548191808
 51
17.14772915687002
  0
ARC
  5
2B1
330
66
100
AcDbEntity
  8
1
  6
Continuous
 62
     7
100
AcDbCircle
 10
43.74810713983041
 20
285.3638438710985
 30
0.0
 40
15.11530612244882
100
AcDbArc
 50
326.9203519975417
 51
333.087548191808
  0
ARC
  5
2B2
330
66
100
AcDbEntity
  8
1
  6
Continuous
 62
     7
100
AcDbCircle
 10
95.07871938472846
 20
285.3638438710985
 30
0.0
 40
15.11530612244908
100
AcDbArc
 50
206.9124518081916
 51
213.0796480024576
  0
ARC
  5
2B3
330
66
100
AcDbEntity
  8
1
  6
Continuous
 62
     7
100
AcDbCircle
 10
95.07871938472846
 20
285.3638438710985
 30
0.0
 40
15.11530612244897
100
AcDbArc
 50
162.8522708431301
 51
206.9124518081916
  0
ARC
  5
2B4
330
66
100
AcDbEntity
  8
1
  6
Continuous
 62
     7
100
AcDbCircle
 10
30.41341326227931
 20
324.9376514504796
 30
0.0
 40
29.99999999999996
100
AcDbArc
 50
345.0675150288135
 51
0.0
  0
ARC
  5
2B5
330
66
100
AcDbEntity
  8
1
  6
Continuous
 62
     7
100
AcDbCircle
 10
224.2554359653265
 20
179.8420514725464
 30
0.0
 40
29.99999999999999
100
AcDbArc
 50
262.3150744513436
 51
270.0
  0
ARC
  5
2B6
330
66
100
AcDbEntity
  8
1
  6
Continuous
 62
     7
100
AcDbCircle
 10
42.41341326227931
 20
301.6138438710985
 30
0.0
 40
40.00000000000017
100
AcDbArc
 50
342.85227084313
 51
348.7845600273498
  0
ARC
  5
2B7
330
66
100
AcDbEntity
  8
1
  6
Continuous
 62
     7
100
AcDbCircle
 10
108.4134132622793
 20
324.9376514504796
 30
0.0
 40
29.99999999999997
100
AcDbArc
 50
180.0
 51
194.9324849711864
  0
ARC
  5
2B8
330
66
100
AcDbEntity
  8
1
  6
Continuous
 62
     7
100
AcDbCircle
 10
69.41341326227948
 20
140.8420514725465
 30
0.0
 40
23.00000000000013
100
AcDbArc
 50
123.041697846666
 51
249.9110691964879
  0
ARC
  5
2B9
330
66
100
AcDbEntity
  8
1
  6
Continuous
 62
     7
100
AcDbCircle
 10
221.2800446074962
 20
157.7918916938113
 30
0.0
 40
7.750000000000044
100
AcDbArc
 50
181.3639275316025
 51
262.3150744513433
  0
ARC
  5
2BA
330
66
100
AcDbEntity
  8
1
  6
Continuous
 62
     7
100
AcDbCircle
 10
273.9300870528114
 20
163.3420514725464
 30
0.0
 40
0.5
100
AcDbArc
 50
90.0
 51
175.5000000000001
  0
ARC
  5
2BB
330
66
100
AcDbEntity
  8
1
  6
Continuous
 62
     7
100
AcDbCircle
 10
269.4439590510123
 20
153.8420514725464
 30
0.0
 40
4.0
100
AcDbArc
 50
270.0
 51
355.5
  0
ARC
  5
2BC
330
66
100
AcDbEntity
  8
1
  6
Continuous
 62
     7
100
AcDbCircle
 10
269.4439590510123
 20
127.8420514725464
 30
0.0
 40
3.99999999999998
100
AcDbArc
 50
4.50000000000017
 51
90.0
  0
ARC
  5
2BD
330
66
100
AcDbEntity
  8
1
  6
Continuous
 62
     7
100
AcDbCircle
 10
273.9300870528114
 20
118.3420514725464
 30
0.0
 40
0.500000000000045
100
AcDbArc
 50
184.4999999999967
 51
270.0
  0
ARC
  5
2BE
330
66
100
AcDbEntity
  8
1
  6
Continuous
 62
     7
100
AcDbCircle
 10
91.91341326227933
 20
374.6123025379651
 30
0.0
 40
0.500000000000045
100
AcDbArc
 50
274.4999999999966
 51
0.0
  0
ARC
  5
2BF
330
66
100
AcDbEntity
  8
1
  6
Continuous
 62
     7
100
AcDbCircle
 10
82.41341326227933
 20
370.126174536166
 30
0.0
 40
3.999999999999981
100
AcDbArc
 50
94.50000000000037
 51
180.0
  0
ARC
  5
2C0
330
66
100
AcDbEntity
  8
1
  6
Continuous
 62
     7
100
AcDbCircle
 10
56.41341326227919
 20
370.126174536166
 30
0.0
 40
4.0
100
AcDbArc
 50
0.0
 51
85.49999999999801
  0
ARC
  5
2C1
330
66
100
AcDbEntity
  8
1
  6
Continuous
 62
     7
100
AcDbCircle
 10
46.91341326227932
 20
374.6123025379651
 30
0.0
 40
0.5000000000000071
100
AcDbArc
 50
180.0
 51
265.5000000000017
  0
ARC
  5
2C2
330
66
100
AcDbEntity
  8
1
  6
Continuous
 62
     7
100
AcDbCircle
 10
181.8473691149642
 20
158.3716047737524
 30
0.0
 40
6.500000000000093
100
AcDbArc
 50
250.7931517940243
 51
358.6360724683942
  0
HATCH
  5
2C3
330
66
100
AcDbEntity
  8
1
  6
Continuous
 62
     2
100
AcDbHatch
 10
0.0
 20
0.0
 30
0.0
210
0.0
220
0.0
230
1.0
  2
CUSTOM0
 70
     0
 71
     1
 91
        1
 92
        1
 93
        3
 72
     1
 10
188.9316283859453
 20
164.8420514725464
 11
188.9316283859453
 21
163.1100006649775
 72
     1
 10
188.9316283859453
 20
163.1100006649775
 11
189.9316283859453
 21
164.8420514725464
 72
     1
 10
189.9316283859453
 20
164.8420514725464
 11
188.9316283859453
 21
164.8420514725464
 97
        3
330
281
330
282
330
27F
 75
     1
 76
     2
 52
45.0
 41
1.0
 77
     0
 78
     1
 53
45.0
 43
0.0
 44
0.0
 45
-2.82842712474619
 46
0.0000000000000002
 79
     0
 98
        1
 10
0.0
 20
0.0
  0
HATCH
  5
2C4
330
66
100
AcDbEntity
  8
1
  6
Continuous
 62
     2
100
AcDbHatch
 10
0.0
 20
0.0
 30
0.0
210
0.0
220
0.0
230
1.0
  2
CUSTOM1
 70
     0
 71
     1
 91
        1
 92
        1
 93
        3
 72
     1
 10
275.9316283859448
 20
130.3420514725464
 11
277.6636791935136
 21
130.3420514725464
 72
     1
 10
277.6636791935136
 20
130.3420514725464
 11
277.6636791935136
 21
131.3420514725464
 72
     1
 10
277.6636791935136
 20
131.3420514725464
 11
275.9316283859448
 21
130.3420514725464
 97
        3
330
272
330
276
330
275
 75
     1
 76
     2
 52
45.0
 41
1.0
 77
     0
 78
     1
 53
45.0
 43
0.0
 44
0.0
 45
-2.82842712474619
 46
0.0000000000000002
 79
     0
 98
        1
 10
0.0
 20
0.0
  0
ENDBLK
  5
68
330
66
100
AcDbEntity
  8
0
100
AcDbBlockEnd
  0
BLOCK
  5
2E6
330
2DD
100
AcDbEntity
  8
0
100
AcDbBlockBegin
  2
*D11
 70
     1
 10
0.0
 20
0.0
 30
0.0
  3
*D11
  1

  0
LINE
  5
2DE
330
2DD
100
AcDbEntity
  8
1
  6
Continuous
 62
     2
100
AcDbLine
 10
103.9820966096449
 20
75.31848857868604
 30
0.0
 11
118.8455443170459
 21
68.38754908613863
 31
0.0
  0
LINE
  5
2DF
330
2DD
100
AcDbEntity
  8
1
  6
Continuous
 62
     2
100
AcDbLine
 10
85.97560330930364
 20
83.71505430115178
 30
0.0
 11
103.9820966096449
 21
75.31848857868604
 31
0.0
  0
LINE
  5
2E0
330
2DD
100
AcDbEntity
  8
1
  6
Continuous
 62
     2
100
AcDbLine
 10
133.7234533796181
 20
100.2933280335369
 30
0.0
 11
118.2116169244348
 21
67.02808740558365
 31
0.0
  0
LINE
  5
2E1
330
2DD
100
AcDbEntity
  8
1
  6
Continuous
 62
     2
100
AcDbLine
 10
109.3013609190135
 20
86.72568770214662
 30
0.0
 11
103.3481692170338
 21
73.95902689813107
 31
0.0
  0
LINE
  5
2E2
330
2DD
100
AcDbEntity
  8
1
  6
Continuous
 62
     2
100
AcDbLine
 10
118.8600056722171
 20
107.2242675260843
 30
0.0
 11
115.5641816089598
 21
100.1563500136471
 31
0.0
  0
SOLID
  5
2E3
330
2DD
100
AcDbEntity
  8
1
 62
     2
100
AcDbTrace
 10
109.0323159274294
 20
73.72616054421536
 30
0.0
 11
108.4481090557452
 21
72.47332486487942
 31
0.0
 12
103.9820966096449
 22
75.31848857868604
 32
0.0
 13
103.9820966096449
 23
75.31848857868604
 33
0.0
  0
SOLID
  5
2E4
330
2DD
100
AcDbEntity
  8
1
 62
     2
100
AcDbTrace
 10
113.7953249992614
 20
69.9798771206093
 30
0.0
 11
114.3795318709455
 21
71.23271279994526
 31
0.0
 12
118.8455443170459
 22
68.38754908613863
 32
0.0
 13
118.8455443170459
 23
68.38754908613863
 33
0.0
  0
MTEXT
  5
2E5
330
2DD
100
AcDbEntity
  8
1
 62
     7
100
AcDbMText
 10
86.83140528932854
 20
85.55032756990101
 30
0.0
 40
5.25
 41
0.0
 71
     7
 72
     1
  1
{\Fgdt;n}16,5
  7
CONVERTER_12
 11
0.9063077870366509
 21
-0.4226182617406973
 31
0.0
 73
     1
 44
0.60024009603842
  0
ENDBLK
  5
2E7
330
2DD
100
AcDbEntity
  8
0
100
AcDbBlockEnd
  0
BLOCK
  5
2F1
330
2EA
100
AcDbEntity
  8
0
100
AcDbBlockBegin
  2
*D12
 70
     1
 10
0.0
 20
0.0
 30
0.0
  3
*D12
  1

  0
LINE
  5
2EB
330
2EA
100
AcDbEntity
  8
1
  6
Continuous
 62
     2
100
AcDbLine
 10
124.9316283859451
 20
82.6362860414315
 30
0.0
 11
200.9316283859453
 21
82.6362860414315
 31
0.0
  0
LINE
  5
2EC
330
2EA
100
AcDbEntity
  8
1
  6
Continuous
 62
     2
100
AcDbLine
 10
200.9316283859453
 20
123.3420514725465
 30
0.0
 11
200.9316283859453
 21
81.1362860414315
 31
0.0
  0
LINE
  5
2ED
330
2EA
100
AcDbEntity
  8
1
  6
Continuous
 62
     2
100
AcDbLine
 10
124.9316283859451
 20
100.8420514725464
 30
0.0
 11
124.9316283859451
 21
81.1362860414315
 31
0.0
  0
SOLID
  5
2EE
330
2EA
100
AcDbEntity
  8
1
 62
     2
100
AcDbTrace
 10
130.1816283859451
 20
83.32746165376533
 30
0.0
 11
130.1816283859451
 21
81.94511042909768
 31
0.0
 12
124.9316283859451
 22
82.6362860414315
 32
0.0
 13
124.9316283859451
 23
82.6362860414315
 33
0.0
  0
SOLID
  5
2EF
330
2EA
100
AcDbEntity
  8
1
 62
     2
100
AcDbTrace
 10
195.6816283859453
 20
81.94511042909768
 30
0.0
 11
195.6816283859453
 21
83.32746165376533
 31
0.0
 12
200.9316283859453
 22
82.6362860414315
 32
0.0
 13
200.9316283859453
 23
82.6362860414315
 33
0.0
  0
MTEXT
  5
2F0
330
2EA
100
AcDbEntity
  8
1
 62
     7
100
AcDbMText
 10
159.2371606251911
 20
84.1362860414315
 30
0.0
 40
5.25
 41
0.0
 71
     7
 72
     1
  1
76
  7
CONVERTER_12
 11
0.9999999999970619
 21
2.424068405545306E-6
 31
0.0
 73
     1
 44
0.60024009603842
  0
ENDBLK
  5
2F2
330
2EA
100
AcDbEntity
  8
0
100
AcDbBlockEnd
  0
BLOCK
  5
2FC
330
2F5
100
AcDbEntity
  8
0
100
AcDbBlockBegin
  2
*D13
 70
     1
 10
0.0
 20
0.0
 30
0.0
  3
*D13
  1

  0
LINE
  5
2F6
330
2F5
100
AcDbEntity
  8
1
  6
Continuous
 62
     2
100
AcDbLine
 10
111.4316283859452
 20
198.3420514725464
 30
0.0
 11
111.4316283859452
 21
140.8420514725464
 31
0.0
  0
LINE
  5
2F7
330
2F5
100
AcDbEntity
  8
1
  6
Continuous
 62
     2
100
AcDbLine
 10
162.7153345096082
 20
140.8420514725464
 30
0.0
 11
109.9316283859452
 21
140.8420514725464
 31
0.0
  0
LINE
  5
2F8
330
2F5
100
AcDbEntity
  8
1
  6
Continuous
 62
     2
100
AcDbLine
 10
200.9316283859453
 20
198.3420514725464
 30
0.0
 11
109.9316283859452
 21
198.3420514725464
 31
0.0
  0
SOLID
  5
2F9
330
2F5
100
AcDbEntity
  8
1
 62
     2
100
AcDbTrace
 10
112.122803998279
 20
193.0920514725464
 30
0.0
 11
110.7404527736114
 21
193.0920514725464
 31
0.0
 12
111.4316283859452
 22
198.3420514725464
 32
0.0
 13
111.4316283859452
 23
198.3420514725464
 33
0.0
  0
SOLID
  5
2FA
330
2F5
100
AcDbEntity
  8
1
 62
     2
100
AcDbTrace
 10
110.7404527736114
 20
146.0920514725464
 30
0.0
 11
112.122803998279
 21
146.0920514725464
 31
0.0
 12
111.4316283859452
 22
140.8420514725464
 32
0.0
 13
111.4316283859452
 23
140.8420514725464
 33
0.0
  0
MTEXT
  5
2FB
330
2F5
100
AcDbEntity
  8
1
 62
     7
100
AcDbMText
 10
109.9316283859452
 20
155.4170514725464
 30
0.0
 40
5.25
 41
0.0
 71
     7
 72
     1
  1
58リフト5
  7
CONVERTER_11
 11
0.0
 21
1.0
 31
0.0
 73
     1
 44
0.45454545454545
  0
ENDBLK
  5
2FD
330
2F5
100
AcDbEntity
  8
0
100
AcDbBlockEnd
  0
BLOCK
  5
307
330
300
100
AcDbEntity
  8
0
100
AcDbBlockBegin
  2
*D14
 70
     1
 10
0.0
 20
0.0
 30
0.0
  3
*D14
  1

  0
LINE
  5
301
330
300
100
AcDbEntity
  8
1
  6
Continuous
 62
     2
100
AcDbLine
 10
111.4316283859452
 20
140.8420514725464
 30
0.0
 11
111.4316283859452
 21
100.8420514725464
 31
0.0
  0
LINE
  5
302
330
300
100
AcDbEntity
  8
1
  6
Continuous
 62
     2
100
AcDbLine
 10
162.7153345096082
 20
140.8420514725464
 30
0.0
 11
109.9316283859452
 21
140.8420514725464
 31
0.0
  0
LINE
  5
303
330
300
100
AcDbEntity
  8
1
  6
Continuous
 62
     2
100
AcDbLine
 10
124.9316283859451
 20
100.8420514725464
 30
0.0
 11
109.9316283859452
 21
100.8420514725464
 31
0.0
  0
SOLID
  5
304
330
300
100
AcDbEntity
  8
1
 62
     2
100
AcDbTrace
 10
112.122803998279
 20
135.5920514725464
 30
0.0
 11
110.7404527736114
 21
135.5920514725464
 31
0.0
 12
111.4316283859452
 22
140.8420514725464
 32
0.0
 13
111.4316283859452
 23
140.8420514725464
 33
0.0
  0
SOLID
  5
305
330
300
100
AcDbEntity
  8
1
 62
     2
100
AcDbTrace
 10
110.7404527736114
 20
106.0920514725464
 30
0.0
 11
112.122803998279
 21
106.0920514725464
 31
0.0
 12
111.4316283859452
 22
100.8420514725464
 32
0.0
 13
111.4316283859452
 23
100.8420514725464
 33
0.0
  0
MTEXT
  5
306
330
300
100
AcDbEntity
  8
1
 62
     7
100
AcDbMText
 10
109.9316283859452
 20
116.9045514725463
 30
0.0
 40
5.25
 41
0.0
 71
     7
 72
     1
  1
40
  7
CONVERTER_12
 11
0.0
 21
1.0
 31
0.0
 73
     1
 44
0.60024009603842
  0
ENDBLK
  5
308
330
300
100
AcDbEntity
  8
0
100
AcDbBlockEnd
  0
BLOCK
  5
312
330
30B
100
AcDbEntity
  8
0
100
AcDbBlockBegin
  2
*D15
 70
     1
 10
0.0
 20
0.0
 30
0.0
  3
*D15
  1

  0
LINE
  5
30C
330
30B
100
AcDbEntity
  8
1
  6
Continuous
 62
     2
100
AcDbLine
 10
200.9316283859453
 20
82.6362860414315
 30
0.0
 11
275.9316283859453
 21
82.6362860414315
 31
0.0
  0
LINE
  5
30D
330
30B
100
AcDbEntity
  8
1
  6
Continuous
 62
     2
100
AcDbLine
 10
200.9316283859453
 20
123.3420514725465
 30
0.0
 11
200.9316283859453
 21
81.1362860414315
 31
0.0
  0
LINE
  5
30E
330
30B
100
AcDbEntity
  8
1
  6
Continuous
 62
     2
100
AcDbLine
 10
275.9316283859453
 20
117.8420514725464
 30
0.0
 11
275.9316283859453
 21
81.1362860414315
 31
0.0
  0
SOLID
  5
30F
330
30B
100
AcDbEntity
  8
1
 62
     2
100
AcDbTrace
 10
206.1816283859453
 20
83.32746165376533
 30
0.0
 11
206.1816283859453
 21
81.94511042909768
 31
0.0
 12
200.9316283859453
 22
82.6362860414315
 32
0.0
 13
200.9316283859453
 23
82.6362860414315
 33
0.0
  0
SOLID
  5
310
330
30B
100
AcDbEntity
  8
1
 62
     2
100
AcDbTrace
 10
270.6816283859453
 20
81.94511042909768
 30
0.0
 11
270.6816283859453
 21
83.32746165376533
 31
0.0
 12
275.9316283859453
 22
82.6362860414315
 32
0.0
 13
275.9316283859453
 23
82.6362860414315
 33
0.0
  0
MTEXT
  5
311
330
30B
100
AcDbEntity
  8
1
 62
     7
100
AcDbMText
 10
234.4941283859453
 20
84.1362860414315
 30
0.0
 40
5.25
 41
0.0
 71
     7
 72
     1
  1
75
  7
CONVERTER_12
 11
0.9999999999970619
 21
2.424068405545306E-6
 31
0.0
 73
     1
 44
0.60024009603842
  0
ENDBLK
  5
313
330
30B
100
AcDbEntity
  8
0
100
AcDbBlockEnd
  0
BLOCK
  5
31F
330
316
100
AcDbEntity
  8
0
100
AcDbBlockBegin
  2
*D16
 70
     1
 10
0.0
 20
0.0
 30
0.0
  3
*D16
  1

  0
LINE
  5
317
330
316
100
AcDbEntity
  8
1
  6
Continuous
 62
     2
100
AcDbLine
 10
265.4316283859447
 20
82.6362860414315
 30
0.0
 11
275.9316283859447
 21
82.6362860414315
 31
0.0
  0
LINE
  5
318
330
316
100
AcDbEntity
  8
1
  6
Continuous
 62
     2
100
AcDbLine
 10
275.9316283859447
 20
82.6362860414315
 30
0.0
 11
289.9316283859447
 21
82.6362860414315
 31
0.0
  0
LINE
  5
319
330
316
100
AcDbEntity
  8
1
  6
Continuous
 62
     2
100
AcDbLine
 10
289.9316283859447
 20
82.6362860414315
 30
0.0
 11
300.4316283859447
 21
82.6362860414315
 31
0.0
  0
LINE
  5
31A
330
316
100
AcDbEntity
  8
1
  6
Continuous
 62
     2
100
AcDbLine
 10
275.9316283859447
 20
117.8420514725464
 30
0.0
 11
275.9316283859447
 21
81.1362860414315
 31
0.0
  0
LINE
  5
31B
330
316
100
AcDbEntity
  8
1
  6
Continuous
 62
     2
100
AcDbLine
 10
289.9316283859447
 20
131.3420514725464
 30
0.0
 11
289.9316283859447
 21
81.1362860414315
 31
0.0
  0
SOLID
  5
31C
330
316
100
AcDbEntity
  8
1
 62
     2
100
AcDbTrace
 10
270.6816283859447
 20
81.94511042909768
 30
0.0
 11
270.6816283859447
 21
83.32746165376533
 31
0.0
 12
275.9316283859447
 22
82.6362860414315
 32
0.0
 13
275.9316283859447
 23
82.6362860414315
 33
0.0
  0
SOLID
  5
31D
330
316
100
AcDbEntity
  8
1
 62
     2
100
AcDbTrace
 10
295.1816283859447
 20
83.32746165376533
 30
0.0
 11
295.1816283859447
 21
81.94511042909768
 31
0.0
 12
289.9316283859447
 22
82.6362860414315
 32
0.0
 13
289.9316283859447
 23
82.6362860414315
 33
0.0
  0
MTEXT
  5
31E
330
316
100
AcDbEntity
  8
1
 62
     7
100
AcDbMText
 10
279.7816283859447
 20
84.1362860414315
 30
0.0
 40
5.25
 41
0.0
 71
     7
 72
     1
  1
14
  7
CONVERTER_12
 11
0.9999999999970619
 21
2.424068405545306E-6
 31
0.0
 73
     1
 44
0.60024009603842
  0
ENDBLK
  5
320
330
316
100
AcDbEntity
  8
0
100
AcDbBlockEnd
  0
BLOCK
  5
32B
330
323
100
AcDbEntity
  8
0
100
AcDbBlockBegin
  2
*D17
 70
     1
 10
0.0
 20
0.0
 30
0.0
  3
*D17
  1

  0
LINE
  5
324
330
323
100
AcDbEntity
  8
1
  6
Continuous
 62
     2
100
AcDbLine
 10
124.9316283859451
 20
98.84205147254634
 30
0.0
 11
124.9316283859451
 21
82.5916360414398
 31
0.0
  0
LINE
  5
325
330
323
100
AcDbEntity
  8
1
  6
Continuous
 62
     2
100
AcDbLine
 10
123.8750827315932
 20
98.57628200495469
 30
0.0
 11
117.2186695404042
 21
84.3015578506811
 31
0.0
  0
LINE
  5
326
330
323
100
AcDbEntity
  8
1
  6
Continuous
 62
     2
100
AcDbLine
 10
124.9316283859451
 20
82.5916360414398
 30
0.0
 11
124.9316283859451
 21
81.0916360414398
 31
0.0
  0
LINE
  5
327
330
323
100
AcDbEntity
  8
1
  6
Continuous
 62
     2
100
AcDbLine
 10
117.2186695404042
 20
84.3015578506811
 30
0.0
 11
116.5847421477931
 21
82.94209617012616
 31
0.0
  0
ARC
  5
328
330
323
100
AcDbEntity
  8
1
  6
Continuous
 62
     2
100
AcDbCircle
 10
124.9316283859451
 20
100.8420514725463
 30
0.0
 40
18.2504154311065
100
AcDbArc
 50
187.5218059149497
 51
270.0
  0
SOLID
  5
329
330
323
100
AcDbEntity
  8
1
 62
     2
100
AcDbTrace
 10
112.4488384527468
 20
86.6013263438783
 30
0.0
 11
113.2065903911656
 21
87.75748676015397
 31
0.0
 12
117.2186695404042
 22
84.3015578506811
 32
0.0
 13
117.2186695404042
 23
84.3015578506811
 33
0.0
  0
MTEXT
  5
32A
330
323
100
AcDbEntity
  8
1
 62
     7
100
AcDbMText
 10
107.8304871663131
 20
96.20761395534367
 30
0.0
 40
5.25
 41
0.0
 71
     7
 72
     1
  1
25{\Fgdt;~}
  7
CONVERTER_12
 11
0.5618752785929315
 21
-0.8272219601208105
 31
0.0
 73
     1
 44
0.60024009603842
  0
ENDBLK
  5
32C
330
323
100
AcDbEntity
  8
0
100
AcDbBlockEnd
  0
BLOCK
  5
32E
330
32D
100
AcDbEntity
  8
0
100
AcDbBlockBegin
  2
_NONE
 70
     0
 10
0.0
 20
0.0
 30
0.0
  3
_NONE
  1

  0
ENDBLK
  5
32F
330
32D
100
AcDbEntity
  8
0
100
AcDbBlockEnd
  0
ENDSEC
  0
SECTION
  2
ENTITIES
  0
INSERT
  5
69
330
1F
100
AcDbEntity
  8
1
100
AcDbBlockReference
  2
開示A4
 10
0.0
 20
0.0
 30
0.0
 41
1.5
 42
1.5
 43
1.5
  0
INSERT
  5
6A
330
1F
100
AcDbEntity
  8
1
100
AcDbBlockReference
  2
R10A-13
 10
46.13298420913426
 20
102.8675551682287
 30
0.0
  0
INSERT
  5
6B
330
1F
100
AcDbEntity
  8
0
100
AcDbBlockReference
  2
62-1B
 10
22.83752120224862
 20
-325.1235230708886
 30
0.0
  0
INSERT
  5
6C
330
1F
100
AcDbEntity
  8
0
100
AcDbBlockReference
  2
32-1-16
 10
62.14909989121775
 20
-182.8968728765194
 30
0.0
  0
INSERT
  5
6D
330
1F
100
AcDbEntity
  8
0
100
AcDbBlockReference
  2
75-2
 10
33.69023821452067
 20
5.62522389759565
 30
0.0
  0
INSERT
  5
6E
330
1F
100
AcDbEntity
  8
1
100
AcDbBlockReference
  2
Y22-0B-13
 10
1.99999999999988
 20
743.25
 30
0.0
  0
LINE
  5
2C5
330
1F
100
AcDbEntity
  8
1
  6
DASH_CENTER
 62
     2
100
AcDbLine
 10
69.41341326227945
 20
202.8441805959728
 30
0.0
 11
69.41341326227945
 21
93.13335783778153
 31
0.0
  0
LINE
  5
2C6
330
1F
100
AcDbEntity
  8
1
  6
DASH_CENTER
 62
     2
100
AcDbLine
 10
41.91341326227936
 20
140.8420514725464
 30
0.0
 11
96.91341326227943
 21
140.8420514725464
 31
0.0
  0
LINE
  5
2C7
330
1F
100
AcDbEntity
  8
1
  6
DASH_CENTER
 62
     2
100
AcDbLine
 10
52.95893059037493
 20
292.1138438710987
 30
0.0
 11
100.1573150966268
 21
319.3638438710987
 31
0.0
  0
LINE
  5
2C8
330
1F
100
AcDbEntity
  8
1
  6
DASH_CENTER
 62
     2
100
AcDbLine
 10
38.66951142793158
 20
319.3638438710989
 30
0.0
 11
85.86789593418365
 21
292.1138438710988
 31
0.0
  0
LINE
  5
2C9
330
1F
100
AcDbEntity
  8
1
  6
DASH_CENTER
 62
     2
100
AcDbLine
 10
56.78125951794777
 20
226.6138438710987
 30
0.0
 11
82.04556700661061
 21
226.6138438710987
 31
0.0
  0
LINE
  5
2CA
330
1F
100
AcDbEntity
  8
1
  6
DASH_CENTER
 62
     2
100
AcDbLine
 10
69.41341326227933
 20
395.1138438710987
 30
0.0
 11
69.41341326227933
 21
215.2327781655505
 31
0.0
  0
LINE
  5
2CB
330
1F
100
AcDbEntity
  8
1
  6
DASH_CENTER
 62
     2
100
AcDbLine
 10
47.27749679342955
 20
301.6138438710988
 30
0.0
 11
91.54932973112895
 21
301.6138438710988
 31
0.0
  0
LINE
  5
2CC
330
1F
100
AcDbEntity
  8
1
  6
DASH_CENTER
 62
     2
100
AcDbLine
 10
163.4460425363699
 20
140.8420514725464
 30
0.0
 11
294.4316283859448
 21
140.8420514725464
 31
0.0
  0
LINE
  5
2CD
330
1F
100
AcDbEntity
  8
1
  6
DASH_CENTER
 62
     2
100
AcDbLine
 10
200.9316283859453
 20
202.8420514725465
 30
0.0
 11
200.9316283859453
 21
123.3420514725465
 31
0.0
  0
LINE
  5
2CE
330
1F
100
AcDbEntity
  8
1
  6
DASH_CENTER
 62
     2
100
AcDbLine
 10
162.358035257138
 20
140.8420514725464
 30
0.0
 11
162.7153345096082
 21
140.8420514725464
 31
0.0
  0
LINE
  5
2CF
330
1F
100
AcDbEntity
  8
1
  6
DASH_CENTER
 62
     2
100
AcDbLine
 10
162.7153345096082
 20
140.8420514725464
 30
0.0
 11
163.4460425363699
 21
140.8420514725464
 31
0.0
  0
LINE
  5
2D0
330
1F
100
AcDbEntity
  8
1
  6
DASH_CENTER
 62
     2
100
AcDbLine
 10
135.5068089252703
 20
123.5205993247674
 30
0.0
 11
124.9316283859451
 21
100.8420514725463
 31
0.0
  0
LINE
  5
2D1
330
1F
100
AcDbEntity
  8
1
  6
Continuous
 62
     2
100
AcDbLine
 10
124.9316283859451
 20
100.8420514725463
 30
0.0
 11
124.9316283859451
 21
98.84205147254634
 31
0.0
  0
LINE
  5
2D2
330
1F
100
AcDbEntity
  8
1
  6
DASH_CENTER
 62
     2
100
AcDbLine
 10
124.9316283859451
 20
100.8420514725463
 30
0.0
 11
123.8750827315932
 21
98.57628200495469
 31
0.0
  0
ARC
  5
2D3
330
1F
100
AcDbEntity
  8
1
  6
DASH_CENTER
 62
     2
100
AcDbCircle
 10
162.6960425363698
 20
110.8420514725464
 30
0.0
 40
30.0000062030032
100
AcDbArc
 50
89.9631550502442
 51
155.0
  0
SOLID
  5
2D4
330
1F
100
AcDbEntity
  8
1
 62
     2
100
AcDbTrace
 10
81.9398376235221
 20
388.006065047134
 30
0.0
 11
83.1369889010368
 21
387.3148894348002
 31
0.0
 12
79.9134132622794
 22
383.1138438710988
 32
0.0
 13
79.9134132622794
 23
383.1138438710988
 33
0.0
  0
LEADER
  5
2D5
330
1F
100
AcDbEntity
  8
1
  6
Continuous
 62
     2
100
AcDbLeader
  3
Standard
 71
     0
 76
     3
 10
79.9134132622794
 20
383.1138438710988
 30
0.0
 10
88.45648696695241
 20
397.910881580398
 30
0.0
 10
116.1496742493461
 20
397.910881580398
 30
0.0
  0
MTEXT
  5
2D7
330
1F
100
AcDbEntity
  8
1
 62
     7
100
AcDbMText
 10
104.9993169158736
 20
402.410881580398
 30
0.0
 40
5.25
 41
0.0
 71
     5
 72
     1
  1
PJ1/2
  7
CONVERTER_12
 73
     1
 44
1.32052821128451
  0
MTEXT
  5
2D8
330
1F
100
AcDbEntity
  8
1
 62
     7
100
AcDbMText
 10
51.0
 20
51.00000000000001
 30
0.0
 40
5.25
 41
0.0
 71
     4
 72
     1
  1
JIS
  7
CONVERTER_12
 73
     1
 44
0.7202881152461
  0
MTEXT
  5
2D9
330
1F
100
AcDbEntity
  8
1
 62
     7
100
AcDbMText
 10
85.5
 20
34.12500000000001
 30
0.0
 40
5.25
 41
0.0
 71
     5
 72
     1
  1
万能ホーム胴長水栓
  7
CONVERTER_11
 73
     1
 44
1.0
  0
MTEXT
  5
2DA
330
1F
100
AcDbEntity
  8
1
 62
     7
100
AcDbMText
 10
85.5
 20
21.375
 30
0.0
 40
5.25
 41
0.0
 71
     5
 72
     1
  1
Y22J-13
  7
CONVERTER_12
 73
     1
 44
0.90036014405762
  0
MTEXT
  5
2DB
330
1F
100
AcDbEntity
  8
1
 62
     7
100
AcDbMText
 10
127.875
 20
25.5
 30
0.0
 40
5.25
 41
0.0
 71
     5
 72
     1
  1
1
  7
CONVERTER_12
 73
     1
 44
1.32052821128451
  0
MTEXT
  5
2DC
330
1F
100
AcDbEntity
  8
1
 62
     7
100
AcDbMText
 10
140.625
 20
25.5
 30
0.0
 40
5.25
 41
0.0
 71
     5
 72
     1
  1
1,5
  7
CONVERTER_12
 73
     1
 44
1.32052821128451
  0
DIMENSION
  5
2E9
330
1F
100
AcDbEntity
  8
1
100
AcDbDimension
  2
*D11
 10
103.9820966096449
 20
75.31848857868604
 30
0.0
 11
96.0375908290416
 21
83.8641430838859
 31
0.0
 70
    33
  1
16,5
 71
     5
 42
-1.0
 53
-24.99999999999995
  3
ME10_DIM_10
100
AcDbAlignedDimension
 13
133.7234533796181
 23
100.2933280335369
 33
0.0
 14
118.8600056722171
 24
107.2242675260843
 34
0.0
  0
DIMENSION
  5
2F4
330
1F
100
AcDbEntity
  8
1
100
AcDbDimension
  2
*D12
 10
124.9316283859451
 20
82.6362860414315
 30
0.0
 11
163.1746606251911
 21
86.7612860414315
 31
0.0
 70
    32
  1
<>
 71
     5
 42
-1.0
 53
0.00013888888889
  3
ME10_DIM_11
100
AcDbAlignedDimension
 13
200.9316283859453
 23
123.3420514725465
 33
0.0
 14
124.9316283859451
 24
100.8420514725464
 34
0.0
100
AcDbRotatedDimension
  0
DIMENSION
  5
2FF
330
1F
100
AcDbEntity
  8
1
100
AcDbDimension
  2
*D13
 10
111.4316283859452
 20
198.3420514725464
 30
0.0
 11
107.3066283859452
 21
169.5920514725464
 31
0.0
 70
    32
  1
58リフト5
 71
     5
 42
-1.0
 53
90.0
  3
ME10_DIM_12
100
AcDbAlignedDimension
 13
162.7153345096082
 23
140.8420514725464
 33
0.0
 14
200.9316283859453
 24
198.3420514725464
 34
0.0
 50
90.0
100
AcDbRotatedDimension
  0
DIMENSION
  5
30A
330
1F
100
AcDbEntity
  8
1
100
AcDbDimension
  2
*D14
 10
111.4316283859452
 20
140.8420514725464
 30
0.0
 11
107.3066283859452
 21
120.8420514725463
 31
0.0
 70
    32
  1
<>
 71
     5
 42
-1.0
 53
90.0
  3
ME10_DIM_13
100
AcDbAlignedDimension
 13
124.9316283859451
 23
100.8420514725464
 33
0.0
 14
162.7153345096082
 24
140.8420514725464
 34
0.0
 50
90.0
100
AcDbRotatedDimension
  0
DIMENSION
  5
315
330
1F
100
AcDbEntity
  8
1
100
AcDbDimension
  2
*D15
 10
200.9316283859453
 20
82.6362860414315
 30
0.0
 11
238.4316283859453
 21
86.7612860414315
 31
0.0
 70
    32
  1
<>
 71
     5
 42
-1.0
 53
0.00013888888889
  3
ME10_DIM_14
100
AcDbAlignedDimension
 13
275.9316283859448
 23
117.8420514725464
 33
0.0
 14
200.9316283859453
 24
123.3420514725465
 34
0.0
100
AcDbRotatedDimension
  0
DIMENSION
  5
322
330
1F
100
AcDbEntity
  8
1
100
AcDbDimension
  2
*D16
 10
275.9316283859447
 20
82.6362860414315
 30
0.0
 11
282.9316283859447
 21
86.7612860414315
 31
0.0
 70
    32
  1
<>
 71
     5
 42
-1.0
 53
0.00013888888889
  3
ME10_DIM_15
100
AcDbAlignedDimension
 13
289.9316283859448
 23
131.3420514725464
 33
0.0
 14
275.9316283859448
 24
117.8420514725464
 34
0.0
100
AcDbRotatedDimension
  0
DIMENSION
  5
331
330
1F
100
AcDbEntity
  8
1
100
AcDbDimension
  2
*D17
 10
120.9815155158262
 20
83.02424375887705
 30
0.0
 11
113.2467745455044
 21
92.90532974195244
 31
0.0
 70
    37
  1
<>
 71
     5
 42
-1.0
  3
ME10_DIM_16
100
AcDb3PointAngularDimension
 13
123.8750827315932
 23
98.57628200495469
 33
0.0
 14
124.9316283859451
 24
98.84205147254634
 34
0.0
 15
124.9316283859451
 25
100.8420514725463
 35
0.0
  0
ENDSEC
  0
SECTION
  2
OBJECTS
  0
DICTIONARY
  5
C
330
0
100
AcDbDictionary
281
     1
  3
ACAD_GROUP
350
D
  3
ACAD_LAYOUT
350
1A
  3
ACAD_MATERIAL
350
3B
  3
ACAD_MLEADERSTYLE
350
334
  3
ACAD_MLINESTYLE
350
17
  3
ACAD_PLOTSETTINGS
350
19
  3
ACAD_PLOTSTYLENAME
350
E
  3
ACAD_VISUALSTYLE
350
2A
  3
AcDbVariableDictionary
350
332
  0
DICTIONARY
  5
D
102
{ACAD_REACTORS
330
C
102
}
330
C
100
AcDbDictionary
281
     1
  0
DICTIONARY
  5
1A
102
{ACAD_REACTORS
330
C
102
}
330
C
100
AcDbDictionary
281
     1
  3
Layout1
350
1E
  3
Layout2
350
26
  3
Model
350
22
  0
DICTIONARY
  5
3B
102
{ACAD_REACTORS
330
C
102
}
330
C
100
AcDbDictionary
281
     1
  3
ByBlock
350
3D
  3
ByLayer
350
3C
  3
Global
350
3E
  0
DICTIONARY
  5
334
102
{ACAD_REACTORS
330
C
102
}
330
C
100
AcDbDictionary
281
     1
  0
DICTIONARY
  5
17
102
{ACAD_REACTORS
330
C
102
}
330
C
100
AcDbDictionary
281
     1
  3
Standard
350
18
  0
DICTIONARY
  5
19
102
{ACAD_REACTORS
330
C
102
}
330
C
100
AcDbDictionary
281
     1
  0
ACDBDICTIONARYWDFLT
  5
E
102
{ACAD_REACTORS
330
C
102
}
330
C
100
AcDbDictionary
281
     1
  3
Normal
350
F
100
AcDbDictionaryWithDefault
340
F
  0
DICTIONARY
  5
2A
102
{ACAD_REACTORS
330
C
102
}
330
C
100
AcDbDictionary
281
     1
  3
2dWireframe
350
2F
  3
3D Hidden
350
31
  3
3dWireframe
350
30
  3
Basic
350
32
  3
Brighten
350
36
  3
ColorChange
350
3A
  3
Conceptual
350
34
  3
Dim
350
35
  3
Facepattern
350
39
  3
Flat
350
2B
  3
FlatWithEdges
350
2C
  3
Gouraud
350
2D
  3
GouraudWithEdges
350
2E
  3
Linepattern
350
38
  3
Realistic
350
33
  3
Thicken
350
37
  0
DICTIONARY
  5
332
102
{ACAD_REACTORS
330
C
102
}
330
C
100
AcDbDictionary
281
     1
  3
DIMASSOC
350
335
  3
HIDETEXT
350
336
  0
LAYOUT
  5
1E
102
{ACAD_REACTORS
330
1A
102
}
330
1A
100
AcDbPlotSettings
  1

  2
none_device
  4

  6

 40
0.0
 41
0.0
 42
0.0
 43
0.0
 44
0.0
 45
0.0
 46
0.0
 47
0.0
 48
0.0
 49
0.0
140
0.0
141
0.0
142
1.0
143
1.0
 70
   688
 72
     0
 73
     0
 74
     5
  7

 75
    16
147
1.0
148
0.0
149
0.0
100
AcDbLayout
  1
Layout1
 70
     1
 71
     1
 10
0.0
 20
0.0
 11
12.0
 21
9.0
 12
0.0
 22
0.0
 32
0.0
 14
1.00000000000000E+20
 24
1.00000000000000E+20
 34
1.00000000000000E+20
 15
-1.00000000000000E+20
 25
-1.00000000000000E+20
 35
-1.00000000000000E+20
146
0.0
 13
0.0
 23
0.0
 33
0.0
 16
1.0
 26
0.0
 36
0.0
 17
0.0
 27
1.0
 37
0.0
 76
     0
330
1B
  0
LAYOUT
  5
26
102
{ACAD_REACTORS
330
1A
102
}
330
1A
100
AcDbPlotSettings
  1

  2
none_device
  4

  6

 40
0.0
 41
0.0
 42
0.0
 43
0.0
 44
0.0
 45
0.0
 46
0.0
 47
0.0
 48
0.0
 49
0.0
140
0.0
141
0.0
142
1.0
143
1.0
 70
   688
 72
     0
 73
     0
 74
     5
  7

 75
    16
147
1.0
148
0.0
149
0.0
100
AcDbLayout
  1
Layout2
 70
     1
 71
     2
 10
0.0
 20
0.0
 11
0.0
 21
0.0
 12
0.0
 22
0.0
 32
0.0
 14
0.0
 24
0.0
 34
0.0
 15
0.0
 25
0.0
 35
0.0
146
0.0
 13
0.0
 23
0.0
 33
0.0
 16
1.0
 26
0.0
 36
0.0
 17
0.0
 27
1.0
 37
0.0
 76
     0
330
23
  0
LAYOUT
  5
22
102
{ACAD_REACTORS
330
1A
102
}
330
1A
100
AcDbPlotSettings
  1

  2
none_device
  4

  6

 40
0.0
 41
0.0
 42
0.0
 43
0.0
 44
0.0
 45
0.0
 46
0.0
 47
0.0
 48
0.0
 49
0.0
140
0.0
141
0.0
142
1.0
143
1.0
 70
  1712
 72
     0
 73
     0
 74
     0
  7

 75
     0
147
1.0
148
0.0
149
0.0
100
AcDbLayout
  1
Model
 70
     1
 71
     0
 10
0.0
 20
0.0
 11
12.0
 21
9.0
 12
0.0
 22
0.0
 32
0.0
 14
0.0
 24
0.0
 34
0.0
 15
315.0
 25
445.5
 35
0.0
146
0.0
 13
0.0
 23
0.0
 33
0.0
 16
1.0
 26
0.0
 36
0.0
 17
0.0
 27
1.0
 37
0.0
 76
     0
330
1F
331
29
  0
MATERIAL
  5
3D
102
{ACAD_REACTORS
330
3B
102
}
102
{ACAD_XDICTIONARY
360
359
102
}
330
3B
100
AcDbMaterial
  1
ByBlock
  0
MATERIAL
  5
3C
102
{ACAD_REACTORS
330
3B
102
}
102
{ACAD_XDICTIONARY
360
357
102
}
330
3B
100
AcDbMaterial
  1
ByLayer
  0
MATERIAL
  5
3E
102
{ACAD_REACTORS
330
3B
102
}
102
{ACAD_XDICTIONARY
360
35B
102
}
330
3B
100
AcDbMaterial
  1
Global
  0
MLINESTYLE
  5
18
102
{ACAD_REACTORS
330
17
102
}
330
17
100
AcDbMlineStyle
  2
Standard
 70
     0
  3

 62
   256
 51
90.0
 52
90.0
 71
     2
 49
0.5
 62
   256
  6
BYLAYER
 49
-0.5
 62
   256
  6
BYLAYER
  0
ACDBPLACEHOLDER
  5
F
102
{ACAD_REACTORS
330
E
102
}
330
E
  0
VISUALSTYLE
  5
2F
102
{ACAD_REACTORS
330
2A
102
}
102
{ACAD_XDICTIONARY
360
33F
102
}
330
2A
100
AcDbVisualStyle
  2
2dWireframe
 70
     4
 71
     0
 72
     2
 73
     0
 90
        0
 40
-0.6
 41
-30.0
 62
     5
 63
     7
 74
     1
 91
        4
 64
     7
 65
   257
 75
     1
175
     1
 42
1.0
 92
        0
 66
   257
 43
1.0
 76
     1
 77
     6
 78
     2
 67
     7
 79
     5
170
     0
171
     0
290
     0
174
     0
 93
        1
 44
0.0
173
     0
291
     0
 45
0.0
1001
ACAD
1000
AcDbSavedByObjectVersion
1070
     0
  0
VISUALSTYLE
  5
31
102
{ACAD_REACTORS
330
2A
102
}
102
{ACAD_XDICTIONARY
360
343
102
}
330
2A
100
AcDbVisualStyle
  2
3D Hidden
 70
     6
 71
     1
 72
     2
 73
     2
 90
        0
 40
-0.6
 41
-30.0
 62
     5
 63
     7
 74
     2
 91
        2
 64
     7
 65
   257
 75
     2
175
     1
 42
40.0
 92
        0
 66
   257
 43
1.0
 76
     1
 77
     6
 78
     2
 67
     7
 79
     3
170
     0
171
     0
290
     0
174
     0
 93
        1
 44
0.0
173
     0
291
     0
 45
0.0
1001
ACAD
1000
AcDbSavedByObjectVersion
1070
     0
  0
VISUALSTYLE
  5
30
102
{ACAD_REACTORS
330
2A
102
}
102
{ACAD_XDICTIONARY
360
341
102
}
330
2A
100
AcDbVisualStyle
  2
3dWireframe
 70
     5
 71
     0
 72
     2
 73
     0
 90
        0
 40
-0.6
 41
-30.0
 62
     5
 63
     7
 74
     1
 91
        4
 64
     7
 65
   257
 75
     1
175
     1
 42
1.0
 92
        0
 66
   257
 43
1.0
 76
     1
 77
     6
 78
     2
 67
     7
 79
     5
170
     0
171
     0
290
     0
174
     0
 93
        1
 44
0.0
173
     0
291
     0
 45
0.0
1001
ACAD
1000
AcDbSavedByObjectVersion
1070
     0
  0
VISUALSTYLE
  5
32
102
{ACAD_REACTORS
330
2A
102
}
102
{ACAD_XDICTIONARY
360
345
102
}
330
2A
100
AcDbVisualStyle
  2
Basic
 70
     7
 71
     1
 72
     0
 73
     1
 90
        0
 40
-0.6
 41
-30.0
 62
     5
 63
     7
 74
     0
 91
        4
 64
     7
 65
   257
 75
     1
175
     1
 42
1.0
 92
        8
 66
     7
 43
1.0
 76
     1
 77
     6
 78
     2
 67
     7
 79
     5
170
     0
171
     0
290
     0
174
     0
 93
        1
 44
0.0
173
     0
291
     1
 45
0.0
1001
ACAD
1000
AcDbSavedByObjectVersion
1070
     0
  0
VISUALSTYLE
  5
36
102
{ACAD_REACTORS
330
2A
102
}
102
{ACAD_XDICTIONARY
360
34D
102
}
330
2A
100
AcDbVisualStyle
  2
Brighten
 70
    12
 71
     2
 72
     2
 73
     0
 90
        0
 40
-0.6
 41
-30.0
 62
     5
 63
     7
 74
     1
 91
        4
 64
     7
 65
   257
 75
     1
175
     1
 42
1.0
 92
        8
 66
     7
 43
1.0
 76
     1
 77
     6
 78
     2
 67
     7
 79
     5
170
     0
171
     0
290
     0
174
     0
 93
        1
 44
50.0
173
     0
291
     1
 45
0.0
1001
ACAD
1000
AcDbSavedByObjectVersion
1070
     0
  0
VISUALSTYLE
  5
3A
102
{ACAD_REACTORS
330
2A
102
}
102
{ACAD_XDICTIONARY
360
355
102
}
330
2A
100
AcDbVisualStyle
  2
ColorChange
 70
    16
 71
     2
 72
     2
 73
     3
 90
        0
 40
-0.6
 41
-30.0
 62
     5
 63
     8
 74
     1
 91
        4
 64
     7
 65
   257
 75
     1
175
     1
 42
1.0
 92
        8
 66
     8
 43
1.0
 76
     1
 77
     6
 78
     2
 67
     7
 79
     5
170
     0
171
     0
290
     0
174
     0
 93
        1
 44
0.0
173
     0
291
     1
 45
0.0
1001
ACAD
1000
AcDbSavedByObjectVersion
1070
     0
  0
VISUALSTYLE
  5
34
102
{ACAD_REACTORS
330
2A
102
}
102
{ACAD_XDICTIONARY
360
349
102
}
330
2A
100
AcDbVisualStyle
  2
Conceptual
 70
     9
 71
     3
 72
     2
 73
     0
 90
        0
 40
-0.6
 41
-30.0
 62
     5
 63
     7
 74
     2
 91
        2
 64
     7
 65
   257
 75
     1
175
     1
 42
40.0
 92
        8
 66
     7
 43
1.0
 76
     1
 77
     6
 78
     2
 67
     7
 79
     3
170
     0
171
     0
290
     0
174
     0
 93
        1
 44
0.0
173
     0
291
     0
 45
0.0
1001
ACAD
1000
AcDbSavedByObjectVersion
1070
     0
  0
VISUALSTYLE
  5
35
102
{ACAD_REACTORS
330
2A
102
}
102
{ACAD_XDICTIONARY
360
34B
102
}
330
2A
100
AcDbVisualStyle
  2
Dim
 70
    11
 71
     2
 72
     2
 73
     0
 90
        0
 40
-0.6
 41
-30.0
 62
     5
 63
     7
 74
     1
 91
        4
 64
     7
 65
   257
 75
     1
175
     1
 42
1.0
 92
        8
 66
     7
 43
1.0
 76
     1
 77
     6
 78
     2
 67
     7
 79
     5
170
     0
171
     0
290
     0
174
     0
 93
        1
 44
-50.0
173
     0
291
     1
 45
0.0
1001
ACAD
1000
AcDbSavedByObjectVersion
1070
     0
  0
VISUALSTYLE
  5
39
102
{ACAD_REACTORS
330
2A
102
}
102
{ACAD_XDICTIONARY
360
353
102
}
330
2A
100
AcDbVisualStyle
  2
Facepattern
 70
    15
 71
     2
 72
     2
 73
     0
 90
        0
 40
-0.6
 41
-30.0
 62
     5
 63
     7
 74
     1
 91
        4
 64
     7
 65
   257
 75
     1
175
     1
 42
1.0
 92
        8
 66
     7
 43
1.0
 76
     1
 77
     6
 78
     2
 67
     7
 79
     5
170
     0
171
     0
290
     0
174
     0
 93
        1
 44
0.0
173
     0
291
     1
 45
0.0
1001
ACAD
1000
AcDbSavedByObjectVersion
1070
     0
  0
VISUALSTYLE
  5
2B
102
{ACAD_REACTORS
330
2A
102
}
102
{ACAD_XDICTIONARY
360
337
102
}
330
2A
100
AcDbVisualStyle
  2
Flat
 70
     0
 71
     2
 72
     1
 73
     1
 90
        2
 40
-0.6
 41
30.0
 62
     5
 63
     7
 74
     0
 91
        4
 64
     7
 65
   257
 75
     1
175
     1
 42
1.0
 92
        8
 66
     7
 43
1.0
 76
     1
 77
     6
 78
     2
 67
     7
 79
     5
170
     0
171
     0
290
     0
174
     0
 93
       13
 44
0.0
173
     0
291
     1
 45
0.0
1001
ACAD
1000
AcDbSavedByObjectVersion
1070
     0
  0
VISUALSTYLE
  5
2C
102
{ACAD_REACTORS
330
2A
102
}
102
{ACAD_XDICTIONARY
360
339
102
}
330
2A
100
AcDbVisualStyle
  2
FlatWithEdges
 70
     1
 71
     2
 72
     1
 73
     1
 90
        2
 40
-0.6
 41
30.0
 62
     5
 63
     7
 74
     1
 91
        4
 64
     7
 65
   257
 75
     1
175
     1
 42
1.0
 92
        0
 66
   257
 43
1.0
 76
     1
 77
     6
 78
     2
 67
     7
 79
     5
170
     0
171
     0
290
     0
174
     0
 93
       13
 44
0.0
173
     0
291
     1
 45
0.0
1001
ACAD
1000
AcDbSavedByObjectVersion
1070
     0
  0
VISUALSTYLE
  5
2D
102
{ACAD_REACTORS
330
2A
102
}
102
{ACAD_XDICTIONARY
360
33B
102
}
330
2A
100
AcDbVisualStyle
  2
Gouraud
 70
     2
 71
     2
 72
     2
 73
     1
 90
        2
 40
-0.6
 41
30.0
 62
     5
 63
     7
 74
     0
 91
        4
 64
     7
 65
   257
 75
     1
175
     1
 42
1.0
 92
        0
 66
     7
 43
1.0
 76
     1
 77
     6
 78
     2
 67
     7
 79
     5
170
     0
171
     0
290
     0
174
     0
 93
       13
 44
0.0
173
     0
291
     1
 45
0.0
1001
ACAD
1000
AcDbSavedByObjectVersion
1070
     0
  0
VISUALSTYLE
  5
2E
102
{ACAD_REACTORS
330
2A
102
}
102
{ACAD_XDICTIONARY
360
33D
102
}
330
2A
100
AcDbVisualStyle
  2
GouraudWithEdges
 70
     3
 71
     2
 72
     2
 73
     1
 90
        2
 40
-0.6
 41
30.0
 62
     5
 63
     7
 74
     1
 91
        4
 64
     7
 65
   257
 75
     1
175
     1
 42
1.0
 92
        0
 66
   257
 43
1.0
 76
     1
 77
     6
 78
     2
 67
     7
 79
     5
170
     0
171
     0
290
     0
174
     0
 93
       13
 44
0.0
173
     0
291
     1
 45
0.0
1001
ACAD
1000
AcDbSavedByObjectVersion
1070
     0
  0
VISUALSTYLE
  5
38
102
{ACAD_REACTORS
330
2A
102
}
102
{ACAD_XDICTIONARY
360
351
102
}
330
2A
100
AcDbVisualStyle
  2
Linepattern
 70
    14
 71
     2
 72
     2
 73
     0
 90
        0
 40
-0.6
 41
-30.0
 62
     5
 63
     7
 74
     1
 91
        4
 64
     7
 65
   257
 75
     7
175
     7
 42
1.0
 92
        8
 66
     7
 43
1.0
 76
     1
 77
     6
 78
     2
 67
     7
 79
     5
170
     0
171
     0
290
     0
174
     0
 93
        1
 44
0.0
173
     0
291
     1
 45
0.0
1001
ACAD
1000
AcDbSavedByObjectVersion
1070
     0
  0
VISUALSTYLE
  5
33
102
{ACAD_REACTORS
330
2A
102
}
102
{ACAD_XDICTIONARY
360
347
102
}
330
2A
100
AcDbVisualStyle
  2
Realistic
 70
     8
 71
     2
 72
     2
 73
     0
 90
        0
 40
-0.6
 41
-30.0
 62
     5
 63
     7
 74
     1
 91
        0
 64
     7
 65
   257
 75
     1
175
     1
 42
1.0
 92
        8
 66
     8
 43
1.0
 76
     1
 77
     6
 78
     2
 67
     7
 79
     5
170
     0
171
     0
290
     0
174
     0
 93
       13
 44
0.0
173
     0
291
     0
 45
0.0
1001
ACAD
1000
AcDbSavedByObjectVersion
1070
     0
  0
VISUALSTYLE
  5
37
102
{ACAD_REACTORS
330
2A
102
}
102
{ACAD_XDICTIONARY
360
34F
102
}
330
2A
100
AcDbVisualStyle
  2
Thicken
 70
    13
 71
     2
 72
     2
 73
     0
 90
        0
 40
-0.6
 41
-30.0
 62
     5
 63
     7
 74
     1
 91
        4
 64
     7
 65
   257
 75
     1
175
     1
 42
1.0
 92
       12
 66
     7
 43
1.0
 76
     1
 77
     6
 78
     2
 67
     7
 79
     5
170
     0
171
     0
290
     0
174
     0
 93
        1
 44
0.0
173
     0
291
     1
 45
0.0
1001
ACAD
1000
AcDbSavedByObjectVersion
1070
     0
  0
DICTIONARYVAR
  5
335
102
{ACAD_REACTORS
330
332
102
}
330
332
100
DictionaryVariables
280
     0
  1
2
  0
DICTIONARYVAR
  5
336
102
{ACAD_REACTORS
330
332
102
}
330
332
100
DictionaryVariables
280
     0
  1
1
  0
DICTIONARY
  5
359
330
3D
100
AcDbDictionary
280
     1
281
     1
  3
ACAD_XREC_ROUNDTRIP
360
35A
  0
DICTIONARY
  5
357
330
3C
100
AcDbDictionary
280
     1
281
     1
  3
ACAD_XREC_ROUNDTRIP
360
358
  0
DICTIONARY
  5
35B
330
3E
100
AcDbDictionary
280
     1
281
     1
  3
ACAD_XREC_ROUNDTRIP
360
35C
  0
DICTIONARY
  5
33F
330
2F
100
AcDbDictionary
280
     1
281
     1
  3
ACAD_XREC_ROUNDTRIP
360
340
  0
DICTIONARY
  5
343
330
31
100
AcDbDictionary
280
     1
281
     1
  3
ACAD_XREC_ROUNDTRIP
360
344
  0
DICTIONARY
  5
341
330
30
100
AcDbDictionary
280
     1
281
     1
  3
ACAD_XREC_ROUNDTRIP
360
342
  0
DICTIONARY
  5
345
330
32
100
AcDbDictionary
280
     1
281
     1
  3
ACAD_XREC_ROUNDTRIP
360
346
  0
DICTIONARY
  5
34D
330
36
100
AcDbDictionary
280
     1
281
     1
  3
ACAD_XREC_ROUNDTRIP
360
34E
  0
DICTIONARY
  5
355
330
3A
100
AcDbDictionary
280
     1
281
     1
  3
ACAD_XREC_ROUNDTRIP
360
356
  0
DICTIONARY
  5
349
330
34
100
AcDbDictionary
280
     1
281
     1
  3
ACAD_XREC_ROUNDTRIP
360
34A
  0
DICTIONARY
  5
34B
330
35
100
AcDbDictionary
280
     1
281
     1
  3
ACAD_XREC_ROUNDTRIP
360
34C
  0
DICTIONARY
  5
353
330
39
100
AcDbDictionary
280
     1
281
     1
  3
ACAD_XREC_ROUNDTRIP
360
354
  0
DICTIONARY
  5
337
330
2B
100
AcDbDictionary
280
     1
281
     1
  3
ACAD_XREC_ROUNDTRIP
360
338
  0
DICTIONARY
  5
339
330
2C
100
AcDbDictionary
280
     1
281
     1
  3
ACAD_XREC_ROUNDTRIP
360
33A
  0
DICTIONARY
  5
33B
330
2D
100
AcDbDictionary
280
     1
281
     1
  3
ACAD_XREC_ROUNDTRIP
360
33C
  0
DICTIONARY
  5
33D
330
2E
100
AcDbDictionary
280
     1
281
     1
  3
ACAD_XREC_ROUNDTRIP
360
33E
  0
DICTIONARY
  5
351
330
38
100
AcDbDictionary
280
     1
281
     1
  3
ACAD_XREC_ROUNDTRIP
360
352
  0
DICTIONARY
  5
347
330
33
100
AcDbDictionary
280
     1
281
     1
  3
ACAD_XREC_ROUNDTRIP
360
348
  0
DICTIONARY
  5
34F
330
37
100
AcDbDictionary
280
     1
281
     1
  3
ACAD_XREC_ROUNDTRIP
360
350
  0
XRECORD
  5
35A
102
{ACAD_REACTORS
330
359
102
}
330
359
100
AcDbXrecord
280
     1
102
MATERIAL
148
0.0
149
0.0
149
0.0
 93
        0
 94
      127
282
     0
 72
     1
 77
     1
171
     1
175
     1
179
     1
273
     0
  0
XRECORD
  5
358
102
{ACAD_REACTORS
330
357
102
}
330
357
100
AcDbXrecord
280
     1
102
MATERIAL
148
0.0
149
0.0
149
0.0
 93
        0
 94
      127
282
     0
 72
     1
 77
     1
171
     1
175
     1
179
     1
273
     0
  0
XRECORD
  5
35C
102
{ACAD_REACTORS
330
35B
102
}
330
35B
100
AcDbXrecord
280
     1
102
MATERIAL
148
0.0
149
0.0
149
0.0
 93
        0
 94
      127
282
     0
 72
     1
 77
     1
171
     1
175
     1
179
     1
273
     0
  0
XRECORD
  5
340
102
{ACAD_REACTORS
330
33F
102
}
330
33F
100
AcDbXrecord
280
     1
102
RTVSPropertyOp0
 70
     1
102
RTVSPropertyOp1
 70
     1
102
RTVSPropertyOp2
 70
     1
102
RTVSPropertyOp3
 70
     1
102
RTVSPropertyOp4
 70
     1
102
RTVSPropertyOp5
 70
     1
102
RTVSPropertyOp6
 70
     1
102
RTVSPropertyOp7
 70
     1
102
RTVSPropertyOp8
 70
     1
102
RTVSPropertyOp9
 70
     1
102
RTVSPropertyOp10
 70
     1
102
RTVSPropertyOp11
 70
     1
102
RTVSPropertyOp12
 70
     1
102
RTVSPropertyOp13
 70
     1
102
RTVSPropertyOp14
 70
     1
102
RTVSPropertyOp15
 70
     1
102
RTVSPropertyOp16
 70
     1
102
RTVSPropertyOp17
 70
     1
102
RTVSPropertyOp18
 70
     1
102
RTVSPropertyOp19
 70
     1
102
RTVSPropertyOp20
 70
     1
102
RTVSPropertyOp21
 70
     1
102
RTVSPropertyOp22
 70
     1
102
RTVSPropertyOp23
 70
     1
102
RTVSPropertyOp24
 70
     1
102
RTVSPropertyOp25
 70
     1
102
RTVSPropertyOp26
 70
     1
102
RTVSPropertyOp27
 70
     1
102
RTVSPropertyOp28
 70
     1
102
RTVSPropertyOp29
 70
     1
102
RTVSPropertyOp30
 70
     1
102
RTVSPropertyOp31
 70
     1
102
RTVSPropertyOp32
 70
     1
  0
XRECORD
  5
344
102
{ACAD_REACTORS
330
343
102
}
330
343
100
AcDbXrecord
280
     1
102
RTVSPropertyOp0
 70
     1
102
RTVSPropertyOp1
 70
     1
102
RTVSPropertyOp2
 70
     1
102
RTVSPropertyOp3
 70
     1
102
RTVSPropertyOp4
 70
     1
102
RTVSPropertyOp5
 70
     1
102
RTVSPropertyOp6
 70
     1
102
RTVSPropertyOp7
 70
     1
102
RTVSPropertyOp8
 70
     1
102
RTVSPropertyOp9
 70
     1
102
RTVSPropertyOp10
 70
     1
102
RTVSPropertyOp11
 70
     1
102
RTVSPropertyOp12
 70
     1
102
RTVSPropertyOp13
 70
     1
102
RTVSPropertyOp14
 70
     1
102
RTVSPropertyOp15
 70
     1
102
RTVSPropertyOp16
 70
     1
102
RTVSPropertyOp17
 70
     1
102
RTVSPropertyOp18
 70
     1
102
RTVSPropertyOp19
 70
     1
102
RTVSPropertyOp20
 70
     1
102
RTVSPropertyOp21
 70
     1
102
RTVSPropertyOp22
 70
     1
102
RTVSPropertyOp23
 70
     1
102
RTVSPropertyOp24
 70
     1
102
RTVSPropertyOp25
 70
     1
102
RTVSPropertyOp26
 70
     1
102
RTVSPropertyOp27
 70
     1
102
RTVSPropertyOp28
 70
     1
102
RTVSPropertyOp29
 70
     1
102
RTVSPropertyOp30
 70
     1
102
RTVSPropertyOp31
 70
     1
102
RTVSPropertyOp32
 70
     1
  0
XRECORD
  5
342
102
{ACAD_REACTORS
330
341
102
}
330
341
100
AcDbXrecord
280
     1
102
RTVSPropertyOp0
 70
     1
102
RTVSPropertyOp1
 70
     1
102
RTVSPropertyOp2
 70
     1
102
RTVSPropertyOp3
 70
     1
102
RTVSPropertyOp4
 70
     1
102
RTVSPropertyOp5
 70
     1
102
RTVSPropertyOp6
 70
     1
102
RTVSPropertyOp7
 70
     1
102
RTVSPropertyOp8
 70
     1
102
RTVSPropertyOp9
 70
     1
102
RTVSPropertyOp10
 70
     1
102
RTVSPropertyOp11
 70
     1
102
RTVSPropertyOp12
 70
     1
102
RTVSPropertyOp13
 70
     1
102
RTVSPropertyOp14
 70
     1
102
RTVSPropertyOp15
 70
     1
102
RTVSPropertyOp16
 70
     1
102
RTVSPropertyOp17
 70
     1
102
RTVSPropertyOp18
 70
     1
102
RTVSPropertyOp19
 70
     1
102
RTVSPropertyOp20
 70
     1
102
RTVSPropertyOp21
 70
     1
102
RTVSPropertyOp22
 70
     1
102
RTVSPropertyOp23
 70
     1
102
RTVSPropertyOp24
 70
     1
102
RTVSPropertyOp25
 70
     1
102
RTVSPropertyOp26
 70
     1
102
RTVSPropertyOp27
 70
     1
102
RTVSPropertyOp28
 70
     1
102
RTVSPropertyOp29
 70
     1
102
RTVSPropertyOp30
 70
     1
102
RTVSPropertyOp31
 70
     1
102
RTVSPropertyOp32
 70
     1
  0
XRECORD
  5
346
102
{ACAD_REACTORS
330
345
102
}
330
345
100
AcDbXrecord
280
     1
102
RTVSPropertyOp0
 70
     1
102
RTVSPropertyOp1
 70
     1
102
RTVSPropertyOp2
 70
     1
102
RTVSPropertyOp3
 70
     1
102
RTVSPropertyOp4
 70
     1
102
RTVSPropertyOp5
 70
     1
102
RTVSPropertyOp6
 70
     1
102
RTVSPropertyOp7
 70
     1
102
RTVSPropertyOp8
 70
     1
102
RTVSPropertyOp9
 70
     1
102
RTVSPropertyOp10
 70
     1
102
RTVSPropertyOp11
 70
     1
102
RTVSPropertyOp12
 70
     1
102
RTVSPropertyOp13
 70
     1
102
RTVSPropertyOp14
 70
     1
102
RTVSPropertyOp15
 70
     1
102
RTVSPropertyOp16
 70
     1
102
RTVSPropertyOp17
 70
     1
102
RTVSPropertyOp18
 70
     1
102
RTVSPropertyOp19
 70
     1
102
RTVSPropertyOp20
 70
     1
102
RTVSPropertyOp21
 70
     1
102
RTVSPropertyOp22
 70
     1
102
RTVSPropertyOp23
 70
     1
102
RTVSPropertyOp24
 70
     1
102
RTVSPropertyOp25
 70
     1
102
RTVSPropertyOp26
 70
     1
102
RTVSPropertyOp27
 70
     1
102
RTVSPropertyOp28
 70
     1
102
RTVSPropertyOp29
 70
     1
102
RTVSPropertyOp30
 70
     1
102
RTVSPropertyOp31
 70
     1
102
RTVSPropertyOp32
 70
     1
  0
XRECORD
  5
34E
102
{ACAD_REACTORS
330
34D
102
}
330
34D
100
AcDbXrecord
280
     1
102
RTVSPropertyOp0
 70
     1
102
RTVSPropertyOp1
 70
     1
102
RTVSPropertyOp2
 70
     1
102
RTVSPropertyOp3
 70
     1
102
RTVSPropertyOp4
 70
     1
102
RTVSPropertyOp5
 70
     1
102
RTVSPropertyOp6
 70
     1
102
RTVSPropertyOp7
 70
     1
102
RTVSPropertyOp8
 70
     1
102
RTVSPropertyOp9
 70
     1
102
RTVSPropertyOp10
 70
     1
102
RTVSPropertyOp11
 70
     1
102
RTVSPropertyOp12
 70
     1
102
RTVSPropertyOp13
 70
     1
102
RTVSPropertyOp14
 70
     1
102
RTVSPropertyOp15
 70
     1
102
RTVSPropertyOp16
 70
     1
102
RTVSPropertyOp17
 70
     1
102
RTVSPropertyOp18
 70
     1
102
RTVSPropertyOp19
 70
     1
102
RTVSPropertyOp20
 70
     1
102
RTVSPropertyOp21
 70
     1
102
RTVSPropertyOp22
 70
     1
102
RTVSPropertyOp23
 70
     1
102
RTVSPropertyOp24
 70
     1
102
RTVSPropertyOp25
 70
     1
102
RTVSPropertyOp26
 70
     1
102
RTVSPropertyOp27
 70
     1
102
RTVSPropertyOp28
 70
     1
102
RTVSPropertyOp29
 70
     1
102
RTVSPropertyOp30
 70
     1
102
RTVSPropertyOp31
 70
     1
102
RTVSPropertyOp32
 70
     1
  0
XRECORD
  5
356
102
{ACAD_REACTORS
330
355
102
}
330
355
100
AcDbXrecord
280
     1
102
RTVSPropertyOp0
 70
     1
102
RTVSPropertyOp1
 70
     1
102
RTVSPropertyOp2
 70
     1
102
RTVSPropertyOp3
 70
     1
102
RTVSPropertyOp4
 70
     1
102
RTVSPropertyOp5
 70
     1
102
RTVSPropertyOp6
 70
     1
102
RTVSPropertyOp7
 70
     1
102
RTVSPropertyOp8
 70
     1
102
RTVSPropertyOp9
 70
     1
102
RTVSPropertyOp10
 70
     1
102
RTVSPropertyOp11
 70
     1
102
RTVSPropertyOp12
 70
     1
102
RTVSPropertyOp13
 70
     1
102
RTVSPropertyOp14
 70
     1
102
RTVSPropertyOp15
 70
     1
102
RTVSPropertyOp16
 70
     1
102
RTVSPropertyOp17
 70
     1
102
RTVSPropertyOp18
 70
     1
102
RTVSPropertyOp19
 70
     1
102
RTVSPropertyOp20
 70
     1
102
RTVSPropertyOp21
 70
     1
102
RTVSPropertyOp22
 70
     1
102
RTVSPropertyOp23
 70
     1
102
RTVSPropertyOp24
 70
     1
102
RTVSPropertyOp25
 70
     1
102
RTVSPropertyOp26
 70
     1
102
RTVSPropertyOp27
 70
     1
102
RTVSPropertyOp28
 70
     1
102
RTVSPropertyOp29
 70
     1
102
RTVSPropertyOp30
 70
     1
102
RTVSPropertyOp31
 70
     1
102
RTVSPropertyOp32
 70
     1
  0
XRECORD
  5
34A
102
{ACAD_REACTORS
330
349
102
}
330
349
100
AcDbXrecord
280
     1
102
RTVSPropertyOp0
 70
     1
102
RTVSPropertyOp1
 70
     1
102
RTVSPropertyOp2
 70
     1
102
RTVSPropertyOp3
 70
     1
102
RTVSPropertyOp4
 70
     1
102
RTVSPropertyOp5
 70
     1
102
RTVSPropertyOp6
 70
     1
102
RTVSPropertyOp7
 70
     1
102
RTVSPropertyOp8
 70
     1
102
RTVSPropertyOp9
 70
     1
102
RTVSPropertyOp10
 70
     1
102
RTVSPropertyOp11
 70
     1
102
RTVSPropertyOp12
 70
     1
102
RTVSPropertyOp13
 70
     1
102
RTVSPropertyOp14
 70
     1
102
RTVSPropertyOp15
 70
     1
102
RTVSPropertyOp16
 70
     1
102
RTVSPropertyOp17
 70
     1
102
RTVSPropertyOp18
 70
     1
102
RTVSPropertyOp19
 70
     1
102
RTVSPropertyOp20
 70
     1
102
RTVSPropertyOp21
 70
     1
102
RTVSPropertyOp22
 70
     1
102
RTVSPropertyOp23
 70
     1
102
RTVSPropertyOp24
 70
     1
102
RTVSPropertyOp25
 70
     1
102
RTVSPropertyOp26
 70
     1
102
RTVSPropertyOp27
 70
     1
102
RTVSPropertyOp28
 70
     1
102
RTVSPropertyOp29
 70
     1
102
RTVSPropertyOp30
 70
     1
102
RTVSPropertyOp31
 70
     1
102
RTVSPropertyOp32
 70
     1
  0
XRECORD
  5
34C
102
{ACAD_REACTORS
330
34B
102
}
330
34B
100
AcDbXrecord
280
     1
102
RTVSPropertyOp0
 70
     1
102
RTVSPropertyOp1
 70
     1
102
RTVSPropertyOp2
 70
     1
102
RTVSPropertyOp3
 70
     1
102
RTVSPropertyOp4
 70
     1
102
RTVSPropertyOp5
 70
     1
102
RTVSPropertyOp6
 70
     1
102
RTVSPropertyOp7
 70
     1
102
RTVSPropertyOp8
 70
     1
102
RTVSPropertyOp9
 70
     1
102
RTVSPropertyOp10
 70
     1
102
RTVSPropertyOp11
 70
     1
102
RTVSPropertyOp12
 70
     1
102
RTVSPropertyOp13
 70
     1
102
RTVSPropertyOp14
 70
     1
102
RTVSPropertyOp15
 70
     1
102
RTVSPropertyOp16
 70
     1
102
RTVSPropertyOp17
 70
     1
102
RTVSPropertyOp18
 70
     1
102
RTVSPropertyOp19
 70
     1
102
RTVSPropertyOp20
 70
     1
102
RTVSPropertyOp21
 70
     1
102
RTVSPropertyOp22
 70
     1
102
RTVSPropertyOp23
 70
     1
102
RTVSPropertyOp24
 70
     1
102
RTVSPropertyOp25
 70
     1
102
RTVSPropertyOp26
 70
     1
102
RTVSPropertyOp27
 70
     1
102
RTVSPropertyOp28
 70
     1
102
RTVSPropertyOp29
 70
     1
102
RTVSPropertyOp30
 70
     1
102
RTVSPropertyOp31
 70
     1
102
RTVSPropertyOp32
 70
     1
  0
XRECORD
  5
354
102
{ACAD_REACTORS
330
353
102
}
330
353
100
AcDbXrecord
280
     1
102
RTVSPropertyOp0
 70
     1
102
RTVSPropertyOp1
 70
     1
102
RTVSPropertyOp2
 70
     1
102
RTVSPropertyOp3
 70
     1
102
RTVSPropertyOp4
 70
     1
102
RTVSPropertyOp5
 70
     1
102
RTVSPropertyOp6
 70
     1
102
RTVSPropertyOp7
 70
     1
102
RTVSPropertyOp8
 70
     1
102
RTVSPropertyOp9
 70
     1
102
RTVSPropertyOp10
 70
     1
102
RTVSPropertyOp11
 70
     1
102
RTVSPropertyOp12
 70
     1
102
RTVSPropertyOp13
 70
     1
102
RTVSPropertyOp14
 70
     1
102
RTVSPropertyOp15
 70
     1
102
RTVSPropertyOp16
 70
     1
102
RTVSPropertyOp17
 70
     1
102
RTVSPropertyOp18
 70
     1
102
RTVSPropertyOp19
 70
     1
102
RTVSPropertyOp20
 70
     1
102
RTVSPropertyOp21
 70
     1
102
RTVSPropertyOp22
 70
     1
102
RTVSPropertyOp23
 70
     1
102
RTVSPropertyOp24
 70
     1
102
RTVSPropertyOp25
 70
     1
102
RTVSPropertyOp26
 70
     1
102
RTVSPropertyOp27
 70
     1
102
RTVSPropertyOp28
 70
     1
102
RTVSPropertyOp29
 70
     1
102
RTVSPropertyOp30
 70
     1
102
RTVSPropertyOp31
 70
     1
102
RTVSPropertyOp32
 70
     1
  0
XRECORD
  5
338
102
{ACAD_REACTORS
330
337
102
}
330
337
100
AcDbXrecord
280
     1
102
RTVSPropertyOp0
 70
     1
102
RTVSPropertyOp1
 70
     1
102
RTVSPropertyOp2
 70
     1
102
RTVSPropertyOp3
 70
     1
102
RTVSPropertyOp4
 70
     1
102
RTVSPropertyOp5
 70
     1
102
RTVSPropertyOp6
 70
     1
102
RTVSPropertyOp7
 70
     1
102
RTVSPropertyOp8
 70
     1
102
RTVSPropertyOp9
 70
     1
102
RTVSPropertyOp10
 70
     1
102
RTVSPropertyOp11
 70
     1
102
RTVSPropertyOp12
 70
     1
102
RTVSPropertyOp13
 70
     1
102
RTVSPropertyOp14
 70
     1
102
RTVSPropertyOp15
 70
     1
102
RTVSPropertyOp16
 70
     1
102
RTVSPropertyOp17
 70
     1
102
RTVSPropertyOp18
 70
     1
102
RTVSPropertyOp19
 70
     1
102
RTVSPropertyOp20
 70
     1
102
RTVSPropertyOp21
 70
     1
102
RTVSPropertyOp22
 70
     1
102
RTVSPropertyOp23
 70
     1
102
RTVSPropertyOp24
 70
     1
102
RTVSPropertyOp25
 70
     1
102
RTVSPropertyOp26
 70
     1
102
RTVSPropertyOp27
 70
     1
102
RTVSPropertyOp28
 70
     1
102
RTVSPropertyOp29
 70
     1
102
RTVSPropertyOp30
 70
     1
102
RTVSPropertyOp31
 70
     1
102
RTVSPropertyOp32
 70
     1
  0
XRECORD
  5
33A
102
{ACAD_REACTORS
330
339
102
}
330
339
100
AcDbXrecord
280
     1
102
RTVSPropertyOp0
 70
     1
102
RTVSPropertyOp1
 70
     1
102
RTVSPropertyOp2
 70
     1
102
RTVSPropertyOp3
 70
     1
102
RTVSPropertyOp4
 70
     1
102
RTVSPropertyOp5
 70
     1
102
RTVSPropertyOp6
 70
     1
102
RTVSPropertyOp7
 70
     1
102
RTVSPropertyOp8
 70
     1
102
RTVSPropertyOp9
 70
     1
102
RTVSPropertyOp10
 70
     1
102
RTVSPropertyOp11
 70
     1
102
RTVSPropertyOp12
 70
     1
102
RTVSPropertyOp13
 70
     1
102
RTVSPropertyOp14
 70
     1
102
RTVSPropertyOp15
 70
     1
102
RTVSPropertyOp16
 70
     1
102
RTVSPropertyOp17
 70
     1
102
RTVSPropertyOp18
 70
     1
102
RTVSPropertyOp19
 70
     1
102
RTVSPropertyOp20
 70
     1
102
RTVSPropertyOp21
 70
     1
102
RTVSPropertyOp22
 70
     1
102
RTVSPropertyOp23
 70
     1
102
RTVSPropertyOp24
 70
     1
102
RTVSPropertyOp25
 70
     1
102
RTVSPropertyOp26
 70
     1
102
RTVSPropertyOp27
 70
     1
102
RTVSPropertyOp28
 70
     1
102
RTVSPropertyOp29
 70
     1
102
RTVSPropertyOp30
 70
     1
102
RTVSPropertyOp31
 70
     1
102
RTVSPropertyOp32
 70
     1
  0
XRECORD
  5
33C
102
{ACAD_REACTORS
330
33B
102
}
330
33B
100
AcDbXrecord
280
     1
102
RTVSPropertyOp0
 70
     1
102
RTVSPropertyOp1
 70
     1
102
RTVSPropertyOp2
 70
     1
102
RTVSPropertyOp3
 70
     1
102
RTVSPropertyOp4
 70
     1
102
RTVSPropertyOp5
 70
     1
102
RTVSPropertyOp6
 70
     1
102
RTVSPropertyOp7
 70
     1
102
RTVSPropertyOp8
 70
     1
102
RTVSPropertyOp9
 70
     1
102
RTVSPropertyOp10
 70
     1
102
RTVSPropertyOp11
 70
     1
102
RTVSPropertyOp12
 70
     1
102
RTVSPropertyOp13
 70
     1
102
RTVSPropertyOp14
 70
     1
102
RTVSPropertyOp15
 70
     1
102
RTVSPropertyOp16
 70
     1
102
RTVSPropertyOp17
 70
     1
102
RTVSPropertyOp18
 70
     1
102
RTVSPropertyOp19
 70
     1
102
RTVSPropertyOp20
 70
     1
102
RTVSPropertyOp21
 70
     1
102
RTVSPropertyOp22
 70
     1
102
RTVSPropertyOp23
 70
     1
102
RTVSPropertyOp24
 70
     1
102
RTVSPropertyOp25
 70
     1
102
RTVSPropertyOp26
 70
     1
102
RTVSPropertyOp27
 70
     1
102
RTVSPropertyOp28
 70
     1
102
RTVSPropertyOp29
 70
     1
102
RTVSPropertyOp30
 70
     1
102
RTVSPropertyOp31
 70
     1
102
RTVSPropertyOp32
 70
     1
  0
XRECORD
  5
33E
102
{ACAD_REACTORS
330
33D
102
}
330
33D
100
AcDbXrecord
280
     1
102
RTVSPropertyOp0
 70
     1
102
RTVSPropertyOp1
 70
     1
102
RTVSPropertyOp2
 70
     1
102
RTVSPropertyOp3
 70
     1
102
RTVSPropertyOp4
 70
     1
102
RTVSPropertyOp5
 70
     1
102
RTVSPropertyOp6
 70
     1
102
RTVSPropertyOp7
 70
     1
102
RTVSPropertyOp8
 70
     1
102
RTVSPropertyOp9
 70
     1
102
RTVSPropertyOp10
 70
     1
102
RTVSPropertyOp11
 70
     1
102
RTVSPropertyOp12
 70
     1
102
RTVSPropertyOp13
 70
     1
102
RTVSPropertyOp14
 70
     1
102
RTVSPropertyOp15
 70
     1
102
RTVSPropertyOp16
 70
     1
102
RTVSPropertyOp17
 70
     1
102
RTVSPropertyOp18
 70
     1
102
RTVSPropertyOp19
 70
     1
102
RTVSPropertyOp20
 70
     1
102
RTVSPropertyOp21
 70
     1
102
RTVSPropertyOp22
 70
     1
102
RTVSPropertyOp23
 70
     1
102
RTVSPropertyOp24
 70
     1
102
RTVSPropertyOp25
 70
     1
102
RTVSPropertyOp26
 70
     1
102
RTVSPropertyOp27
 70
     1
102
RTVSPropertyOp28
 70
     1
102
RTVSPropertyOp29
 70
     1
102
RTVSPropertyOp30
 70
     1
102
RTVSPropertyOp31
 70
     1
102
RTVSPropertyOp32
 70
     1
  0
XRECORD
  5
352
102
{ACAD_REACTORS
330
351
102
}
330
351
100
AcDbXrecord
280
     1
102
RTVSPropertyOp0
 70
     1
102
RTVSPropertyOp1
 70
     1
102
RTVSPropertyOp2
 70
     1
102
RTVSPropertyOp3
 70
     1
102
RTVSPropertyOp4
 70
     1
102
RTVSPropertyOp5
 70
     1
102
RTVSPropertyOp6
 70
     1
102
RTVSPropertyOp7
 70
     1
102
RTVSPropertyOp8
 70
     1
102
RTVSPropertyOp9
 70
     1
102
RTVSPropertyOp10
 70
     1
102
RTVSPropertyOp11
 70
     1
102
RTVSPropertyOp12
 70
     1
102
RTVSPropertyOp13
 70
     1
102
RTVSPropertyOp14
 70
     1
102
RTVSPropertyOp15
 70
     1
102
RTVSPropertyOp16
 70
     1
102
RTVSPropertyOp17
 70
     1
102
RTVSPropertyOp18
 70
     1
102
RTVSPropertyOp19
 70
     1
102
RTVSPropertyOp20
 70
     1
102
RTVSPropertyOp21
 70
     1
102
RTVSPropertyOp22
 70
     1
102
RTVSPropertyOp23
 70
     1
102
RTVSPropertyOp24
 70
     1
102
RTVSPropertyOp25
 70
     1
102
RTVSPropertyOp26
 70
     1
102
RTVSPropertyOp27
 70
     1
102
RTVSPropertyOp28
 70
     1
102
RTVSPropertyOp29
 70
     1
102
RTVSPropertyOp30
 70
     1
102
RTVSPropertyOp31
 70
     1
102
RTVSPropertyOp32
 70
     1
  0
XRECORD
  5
348
102
{ACAD_REACTORS
330
347
102
}
330
347
100
AcDbXrecord
280
     1
102
RTVSPropertyOp0
 70
     1
102
RTVSPropertyOp1
 70
     1
102
RTVSPropertyOp2
 70
     1
102
RTVSPropertyOp3
 70
     1
102
RTVSPropertyOp4
 70
     1
102
RTVSPropertyOp5
 70
     1
102
RTVSPropertyOp6
 70
     1
102
RTVSPropertyOp7
 70
     1
102
RTVSPropertyOp8
 70
     1
102
RTVSPropertyOp9
 70
     1
102
RTVSPropertyOp10
 70
     1
102
RTVSPropertyOp11
 70
     1
102
RTVSPropertyOp12
 70
     1
102
RTVSPropertyOp13
 70
     1
102
RTVSPropertyOp14
 70
     1
102
RTVSPropertyOp15
 70
     1
102
RTVSPropertyOp16
 70
     1
102
RTVSPropertyOp17
 70
     1
102
RTVSPropertyOp18
 70
     1
102
RTVSPropertyOp19
 70
     1
102
RTVSPropertyOp20
 70
     1
102
RTVSPropertyOp21
 70
     1
102
RTVSPropertyOp22
 70
     1
102
RTVSPropertyOp23
 70
     1
102
RTVSPropertyOp24
 70
     1
102
RTVSPropertyOp25
 70
     1
102
RTVSPropertyOp26
 70
     1
102
RTVSPropertyOp27
 70
     1
102
RTVSPropertyOp28
 70
     1
102
RTVSPropertyOp29
 70
     1
102
RTVSPropertyOp30
 70
     1
102
RTVSPropertyOp31
 70
     1
102
RTVSPropertyOp32
 70
     1
  0
XRECORD
  5
350
102
{ACAD_REACTORS
330
34F
102
}
330
34F
100
AcDbXrecord
280
     1
102
RTVSPropertyOp0
 70
     1
102
RTVSPropertyOp1
 70
     1
102
RTVSPropertyOp2
 70
     1
102
RTVSPropertyOp3
 70
     1
102
RTVSPropertyOp4
 70
     1
102
RTVSPropertyOp5
 70
     1
102
RTVSPropertyOp6
 70
     1
102
RTVSPropertyOp7
 70
     1
102
RTVSPropertyOp8
 70
     1
102
RTVSPropertyOp9
 70
     1
102
RTVSPropertyOp10
 70
     1
102
RTVSPropertyOp11
 70
     1
102
RTVSPropertyOp12
 70
     1
102
RTVSPropertyOp13
 70
     1
102
RTVSPropertyOp14
 70
     1
102
RTVSPropertyOp15
 70
     1
102
RTVSPropertyOp16
 70
     1
102
RTVSPropertyOp17
 70
     1
102
RTVSPropertyOp18
 70
     1
102
RTVSPropertyOp19
 70
     1
102
RTVSPropertyOp20
 70
     1
102
RTVSPropertyOp21
 70
     1
102
RTVSPropertyOp22
 70
     1
102
RTVSPropertyOp23
 70
     1
102
RTVSPropertyOp24
 70
     1
102
RTVSPropertyOp25
 70
     1
102
RTVSPropertyOp26
 70
     1
102
RTVSPropertyOp27
 70
     1
102
RTVSPropertyOp28
 70
     1
102
RTVSPropertyOp29
 70
     1
102
RTVSPropertyOp30
 70
     1
102
RTVSPropertyOp31
 70
     1
102
RTVSPropertyOp32
 70
     1
  0
ENDSEC
  0
EOF
