  0
SECTION
  2
HEADER
  9
$ACADVER
  1
AC1015
  9
$ACADMAINTVER
 70
     6
  9
$DWGCODEPAGE
  3
ANSI_932
  9
$INSBASE
 10
0.0
 20
0.0
 30
0.0
  9
$EXTMIN
 10
0.0
 20
0.0
 30
0.0
  9
$EXTMAX
 10
315.0
 20
445.5
 30
0.0
  9
$LIMMIN
 10
0.0
 20
0.0
  9
$LIMMAX
 10
12.0
 20
9.0
  9
$ORTHOMODE
 70
     0
  9
$REGENMODE
 70
     1
  9
$FILLMODE
 70
     1
  9
$QTEXTMODE
 70
     0
  9
$MIRRTEXT
 70
     1
  9
$LTSCALE
 40
1.0
  9
$ATTMODE
 70
     1
  9
$TEXTSIZE
 40
0.2
  9
$TRACEWID
 40
0.05
  9
$TEXTSTYLE
  7
Standard
  9
$CLAYER
  8
0
  9
$CELTYPE
  6
ByLayer
  9
$CECOLOR
 62
   256
  9
$CELTSCALE
 40
1.0
  9
$DISPSILH
 70
     0
  9
$DIMSCALE
 40
1.0
  9
$DIMASZ
 40
0.18
  9
$DIMEXO
 40
0.0625
  9
$DIMDLI
 40
0.38
  9
$DIMRND
 40
0.0
  9
$DIMDLE
 40
0.0
  9
$DIMEXE
 40
0.18
  9
$DIMTP
 40
0.0
  9
$DIMTM
 40
0.0
  9
$DIMTXT
 40
0.18
  9
$DIMCEN
 40
0.09
  9
$DIMTSZ
 40
0.0
  9
$DIMTOL
 70
     0
  9
$DIMLIM
 70
     0
  9
$DIMTIH
 70
     1
  9
$DIMTOH
 70
     1
  9
$DIMSE1
 70
     0
  9
$DIMSE2
 70
     0
  9
$DIMTAD
 70
     0
  9
$DIMZIN
 70
     0
  9
$DIMBLK
  1

  9
$DIMASO
 70
     1
  9
$DIMSHO
 70
     1
  9
$DIMPOST
  1

  9
$DIMAPOST
  1

  9
$DIMALT
 70
     0
  9
$DIMALTD
 70
     2
  9
$DIMALTF
 40
25.4
  9
$DIMLFAC
 40
1.0
  9
$DIMTOFL
 70
     0
  9
$DIMTVP
 40
0.0
  9
$DIMTIX
 70
     0
  9
$DIMSOXD
 70
     0
  9
$DIMSAH
 70
     0
  9
$DIMBLK1
  1

  9
$DIMBLK2
  1

  9
$DIMSTYLE
  2
Standard
  9
$DIMCLRD
 70
     0
  9
$DIMCLRE
 70
     0
  9
$DIMCLRT
 70
     0
  9
$DIMTFAC
 40
1.0
  9
$DIMGAP
 40
0.09
  9
$DIMJUST
 70
     0
  9
$DIMSD1
 70
     0
  9
$DIMSD2
 70
     0
  9
$DIMTOLJ
 70
     1
  9
$DIMTZIN
 70
     0
  9
$DIMALTZ
 70
     0
  9
$DIMALTTZ
 70
     0
  9
$DIMUPT
 70
     0
  9
$DIMDEC
 70
     4
  9
$DIMTDEC
 70
     4
  9
$DIMALTU
 70
     2
  9
$DIMALTTD
 70
     2
  9
$DIMTXSTY
  7
Standard
  9
$DIMAUNIT
 70
     0
  9
$DIMADEC
 70
     0
  9
$DIMALTRND
 40
0.0
  9
$DIMAZIN
 70
     0
  9
$DIMDSEP
 70
    46
  9
$DIMATFIT
 70
     3
  9
$DIMFRAC
 70
     0
  9
$DIMLDRBLK
  1

  9
$DIMLUNIT
 70
     2
  9
$DIMLWD
 70
    -2
  9
$DIMLWE
 70
    -2
  9
$DIMTMOVE
 70
     0
  9
$LUNITS
 70
     2
  9
$LUPREC
 70
     4
  9
$SKETCHINC
 40
0.1
  9
$FILLETRAD
 40
0.5
  9
$AUNITS
 70
     0
  9
$AUPREC
 70
     0
  9
$MENU
  1
.
  9
$ELEVATION
 40
0.0
  9
$PELEVATION
 40
0.0
  9
$THICKNESS
 40
0.0
  9
$LIMCHECK
 70
     0
  9
$CHAMFERA
 40
0.5
  9
$CHAMFERB
 40
0.5
  9
$CHAMFERC
 40
1.0
  9
$CHAMFERD
 40
0.0
  9
$SKPOLY
 70
     0
  9
$TDCREATE
 40
2456575.573455324
  9
$TDUCREATE
 40
2456575.198455324
  9
$TDUPDATE
 40
2456575.573456412
  9
$TDUUPDATE
 40
2456575.198456412
  9
$TDINDWG
 40
0.0000000116
  9
$TDUSRTIMER
 40
0.0000000116
  9
$USRTIMER
 70
     1
  9
$ANGBASE
 50
0.0
  9
$ANGDIR
 70
     0
  9
$PDMODE
 70
     0
  9
$PDSIZE
 40
0.0
  9
$PLINEWID
 40
0.0
  9
$SPLFRAME
 70
     0
  9
$SPLINETYPE
 70
     6
  9
$SPLINESEGS
 70
     8
  9
$HANDSEED
  5
361
  9
$SURFTAB1
 70
     6
  9
$SURFTAB2
 70
     6
  9
$SURFTYPE
 70
     6
  9
$SURFU
 70
     6
  9
$SURFV
 70
     6
  9
$UCSBASE
  2

  9
$UCSNAME
  2

  9
$UCSORG
 10
0.0
 20
0.0
 30
0.0
  9
$UCSXDIR
 10
1.0
 20
0.0
 30
0.0
  9
$UCSYDIR
 10
0.0
 20
1.0
 30
0.0
  9
$UCSORTHOREF
  2

  9
$UCSORTHOVIEW
 70
     0
  9
$UCSORGTOP
 10
0.0
 20
0.0
 30
0.0
  9
$UCSORGBOTTOM
 10
0.0
 20
0.0
 30
0.0
  9
$UCSORGLEFT
 10
0.0
 20
0.0
 30
0.0
  9
$UCSORGRIGHT
 10
0.0
 20
0.0
 30
0.0
  9
$UCSORGFRONT
 10
0.0
 20
0.0
 30
0.0
  9
$UCSORGBACK
 10
0.0
 20
0.0
 30
0.0
  9
$PUCSBASE
  2

  9
$PUCSNAME
  2

  9
$PUCSORG
 10
0.0
 20
0.0
 30
0.0
  9
$PUCSXDIR
 10
1.0
 20
0.0
 30
0.0
  9
$PUCSYDIR
 10
0.0
 20
1.0
 30
0.0
  9
$PUCSORTHOREF
  2

  9
$PUCSORTHOVIEW
 70
     0
  9
$PUCSORGTOP
 10
0.0
 20
0.0
 30
0.0
  9
$PUCSORGBOTTOM
 10
0.0
 20
0.0
 30
0.0
  9
$PUCSORGLEFT
 10
0.0
 20
0.0
 30
0.0
  9
$PUCSORGRIGHT
 10
0.0
 20
0.0
 30
0.0
  9
$PUCSORGFRONT
 10
0.0
 20
0.0
 30
0.0
  9
$PUCSORGBACK
 10
0.0
 20
0.0
 30
0.0
  9
$USERI1
 70
     0
  9
$USERI2
 70
     0
  9
$USERI3
 70
     0
  9
$USERI4
 70
     0
  9
$USERI5
 70
     0
  9
$USERR1
 40
18.1
  9
$USERR2
 40
0.0
  9
$USERR3
 40
0.0
  9
$USERR4
 40
0.0
  9
$USERR5
 40
0.0
  9
$WORLDVIEW
 70
     1
  9
$SHADEDGE
 70
     3
  9
$SHADEDIF
 70
    70
  9
$TILEMODE
 70
     1
  9
$MAXACTVP
 70
    64
  9
$PINSBASE
 10
0.0
 20
0.0
 30
0.0
  9
$PLIMCHECK
 70
     0
  9
$PEXTMIN
 10
1.00000000000000E+20
 20
1.00000000000000E+20
 30
1.00000000000000E+20
  9
$PEXTMAX
 10
-1.00000000000000E+20
 20
-1.00000000000000E+20
 30
-1.00000000000000E+20
  9
$PLIMMIN
 10
0.0
 20
0.0
  9
$PLIMMAX
 10
12.0
 20
9.0
  9
$UNITMODE
 70
     0
  9
$VISRETAIN
 70
     1
  9
$PLINEGEN
 70
     0
  9
$PSLTSCALE
 70
     1
  9
$TREEDEPTH
 70
  3020
  9
$CMLSTYLE
  2
Standard
  9
$CMLJUST
 70
     0
  9
$CMLSCALE
 40
1.0
  9
$PROXYGRAPHICS
 70
     1
  9
$MEASUREMENT
 70
     1
  9
$CELWEIGHT
370
    -1
  9
$ENDCAPS
280
     0
  9
$JOINSTYLE
280
     0
  9
$LWDISPLAY
290
     0
  9
$INSUNITS
 70
     4
  9
$HYPERLINKBASE
  1

  9
$STYLESHEET
  1

  9
$XEDIT
290
     1
  9
$CEPSNTYPE
380
     0
  9
$PSTYLEMODE
290
     1
  9
$FINGERPRINTGUID
  2
{557E748F-FD33-4A3F-80B6-A1057333A0AB}
  9
$VERSIONGUID
  2
{FAEB1C32-E019-11D5-929B-00C0DF256EC4}
  9
$EXTNAMES
290
     1
  9
$PSVPSCALE
 40
0.0
  9
$OLESTARTUP
290
     0
  0
ENDSEC
  0
SECTION
  2
CLASSES
  0
CLASS
  1
ACDBDICTIONARYWDFLT
  2
AcDbDictionaryWithDefault
  3
ObjectDBX Classes
 90
        0
280
     0
281
     0
  0
CLASS
  1
VISUALSTYLE
  2
AcDbVisualStyle
  3
ObjectDBX Classes
 90
     4095
280
     0
281
     0
  0
CLASS
  1
MATERIAL
  2
AcDbMaterial
  3
ObjectDBX Classes
 90
     1153
280
     0
281
     0
  0
CLASS
  1
DICTIONARYVAR
  2
AcDbDictionaryVar
  3
ObjectDBX Classes
 90
        0
280
     0
281
     0
  0
CLASS
  1
ACDBPLACEHOLDER
  2
AcDbPlaceHolder
  3
ObjectDBX Classes
 90
        0
280
     0
281
     0
  0
CLASS
  1
LAYOUT
  2
AcDbLayout
  3
ObjectDBX Classes
 90
        0
280
     0
281
     0
  0
ENDSEC
  0
SECTION
  2
TABLES
  0
TABLE
  2
VPORT
  5
8
330
0
100
AcDbSymbolTable
 70
     1
  0
VPORT
  5
29
330
8
100
AcDbSymbolTableRecord
100
AcDbViewportTableRecord
  2
*Active
 70
     0
 10
0.0
 20
0.0
 11
1.0
 21
1.0
 12
157.5
 22
222.75
 13
0.0
 23
0.0
 14
0.5
 24
0.5
 15
0.5
 25
0.5
 16
0.0
 26
0.0
 36
1.0
 17
0.0
 27
0.0
 37
0.0
 40
490.05
 41
1.60267857142857
 42
50.0
 43
0.0
 44
0.0
 50
0.0
 51
0.0
 71
     0
 72
   100
 73
     1
 74
     3
 75
     0
 76
     0
 77
     0
 78
     0
281
     0
 65
     1
110
0.0
120
0.0
130
0.0
111
1.0
121
0.0
131
0.0
112
0.0
122
1.0
132
0.0
 79
     0
146
0.0
  0
ENDTAB
  0
TABLE
  2
LTYPE
  5
5
330
0
100
AcDbSymbolTable
 70
     8
  0
LTYPE
  5
14
330
5
100
AcDbSymbolTableRecord
100
AcDbLinetypeTableRecord
  2
ByBlock
 70
     0
  3

 72
    65
 73
     0
 40
0.0
  0
LTYPE
  5
15
330
5
100
AcDbSymbolTableRecord
100
AcDbLinetypeTableRecord
  2
ByLayer
 70
     0
  3

 72
    65
 73
     0
 40
0.0
  0
LTYPE
  5
16
330
5
100
AcDbSymbolTableRecord
100
AcDbLinetypeTableRecord
  2
Continuous
 70
     0
  3
Solid line
 72
    65
 73
     0
 40
0.0
  0
LTYPE
  5
3F
330
5
100
AcDbSymbolTableRecord
100
AcDbLinetypeTableRecord
  2
DASHED
 70
     0
  3
Dashed
 72
    65
 73
     2
 40
15.0
 49
7.0
 74
     0
 49
-8.0
 74
     0
  0
LTYPE
  5
40
330
5
100
AcDbSymbolTableRecord
100
AcDbLinetypeTableRecord
  2
DOTTED
 70
     0
  3
Dotted
 72
    65
 73
     2
 40
1.0
 49
0.0
 74
     0
 49
-1.0
 74
     0
  0
LTYPE
  5
41
330
5
100
AcDbSymbolTableRecord
100
AcDbLinetypeTableRecord
  2
DOT_CENTER
 70
     0
  3
Dot_Center
 72
    65
 73
     4
 40
14.0
 49
12.0
 74
     0
 49
-1.0
 74
     0
 49
0.0
 74
     0
 49
-1.0
 74
     0
  0
LTYPE
  5
42
330
5
100
AcDbSymbolTableRecord
100
AcDbLinetypeTableRecord
  2
LONG_DASHED
 70
     0
  3
Long_Dashed
 72
    65
 73
     2
 40
15.0
 49
10.0
 74
     0
 49
-5.0
 74
     0
  0
LTYPE
  5
43
330
5
100
AcDbSymbolTableRecord
100
AcDbLinetypeTableRecord
  2
DASH_CENTER
 70
     0
  3
Dash_Center
 72
    65
 73
     4
 40
14.0
 49
11.0
 74
     0
 49
-1.0
 74
     0
 49
1.0
 74
     0
 49
-1.0
 74
     0
  0
LTYPE
  5
44
330
5
100
AcDbSymbolTableRecord
100
AcDbLinetypeTableRecord
  2
PHANTOM
 70
     0
  3
Phantom
 72
    65
 73
     6
 40
13.0
 49
10.0
 74
     0
 49
-1.0
 74
     0
 49
0.0
 74
     0
 49
-1.0
 74
     0
 49
0.0
 74
     0
 49
-1.0
 74
     0
  0
LTYPE
  5
45
330
5
100
AcDbSymbolTableRecord
100
AcDbLinetypeTableRecord
  2
CENTER_DASH_DASH
 70
     0
  3
Center_Dash_Dash
 72
    65
 73
     6
 40
14.0
 49
9.0
 74
     0
 49
-1.0
 74
     0
 49
1.0
 74
     0
 49
-1.0
 74
     0
 49
1.0
 74
     0
 49
-1.0
 74
     0
  0
ENDTAB
  0
TABLE
  2
LAYER
  5
2
330
0
100
AcDbSymbolTable
 70
     2
  0
LAYER
  5
10
330
2
100
AcDbSymbolTableRecord
100
AcDbLayerTableRecord
  2
0
 70
     0
 62
     7
  6
Continuous
370
    -3
390
F
  0
LAYER
  5
46
330
2
100
AcDbSymbolTableRecord
100
AcDbLayerTableRecord
  2
1
 70
     0
 62
     7
  6
Continuous
370
    -3
390
F
  0
ENDTAB
  0
TABLE
  2
STYLE
  5
3
330
0
100
AcDbSymbolTable
 70
     3
  0
STYLE
  5
11
330
3
100
AcDbSymbolTableRecord
100
AcDbTextStyleTableRecord
  2
Standard
 70
     0
 40
0.0
 41
1.0
 50
0.0
 71
     0
 42
0.2
  3
txt
  4

  0
STYLE
  5
155
330
3
100
AcDbSymbolTableRecord
100
AcDbTextStyleTableRecord
  2
CONVERTER_11
 70
     0
 40
0.0
 41
0.89
 50
0.0
 71
     0
 42
0.2
  3
MS Mincho.ttf
  4

1001
ACAD
1000
MS Mincho
1071
    32785
  0
STYLE
  5
2D2
330
3
100
AcDbSymbolTableRecord
100
AcDbTextStyleTableRecord
  2
CONVERTER_12
 70
     0
 40
0.0
 41
0.9
 50
0.0
 71
     0
 42
0.2
  3
txt.shx
  4

  0
ENDTAB
  0
TABLE
  2
VIEW
  5
6
330
0
100
AcDbSymbolTable
 70
     0
  0
ENDTAB
  0
TABLE
  2
UCS
  5
7
330
0
100
AcDbSymbolTable
 70
     0
  0
ENDTAB
  0
TABLE
  2
APPID
  5
9
330
0
100
AcDbSymbolTable
 70
     1
  0
APPID
  5
12
330
9
100
AcDbSymbolTableRecord
100
AcDbRegAppTableRecord
  2
ACAD
 70
     0
  0
ENDTAB
  0
TABLE
  2
DIMSTYLE
  5
A
330
0
100
AcDbSymbolTable
 70
     9
100
AcDbDimStyleTable
  0
DIMSTYLE
105
27
330
A
100
AcDbSymbolTableRecord
100
AcDbDimStyleTableRecord
  2
Standard
 70
     0
178
     0
340
11
  0
DIMSTYLE
105
2E2
102
{ACAD_REACTORS
330
2E3
102
}
330
A
100
AcDbSymbolTableRecord
100
AcDbDimStyleTableRecord
  2
ME10_DIM_10
 70
     0
 41
5.25
 42
0.0
 44
1.5
 73
     0
 74
     0
 77
     1
 78
     8
140
5.25
147
1.5
172
     1
173
     1
174
     1
175
     1
176
     2
177
     2
271
     2
178
     7
271
     2
340
155
  0
DIMSTYLE
105
2ED
102
{ACAD_REACTORS
330
2EE
102
}
330
A
100
AcDbSymbolTableRecord
100
AcDbDimStyleTableRecord
  2
ME10_DIM_11
 70
     0
  3
{\Fgdt;n}<>
 41
5.25
 42
0.0
 44
1.5
 73
     0
 74
     0
 77
     1
 78
     8
140
5.25
147
1.5
172
     1
173
     1
174
     1
175
     1
176
     2
177
     2
271
     2
178
     7
271
     2
340
2D2
  0
DIMSTYLE
105
2F8
102
{ACAD_REACTORS
330
2F9
102
}
330
A
100
AcDbSymbolTableRecord
100
AcDbDimStyleTableRecord
  2
ME10_DIM_12
 70
     0
 41
5.25
 42
0.0
 44
1.5
 73
     0
 74
     0
 77
     1
 78
     8
140
5.25
147
1.5
172
     1
173
     1
174
     1
175
     1
176
     2
177
     2
271
     2
178
     7
271
     2
340
2D2
  0
DIMSTYLE
105
303
102
{ACAD_REACTORS
330
304
102
}
330
A
100
AcDbSymbolTableRecord
100
AcDbDimStyleTableRecord
  2
ME10_DIM_13
 70
     0
 41
5.25
 42
0.0
 44
1.5
 73
     0
 74
     0
 77
     1
 78
     8
140
5.25
147
1.5
172
     1
173
     1
174
     1
175
     1
176
     2
177
     2
271
     2
178
     7
271
     2
340
2D2
  0
DIMSTYLE
105
30E
102
{ACAD_REACTORS
330
30F
102
}
330
A
100
AcDbSymbolTableRecord
100
AcDbDimStyleTableRecord
  2
ME10_DIM_14
 70
     0
 41
5.25
 42
0.0
 44
1.5
 73
     0
 74
     0
 77
     1
 78
     8
140
5.25
147
1.5
172
     1
173
     1
174
     1
175
     1
176
     2
177
     2
271
     2
178
     7
271
     2
340
2D2
  0
DIMSTYLE
105
31B
102
{ACAD_REACTORS
330
31C
102
}
330
A
100
AcDbSymbolTableRecord
100
AcDbDimStyleTableRecord
  2
ME10_DIM_15
 70
     0
 41
5.25
 42
0.0
 44
1.5
 73
     0
 74
     0
 77
     1
 78
     8
140
5.25
147
1.5
172
     1
173
     1
174
     1
175
     1
176
     2
177
     2
271
     2
178
     7
271
     2
340
2D2
  0
DIMSTYLE
105
327
102
{ACAD_REACTORS
330
328
102
}
330
A
100
AcDbSymbolTableRecord
100
AcDbDimStyleTableRecord
  2
ME10_DIM_16
 70
     0
  3
{\Fgdt;n}<>
 41
5.25
 42
0.0
 44
1.5
 73
     0
 74
     0
 77
     1
 78
     8
140
5.25
147
1.5
172
     1
173
     1
174
     1
175
     1
176
     2
177
     2
271
     2
178
     7
271
     2
340
2D2
  0
DIMSTYLE
105
334
102
{ACAD_REACTORS
330
335
102
}
330
A
100
AcDbSymbolTableRecord
100
AcDbDimStyleTableRecord
  2
ME10_DIM_17
 70
     0
 41
5.25
 42
0.0
 44
1.5
 73
     0
 74
     0
 77
     1
 78
     8
140
5.25
147
1.5
172
     1
173
     1
174
     1
175
     1
176
     2
177
     2
271
     2
178
     7
271
     2
340
2D2
  0
ENDTAB
  0
TABLE
  2
BLOCK_RECORD
  5
1
330
0
100
AcDbSymbolTable
 70
    19
  0
BLOCK_RECORD
  5
1F
330
1
100
AcDbSymbolTableRecord
100
AcDbBlockTableRecord
  2
*Model_Space
340
22
  0
BLOCK_RECORD
  5
1B
330
1
100
AcDbSymbolTableRecord
100
AcDbBlockTableRecord
  2
*Paper_Space
340
1E
  0
BLOCK_RECORD
  5
23
330
1
100
AcDbSymbolTableRecord
100
AcDbBlockTableRecord
  2
*Paper_Space0
340
26
  0
BLOCK_RECORD
  5
47
330
1
100
AcDbSymbolTableRecord
100
AcDbBlockTableRecord
  2
62-1B
340
0
102
{BLKREFS
331
69
102
}
  0
BLOCK_RECORD
  5
4A
330
1
100
AcDbSymbolTableRecord
100
AcDbBlockTableRecord
  2
Y22-0B-13
340
0
102
{BLKREFS
331
6A
102
}
  0
BLOCK_RECORD
  5
4D
330
1
100
AcDbSymbolTableRecord
100
AcDbBlockTableRecord
  2
開示A4
340
0
102
{BLKREFS
331
6B
102
}
  0
BLOCK_RECORD
  5
50
330
1
100
AcDbSymbolTableRecord
100
AcDbBlockTableRecord
  2
42-1
340
0
102
{BLKREFS
331
5D
102
}
  0
BLOCK_RECORD
  5
53
330
1
100
AcDbSymbolTableRecord
100
AcDbBlockTableRecord
  2
21-1C
340
0
102
{BLKREFS
331
5E
102
}
  0
BLOCK_RECORD
  5
56
330
1
100
AcDbSymbolTableRecord
100
AcDbBlockTableRecord
  2
37-1-13
340
0
102
{BLKREFS
331
5F
102
}
  0
BLOCK_RECORD
  5
59
330
1
100
AcDbSymbolTableRecord
100
AcDbBlockTableRecord
  2
36-54-M11
340
0
102
{BLKREFS
331
60
102
}
  0
BLOCK_RECORD
  5
5C
330
1
100
AcDbSymbolTableRecord
100
AcDbBlockTableRecord
  2
R10AK-13-B
340
0
102
{BLKREFS
331
6C
102
}
  0
BLOCK_RECORD
  5
63
330
1
100
AcDbSymbolTableRecord
100
AcDbBlockTableRecord
  2
32-1-16
340
0
102
{BLKREFS
331
6D
102
}
  0
BLOCK_RECORD
  5
66
330
1
100
AcDbSymbolTableRecord
100
AcDbBlockTableRecord
  2
75-2
340
0
102
{BLKREFS
331
6E
102
}
  0
BLOCK_RECORD
  5
2D9
330
1
100
AcDbSymbolTableRecord
100
AcDbBlockTableRecord
  2
*D11
340
0
  0
BLOCK_RECORD
  5
2E4
330
1
100
AcDbSymbolTableRecord
100
AcDbBlockTableRecord
  2
*D12
340
0
  0
BLOCK_RECORD
  5
2EF
330
1
100
AcDbSymbolTableRecord
100
AcDbBlockTableRecord
  2
*D13
340
0
  0
BLOCK_RECORD
  5
2FA
330
1
100
AcDbSymbolTableRecord
100
AcDbBlockTableRecord
  2
*D14
340
0
  0
BLOCK_RECORD
  5
305
330
1
100
AcDbSymbolTableRecord
100
AcDbBlockTableRecord
  2
*D15
340
0
  0
BLOCK_RECORD
  5
310
330
1
100
AcDbSymbolTableRecord
100
AcDbBlockTableRecord
  2
*D16
340
0
  0
BLOCK_RECORD
  5
31D
330
1
100
AcDbSymbolTableRecord
100
AcDbBlockTableRecord
  2
*D17
340
0
  0
BLOCK_RECORD
  5
329
330
1
100
AcDbSymbolTableRecord
100
AcDbBlockTableRecord
  2
*D18
340
0
  0
ENDTAB
  0
ENDSEC
  0
SECTION
  2
BLOCKS
  0
BLOCK
  5
20
330
1F
100
AcDbEntity
  8
0
100
AcDbBlockBegin
  2
*Model_Space
 70
     0
 10
0.0
 20
0.0
 30
0.0
  3
*Model_Space
  1

  0
ENDBLK
  5
21
330
1F
100
AcDbEntity
  8
0
100
AcDbBlockEnd
  0
BLOCK
  5
1C
330
1B
100
AcDbEntity
 67
     1
  8
0
100
AcDbBlockBegin
  2
*Paper_Space
 70
     0
 10
0.0
 20
0.0
 30
0.0
  3
*Paper_Space
  1

  0
ENDBLK
  5
1D
330
1B
100
AcDbEntity
 67
     1
  8
0
100
AcDbBlockEnd
  0
BLOCK
  5
24
330
23
100
AcDbEntity
  8
0
100
AcDbBlockBegin
  2
*Paper_Space0
 70
     0
 10
0.0
 20
0.0
 30
0.0
  3
*Paper_Space0
  1

  0
ENDBLK
  5
25
330
23
100
AcDbEntity
  8
0
100
AcDbBlockEnd
  0
BLOCK
  5
48
330
47
100
AcDbEntity
  8
0
100
AcDbBlockBegin
  2
62-1B
 70
     0
 10
168.1995082605861
 20
215.9904345803537
 30
0.0
  3
62-1B
  1

  0
LINE
  5
6F
330
47
100
AcDbEntity
  8
1
  6
Continuous
 62
     7
100
AcDbLine
 10
63.82099730384732
 20
229.6594784986312
 30
0.0
 11
63.82099730384732
 21
266.6138438710987
 31
0.0
  0
LINE
  5
70
330
47
100
AcDbEntity
  8
1
  6
Continuous
 62
     7
100
AcDbLine
 10
79.00582922071132
 20
229.6594784986312
 30
0.0
 11
79.00582922071132
 21
266.6138438710987
 31
0.0
  0
LINE
  5
71
330
47
100
AcDbEntity
  8
1
  6
Continuous
 62
     7
100
AcDbLine
 10
63.82099730384746
 20
105.9567349342347
 30
0.0
 11
63.82099730384746
 21
140.8420514725464
 31
0.0
  0
LINE
  5
72
330
47
100
AcDbEntity
  8
1
  6
Continuous
 62
     7
100
AcDbLine
 10
79.00582922071146
 20
105.9567349342347
 30
0.0
 11
79.00582922071146
 21
140.8420514725464
 31
0.0
  0
LINE
  5
73
330
47
100
AcDbEntity
  8
1
  6
Continuous
 62
     7
100
AcDbLine
 10
126.9316283859452
 20
100.8420514725464
 30
0.0
 11
133.8126940914933
 21
97.63335783778155
 31
0.0
  0
LINE
  5
74
330
47
100
AcDbEntity
  8
1
  6
PHANTOM
 62
     4
100
AcDbLine
 10
137.5068089252703
 20
123.5205993247674
 30
0.0
 11
126.0863918624637
 21
99.02943589847314
 31
0.0
  0
LINE
  5
75
330
47
100
AcDbEntity
  8
1
  6
PHANTOM
 62
     4
100
AcDbLine
 10
186.431628385945
 20
140.8420514725464
 30
0.0
 11
164.6960425363698
 21
140.8420514725464
 31
0.0
  0
LINE
  5
76
330
47
100
AcDbEntity
  8
1
  6
Continuous
 62
     7
100
AcDbLine
 10
121.884888177059
 20
108.7122746754812
 30
0.0
 11
130.3469774076808
 21
126.8592835925189
 31
0.0
  0
LINE
  5
77
330
47
100
AcDbEntity
  8
1
  6
Continuous
 62
     7
100
AcDbLine
 10
120.0505626803969
 20
104.0507451073114
 30
0.0
 11
126.9316283859452
 21
100.8420514725464
 31
0.0
  0
LINE
  5
78
330
47
100
AcDbEntity
  8
1
  6
Continuous
 62
     7
100
AcDbLine
 10
136.2045512122381
 20
102.0349061399783
 30
0.0
 11
144.6666404428598
 21
120.1819150570159
 31
0.0
  0
LINE
  5
79
330
47
100
AcDbEntity
  8
1
  6
Continuous
 62
     7
100
AcDbLine
 10
167.9316283859453
 20
132.8420514725464
 30
0.0
 11
162.5960425363694
 21
132.8420514725464
 31
0.0
  0
LINE
  5
7A
330
47
100
AcDbEntity
  8
1
  6
Continuous
 62
     7
100
AcDbLine
 10
167.9316283859453
 20
148.7420514725466
 30
0.0
 11
164.6960425363698
 21
148.7420514725466
 31
0.0
  0
LINE
  5
7B
330
47
100
AcDbEntity
  8
1
  6
Continuous
 62
     7
100
AcDbLine
 10
121.884888177059
 20
108.7122746754812
 30
0.0
 11
136.2045512122381
 21
102.0349061399783
 31
0.0
  0
ARC
  5
7C
330
47
100
AcDbEntity
  8
1
  6
Continuous
 62
     7
100
AcDbCircle
 10
71.41341326227945
 20
140.8420514725464
 30
0.0
 40
7.592415958432014
100
AcDbArc
 50
0.0
 51
180.0
  0
ARC
  5
7D
330
47
100
AcDbEntity
  8
1
  6
Continuous
 62
     7
100
AcDbCircle
 10
70.96013946453803
 20
227.6373085039321
 30
0.0
 40
7.746784951759217
100
AcDbArc
 50
157.1555055611239
 51
245.4902173675773
  0
ARC
  5
7E
330
47
100
AcDbEntity
  8
1
  6
Continuous
 62
     7
100
AcDbCircle
 10
71.86668706002052
 20
227.6373085039321
 30
0.0
 40
7.746784951759315
100
AcDbArc
 50
294.5097826324227
 51
22.84449443887585
  0
ARC
  5
7F
330
47
100
AcDbEntity
  8
1
  6
Continuous
 62
     7
100
AcDbCircle
 10
70.28801583160015
 20
103.3993932033906
 30
0.0
 40
7.074602569320656
100
AcDbArc
 50
156.0807198663528
 51
208.3723264163731
  0
ARC
  5
80
330
47
100
AcDbEntity
  8
1
  6
Continuous
 62
     7
100
AcDbCircle
 10
72.53881069295875
 20
103.3993932033906
 30
0.0
 40
7.07460256932067
100
AcDbArc
 50
331.627673583627
 51
23.91928013364714
  0
ARC
  5
81
330
47
100
AcDbEntity
  8
1
  6
Continuous
 62
     7
100
AcDbCircle
 10
164.6960425363698
 20
110.8420514725464
 30
0.0
 40
37.90000000000019
100
AcDbArc
 50
90.0
 51
155.0
  0
ARC
  5
82
330
47
100
AcDbEntity
  8
1
  6
Continuous
 62
     7
100
AcDbCircle
 10
128.8600992390053
 20
103.4937626299345
 30
0.0
 40
8.827126591227962
100
AcDbArc
 50
155.0000000000004
 51
176.3822927462786
  0
ARC
  5
83
330
47
100
AcDbEntity
  8
1
  6
Continuous
 62
     7
100
AcDbCircle
 10
129.3409940152593
 20
102.9936732332598
 30
0.0
 40
6.930198535060828
100
AcDbArc
 50
337.0673366472504
 51
352.0478368977885
  0
ARC
  5
84
330
47
100
AcDbEntity
  8
1
  6
Continuous
 62
     7
100
AcDbCircle
 10
127.72335981283
 20
104.0238329296867
 30
0.0
 40
8.827126591227994
100
AcDbArc
 50
313.6177072537211
 51
335.0000000000003
  0
ARC
  5
85
330
47
100
AcDbEntity
  8
1
  6
Continuous
 62
     7
100
AcDbCircle
 10
127.0311559057057
 20
104.070768432843
 30
0.0
 40
6.930198535060875
100
AcDbArc
 50
137.9521631022137
 51
152.9326633527509
  0
ARC
  5
86
330
47
100
AcDbEntity
  8
1
  6
Continuous
 62
     7
100
AcDbCircle
 10
164.6960425363698
 20
110.8420514725464
 30
0.0
 40
22.10000000000002
100
AcDbArc
 50
95.45262198781356
 51
154.9999999999999
  0
SPLINE
  5
87
330
47
100
AcDbEntity
  8
1
  6
Continuous
 62
     7
100
AcDbSpline
210
0.0
220
0.0
230
1.0
 70
     8
 71
     3
 72
    33
 73
    29
 74
    27
 42
0.000000001
 43
0.0000000001
 44
0.00000001
 40
0.0
 40
0.0
 40
0.0
 40
0.0
 40
0.2870784893954176
 40
0.5699261059353695
 40
0.8888087431487954
 40
1.212179210377068
 40
1.591137264253522
 40
1.968155542866403
 40
2.411410441170514
 40
2.855565247711966
 40
3.927988818640806
 40
5.002236411571499
 40
6.257314812292037
 40
7.511290368990908
 40
8.171063159834658
 40
8.830825268752227
 40
10.13328149336228
 40
11.43667449669892
 40
12.61401952536049
 40
13.78983874935549
 40
14.29814947440321
 40
14.8063012700405
 40
15.48777326894442
 40
16.17206483598568
 40
16.49538740142723
 40
16.81337677956687
 40
17.22934564013789
 40
17.65606988184212
 40
17.65606988184212
 40
17.65606988184212
 40
17.65606988184212
 10
63.82099730384746
 20
105.9567349342347
 30
0.0
 10
63.83325056659704
 20
106.0516231224774
 30
0.0
 10
63.85757652230799
 20
106.2400010641762
 30
0.0
 10
63.92884202885318
 20
106.529464411103
 30
0.0
 10
64.0753144516623
 20
106.8042374129585
 30
0.0
 10
64.28598538028785
 20
107.072632490899
 30
0.0
 10
64.5402427165224
 20
107.3283956219142
 30
0.0
 10
64.85211716351758
 20
107.5794863402304
 30
0.0
 10
65.20500132447842
 20
107.8111283298018
 30
0.0
 10
65.77930243089996
 20
108.1234915072872
 30
0.0
 10
66.58009346254568
 20
108.454503425794
 30
0.0
 10
67.67194986394406
 20
108.7659138158477
 30
0.0
 10
68.84592173998257
 20
108.9940258967236
 30
0.0
 10
69.896925970429
 20
109.1098517550588
 30
0.0
 10
70.75361057633236
 20
109.1572826222912
 30
0.0
 10
71.62762505434263
 20
109.1733560336171
 30
0.0
 10
72.71653501857985
 20
109.134673685159
 30
0.0
 10
73.97099877471567
 20
108.9939859489045
 30
0.0
 10
75.1694689226522
 20
108.7652180460424
 30
0.0
 10
76.08731312342883
 20
108.4984656677637
 30
0.0
 10
76.76994902584897
 20
108.2366750669205
 30
0.0
 10
77.28493384299294
 20
108.0009497632074
 30
0.0
 10
77.82891038271757
 20
107.6909925360327
 30
0.0
 10
78.27557766347802
 20
107.3437505673107
 30
0.0
 10
78.58645609567134
 20
107.0289332263839
 30
0.0
 10
78.79434778000201
 20
106.7407380470096
 30
0.0
 10
78.92582940862124
 20
106.3720719514326
 30
0.0
 10
78.97893668345688
 20
106.0963536149842
 30
0.0
 10
79.00582922071146
 20
105.9567349342347
 30
0.0
 11
63.82099730384746
 21
105.9567349342347
 31
0.0
 11
63.86317953093348
 21
106.2406974704109
 31
0.0
 11
63.93634316232195
 21
106.5139187366031
 31
0.0
 11
64.08219787876602
 21
106.7974897771101
 31
0.0
 11
64.27887601220377
 21
107.0541727910852
 31
0.0
 11
64.54535306766118
 21
107.3236151498924
 31
0.0
 11
64.83818816617895
 21
107.5610817516171
 31
0.0
 11
65.20783867962064
 21
107.8056904230895
 31
0.0
 11
65.59728520747475
 21
108.0192434459416
 31
0.0
 11
66.58589549822912
 21
108.4348658775712
 31
0.0
 11
67.61720528306347
 21
108.7355451349025
 31
0.0
 11
68.84882374563844
 21
108.9770772246874
 31
0.0
 11
70.09500406700835
 21
109.1166813027921
 31
0.0
 11
70.75376402633059
 21
109.153225113034
 31
0.0
 11
71.41341326227945
 21
109.1654285689996
 31
0.0
 11
72.7150124555294
 21
109.1181871575058
 31
0.0
 11
74.01017245657044
 21
108.971920665186
 31
0.0
 11
75.16584560962579
 21
108.7470632098637
 31
0.0
 11
76.29372416794587
 21
108.4147368628176
 31
0.0
 11
76.76794442834381
 21
108.2317206421244
 31
0.0
 11
77.22954131708417
 21
108.0192434459416
 31
0.0
 11
77.81930354568021
 21
107.6777985786938
 31
0.0
 11
78.3571269124036
 21
107.2547135134519
 31
0.0
 11
78.58153056813529
 21
107.0219465074655
 31
0.0
 11
78.76359922804079
 21
106.7612393044711
 31
0.0
 11
78.91429143996753
 21
106.3735255493471
 31
0.0
 11
79.00582922071146
 21
105.9567349342347
 31
0.0
  0
SPLINE
  5
88
330
47
100
AcDbEntity
  8
1
  6
Continuous
 62
     7
100
AcDbSpline
210
0.0
220
0.0
230
1.0
 70
     8
 71
     3
 72
    43
 73
    39
 74
    37
 42
0.000000001
 43
0.0000000001
 44
0.00000001
 40
0.0
 40
0.0
 40
0.0
 40
0.0
 40
0.6015183847899022
 40
1.200991401848846
 40
1.805061043000034
 40
2.410777391999767
 40
3.023012716552759
 40
3.634542887598676
 40
4.25584135128132
 40
4.877420645783281
 40
5.509535102201413
 40
6.141577284415304
 40
6.784111040759321
 40
7.426685456298335
 40
8.078310587746172
 40
8.729937210331217
 40
9.38821234804223
 40
10.04649580895648
 40
10.70828759031588
 40
11.37008052999378
 40
12.03187346967162
 40
12.69366525103096
 40
13.35194871194523
 40
14.01022384965623
 40
14.66185047224134
 40
15.31347560368922
 40
15.95605001922818
 40
16.59858377557215
 40
17.23062595778605
 40
17.86274041420425
 40
18.48431970870622
 40
19.10561817238886
 40
19.71714834343479
 40
20.32938366798773
 40
20.93510001698743
 40
21.53916965813865
 40
22.13864267519762
 40
22.7401610599875
 40
22.7401610599875
 40
22.7401610599875
 40
22.7401610599875
 10
63.82099730384732
 20
228.6594784986312
 30
0.0
 10
63.8321860857198
 20
228.4592889422642
 30
0.0
 10
63.85452561656913
 20
228.0595905431709
 30
0.0
 10
63.92451388692871
 20
227.4609989858789
 30
0.0
 10
64.06742211055064
 20
226.8735621553316
 30
0.0
 10
64.27145627756497
 20
226.3006481421424
 30
0.0
 10
64.52582117690403
 20
225.7455359894634
 30
0.0
 10
64.83184125339959
 20
225.2110490049445
 30
0.0
 10
65.18811582652921
 20
224.7048305941005
 30
0.0
 10
65.59291577101882
 20
224.2275728780185
 30
0.0
 10
66.04068925137241
 20
223.7852749319482
 30
0.0
 10
66.53038384942873
 20
223.3789166530713
 30
0.0
 10
67.05587587331604
 20
223.0139040460611
 30
0.0
 10
67.6157397204226
 20
222.6909834647287
 30
0.0
 10
68.2031276687328
 20
222.4141694008849
 30
0.0
 10
68.81599791483913
 20
222.1843189420882
 30
0.0
 10
69.44754510468685
 20
222.0040455421059
 30
0.0
 10
70.09477978380743
 20
221.8741279110318
 30
0.0
 10
70.75144898009205
 20
221.7958604823557
 30
0.0
 10
71.41341326227933
 20
221.7696889558123
 30
0.0
 10
72.07537754446653
 20
221.7958604823557
 30
0.0
 10
72.73204674075116
 20
221.8741279110318
 30
0.0
 10
73.37928141987172
 20
222.0040455421059
 30
0.0
 10
74.01082860971943
 20
222.1843189420882
 30
0.0
 10
74.62369885582584
 20
222.4141694008848
 30
0.0
 10
75.21108680413604
 20
222.6909834647287
 30
0.0
 10
75.77095065124257
 20
223.0139040460612
 30
0.0
 10
76.29644267512982
 20
223.3789166530714
 30
0.0
 10
76.78613727318623
 20
223.7852749319481
 30
0.0
 10
77.2339107535398
 20
224.2275728780185
 30
0.0
 10
77.6387106980295
 20
224.7048305941005
 30
0.0
 10
77.99498527115907
 20
225.2110490049445
 30
0.0
 10
78.30100534765465
 20
225.7455359894634
 30
0.0
 10
78.55537024699362
 20
226.3006481421423
 30
0.0
 10
78.75940441400795
 20
226.8735621553317
 30
0.0
 10
78.90231263762986
 20
227.4609989858789
 30
0.0
 10
78.9723009079894
 20
228.0595905431709
 30
0.0
 10
78.99464043883884
 20
228.4592889422642
 30
0.0
 10
79.00582922071132
 20
228.6594784986312
 30
0.0
 11
63.82099730384732
 21
228.6594784986312
 31
0.0
 11
63.8606410350303
 21
228.0592679122878
 31
0.0
 11
63.93634316232183
 21
227.4645939784564
 31
0.0
 11
64.07724415813713
 21
226.8771869283744
 31
0.0
 11
64.27887601220354
 21
226.3060154197864
 31
0.0
 11
64.53413469846406
 21
225.7495308318151
 31
0.0
 11
64.83818816617884
 21
225.2189456458571
 31
0.0
 11
65.19544467964748
 21
224.7106351451382
 31
0.0
 11
65.59728520747464
 21
224.2364147216659
 31
0.0
 11
66.04683091602664
 21
223.7920304933623
 31
0.0
 11
66.53310235661283
 21
223.3882763521594
 31
0.0
 11
67.0606758027558
 21
223.021512276354
 31
0.0
 11
67.61720528306333
 21
222.7003007925165
 31
0.0
 11
68.20657260906299
 21
222.4223413220027
 31
0.0
 11
68.81665406798822
 21
222.1933918319847
 31
0.0
 11
69.44960968283476
 21
222.0125788158943
 31
0.0
 11
70.09500406700823
 21
221.882951642821
 31
0.0
 11
70.75213730483273
 21
221.8045662499181
 31
0.0
 11
71.41341326227933
 21
221.7784127930831
 31
0.0
 11
72.07468921972588
 21
221.804566249918
 31
0.0
 11
72.73182245755032
 21
221.882951642821
 31
0.0
 11
73.37721684172381
 21
222.0125788158943
 31
0.0
 11
74.01017245657033
 21
222.1933918319847
 31
0.0
 11
74.62025391549564
 21
222.4223413220027
 31
0.0
 11
75.20962124149534
 21
222.7003007925165
 31
0.0
 11
75.7661507218028
 21
223.0215122763541
 31
0.0
 11
76.29372416794573
 21
223.3882763521594
 31
0.0
 11
76.77999560853196
 21
223.7920304933622
 31
0.0
 11
77.22954131708403
 21
224.2364147216659
 31
0.0
 11
77.6313818449112
 21
224.7106351451382
 31
0.0
 11
77.98863835837983
 21
225.2189456458571
 31
0.0
 11
78.2926918260946
 21
225.7495308318151
 31
0.0
 11
78.54795051235504
 21
226.3060154197864
 31
0.0
 11
78.74958236642144
 21
226.8771869283743
 31
0.0
 11
78.89048336223672
 21
227.4645939784564
 31
0.0
 11
78.96618548952827
 21
228.0592679122878
 31
0.0
 11
79.00582922071132
 21
228.6594784986312
 31
0.0
  0
SPLINE
  5
89
330
47
100
AcDbEntity
  8
1
  6
Continuous
 62
     7
100
AcDbSpline
210
0.0
220
0.0
230
1.0
 70
     8
 71
     3
 72
    19
 73
    15
 74
    13
 42
0.000000001
 43
0.0000000001
 44
0.00000001
 40
0.0
 40
0.0
 40
0.0
 40
0.0
 40
0.579442919569012
 40
1.157780542040564
 40
1.81553731128837
 40
2.474543505714738
 40
3.136675590062961
 40
3.798090700085223
 40
4.459505810107541
 40
5.121637894455825
 40
5.780644088882179
 40
6.438400858129999
 40
7.01673848060153
 40
7.596181400170565
 40
7.596181400170565
 40
7.596181400170565
 40
7.596181400170565
 10
75.08042997206002
 20
220.5885828329955
 30
0.0
 10
74.90412302924253
 20
220.5097074079555
 30
0.0
 10
74.55184544620994
 20
220.3521070274198
 30
0.0
 10
73.9883956150341
 20
220.1298262846517
 30
0.0
 10
73.38014750816151
 20
219.9552860385309
 30
0.0
 10
72.73204354800734
 20
219.8291465043666
 30
0.0
 10
72.07523370309306
 20
219.7508490389015
 30
0.0
 10
71.4134132622793
 20
219.7237476384284
 30
0.0
 10
70.75159282146555
 20
219.7508490389015
 30
0.0
 10
70.09478297655124
 20
219.8291465043665
 30
0.0
 10
69.44667901639701
 20
219.955286038531
 30
0.0
 10
68.83843090952452
 20
220.1298262846518
 30
0.0
 10
68.27498107834857
 20
220.3521070274198
 30
0.0
 10
67.92270349531603
 20
220.5097074079555
 30
0.0
 10
67.74639655249854
 20
220.5885828329955
 30
0.0
 11
75.08042997206002
 21
220.5885828329955
 31
0.0
 11
74.54974622427625
 21
220.3559267395725
 31
0.0
 11
74.01017245657033
 21
220.147757204452
 31
0.0
 11
73.37839648558776
 21
219.9647187087691
 31
0.0
 11
72.73182245755032
 21
219.8373170152885
 31
0.0
 11
72.07429319698076
 21
219.7593800564189
 31
0.0
 11
71.41341326227933
 21
219.7327781655505
 31
0.0
 11
70.75253332757785
 21
219.7593800564189
 31
0.0
 11
70.09500406700823
 21
219.8373170152885
 31
0.0
 11
69.44843003897081
 21
219.9647187087691
 31
0.0
 11
68.81665406798822
 21
220.147757204452
 31
0.0
 11
68.27708030028231
 21
220.3559267395724
 31
0.0
 11
67.74639655249854
 21
220.5885828329955
 31
0.0
  0
SPLINE
  5
8A
330
47
100
AcDbEntity
  8
1
  6
Continuous
 62
     7
100
AcDbSpline
210
0.0
220
0.0
230
1.0
 70
    11
 71
     3
 72
    79
 73
    75
 74
    73
 42
0.000000001
 43
0.0000000001
 44
0.00000001
 40
0.0
 40
0.0
 40
0.0
 40
0.0
 40
0.2855726084442883
 40
0.5717260090421511
 40
0.892374988656934
 40
1.213437199823949
 40
1.591463198323336
 40
1.96950821824391
 40
2.413184301792452
 40
2.856910861124556
 40
3.365133719223732
 40
3.873369850375255
 40
4.438831337852666
 40
5.004307077531856
 40
5.615706132905421
 40
6.227112309965541
 40
6.870493293562297
 40
7.513878598420909
 40
8.173647024621786
 40
8.833416719800331
 40
9.493186414985264
 40
10.15295484120506
 40
10.79634014609316
 40
11.43972112972826
 40
12.05112730683015
 40
12.66252636224659
 40
13.22800210196083
 40
13.79346358946117
 40
14.3016997206127
 40
14.80992257867837
 40
15.25364913793492
 40
15.69732522133918
 40
16.07537024104688
 40
16.45339623920338
 40
16.77445844989644
 40
17.09510742871095
 40
17.38126082725677
 40
17.6668334403405
 40
17.95240605342426
 40
18.23855945197004
 40
18.55920843078463
 40
18.88027064147774
 40
19.25829663963419
 40
19.63634165934187
 40
20.08001774274616
 40
20.52374430200273
 40
21.03196716006837
 40
21.54020329121991
 40
22.10566477872025
 40
22.6711405184345
 40
23.28253957385095
 40
23.89394575095283
 40
24.53732673458793
 40
25.18071203947602
 40
25.8404804656958
 40
26.50025016088075
 40
27.16001985605929
 40
27.81978828226017
 40
28.46317358711878
 40
29.10655457071553
 40
29.71796074777563
 40
30.3293598031492
 40
30.89483554282839
 40
31.46029703030582
 40
31.96853316145733
 40
32.47675601955649
 40
32.92048257888861
 40
33.36415866243718
 40
33.74220368235773
 40
34.12022968085708
 40
34.44129189202414
 40
34.76194087163901
 40
35.04809427223684
 40
35.33366688068116
 40
35.33366688068116
 40
35.33366688068116
 40
35.33366688068116
 10
63.82099730384746
 20
100.8420514725464
 30
0.0
 10
63.82714332024035
 20
100.7467309604691
 30
0.0
 10
63.83944784045182
 20
100.5558960740542
 30
0.0
 10
63.93285946057977
 20
100.2705502839414
 30
0.0
 10
64.07876834036539
 20
99.99645822696168
 30
0.0
 10
64.28561378609808
 20
99.72520240815629
 30
0.0
 10
64.53928894278305
 20
99.4697876117645
 30
0.0
 10
64.85213614601538
 20
99.21963803250298
 30
0.0
 10
65.20515092973629
 20
98.9876754256087
 30
0.0
 10
65.6140462795733
 20
98.76497348071388
 30
0.0
 10
66.05693122558984
 20
98.56216930440885
 30
0.0
 10
66.54946289477503
 20
98.37307325495121
 30
0.0
 10
67.06974489768473
 20
98.20531315562725
 30
0.0
 10
67.6310236301442
 20
98.05526609948346
 30
0.0
 10
68.21352314641565
 20
97.92772299007669
 30
0.0
 10
68.82655215230113
 20
97.82108343471609
 30
0.0
 10
69.45394578663768
 20
97.73781669965165
 30
0.0
 10
70.10014975394213
 20
97.67764739164377
 30
0.0
 10
70.75360571391809
 20
97.64138870160794
 30
0.0
 10
71.41341325228535
 20
97.62934240171553
 30
0.0
 10
72.07322079064306
 20
97.6413887018656
 30
0.0
 10
72.72667675065662
 20
97.67764739215153
 30
0.0
 10
73.3728807178485
 20
97.73781670039648
 30
0.0
 10
74.00027435262855
 20
97.82108343567572
 30
0.0
 10
74.61330335697484
 20
97.92772299122468
 30
0.0
 10
75.19580287882363
 20
98.05526610078307
 30
0.0
 10
75.75708159198915
 20
98.20531315703738
 30
0.0
 10
76.27736366332344
 20
98.37307325642114
 30
0.0
 10
76.76989510170618
 20
98.56216930587988
 30
0.0
 10
77.21278085349275
 20
98.76497348212096
 30
0.0
 10
77.62167355771592
 20
98.98767542686926
 30
0.0
 10
77.97469744757933
 20
99.21963803353401
 30
0.0
 10
78.28751541548449
 20
99.46978761244878
 30
0.0
 10
78.54129052323105
 20
99.72520240836889
 30
0.0
 10
78.74781608945051
 20
99.9964582265179
 30
0.0
 10
78.89483294106442
 20
100.270550282197
 30
0.0
 10
78.98453283131605
 20
100.5558960728529
 30
0.0
 10
79.0164665834905
 20
100.8420514725464
 30
0.0
 10
78.98453283131603
 20
101.1282068722399
 30
0.0
 10
78.89483294106442
 20
101.4135526628959
 30
0.0
 10
78.74781608945054
 20
101.687644718575
 30
0.0
 10
78.54129052323108
 20
101.958900536724
 30
0.0
 10
78.2875154154845
 20
102.2143153326441
 30
0.0
 10
77.9746974475793
 20
102.4644649115588
 30
0.0
 10
77.62167355771595
 20
102.6964275182237
 30
0.0
 10
77.21278085349273
 20
102.919129462972
 30
0.0
 10
76.76989510170623
 20
103.1219336392131
 30
0.0
 10
76.27736366332341
 20
103.3110296886717
 30
0.0
 10
75.75708159198916
 20
103.4787897880555
 30
0.0
 10
75.19580287882363
 20
103.6288368443099
 30
0.0
 10
74.61330335697485
 20
103.7563799538683
 30
0.0
 10
74.00027435262855
 20
103.8630195094171
 30
0.0
 10
73.37288071784849
 20
103.9462862446964
 30
0.0
 10
72.72667675065664
 20
104.0064555529412
 30
0.0
 10
72.07322079064305
 20
104.0427142432273
 30
0.0
 10
71.4134132522854
 20
104.0547605433773
 30
0.0
 10
70.75360571391806
 20
104.0427142434849
 30
0.0
 10
70.10014975394216
 20
104.006455553449
 30
0.0
 10
69.45394578663766
 20
103.9462862454412
 30
0.0
 10
68.82655215230113
 20
103.8630195103768
 30
0.0
 10
68.21352314641565
 20
103.7563799550162
 30
0.0
 10
67.63102363014418
 20
103.6288368456095
 30
0.0
 10
67.06974489768473
 20
103.4787897894656
 30
0.0
 10
66.54946289477502
 20
103.3110296901417
 30
0.0
 10
66.05693122558986
 20
103.121933640684
 30
0.0
 10
65.61404627957327
 20
102.9191294643791
 30
0.0
 10
65.20515092973629
 20
102.6964275194842
 30
0.0
 10
64.8521361460154
 20
102.4644649125898
 30
0.0
 10
64.53928894278306
 20
102.2143153333284
 30
0.0
 10
64.28561378609803
 20
101.9589005369366
 30
0.0
 10
64.07876834036537
 20
101.6876447181312
 30
0.0
 10
63.93285946057982
 20
101.4135526611515
 30
0.0
 10
63.83944784045177
 20
101.1282068710386
 30
0.0
 10
63.82714332024037
 20
100.9373719846237
 30
0.0
 10
63.82099730384746
 20
100.8420514725464
 30
0.0
 11
63.82099730384746
 21
100.8420514725464
 31
0.0
 11
63.85129680245245
 21
100.5580908101604
 31
0.0
 11
63.93634316232195
 21
100.284867670178
 31
0.0
 11
64.08600778729266
 21
100.0012900481804
 31
0.0
 11
64.27887601220377
 21
99.74461361569604
 31
0.0
 11
64.54405719823518
 21
99.47520204598442
 31
0.0
 11
64.83818816617895
 21
99.23770465516395
 31
0.0
 11
65.20824667965093
 21
98.99294934140839
 31
0.0
 11
65.59728520747475
 21
98.77954296083954
 31
0.0
 11
66.0589710403952
 21
98.56708904785356
 31
0.0
 11
66.53310235661306
 21
98.38404954396356
 31
0.0
 11
67.07107947484525
 21
98.20990215210112
 31
0.0
 11
67.61720528306347
 21
98.06324127187861
 31
0.0
 11
68.21436499167584
 21
97.9320578607547
 31
0.0
 11
68.81665406798845
 21
97.82686574159516
 31
0.0
 11
69.45441130065734
 21
97.74198463496549
 31
0.0
 11
70.09500406700835
 21
97.68210510398899
 31
0.0
 11
70.75375483868234
 21
97.64547455599511
 31
0.0
 11
71.41341326227945
 21
97.63335783778155
 31
0.0
 11
72.07307168587651
 21
97.64547455599512
 31
0.0
 11
72.73182245755046
 21
97.68210510398899
 31
0.0
 11
73.37241522390153
 21
97.74198463496549
 31
0.0
 11
74.01017245657044
 21
97.82686574159516
 31
0.0
 11
74.61246153288307
 21
97.93205786075471
 31
0.0
 11
75.20962124149546
 21
98.06324127187861
 31
0.0
 11
75.75574704971368
 21
98.20990215210114
 31
0.0
 11
76.29372416794587
 21
98.38404954396356
 31
0.0
 11
76.7678554841637
 21
98.56708904785356
 31
0.0
 11
77.22954131708417
 21
98.77954296083954
 31
0.0
 11
77.61857984490798
 21
98.9929493414084
 31
0.0
 11
77.98863835837997
 21
99.23770465516395
 31
0.0
 11
78.28276932632374
 21
99.47520204598442
 31
0.0
 11
78.54795051235516
 21
99.74461361569604
 31
0.0
 11
78.7408187372662
 21
100.0012900481804
 31
0.0
 11
78.89048336223686
 21
100.284867670178
 31
0.0
 11
78.97552972210643
 21
100.5580908101604
 31
0.0
 11
79.00582922071146
 21
100.8420514725464
 31
0.0
 11
78.97552972210642
 21
101.1260121349324
 31
0.0
 11
78.89048336223686
 21
101.3992352749148
 31
0.0
 11
78.74081873726621
 21
101.6828128969125
 31
0.0
 11
78.54795051235516
 21
101.9394893293969
 31
0.0
 11
78.28276932632376
 21
102.2089008991085
 31
0.0
 11
77.98863835837997
 21
102.4463982899289
 31
0.0
 11
77.618579844908
 21
102.6911536036845
 31
0.0
 11
77.22954131708417
 21
102.9045599842534
 31
0.0
 11
76.76785548416373
 21
103.1170138972393
 31
0.0
 11
76.29372416794587
 21
103.3000534011293
 31
0.0
 11
75.75574704971368
 21
103.4742007929918
 31
0.0
 11
75.20962124149546
 21
103.6208616732143
 31
0.0
 11
74.61246153288307
 21
103.7520450843382
 31
0.0
 11
74.01017245657044
 21
103.8572372034977
 31
0.0
 11
73.37241522390151
 21
103.9421183101273
 31
0.0
 11
72.73182245755046
 21
104.0019978411038
 31
0.0
 11
72.07307168587653
 21
104.0386283890977
 31
0.0
 11
71.41341326227945
 21
104.0507451073113
 31
0.0
 11
70.75375483868234
 21
104.0386283890977
 31
0.0
 11
70.09500406700835
 21
104.0019978411038
 31
0.0
 11
69.45441130065734
 21
103.9421183101273
 31
0.0
 11
68.81665406798845
 21
103.8572372034977
 31
0.0
 11
68.21436499167584
 21
103.7520450843382
 31
0.0
 11
67.61720528306347
 21
103.6208616732143
 31
0.0
 11
67.07107947484526
 21
103.4742007929918
 31
0.0
 11
66.53310235661306
 21
103.3000534011293
 31
0.0
 11
66.0589710403952
 21
103.1170138972393
 31
0.0
 11
65.59728520747475
 21
102.9045599842534
 31
0.0
 11
65.20824667965093
 21
102.6911536036845
 31
0.0
 11
64.83818816617895
 21
102.4463982899289
 31
0.0
 11
64.54405719823518
 21
102.2089008991085
 31
0.0
 11
64.27887601220377
 21
101.9394893293969
 31
0.0
 11
64.08600778729264
 21
101.6828128969125
 31
0.0
 11
63.93634316232195
 21
101.3992352749148
 31
0.0
 11
63.85129680245245
 21
101.1260121349324
 31
0.0
 11
63.82099730384746
 21
100.8420514725464
 31
0.0
  0
SPLINE
  5
8B
330
47
100
AcDbEntity
  8
1
  6
Continuous
 62
     7
100
AcDbSpline
210
0.0
220
0.0
230
1.0
 70
     8
 71
     3
 72
    41
 73
    37
 74
    35
 42
0.000000001
 43
0.0000000001
 44
0.00000001
 40
0.0
 40
0.0
 40
0.0
 40
0.0
 40
0.1003162016026455
 40
0.2006657829785181
 40
0.4678383789133801
 40
0.7355150007192097
 40
1.00278910917298
 40
1.270122575990827
 40
1.569879281724525
 40
1.870218951467835
 40
2.223772344309054
 40
2.577257304781832
 40
2.992126825125723
 40
3.407093618714017
 40
4.409622126157469
 40
5.414554539535014
 40
6.588375490687777
 40
7.760878906835743
 40
8.37779511671527
 40
8.99483352643565
 40
10.21331109419476
 40
11.43168445402211
 40
12.5310257590927
 40
13.63217355512704
 40
14.52401185317098
 40
15.41165471146025
 40
15.76513734518523
 40
16.11866370144206
 40
16.41899056786268
 40
16.71876828811395
 40
16.98610851104022
 40
17.25337400757642
 40
17.52104815265799
 40
17.78822350586439
 40
17.88857332059389
 40
17.98888928674004
 40
17.98888928674004
 40
17.98888928674004
 40
17.98888928674004
 10
64.50969141129835
 20
102.1776120894782
 30
0.0
 10
64.49419999768531
 20
102.147976656996
 30
0.0
 10
64.46321202405285
 20
102.0886959267256
 30
0.0
 10
64.39624964663291
 20
101.9477904413942
 30
0.0
 10
64.33201494476543
 20
101.7443999384177
 30
0.0
 10
64.30371755435188
 20
101.4765735022923
 30
0.0
 10
64.33357604935384
 20
101.20886004019
 30
0.0
 10
64.41718284188174
 20
100.9419630264476
 30
0.0
 10
64.55465407322829
 20
100.6857259564931
 30
0.0
 10
64.74782090613184
 20
100.4320759495049
 30
0.0
 10
64.98512251412944
 20
100.1931643451114
 30
0.0
 10
65.2776555838949
 20
99.95924981809304
 30
0.0
 10
65.60790836772006
 20
99.7425374335044
 30
0.0
 10
66.14463815966938
 20
99.45007621120415
 30
0.0
 10
66.89341169355698
 20
99.14058629049282
 30
0.0
 10
67.91454597447192
 20
98.84953013496109
 30
0.0
 10
69.01248938691049
 20
98.63617823522074
 30
0.0
 10
69.99530527743948
 20
98.52784443935295
 30
0.0
 10
70.79638125857555
 20
98.48350014447333
 30
0.0
 10
71.61387402802481
 20
98.4684698696253
 30
0.0
 10
72.6321908411579
 20
98.50454143806905
 30
0.0
 10
73.80475120981482
 20
98.63599101714019
 30
0.0
 10
74.92525044213252
 20
98.85072533116053
 30
0.0
 10
75.91677448192058
 20
99.13903773524599
 30
0.0
 10
76.8087807758312
 20
99.49913227410516
 30
0.0
 10
77.4258768821633
 20
99.86084792977188
 30
0.0
 10
77.84145663681187
 20
100.1934178982544
 30
0.0
 10
78.0790448921808
 20
100.432041616982
 30
0.0
 10
78.27222842937704
 20
100.6856874203466
 30
0.0
 10
78.40963268616674
 20
100.9419641847063
 30
0.0
 10
78.49323878928499
 20
101.2088641700522
 30
0.0
 10
78.52311130791905
 20
101.4765752955043
 30
0.0
 10
78.49481322374277
 20
101.7443995896039
 30
0.0
 10
78.4305771793938
 20
101.9477896537804
 30
0.0
 10
78.36361440787374
 20
102.0886959679789
 30
0.0
 10
78.33262647186608
 20
102.1479767169136
 30
0.0
 10
78.31713511326046
 20
102.1776120894783
 30
0.0
 11
64.50969141129835
 21
102.1776120894782
 31
0.0
 11
64.46378357957335
 21
102.0884167256215
 31
0.0
 11
64.42127821589276
 21
101.9975138495724
 31
0.0
 11
64.34085391638308
 21
101.7427333008205
 31
0.0
 11
64.31341326227945
 21
101.4764669234721
 31
0.0
 11
64.34199035284705
 21
101.2107249462306
 31
0.0
 11
64.42127821589276
 21
100.9554199973719
 31
0.0
 11
64.56116104744896
 21
100.6903032763777
 31
0.0
 11
64.74159565469947
 21
100.4502048184586
 31
0.0
 11
64.98959074580598
 21
100.1982158581008
 31
0.0
 11
65.26463289540985
 21
99.97617209429268
 31
0.0
 11
65.61074904029748
 21
99.74743571115172
 31
0.0
 11
65.97449771613466
 21
99.54772506932545
 31
0.0
 11
66.89861732163185
 21
99.15905250495004
 31
0.0
 11
67.86341326227947
 21
98.87788005300035
 31
0.0
 11
69.01529813542345
 21
98.65201092449644
 31
0.0
 11
70.18051120084425
 21
98.52146296431192
 31
0.0
 11
70.79648051653882
 21
98.48729559493358
 31
0.0
 11
71.41341326227945
 21
98.47587726511313
 31
0.0
 11
72.63109189666505
 21
98.51999421027932
 31
0.0
 11
73.84175627989177
 21
98.65683496350562
 31
0.0
 11
74.92075874610973
 21
98.86732244983303
 31
0.0
 11
75.97720529105385
 21
99.17788188960594
 31
0.0
 11
76.80098725128917
 21
99.51958180372439
 31
0.0
 11
77.56219362914896
 21
99.97617209429268
 31
0.0
 11
77.83707108180192
 21
100.1984160102788
 31
0.0
 11
78.08523086985946
 21
100.4502048184586
 31
0.0
 11
78.26570002314565
 21
100.6902612934251
 31
0.0
 11
78.40554830866617
 21
100.9554199973719
 31
0.0
 11
78.48482835243462
 21
101.2107344488071
 31
0.0
 11
78.51341326227947
 21
101.4764669234721
 31
0.0
 11
78.48597449680915
 21
101.7427310056107
 31
0.0
 11
78.40554830866617
 21
101.9975138495724
 31
0.0
 11
78.36304279191108
 21
102.0884169116492
 31
0.0
 11
78.31713511326046
 21
102.1776120894783
 31
0.0
  0
ARC
  5
8C
330
47
100
AcDbEntity
  8
1
  6
PHANTOM
 62
     4
100
AcDbCircle
 10
164.6960425363698
 20
110.8420514725464
 30
0.0
 40
29.99999999999999
100
AcDbArc
 50
90.0
 51
155.0
  0
ENDBLK
  5
49
330
47
100
AcDbEntity
  8
0
100
AcDbBlockEnd
  0
BLOCK
  5
4B
330
4A
100
AcDbEntity
  8
0
100
AcDbBlockBegin
  2
Y22-0B-13
 70
     0
 10
147.3619870583374
 20
1284.363957651242
 30
0.0
  3
Y22-0B-13
  1

  0
LINE
  5
8D
330
4A
100
AcDbEntity
  8
1
  6
Continuous
 62
     7
100
AcDbLine
 10
275.4316283859453
 20
128.1558878554578
 30
0.0
 11
275.4316283859453
 21
153.5282150896351
 31
0.0
  0
LINE
  5
8E
330
4A
100
AcDbEntity
  8
1
  6
Continuous
 62
     7
100
AcDbLine
 10
290.9316283859453
 20
151.3420514725464
 30
0.0
 11
290.9316283859453
 21
130.3420514725464
 31
0.0
  0
LINE
  5
8F
330
4A
100
AcDbEntity
  8
1
  6
Continuous
 62
     7
100
AcDbLine
 10
277.9316283859453
 20
130.3420514725464
 30
0.0
 11
277.9316283859453
 21
151.3420514725464
 31
0.0
  0
LINE
  5
90
330
4A
100
AcDbEntity
  8
1
  6
Continuous
 62
     7
100
AcDbLine
 10
279.6636791935142
 20
150.3420514725464
 30
0.0
 11
279.6636791935142
 21
131.3420514725464
 31
0.0
  0
LINE
  5
91
330
4A
100
AcDbEntity
  8
1
  6
Continuous
 62
     7
100
AcDbLine
 10
214.9316283859453
 20
163.1100006649775
 30
0.0
 11
190.9316283859453
 21
163.1100006649775
 31
0.0
  0
LINE
  5
92
330
4A
100
AcDbEntity
  8
1
  6
Continuous
 62
     7
100
AcDbLine
 10
191.9316283859453
 20
164.8420514725464
 30
0.0
 11
213.9316283859453
 21
164.8420514725464
 31
0.0
  0
LINE
  5
93
330
4A
100
AcDbEntity
  8
1
  6
Continuous
 62
     7
100
AcDbLine
 10
178.4316283859453
 20
153.8420514725464
 30
0.0
 11
178.4316283859453
 21
127.8420514725464
 31
0.0
  0
LINE
  5
94
330
4A
100
AcDbEntity
  8
1
  6
Continuous
 62
     2
100
AcDbLine
 10
213.9316283859453
 20
166.2717427607315
 30
0.0
 11
213.9316283859453
 21
164.8420514725464
 31
0.0
  0
LINE
  5
95
330
4A
100
AcDbEntity
  8
1
  6
Continuous
 62
     7
100
AcDbLine
 10
190.9316283859453
 20
166.2717427607315
 30
0.0
 11
190.9316283859453
 21
164.8420514725464
 31
0.0
  0
LINE
  5
96
330
4A
100
AcDbEntity
  8
1
  6
Continuous
 62
     2
100
AcDbLine
 10
177.9316283859453
 20
128.6550514725465
 30
0.0
 11
179.8400099191717
 21
128.6550514725465
 31
0.0
  0
LINE
  5
97
330
4A
100
AcDbEntity
  8
1
  6
Continuous
 62
     7
100
AcDbLine
 10
177.9316283859453
 20
153.8420514725464
 30
0.0
 11
178.4316283859453
 21
153.8420514725464
 31
0.0
  0
LINE
  5
98
330
4A
100
AcDbEntity
  8
1
  6
Continuous
 62
     7
100
AcDbLine
 10
215.4012265645445
 20
163.1100006649775
 30
0.0
 11
215.532240385979
 21
157.6074201647276
 31
0.0
  0
LINE
  5
99
330
4A
100
AcDbEntity
  8
1
  6
Continuous
 62
     7
100
AcDbLine
 10
58.94381508368011
 20
163.1100006649776
 30
0.0
 11
58.87268061401849
 21
160.1223529391949
 31
0.0
  0
LINE
  5
9A
330
4A
100
AcDbEntity
  8
1
  6
Continuous
 62
     7
100
AcDbLine
 10
83.95414591054018
 20
160.1223529391951
 30
0.0
 11
84.27702025200321
 21
146.5616305977467
 31
0.0
  0
LINE
  5
9B
330
4A
100
AcDbEntity
  8
1
  6
Continuous
 62
     7
100
AcDbLine
 10
58.87268061401849
 20
160.1223529391949
 30
0.0
 11
58.54980627255449
 21
146.561630597745
 31
0.0
  0
LINE
  5
9C
330
4A
100
AcDbEntity
  8
1
  6
Continuous
 62
     7
100
AcDbLine
 10
83.88301144087868
 20
163.1100006649776
 30
0.0
 11
83.95414591054018
 21
160.1223529391951
 31
0.0
  0
LINE
  5
9D
330
4A
100
AcDbEntity
  8
1
  6
Continuous
 62
     7
100
AcDbLine
 10
190.4620302073461
 20
163.1100006649775
 30
0.0
 11
190.3455274943011
 21
158.2168867171013
 31
0.0
  0
LINE
  5
9E
330
4A
100
AcDbEntity
  8
1
  6
Continuous
 62
     7
100
AcDbLine
 10
190.9316283859453
 20
163.1100006649775
 30
0.0
 11
190.4620302073461
 21
163.1100006649775
 31
0.0
  0
LINE
  5
9F
330
4A
100
AcDbEntity
  8
1
  6
Continuous
 62
     7
100
AcDbLine
 10
214.9316283859453
 20
163.1100006649775
 30
0.0
 11
215.4012265645445
 21
163.1100006649775
 31
0.0
  0
LINE
  5
A0
330
4A
100
AcDbEntity
  8
1
  6
PHANTOM
 62
     4
100
AcDbLine
 10
97.41341326227948
 20
140.8420514725465
 30
0.0
 11
45.41341326227942
 21
140.8420514725465
 31
0.0
  0
LINE
  5
A1
330
4A
100
AcDbEntity
  8
1
  6
PHANTOM
 62
     4
100
AcDbLine
 10
71.41341326227942
 20
173.8420514725465
 30
0.0
 11
71.41341326227942
 21
114.8420514725465
 31
0.0
  0
LINE
  5
A2
330
4A
100
AcDbEntity
  8
1
  6
Continuous
 62
     7
100
AcDbLine
 10
83.41341326227942
 20
163.1100006649776
 30
0.0
 11
83.41341326227942
 21
164.8420514725465
 31
0.0
  0
LINE
  5
A3
330
4A
100
AcDbEntity
  8
1
  6
Continuous
 62
     2
100
AcDbLine
 10
82.41341326227942
 20
164.8420514725465
 30
0.0
 11
83.41341326227942
 21
163.1100006649776
 31
0.0
  0
LINE
  5
A4
330
4A
100
AcDbEntity
  8
1
  6
Continuous
 62
     7
100
AcDbLine
 10
60.41341326227942
 20
164.8420514725465
 30
0.0
 11
83.41341326227942
 21
164.8420514725465
 31
0.0
  0
LINE
  5
A5
330
4A
100
AcDbEntity
  8
1
  6
Continuous
 62
     7
100
AcDbLine
 10
83.41341326227942
 20
164.8420514725465
 30
0.0
 11
83.41341326227942
 21
166.2717427607315
 31
0.0
  0
LINE
  5
A6
330
4A
100
AcDbEntity
  8
1
  6
Continuous
 62
     7
100
AcDbLine
 10
59.41341326227942
 20
164.8420514725465
 30
0.0
 11
60.41341326227942
 21
164.8420514725465
 31
0.0
  0
LINE
  5
A7
330
4A
100
AcDbEntity
  8
1
  6
Continuous
 62
     2
100
AcDbLine
 10
60.41341326227942
 20
164.8420514725465
 30
0.0
 11
60.41341326227942
 21
166.2717427607315
 31
0.0
  0
LINE
  5
A8
330
4A
100
AcDbEntity
  8
1
  6
Continuous
 62
     2
100
AcDbLine
 10
59.41341326227942
 20
163.1100006649776
 30
0.0
 11
60.41341326227942
 21
164.8420514725465
 31
0.0
  0
LINE
  5
A9
330
4A
100
AcDbEntity
  8
1
  6
Continuous
 62
     7
100
AcDbLine
 10
59.41341326227942
 20
164.8420514725465
 30
0.0
 11
59.41341326227942
 21
163.1100006649776
 31
0.0
  0
LINE
  5
AA
330
4A
100
AcDbEntity
  8
1
  6
Continuous
 62
     7
100
AcDbLine
 10
83.41341326227942
 20
163.1100006649776
 30
0.0
 11
83.88301144087868
 21
163.1100006649776
 31
0.0
  0
LINE
  5
AB
330
4A
100
AcDbEntity
  8
1
  6
Continuous
 62
     7
100
AcDbLine
 10
59.41341326227942
 20
163.1100006649776
 30
0.0
 11
58.94381508368011
 21
163.1100006649776
 31
0.0
  0
LINE
  5
AC
330
4A
100
AcDbEntity
  8
1
  6
Continuous
 62
     7
100
AcDbLine
 10
275.4316283859453
 20
163.3812810204104
 30
0.0
 11
275.4316283859453
 21
153.5282150896351
 31
0.0
  0
LINE
  5
AD
330
4A
100
AcDbEntity
  8
1
  6
Continuous
 62
     7
100
AcDbLine
 10
277.9316283859453
 20
163.8420514725464
 30
0.0
 11
275.9300870528119
 21
163.8420514725464
 31
0.0
  0
LINE
  5
AE
330
4A
100
AcDbEntity
  8
1
  6
Continuous
 62
     7
100
AcDbLine
 10
277.9316283859453
 20
163.8420514725464
 30
0.0
 11
277.9316283859453
 21
151.3420514725464
 31
0.0
  0
LINE
  5
AF
330
4A
100
AcDbEntity
  8
1
  6
Continuous
 62
     7
100
AcDbLine
 10
277.9316283859453
 20
151.3420514725464
 30
0.0
 11
279.6636791935142
 21
151.3420514725464
 31
0.0
  0
LINE
  5
B0
330
4A
100
AcDbEntity
  8
1
  6
Continuous
 62
     2
100
AcDbLine
 10
277.9316283859453
 20
151.3420514725464
 30
0.0
 11
279.6636791935142
 21
150.3420514725464
 31
0.0
  0
LINE
  5
B1
330
4A
100
AcDbEntity
  8
1
  6
Continuous
 62
     7
100
AcDbLine
 10
291.9316283859453
 20
150.3420514725464
 30
0.0
 11
291.9316283859453
 21
131.3420514725464
 31
0.0
  0
LINE
  5
B2
330
4A
100
AcDbEntity
  8
1
  6
Continuous
 62
     7
100
AcDbLine
 10
291.9316283859453
 20
150.3420514725464
 30
0.0
 11
290.9316283859453
 21
151.3420514725464
 31
0.0
  0
LINE
  5
B3
330
4A
100
AcDbEntity
  8
1
  6
Continuous
 62
     7
100
AcDbLine
 10
279.6636791935142
 20
150.3420514725464
 30
0.0
 11
279.6636791935142
 21
151.3420514725464
 31
0.0
  0
LINE
  5
B4
330
4A
100
AcDbEntity
  8
1
  6
Continuous
 62
     7
100
AcDbLine
 10
279.6636791935142
 20
151.3420514725464
 30
0.0
 11
290.9316283859453
 21
151.3420514725464
 31
0.0
  0
LINE
  5
B5
330
4A
100
AcDbEntity
  8
1
  6
Continuous
 62
     2
100
AcDbLine
 10
279.6636791935142
 20
150.3420514725464
 30
0.0
 11
291.9316283859453
 21
150.3420514725464
 31
0.0
  0
LINE
  5
B6
330
4A
100
AcDbEntity
  8
1
  6
Continuous
 62
     7
100
AcDbLine
 10
290.9316283859453
 20
130.3420514725464
 30
0.0
 11
279.6636791935142
 21
130.3420514725464
 31
0.0
  0
LINE
  5
B7
102
{ACAD_REACTORS
330
109
102
}
330
4A
100
AcDbEntity
  8
1
  6
Continuous
 62
     7
100
AcDbLine
 10
279.6636791935142
 20
130.3420514725464
 30
0.0
 11
279.6636791935142
 21
131.3420514725464
 31
0.0
  0
LINE
  5
B8
330
4A
100
AcDbEntity
  8
1
  6
Continuous
 62
     7
100
AcDbLine
 10
290.9316283859453
 20
130.3420514725464
 30
0.0
 11
291.9316283859453
 21
131.3420514725464
 31
0.0
  0
LINE
  5
B9
330
4A
100
AcDbEntity
  8
1
  6
Continuous
 62
     2
100
AcDbLine
 10
291.9316283859453
 20
131.3420514725464
 30
0.0
 11
279.6636791935142
 21
131.3420514725464
 31
0.0
  0
LINE
  5
BA
102
{ACAD_REACTORS
330
109
102
}
330
4A
100
AcDbEntity
  8
1
  6
Continuous
 62
     2
100
AcDbLine
 10
279.6636791935142
 20
131.3420514725464
 30
0.0
 11
277.9316283859453
 21
130.3420514725464
 31
0.0
  0
LINE
  5
BB
102
{ACAD_REACTORS
330
109
102
}
330
4A
100
AcDbEntity
  8
1
  6
Continuous
 62
     7
100
AcDbLine
 10
279.6636791935142
 20
130.3420514725464
 30
0.0
 11
277.9316283859453
 21
130.3420514725464
 31
0.0
  0
LINE
  5
BC
330
4A
100
AcDbEntity
  8
1
  6
Continuous
 62
     7
100
AcDbLine
 10
277.9316283859453
 20
130.3420514725464
 30
0.0
 11
277.9316283859453
 21
117.8420514725464
 31
0.0
  0
LINE
  5
BD
330
4A
100
AcDbEntity
  8
1
  6
Continuous
 62
     7
100
AcDbLine
 10
275.9300870528119
 20
117.8420514725464
 30
0.0
 11
277.9316283859453
 21
117.8420514725464
 31
0.0
  0
LINE
  5
BE
330
4A
100
AcDbEntity
  8
1
  6
Continuous
 62
     7
100
AcDbLine
 10
275.4316283859453
 20
128.1558878554578
 30
0.0
 11
275.4316283859453
 21
118.3028219246825
 31
0.0
  0
LINE
  5
BF
330
4A
100
AcDbEntity
  8
1
  6
Continuous
 62
     7
100
AcDbLine
 10
214.9316283859453
 20
163.1100006649775
 30
0.0
 11
214.9316283859453
 21
164.8420514725464
 31
0.0
  0
LINE
  5
C0
330
4A
100
AcDbEntity
  8
1
  6
Continuous
 62
     7
100
AcDbLine
 10
271.4439590510128
 20
149.8420514725464
 30
0.0
 11
226.2554359653265
 21
149.8420514725464
 31
0.0
  0
LINE
  5
C1
330
4A
100
AcDbEntity
  8
1
  6
Continuous
 62
     2
100
AcDbLine
 10
213.9316283859453
 20
164.8420514725464
 30
0.0
 11
214.9316283859453
 21
163.1100006649775
 31
0.0
  0
LINE
  5
C2
330
4A
100
AcDbEntity
  8
1
  6
Continuous
 62
     7
100
AcDbLine
 10
213.9316283859453
 20
164.8420514725464
 30
0.0
 11
214.9316283859453
 21
164.8420514725464
 31
0.0
  0
LINE
  5
C3
330
4A
100
AcDbEntity
  8
1
  6
Continuous
 62
     7
100
AcDbLine
 10
214.9316283859453
 20
164.8420514725464
 30
0.0
 11
214.9316283859453
 21
166.2717427607315
 31
0.0
  0
LINE
  5
C4
102
{ACAD_REACTORS
330
108
102
}
330
4A
100
AcDbEntity
  8
1
  6
Continuous
 62
     7
100
AcDbLine
 10
190.9316283859453
 20
164.8420514725464
 30
0.0
 11
191.9316283859453
 21
164.8420514725464
 31
0.0
  0
LINE
  5
C5
330
4A
100
AcDbEntity
  8
1
  6
Continuous
 62
     2
100
AcDbLine
 10
191.9316283859453
 20
164.8420514725464
 30
0.0
 11
191.9316283859453
 21
166.2717427607315
 31
0.0
  0
LINE
  5
C6
102
{ACAD_REACTORS
330
108
102
}
330
4A
100
AcDbEntity
  8
1
  6
Continuous
 62
     2
100
AcDbLine
 10
190.9316283859453
 20
163.1100006649775
 30
0.0
 11
191.9316283859453
 21
164.8420514725464
 31
0.0
  0
LINE
  5
C7
102
{ACAD_REACTORS
330
108
102
}
330
4A
100
AcDbEntity
  8
1
  6
Continuous
 62
     7
100
AcDbLine
 10
190.9316283859453
 20
164.8420514725464
 30
0.0
 11
190.9316283859453
 21
163.1100006649775
 31
0.0
  0
LINE
  5
C8
330
4A
100
AcDbEntity
  8
1
  6
PHANTOM
 62
     4
100
AcDbLine
 10
202.9316283859453
 20
124.8216989580245
 30
0.0
 11
202.9316283859453
 21
172.9559304066164
 31
0.0
  0
LINE
  5
C9
330
4A
100
AcDbEntity
  8
1
  6
PHANTOM
 62
     4
100
AcDbLine
 10
166.4120269674392
 20
140.8420514725464
 30
0.0
 11
295.4694349176983
 21
140.8420514725464
 31
0.0
  0
LINE
  5
CA
330
4A
100
AcDbEntity
  8
1
  6
Continuous
 62
     7
100
AcDbLine
 10
226.2554359653265
 20
131.8420514725464
 30
0.0
 11
271.4439590510128
 21
131.8420514725464
 31
0.0
  0
LINE
  5
CB
330
4A
100
AcDbEntity
  8
1
  6
Continuous
 62
     7
100
AcDbLine
 10
178.4316283859453
 20
127.8420514725464
 30
0.0
 11
177.9316283859453
 21
127.8420514725463
 31
0.0
  0
LINE
  5
CC
330
4A
100
AcDbEntity
  8
1
  6
Continuous
 62
     2
100
AcDbLine
 10
179.8400099191717
 20
153.0290514725465
 30
0.0
 11
177.9316283859453
 21
153.0290514725465
 31
0.0
  0
LINE
  5
CD
330
4A
100
AcDbEntity
  8
1
  6
Continuous
 62
     7
100
AcDbLine
 10
93.95264281014317
 20
374.1138438710984
 30
0.0
 11
48.87418371441549
 21
374.1138438710984
 31
0.0
  0
LINE
  5
CE
330
4A
100
AcDbEntity
  8
1
  6
Continuous
 62
     2
100
AcDbLine
 10
83.60041326227929
 20
278.5222254043249
 30
0.0
 11
83.60041326227929
 21
276.6138438710984
 31
0.0
  0
LINE
  5
CF
330
4A
100
AcDbEntity
  8
1
  6
Continuous
 62
     7
100
AcDbLine
 10
84.41341326227928
 20
277.1138438710984
 30
0.0
 11
77.75904494095528
 21
277.1138438710984
 31
0.0
  0
LINE
  5
D0
330
4A
100
AcDbEntity
  8
1
  6
Continuous
 62
     2
100
AcDbLine
 10
59.22641326227938
 20
278.5222254043249
 30
0.0
 11
59.22641326227938
 21
276.6138438710984
 31
0.0
  0
LINE
  5
D1
330
4A
100
AcDbEntity
  8
1
  6
PHANTOM
 62
     4
100
AcDbLine
 10
71.41341326227928
 20
266.6138438710984
 30
0.0
 11
71.41341326227928
 21
393.6138438710984
 31
0.0
  0
LINE
  5
D2
330
4A
100
AcDbEntity
  8
1
  6
Continuous
 62
     7
100
AcDbLine
 10
84.41341326227928
 20
277.1138438710984
 30
0.0
 11
84.41341326227928
 21
276.6138438710984
 31
0.0
  0
LINE
  5
D3
330
4A
100
AcDbEntity
  8
1
  6
PHANTOM
 62
     4
100
AcDbLine
 10
88.15742529120052
 20
301.6138438710984
 30
0.0
 11
54.66940123335826
 21
301.6138438710984
 31
0.0
  0
LINE
  5
D4
330
4A
100
AcDbEntity
  8
1
  6
Continuous
 62
     2
100
AcDbLine
 10
80.91341326227928
 20
378.3458946786674
 30
0.0
 11
80.91341326227928
 21
390.6138438710984
 31
0.0
  0
LINE
  5
D5
330
4A
100
AcDbEntity
  8
1
  6
Continuous
 62
     2
100
AcDbLine
 10
80.91341326227928
 20
378.3458946786674
 30
0.0
 11
81.91341326227928
 21
376.6138438710984
 31
0.0
  0
LINE
  5
D6
330
4A
100
AcDbEntity
  8
1
  6
Continuous
 62
     7
100
AcDbLine
 10
94.41341326227928
 20
374.6123025379651
 30
0.0
 11
94.41341326227928
 21
376.6138438710984
 31
0.0
  0
LINE
  5
D7
330
4A
100
AcDbEntity
  8
1
  6
Continuous
 62
     7
100
AcDbLine
 10
84.09957687936787
 20
374.1138438710984
 30
0.0
 11
84.87486957409214
 21
374.1138438710984
 31
0.0
  0
LINE
  5
D8
330
4A
100
AcDbEntity
  8
1
  6
Continuous
 62
     7
100
AcDbLine
 10
80.41341326227928
 20
370.126174536166
 30
0.0
 11
80.41341326227928
 21
324.9376514504796
 31
0.0
  0
LINE
  5
D9
330
4A
100
AcDbEntity
  8
1
  6
Continuous
 62
     7
100
AcDbLine
 10
48.41341326227939
 20
376.6138438710984
 30
0.0
 11
48.41341326227939
 21
374.6123025379651
 31
0.0
  0
LINE
  5
DA
330
4A
100
AcDbEntity
  8
1
  6
Continuous
 62
     7
100
AcDbLine
 10
48.41341326227939
 20
376.6138438710984
 30
0.0
 11
94.41341326227928
 21
376.6138438710984
 31
0.0
  0
LINE
  5
DB
330
4A
100
AcDbEntity
  8
1
  6
Continuous
 62
     2
100
AcDbLine
 10
60.91341326227928
 20
376.6138438710984
 30
0.0
 11
61.91341326227928
 21
378.3458946786674
 31
0.0
  0
LINE
  5
DC
330
4A
100
AcDbEntity
  8
1
  6
Continuous
 62
     2
100
AcDbLine
 10
61.91341326227928
 20
378.3458946786674
 30
0.0
 11
61.91341326227928
 21
390.6138438710984
 31
0.0
  0
LINE
  5
DD
330
4A
100
AcDbEntity
  8
1
  6
Continuous
 62
     7
100
AcDbLine
 10
62.41341326227928
 20
370.126174536166
 30
0.0
 11
62.41341326227928
 21
324.9376514504796
 31
0.0
  0
LINE
  5
DE
330
4A
100
AcDbEntity
  8
1
  6
Continuous
 62
     7
100
AcDbLine
 10
60.91341326227928
 20
376.6138438710984
 30
0.0
 11
60.91341326227928
 21
378.3458946786674
 31
0.0
  0
LINE
  5
DF
330
4A
100
AcDbEntity
  8
1
  6
Continuous
 62
     7
100
AcDbLine
 10
61.91341326227928
 20
390.6138438710984
 30
0.0
 11
60.91341326227928
 21
389.6138438710984
 31
0.0
  0
LINE
  5
E0
330
4A
100
AcDbEntity
  8
1
  6
Continuous
 62
     7
100
AcDbLine
 10
60.91341326227928
 20
378.3458946786674
 30
0.0
 11
60.91341326227928
 21
389.6138438710984
 31
0.0
  0
LINE
  5
E1
330
4A
100
AcDbEntity
  8
1
  6
Continuous
 62
     7
100
AcDbLine
 10
80.91341326227928
 20
389.6138438710984
 30
0.0
 11
81.91341326227928
 21
389.6138438710984
 31
0.0
  0
LINE
  5
E2
330
4A
100
AcDbEntity
  8
1
  6
Continuous
 62
     7
100
AcDbLine
 10
81.91341326227928
 20
389.6138438710984
 30
0.0
 11
81.91341326227928
 21
378.3458946786674
 31
0.0
  0
LINE
  5
E3
330
4A
100
AcDbEntity
  8
1
  6
Continuous
 62
     7
100
AcDbLine
 10
81.91341326227928
 20
378.3458946786674
 30
0.0
 11
60.91341326227928
 21
378.3458946786674
 31
0.0
  0
LINE
  5
E4
330
4A
100
AcDbEntity
  8
1
  6
Continuous
 62
     7
100
AcDbLine
 10
81.91341326227928
 20
389.6138438710984
 30
0.0
 11
80.91341326227928
 21
390.6138438710984
 31
0.0
  0
LINE
  5
E5
330
4A
100
AcDbEntity
  8
1
  6
Continuous
 62
     7
100
AcDbLine
 10
80.91341326227928
 20
390.6138438710984
 30
0.0
 11
61.91341326227928
 21
390.6138438710984
 31
0.0
  0
LINE
  5
E6
330
4A
100
AcDbEntity
  8
1
  6
Continuous
 62
     7
100
AcDbLine
 10
81.91341326227928
 20
378.3458946786674
 30
0.0
 11
81.91341326227928
 21
376.6138438710984
 31
0.0
  0
LINE
  5
E7
330
4A
100
AcDbEntity
  8
1
  6
Continuous
 62
     7
100
AcDbLine
 10
80.91341326227928
 20
389.6138438710984
 30
0.0
 11
60.91341326227928
 21
389.6138438710984
 31
0.0
  0
LINE
  5
E8
330
4A
100
AcDbEntity
  8
1
  6
Continuous
 62
     7
100
AcDbLine
 10
59.41341326227942
 20
163.1100006649776
 30
0.0
 11
83.41341326227942
 21
163.1100006649776
 31
0.0
  0
LINE
  5
E9
330
4A
100
AcDbEntity
  8
1
  6
Continuous
 62
     2
100
AcDbLine
 10
82.41341326227942
 20
166.2717427607315
 30
0.0
 11
82.41341326227942
 21
164.8420514725465
 31
0.0
  0
LINE
  5
EA
330
4A
100
AcDbEntity
  8
1
  6
Continuous
 62
     7
100
AcDbLine
 10
59.41341326227942
 20
166.2717427607315
 30
0.0
 11
59.41341326227942
 21
164.8420514725465
 31
0.0
  0
LINE
  5
EB
330
4A
100
AcDbEntity
  8
1
  6
Continuous
 62
     7
100
AcDbLine
 10
58.41341326227928
 20
276.6138438710984
 30
0.0
 11
58.41341326227928
 21
277.1138438710984
 31
0.0
  0
LINE
  5
EC
330
4A
100
AcDbEntity
  8
1
  6
Continuous
 62
     7
100
AcDbLine
 10
65.06778158360328
 20
277.1138438710984
 30
0.0
 11
58.41341326227928
 21
277.1138438710984
 31
0.0
  0
ARC
  5
ED
330
4A
100
AcDbEntity
  8
1
  6
Continuous
 62
     7
100
AcDbCircle
 10
71.41341326227942
 20
140.8420514725465
 30
0.0
 40
23.00000000000015
100
AcDbArc
 50
290.0889308035116
 51
56.95830215333493
  0
ARC
  5
EE
330
4A
100
AcDbEntity
  8
1
  6
Continuous
 62
     7
100
AcDbCircle
 10
226.2554359653265
 20
101.8420514725464
 30
0.0
 40
29.99999999999999
100
AcDbArc
 50
90.0
 51
109.4629509463154
  0
ARC
  5
EF
330
4A
100
AcDbEntity
  8
1
  6
Continuous
 62
     7
100
AcDbCircle
 10
202.9316283859453
 20
167.8420514725464
 30
0.0
 40
39.99999999999996
100
AcDbArc
 50
252.8522708431299
 51
289.4629509463152
  0
ARC
  5
F0
330
4A
100
AcDbEntity
  8
1
  6
Continuous
 62
     7
100
AcDbCircle
 10
186.6816283859453
 20
115.1767453500976
 30
0.0
 40
15.11530612244887
100
AcDbArc
 50
116.912451808192
 51
123.0796480024582
  0
ARC
  5
F1
330
4A
100
AcDbEntity
  8
1
  6
Continuous
 62
     7
100
AcDbCircle
 10
186.6816283859453
 20
115.1767453500976
 30
0.0
 40
15.11530612244884
100
AcDbArc
 50
72.85227084312996
 51
116.912451808192
  0
ARC
  5
F2
330
4A
100
AcDbEntity
  8
1
  6
Continuous
 62
     7
100
AcDbCircle
 10
186.6816283859453
 20
166.5073575949954
 30
0.0
 40
15.115306122449
100
AcDbArc
 50
236.9203519975422
 51
243.087548191808
  0
ARC
  5
F3
330
4A
100
AcDbEntity
  8
1
  6
Continuous
 62
     7
100
AcDbCircle
 10
186.6816283859453
 20
166.5073575949954
 30
0.0
 40
15.11530612244887
100
AcDbArc
 50
243.087548191808
 51
250.7931517940244
  0
ARC
  5
F4
330
4A
100
AcDbEntity
  8
1
  6
Continuous
 62
     7
100
AcDbCircle
 10
98.41341326227928
 20
301.6138438710984
 30
0.0
 40
39.99999999999984
100
AcDbArc
 50
191.2154399726499
 51
197.14772915687
  0
ARC
  5
F5
330
4A
100
AcDbEntity
  8
1
  6
Continuous
 62
     7
100
AcDbCircle
 10
45.7481071398305
 20
285.3638438710984
 30
0.0
 40
15.11530612244884
100
AcDbArc
 50
333.0875481918082
 51
17.14772915687023
  0
ARC
  5
F6
330
4A
100
AcDbEntity
  8
1
  6
Continuous
 62
     7
100
AcDbCircle
 10
45.7481071398305
 20
285.3638438710984
 30
0.0
 40
15.11530612244881
100
AcDbArc
 50
326.9203519975417
 51
333.0875481918082
  0
ARC
  5
F7
330
4A
100
AcDbEntity
  8
1
  6
Continuous
 62
     7
100
AcDbCircle
 10
97.0787193847284
 20
285.3638438710984
 30
0.0
 40
15.11530612244905
100
AcDbArc
 50
206.9124518081914
 51
213.0796480024576
  0
ARC
  5
F8
330
4A
100
AcDbEntity
  8
1
  6
Continuous
 62
     7
100
AcDbCircle
 10
97.0787193847284
 20
285.3638438710984
 30
0.0
 40
15.11530612244899
100
AcDbArc
 50
162.8522708431299
 51
206.9124518081914
  0
ARC
  5
F9
330
4A
100
AcDbEntity
  8
1
  6
Continuous
 62
     7
100
AcDbCircle
 10
32.41341326227939
 20
324.9376514504796
 30
0.0
 40
29.99999999999996
100
AcDbArc
 50
345.0675150288135
 51
0.0
  0
ARC
  5
FA
330
4A
100
AcDbEntity
  8
1
  6
Continuous
 62
     7
100
AcDbCircle
 10
226.2554359653265
 20
179.8420514725464
 30
0.0
 40
30.0
100
AcDbArc
 50
262.3150744513433
 51
270.0
  0
ARC
  5
FB
330
4A
100
AcDbEntity
  8
1
  6
Continuous
 62
     7
100
AcDbCircle
 10
44.41341326227939
 20
301.6138438710984
 30
0.0
 40
40.00000000000002
100
AcDbArc
 50
342.85227084313
 51
348.78456002735
  0
ARC
  5
FC
330
4A
100
AcDbEntity
  8
1
  6
Continuous
 62
     7
100
AcDbCircle
 10
110.4134132622793
 20
324.9376514504796
 30
0.0
 40
30.00000000000003
100
AcDbArc
 50
180.0
 51
194.9324849711864
  0
ARC
  5
FD
330
4A
100
AcDbEntity
  8
1
  6
Continuous
 62
     7
100
AcDbCircle
 10
71.41341326227942
 20
140.8420514725465
 30
0.0
 40
23.00000000000005
100
AcDbArc
 50
123.0416978466657
 51
249.9110691964883
  0
ARC
  5
FE
330
4A
100
AcDbEntity
  8
1
  6
Continuous
 62
     7
100
AcDbCircle
 10
223.2800446074962
 20
157.7918916938113
 30
0.0
 40
7.750000000000129
100
AcDbArc
 50
181.3639275316025
 51
262.3150744513425
  0
ARC
  5
FF
330
4A
100
AcDbEntity
  8
1
  6
Continuous
 62
     7
100
AcDbCircle
 10
275.9300870528119
 20
163.3420514725464
 30
0.0
 40
0.5
100
AcDbArc
 50
90.0
 51
175.4999999999903
  0
ARC
  5
100
330
4A
100
AcDbEntity
  8
1
  6
Continuous
 62
     7
100
AcDbCircle
 10
271.4439590510128
 20
153.8420514725464
 30
0.0
 40
4.0
100
AcDbArc
 50
270.0
 51
355.5000000000013
  0
ARC
  5
101
330
4A
100
AcDbEntity
  8
1
  6
Continuous
 62
     7
100
AcDbCircle
 10
271.4439590510128
 20
127.8420514725464
 30
0.0
 40
3.99999999999998
100
AcDbArc
 50
4.50000000000017
 51
90.0
  0
ARC
  5
102
330
4A
100
AcDbEntity
  8
1
  6
Continuous
 62
     7
100
AcDbCircle
 10
275.9300870528119
 20
118.3420514725464
 30
0.0
 40
0.500000000000045
100
AcDbArc
 50
184.4999999999967
 51
270.0
  0
ARC
  5
103
330
4A
100
AcDbEntity
  8
1
  6
Continuous
 62
     7
100
AcDbCircle
 10
93.91341326227928
 20
374.6123025379651
 30
0.0
 40
0.5000000000001016
100
AcDbArc
 50
274.4999999999961
 51
0.0
  0
ARC
  5
104
330
4A
100
AcDbEntity
  8
1
  6
Continuous
 62
     7
100
AcDbCircle
 10
84.41341326227928
 20
370.126174536166
 30
0.0
 40
3.999999999999925
100
AcDbArc
 50
94.50000000000044
 51
180.0
  0
ARC
  5
105
330
4A
100
AcDbEntity
  8
1
  6
Continuous
 62
     7
100
AcDbCircle
 10
58.41341326227928
 20
370.126174536166
 30
0.0
 40
4.0
100
AcDbArc
 50
0.0
 51
85.49999999999784
  0
ARC
  5
106
330
4A
100
AcDbEntity
  8
1
  6
Continuous
 62
     7
100
AcDbCircle
 10
48.91341326227939
 20
374.6123025379651
 30
0.0
 40
0.5
100
AcDbArc
 50
180.0
 51
265.500000000003
  0
ARC
  5
107
330
4A
100
AcDbEntity
  8
1
  6
Continuous
 62
     7
100
AcDbCircle
 10
183.8473691149641
 20
158.3716047737524
 30
0.0
 40
6.500000000000056
100
AcDbArc
 50
250.7931517940253
 51
358.636072468395
  0
HATCH
  5
108
330
4A
100
AcDbEntity
  8
1
  6
Continuous
 62
     2
100
AcDbHatch
 10
0.0
 20
0.0
 30
0.0
210
0.0
220
0.0
230
1.0
  2
CUSTOM0
 70
     0
 71
     1
 91
        1
 92
        1
 93
        3
 72
     1
 10
190.9316283859453
 20
164.8420514725464
 11
190.9316283859453
 21
163.1100006649775
 72
     1
 10
190.9316283859453
 20
163.1100006649775
 11
191.9316283859453
 21
164.8420514725464
 72
     1
 10
191.9316283859453
 20
164.8420514725464
 11
190.9316283859453
 21
164.8420514725464
 97
        3
330
C6
330
C7
330
C4
 75
     1
 76
     2
 52
45.0
 41
1.0
 77
     0
 78
     1
 53
45.0
 43
0.0
 44
0.0
 45
-2.82842712474619
 46
0.0000000000000002
 79
     0
 98
        1
 10
0.0
 20
0.0
  0
HATCH
  5
109
330
4A
100
AcDbEntity
  8
1
  6
Continuous
 62
     2
100
AcDbHatch
 10
0.0
 20
0.0
 30
0.0
210
0.0
220
0.0
230
1.0
  2
CUSTOM1
 70
     0
 71
     1
 91
        1
 92
        1
 93
        3
 72
     1
 10
277.9316283859453
 20
130.3420514725464
 11
279.6636791935142
 21
130.3420514725464
 72
     1
 10
279.6636791935142
 20
130.3420514725464
 11
279.6636791935142
 21
131.3420514725464
 72
     1
 10
279.6636791935142
 20
131.3420514725464
 11
277.9316283859453
 21
130.3420514725464
 97
        3
330
B7
330
BB
330
BA
 75
     1
 76
     2
 52
45.0
 41
1.0
 77
     0
 78
     1
 53
45.0
 43
0.0
 44
0.0
 45
-2.82842712474619
 46
0.0000000000000002
 79
     0
 98
        1
 10
0.0
 20
0.0
  0
ENDBLK
  5
4C
330
4A
100
AcDbEntity
  8
0
100
AcDbBlockEnd
  0
BLOCK
  5
4E
330
4D
100
AcDbEntity
  8
0
100
AcDbBlockBegin
  2
開示A4
 70
     0
 10
0.0
 20
0.0
 30
0.0
  3
開示A4
  1

  0
POINT
  5
10A
330
4D
100
AcDbEntity
  8
1
 62
     4
100
AcDbPoint
 10
34.0
 20
34.00000000000001
 30
0.0
  0
POINT
  5
10B
330
4D
100
AcDbEntity
  8
1
 62
     4
100
AcDbPoint
 10
57.0
 20
12.25
 30
0.0
  0
POINT
  5
10C
330
4D
100
AcDbEntity
  8
1
 62
     4
100
AcDbPoint
 10
57.0
 20
20.75000000000001
 30
0.0
  0
POINT
  5
10D
330
4D
100
AcDbEntity
  8
1
 62
     4
100
AcDbPoint
 10
57.0
 20
24.75000000000001
 30
0.0
  0
POINT
  5
10E
330
4D
100
AcDbEntity
  8
1
 62
     4
100
AcDbPoint
 10
57.0
 20
16.25
 30
0.0
  0
POINT
  5
10F
330
4D
100
AcDbEntity
  8
1
 62
     4
100
AcDbPoint
 10
157.5
 20
19.00000000000001
 30
0.0
  0
POINT
  5
110
330
4D
100
AcDbEntity
  8
1
 62
     4
100
AcDbPoint
 10
47.5
 20
282.0000000000003
 30
0.0
  0
POINT
  5
111
330
4D
100
AcDbEntity
  8
1
 62
     4
100
AcDbPoint
 10
57.0
 20
22.75000000000001
 30
0.0
  0
POINT
  5
112
330
4D
100
AcDbEntity
  8
1
 62
     4
100
AcDbPoint
 10
57.0
 20
14.25
 30
0.0
  0
POINT
  5
113
330
4D
100
AcDbEntity
  8
1
 62
     4
100
AcDbPoint
 10
157.5
 20
12.5
 30
0.0
  0
POINT
  5
114
330
4D
100
AcDbEntity
  8
1
 62
     4
100
AcDbPoint
 10
163.25
 20
12.5
 30
0.0
  0
POINT
  5
115
330
4D
100
AcDbEntity
  8
1
 62
     4
100
AcDbPoint
 10
151.75
 20
12.5
 30
0.0
  0
POINT
  5
116
330
4D
100
AcDbEntity
  8
1
 62
     4
100
AcDbPoint
 10
134.75
 20
12.5
 30
0.0
  0
POINT
  5
117
330
4D
100
AcDbEntity
  8
1
 62
     4
100
AcDbPoint
 10
146.25
 20
12.5
 30
0.0
  0
POINT
  5
118
330
4D
100
AcDbEntity
  8
1
 62
     4
100
AcDbPoint
 10
140.5
 20
12.5
 30
0.0
  0
POINT
  5
119
330
4D
100
AcDbEntity
  8
1
 62
     4
100
AcDbPoint
 10
140.5
 20
19.00000000000001
 30
0.0
  0
POINT
  5
11A
330
4D
100
AcDbEntity
  8
1
 62
     4
100
AcDbPoint
 10
117.75
 20
12.5
 30
0.0
  0
POINT
  5
11B
330
4D
100
AcDbEntity
  8
1
 62
     4
100
AcDbPoint
 10
129.25
 20
12.5
 30
0.0
  0
POINT
  5
11C
330
4D
100
AcDbEntity
  8
1
 62
     4
100
AcDbPoint
 10
123.5
 20
12.5
 30
0.0
  0
POINT
  5
11D
330
4D
100
AcDbEntity
  8
1
 62
     4
100
AcDbPoint
 10
123.5
 20
19.00000000000001
 30
0.0
  0
POINT
  5
11E
330
4D
100
AcDbEntity
  8
1
 62
     4
100
AcDbPoint
 10
100.75
 20
12.5
 30
0.0
  0
POINT
  5
11F
330
4D
100
AcDbEntity
  8
1
 62
     4
100
AcDbPoint
 10
112.25
 20
12.5
 30
0.0
  0
POINT
  5
120
330
4D
100
AcDbEntity
  8
1
 62
     4
100
AcDbPoint
 10
106.5
 20
12.5
 30
0.0
  0
POINT
  5
121
330
4D
100
AcDbEntity
  8
1
 62
     4
100
AcDbPoint
 10
106.5
 20
19.00000000000001
 30
0.0
  0
POINT
  5
122
330
4D
100
AcDbEntity
  8
1
 62
     4
100
AcDbPoint
 10
85.25
 20
17.0
 30
0.0
  0
POINT
  5
123
330
4D
100
AcDbEntity
  8
1
 62
     4
100
AcDbPoint
 10
93.75
 20
17.0
 30
0.0
  0
LINE
  5
124
330
4D
100
AcDbEntity
  8
1
  6
Continuous
 62
     2
100
AcDbLine
 10
81.0
 20
27.00000000000001
 30
0.0
 11
81.0
 21
10.0
 31
0.0
  0
LINE
  5
125
330
4D
100
AcDbEntity
  8
1
  6
DOT_CENTER
 62
     2
100
AcDbLine
 10
187.0
 20
26.50000000000001
 30
0.0
 11
187.0
 21
20.50000000000001
 31
0.0
  0
LINE
  5
126
330
4D
100
AcDbEntity
  8
1
  6
DOT_CENTER
 62
     2
100
AcDbLine
 10
184.0
 20
23.50000000000001
 30
0.0
 11
197.0
 21
23.50000000000001
 31
0.0
  0
LINE
  5
127
330
4D
100
AcDbEntity
  8
1
  6
Continuous
 62
     7
100
AcDbLine
 10
196.0
 20
21.50000000000001
 30
0.0
 11
191.0
 21
22.30000000000001
 31
0.0
  0
LINE
  5
128
330
4D
100
AcDbEntity
  8
1
  6
Continuous
 62
     7
100
AcDbLine
 10
196.0
 20
25.50000000000001
 30
0.0
 11
196.0
 21
21.50000000000001
 31
0.0
  0
LINE
  5
129
330
4D
100
AcDbEntity
  8
1
  6
Continuous
 62
     7
100
AcDbLine
 10
191.0
 20
24.70000000000001
 30
0.0
 11
196.0
 21
25.50000000000001
 31
0.0
  0
LINE
  5
12A
330
4D
100
AcDbEntity
  8
1
  6
Continuous
 62
     7
100
AcDbLine
 10
191.0
 20
24.70000000000001
 30
0.0
 11
191.0
 21
22.30000000000001
 31
0.0
  0
LINE
  5
12B
330
4D
100
AcDbEntity
  8
1
  6
Continuous
 62
     2
100
AcDbLine
 10
33.0
 20
27.0
 30
0.0
 11
33.0
 21
10.0
 31
0.0
  0
LINE
  5
12C
330
4D
100
AcDbEntity
  8
1
  6
Continuous
 62
     2
100
AcDbLine
 10
25.0
 20
18.50000000000001
 30
0.0
 11
81.0
 21
18.50000000000001
 31
0.0
  0
LINE
  5
12D
330
4D
100
AcDbEntity
  8
1
  6
Continuous
 62
     7
100
AcDbLine
 10
200.0
 20
287.0000000000003
 30
0.0
 11
105.0
 21
287.0000000000003
 31
0.0
  0
LINE
  5
12E
330
4D
100
AcDbEntity
  8
1
  6
Continuous
 62
     7
100
AcDbLine
 10
200.0
 20
10.0
 30
0.0
 11
200.0
 21
148.5
 31
0.0
  0
LINE
  5
12F
330
4D
100
AcDbEntity
  8
1
  6
Continuous
 62
     7
100
AcDbLine
 10
25.0
 20
10.0
 30
0.0
 11
105.0
 21
10.0
 31
0.0
  0
LINE
  5
130
330
4D
100
AcDbEntity
  8
1
  6
PHANTOM
 62
     4
100
AcDbLine
 10
0.0
 20
297.0
 30
0.0
 11
0.0
 21
0.0
 31
0.0
  0
LINE
  5
131
330
4D
100
AcDbEntity
  8
1
  6
PHANTOM
 62
     4
100
AcDbLine
 10
210.0
 20
297.0
 30
0.0
 11
0.0
 21
297.0
 31
0.0
  0
LINE
  5
132
330
4D
100
AcDbEntity
  8
1
  6
PHANTOM
 62
     4
100
AcDbLine
 10
210.0
 20
0.0
 30
0.0
 11
210.0
 21
297.0
 31
0.0
  0
LINE
  5
133
330
4D
100
AcDbEntity
  8
1
  6
PHANTOM
 62
     4
100
AcDbLine
 10
0.0
 20
0.0
 30
0.0
 11
210.0
 21
0.0
 31
0.0
  0
LINE
  5
134
330
4D
100
AcDbEntity
  8
1
  6
Continuous
 62
     7
100
AcDbLine
 10
25.0
 20
41.0
 30
0.0
 11
200.0
 21
41.0
 31
0.0
  0
LINE
  5
135
330
4D
100
AcDbEntity
  8
1
  6
Continuous
 62
     7
100
AcDbLine
 10
200.0
 20
27.00000000000001
 30
0.0
 11
25.0
 21
27.00000000000001
 31
0.0
  0
LINE
  5
136
330
4D
100
AcDbEntity
  8
1
  6
Continuous
 62
     2
100
AcDbLine
 10
33.0
 20
41.00000000000001
 30
0.0
 11
33.0
 21
27.0
 31
0.0
  0
LINE
  5
137
330
4D
100
AcDbEntity
  8
1
  6
Continuous
 62
     2
100
AcDbLine
 10
55.0
 20
287.0000000000003
 30
0.0
 11
55.0
 21
277.0000000000003
 31
0.0
  0
LINE
  5
138
330
4D
100
AcDbEntity
  8
1
  6
Continuous
 62
     2
100
AcDbLine
 10
40.0
 20
287.0000000000003
 30
0.0
 11
40.0
 21
277.0000000000003
 31
0.0
  0
LINE
  5
139
330
4D
100
AcDbEntity
  8
1
  6
Continuous
 62
     7
100
AcDbLine
 10
25.0
 20
10.0
 30
0.0
 11
25.0
 21
148.5
 31
0.0
  0
LINE
  5
13A
330
4D
100
AcDbEntity
  8
1
  6
Continuous
 62
     2
100
AcDbLine
 10
55.0
 20
277.0000000000003
 30
0.0
 11
25.0
 21
277.0000000000003
 31
0.0
  0
LINE
  5
13B
330
4D
100
AcDbEntity
  8
1
  6
Continuous
 62
     2
100
AcDbLine
 10
166.0
 20
27.00000000000001
 30
0.0
 11
166.0
 21
10.0
 31
0.0
  0
LINE
  5
13C
330
4D
100
AcDbEntity
  8
1
  6
Continuous
 62
     2
100
AcDbLine
 10
132.0
 20
27.00000000000001
 30
0.0
 11
132.0
 21
9.99999999999999
 31
0.0
  0
LINE
  5
13D
330
4D
100
AcDbEntity
  8
1
  6
Continuous
 62
     2
100
AcDbLine
 10
149.0
 20
27.00000000000001
 30
0.0
 11
149.0
 21
10.0
 31
0.0
  0
LINE
  5
13E
330
4D
100
AcDbEntity
  8
1
  6
Continuous
 62
     2
100
AcDbLine
 10
115.0
 20
27.00000000000001
 30
0.0
 11
115.0
 21
9.99999999999999
 31
0.0
  0
LINE
  5
13F
330
4D
100
AcDbEntity
  8
1
  6
Continuous
 62
     2
100
AcDbLine
 10
98.0
 20
27.00000000000001
 30
0.0
 11
98.0
 21
9.99999999999999
 31
0.0
  0
LINE
  5
140
330
4D
100
AcDbEntity
  8
1
  6
Continuous
 62
     2
100
AcDbLine
 10
166.0
 20
20.00000000000001
 30
0.0
 11
200.0
 21
20.00000000000001
 31
0.0
  0
LINE
  5
141
330
4D
100
AcDbEntity
  8
1
  6
Continuous
 62
     2
100
AcDbLine
 10
105.0
 20
287.0000000000003
 30
0.0
 11
105.0
 21
292.0000000000003
 31
0.0
  0
LINE
  5
142
330
4D
100
AcDbEntity
  8
1
  6
Continuous
 62
     7
100
AcDbLine
 10
105.0
 20
287.0000000000003
 30
0.0
 11
25.0
 21
287.0000000000003
 31
0.0
  0
LINE
  5
143
330
4D
100
AcDbEntity
  8
1
  6
Continuous
 62
     2
100
AcDbLine
 10
25.0
 20
148.5
 30
0.0
 11
20.0
 21
148.5
 31
0.0
  0
LINE
  5
144
330
4D
100
AcDbEntity
  8
1
  6
Continuous
 62
     7
100
AcDbLine
 10
25.0
 20
148.5
 30
0.0
 11
25.0
 21
287.0000000000003
 31
0.0
  0
LINE
  5
145
330
4D
100
AcDbEntity
  8
1
  6
Continuous
 62
     2
100
AcDbLine
 10
200.0
 20
148.5
 30
0.0
 11
205.0
 21
148.5
 31
0.0
  0
LINE
  5
146
330
4D
100
AcDbEntity
  8
1
  6
Continuous
 62
     7
100
AcDbLine
 10
200.0
 20
148.5
 30
0.0
 11
200.0
 21
287.0000000000003
 31
0.0
  0
LINE
  5
147
330
4D
100
AcDbEntity
  8
1
  6
Continuous
 62
     2
100
AcDbLine
 10
105.0
 20
10.0
 30
0.0
 11
105.0
 21
5.0
 31
0.0
  0
LINE
  5
148
330
4D
100
AcDbEntity
  8
1
  6
Continuous
 62
     7
100
AcDbLine
 10
105.0
 20
10.0
 30
0.0
 11
200.0
 21
10.0
 31
0.0
  0
CIRCLE
  5
149
330
4D
100
AcDbEntity
  8
1
  6
DOT_CENTER
 62
     7
100
AcDbCircle
 10
89.5
 20
18.0
 30
0.0
 40
0.1000000000000227
  0
CIRCLE
  5
14A
330
4D
100
AcDbEntity
  8
1
  6
DOT_CENTER
 62
     7
100
AcDbCircle
 10
89.5
 20
16.0
 30
0.0
 40
0.1000000000000227
  0
CIRCLE
  5
14B
330
4D
100
AcDbEntity
  8
1
  6
Continuous
 62
     7
100
AcDbCircle
 10
187.0
 20
23.50000000000001
 30
0.0
 40
2.0
  0
CIRCLE
  5
14C
330
4D
100
AcDbEntity
  8
1
  6
Continuous
 62
     7
100
AcDbCircle
 10
187.0
 20
23.50000000000001
 30
0.0
 40
1.200000000000102
  0
CIRCLE
  5
14D
330
4D
100
AcDbEntity
  8
1
  6
Continuous
 62
     7
100
AcDbCircle
 10
154.5
 20
12.5
 30
0.0
 40
0.3000000000000114
  0
CIRCLE
  5
14E
330
4D
100
AcDbEntity
  8
1
  6
Continuous
 62
     7
100
AcDbCircle
 10
160.5
 20
12.5
 30
0.0
 40
0.3000000000000114
  0
CIRCLE
  5
14F
330
4D
100
AcDbEntity
  8
1
  6
Continuous
 62
     7
100
AcDbCircle
 10
143.5
 20
12.5
 30
0.0
 40
0.3000000000000114
  0
CIRCLE
  5
150
330
4D
100
AcDbEntity
  8
1
  6
Continuous
 62
     7
100
AcDbCircle
 10
137.5
 20
12.5
 30
0.0
 40
0.3000000000000114
  0
CIRCLE
  5
151
330
4D
100
AcDbEntity
  8
1
  6
Continuous
 62
     7
100
AcDbCircle
 10
126.5
 20
12.5
 30
0.0
 40
0.2999999999999972
  0
CIRCLE
  5
152
330
4D
100
AcDbEntity
  8
1
  6
Continuous
 62
     7
100
AcDbCircle
 10
120.5
 20
12.5
 30
0.0
 40
0.2999999999999972
  0
CIRCLE
  5
153
330
4D
100
AcDbEntity
  8
1
  6
Continuous
 62
     7
100
AcDbCircle
 10
109.5
 20
12.5
 30
0.0
 40
0.2999999999999972
  0
CIRCLE
  5
154
330
4D
100
AcDbEntity
  8
1
  6
Continuous
 62
     7
100
AcDbCircle
 10
103.5
 20
12.5
 30
0.0
 40
0.2999999999999972
  0
MTEXT
  5
156
330
4D
100
AcDbEntity
  8
1
 62
   250
100
AcDbMText
 10
25.0
 20
5.0
 30
0.0
 40
3.5
 41
0.0
 71
     4
 72
     1
  1
備考欄の文字列 原点位置=4
  7
CONVERTER_11
 73
     1
 44
0.54545454545455
  0
MTEXT
  5
157
330
4D
100
AcDbEntity
  8
1
 62
     2
100
AcDbMText
 10
89.5
 20
24.00000000000001
 30
0.0
 40
3.5
 41
0.0
 71
     5
 72
     1
  1
尺度
  7
CONVERTER_11
 73
     1
 44
0.54545454545455
  0
MTEXT
  5
158
330
4D
100
AcDbEntity
  8
1
 62
     2
100
AcDbMText
 10
135.5
 20
25.00000000000001
 30
0.0
 40
3.0
 41
0.0
 71
     5
 72
     1
  1
製図
  7
CONVERTER_11
 73
     1
 44
0.59090909090909
  0
MTEXT
  5
159
330
4D
100
AcDbEntity
  8
1
 62
     2
100
AcDbMText
 10
152.5
 20
25.00000000000001
 30
0.0
 40
3.0
 41
0.0
 71
     5
 72
     1
  1
設計
  7
CONVERTER_11
 73
     1
 44
0.59090909090909
  0
MTEXT
  5
15A
330
4D
100
AcDbEntity
  8
1
 62
     2
100
AcDbMText
 10
118.5
 20
25.00000000000001
 30
0.0
 40
3.0
 41
0.0
 71
     5
 72
     1
  1
検図
  7
CONVERTER_11
 73
     1
 44
0.59090909090909
  0
MTEXT
  5
15B
330
4D
100
AcDbEntity
  8
1
 62
     2
100
AcDbMText
 10
175.0
 20
23.50000000000001
 30
0.0
 40
3.5
 41
0.0
 71
     5
 72
     1
  1
第三角法
  7
CONVERTER_11
 73
     1
 44
0.54545454545455
  0
MTEXT
  5
15C
330
4D
100
AcDbEntity
  8
1
 62
     2
100
AcDbMText
 10
101.5
 20
25.00000000000001
 30
0.0
 40
3.0
 41
0.0
 71
     5
 72
     1
  1
承認
  7
CONVERTER_11
 73
     1
 44
0.59090909090909
  0
MTEXT
  5
15D
330
4D
100
AcDbEntity
  8
1
 62
     2
100
AcDbMText
 10
29.0
 20
14.25
 30
0.0
 40
3.5
 41
0.0
 71
     5
 72
     1
  1
品番
  7
CONVERTER_11
 73
     1
 44
0.72727272727273
  0
MTEXT
  5
15E
330
4D
100
AcDbEntity
  8
1
 62
     2
100
AcDbMText
 10
29.0
 20
22.75
 30
0.0
 40
3.5
 41
0.0
 71
     5
 72
     1
  1
品名
  7
CONVERTER_11
 73
     1
 44
0.72727272727273
  0
MTEXT
  5
15F
330
4D
100
AcDbEntity
  8
1
 62
     2
100
AcDbMText
 10
29.0
 20
34.00000000000001
 30
0.0
 40
3.5
 41
0.0
 71
     5
 72
     1
  1
備考
  7
CONVERTER_11
 73
     1
 44
0.45454545454545
  0
MTEXT
  5
160
330
4D
100
AcDbEntity
  8
1
 62
     2
100
AcDbMText
 10
32.5
 20
282.0000000000003
 30
0.0
 40
5.0
 41
0.0
 71
     5
 72
     1
  1
図番
  7
CONVERTER_11
 73
     1
 44
0.45454545454545
  0
MTEXT
  5
161
330
4D
100
AcDbEntity
  8
1
 62
     7
100
AcDbMText
 10
171.5
 20
15.0
 30
0.0
 40
2.5
 41
0.0
 71
     5
 72
     1
  1
株式会社
  7
CONVERTER_11
 73
     1
 44
1.0
  0
MTEXT
  5
162
330
4D
100
AcDbEntity
  8
1
 62
     7
100
AcDbMText
 10
188.5
 20
15.0
 30
0.0
 40
3.0
 41
0.0
 71
     5
 72
     1
  1
三栄水栓製作所
  7
CONVERTER_11
 73
     1
 44
1.0
  0
ENDBLK
  5
4F
330
4D
100
AcDbEntity
  8
0
100
AcDbBlockEnd
  0
BLOCK
  5
51
330
50
100
AcDbEntity
  8
0
100
AcDbBlockBegin
  2
42-1
 70
     0
 10
172.9384230464025
 20
99.84498618925049
 30
0.0
  3
42-1
  1

  0
LINE
  5
163
330
50
100
AcDbEntity
  8
1
  6
Continuous
 62
     7
100
AcDbLine
 10
65.91341326227933
 20
194.3441805959729
 30
0.0
 11
66.41341326227933
 21
194.3441805959729
 31
0.0
  0
LINE
  5
164
330
50
100
AcDbEntity
  8
1
  6
Continuous
 62
     7
100
AcDbLine
 10
65.41341326227933
 20
194.3441805959729
 30
0.0
 11
65.91341326227933
 21
194.3441805959729
 31
0.0
  0
LINE
  5
165
330
50
100
AcDbEntity
  8
1
  6
Continuous
 62
     7
100
AcDbLine
 10
64.91341326227933
 20
194.3441805959729
 30
0.0
 11
65.41341326227933
 21
194.3441805959729
 31
0.0
  0
LINE
  5
166
330
50
100
AcDbEntity
  8
1
  6
Continuous
 62
     7
100
AcDbLine
 10
64.41341326227933
 20
194.3441805959729
 30
0.0
 11
64.91341326227933
 21
194.3441805959729
 31
0.0
  0
LINE
  5
167
330
50
100
AcDbEntity
  8
1
  6
Continuous
 62
     7
100
AcDbLine
 10
76.41341326227933
 20
194.3441805959729
 30
0.0
 11
66.41341326227933
 21
194.3441805959729
 31
0.0
  0
LINE
  5
168
330
50
100
AcDbEntity
  8
1
  6
Continuous
 62
     7
100
AcDbLine
 10
76.41341326227933
 20
194.3441805959729
 30
0.0
 11
76.91341326227933
 21
194.3441805959729
 31
0.0
  0
LINE
  5
169
330
50
100
AcDbEntity
  8
1
  6
Continuous
 62
     7
100
AcDbLine
 10
76.91341326227933
 20
194.3441805959729
 30
0.0
 11
77.41341326227933
 21
194.3441805959729
 31
0.0
  0
LINE
  5
16A
330
50
100
AcDbEntity
  8
1
  6
Continuous
 62
     7
100
AcDbLine
 10
77.41341326227933
 20
194.3441805959729
 30
0.0
 11
77.91341326227933
 21
194.3441805959729
 31
0.0
  0
LINE
  5
16B
330
50
100
AcDbEntity
  8
1
  6
Continuous
 62
     7
100
AcDbLine
 10
77.91341326227933
 20
194.3441805959729
 30
0.0
 11
78.41341326227933
 21
194.3441805959729
 31
0.0
  0
LINE
  5
16C
330
50
100
AcDbEntity
  8
1
  6
Continuous
 62
     7
100
AcDbLine
 10
78.41341326227933
 20
197.3441805959727
 30
0.0
 11
78.41341326227933
 21
194.3441805959729
 31
0.0
  0
LINE
  5
16D
330
50
100
AcDbEntity
  8
1
  6
Continuous
 62
     2
100
AcDbLine
 10
77.41341326227933
 20
194.3441805959729
 30
0.0
 11
77.41341326227933
 21
197.3441805959727
 31
0.0
  0
LINE
  5
16E
330
50
100
AcDbEntity
  8
1
  6
Continuous
 62
     2
100
AcDbLine
 10
76.41341326227933
 20
194.3441805959729
 30
0.0
 11
76.41341326227933
 21
197.3441805959727
 31
0.0
  0
LINE
  5
16F
330
50
100
AcDbEntity
  8
1
  6
Continuous
 62
     2
100
AcDbLine
 10
75.41341326227933
 20
194.5102289084244
 30
0.0
 11
75.41341326227933
 21
197.1542541875207
 31
0.0
  0
LINE
  5
170
330
50
100
AcDbEntity
  8
1
  6
Continuous
 62
     2
100
AcDbLine
 10
74.41341326227933
 20
194.7048810762107
 30
0.0
 11
74.41341326227933
 21
197.0407070896453
 31
0.0
  0
LINE
  5
171
330
50
100
AcDbEntity
  8
1
  6
Continuous
 62
     7
100
AcDbLine
 10
76.41341326227933
 20
197.3441805959727
 30
0.0
 11
66.41341326227933
 21
197.3441805959727
 31
0.0
  0
LINE
  5
172
330
50
100
AcDbEntity
  8
1
  6
Continuous
 62
     7
100
AcDbLine
 10
71.41341326227933
 20
197.6739463161765
 30
0.0
 11
77.16341326227933
 21
197.6739463161765
 31
0.0
  0
LINE
  5
173
330
50
100
AcDbEntity
  8
1
  6
Continuous
 62
     7
100
AcDbLine
 10
76.91341326227933
 20
197.3441805959727
 30
0.0
 11
77.41341326227933
 21
197.3441805959727
 31
0.0
  0
LINE
  5
174
330
50
100
AcDbEntity
  8
1
  6
Continuous
 62
     7
100
AcDbLine
 10
77.91341326227933
 20
197.3441805959727
 30
0.0
 11
78.41341326227933
 21
197.3441805959727
 31
0.0
  0
LINE
  5
175
330
50
100
AcDbEntity
  8
1
  6
Continuous
 62
     7
100
AcDbLine
 10
77.41341326227953
 20
197.613502794996
 30
0.0
 11
78.41341326227933
 21
197.3441805959727
 31
0.0
  0
LINE
  5
176
330
50
100
AcDbEntity
  8
1
  6
Continuous
 62
     7
100
AcDbLine
 10
77.41341326227933
 20
197.3441805959727
 30
0.0
 11
77.91341326227933
 21
197.3441805959727
 31
0.0
  0
LINE
  5
177
330
50
100
AcDbEntity
  8
1
  6
Continuous
 62
     7
100
AcDbLine
 10
76.41341326227933
 20
197.3441805959727
 30
0.0
 11
76.91341326227933
 21
197.3441805959727
 31
0.0
  0
LINE
  5
178
330
50
100
AcDbEntity
  8
1
  6
Continuous
 62
     7
100
AcDbLine
 10
65.66341326227933
 20
197.6739463161765
 30
0.0
 11
71.41341326227933
 21
197.6739463161765
 31
0.0
  0
LINE
  5
179
330
50
100
AcDbEntity
  8
1
  6
Continuous
 62
     7
100
AcDbLine
 10
65.41341326227933
 20
197.3441805959727
 30
0.0
 11
65.91341326227933
 21
197.3441805959727
 31
0.0
  0
LINE
  5
17A
330
50
100
AcDbEntity
  8
1
  6
Continuous
 62
     7
100
AcDbLine
 10
64.41341326227933
 20
197.3441805959727
 30
0.0
 11
64.91341326227933
 21
197.3441805959727
 31
0.0
  0
LINE
  5
17B
330
50
100
AcDbEntity
  8
1
  6
Continuous
 62
     7
100
AcDbLine
 10
64.91341326227933
 20
197.3441805959727
 30
0.0
 11
65.41341326227933
 21
197.3441805959727
 31
0.0
  0
LINE
  5
17C
330
50
100
AcDbEntity
  8
1
  6
Continuous
 62
     7
100
AcDbLine
 10
65.91341326227933
 20
197.3441805959727
 30
0.0
 11
66.41341326227933
 21
197.3441805959727
 31
0.0
  0
LINE
  5
17D
330
50
100
AcDbEntity
  8
1
  6
Continuous
 62
     2
100
AcDbLine
 10
73.41341326227933
 20
195.0617433838187
 30
0.0
 11
73.41341326227933
 21
196.8298339078768
 31
0.0
  0
LINE
  5
17E
330
50
100
AcDbEntity
  8
1
  6
Continuous
 62
     2
100
AcDbLine
 10
72.41341326227933
 20
195.3212796075337
 30
0.0
 11
72.41341326227933
 21
196.5865186981442
 31
0.0
  0
LINE
  5
17F
330
50
100
AcDbEntity
  8
1
  6
Continuous
 62
     2
100
AcDbLine
 10
70.41341326227933
 20
196.5865186981442
 30
0.0
 11
70.41341326227933
 21
195.3212796075337
 31
0.0
  0
LINE
  5
180
330
50
100
AcDbEntity
  8
1
  6
Continuous
 62
     2
100
AcDbLine
 10
69.41341326227933
 20
196.8298339078768
 30
0.0
 11
69.41341326227933
 21
195.0617433838187
 31
0.0
  0
LINE
  5
181
330
50
100
AcDbEntity
  8
1
  6
Continuous
 62
     2
100
AcDbLine
 10
68.41341326227933
 20
197.0407070896453
 30
0.0
 11
68.41341326227933
 21
194.7048810762107
 31
0.0
  0
LINE
  5
182
330
50
100
AcDbEntity
  8
1
  6
Continuous
 62
     2
100
AcDbLine
 10
67.41341326227933
 20
197.1542541875207
 30
0.0
 11
67.41341326227933
 21
194.5102289084244
 31
0.0
  0
LINE
  5
183
330
50
100
AcDbEntity
  8
1
  6
Continuous
 62
     2
100
AcDbLine
 10
66.41341326227933
 20
197.3441805959727
 30
0.0
 11
66.41341326227933
 21
194.3441805959729
 31
0.0
  0
LINE
  5
184
330
50
100
AcDbEntity
  8
1
  6
Continuous
 62
     2
100
AcDbLine
 10
65.41341326227933
 20
197.3441805959727
 30
0.0
 11
65.41341326227933
 21
194.3441805959729
 31
0.0
  0
LINE
  5
185
330
50
100
AcDbEntity
  8
1
  6
Continuous
 62
     7
100
AcDbLine
 10
64.41341326227933
 20
194.3441805959729
 30
0.0
 11
64.41341326227933
 21
197.3441805959727
 31
0.0
  0
LINE
  5
186
330
50
100
AcDbEntity
  8
1
  6
Continuous
 62
     7
100
AcDbLine
 10
64.41341326227933
 20
197.3441805959727
 30
0.0
 11
65.41341326227933
 21
197.613502794996
 31
0.0
  0
LINE
  5
187
330
50
100
AcDbEntity
  8
1
  6
Continuous
 62
     7
100
AcDbLine
 10
67.41341326227933
 20
194.3441805959729
 30
0.0
 11
75.41341326227933
 21
194.3441805959729
 31
0.0
  0
LINE
  5
188
330
50
100
AcDbEntity
  8
1
  6
Continuous
 62
     7
100
AcDbLine
 10
202.9316283859452
 20
197.6718171927502
 30
0.0
 11
208.6816283859451
 21
197.6718171927502
 31
0.0
  0
LINE
  5
189
330
50
100
AcDbEntity
  8
1
  6
Continuous
 62
     2
100
AcDbLine
 10
208.9316283859451
 20
194.3420514725464
 30
0.0
 11
208.9316283859451
 21
197.3420514725464
 31
0.0
  0
LINE
  5
18A
330
50
100
AcDbEntity
  8
1
  6
Continuous
 62
     7
100
AcDbLine
 10
208.9316283859452
 20
197.6113736715697
 30
0.0
 11
209.9316283859451
 21
197.3420514725464
 31
0.0
  0
LINE
  5
18B
330
50
100
AcDbEntity
  8
1
  6
Continuous
 62
     7
100
AcDbLine
 10
209.9316283859451
 20
197.3420514725464
 30
0.0
 11
209.9316283859451
 21
194.3420514725464
 31
0.0
  0
LINE
  5
18C
330
50
100
AcDbEntity
  8
1
  6
Continuous
 62
     7
100
AcDbLine
 10
208.9316283859451
 20
197.3420514725464
 30
0.0
 11
209.9316283859451
 21
197.3420514725464
 31
0.0
  0
LINE
  5
18D
330
50
100
AcDbEntity
  8
1
  6
Continuous
 62
     7
100
AcDbLine
 10
207.9316283859451
 20
197.3420514725464
 30
0.0
 11
208.9316283859451
 21
197.3420514725464
 31
0.0
  0
LINE
  5
18E
330
50
100
AcDbEntity
  8
1
  6
Continuous
 62
     7
100
AcDbLine
 10
197.1816283859452
 20
197.6718171927502
 30
0.0
 11
202.9316283859452
 21
197.6718171927502
 31
0.0
  0
LINE
  5
18F
330
50
100
AcDbEntity
  8
1
  6
Continuous
 62
     2
100
AcDbLine
 10
201.9316283859452
 20
196.5843895747177
 30
0.0
 11
201.9316283859452
 21
195.3191504841072
 31
0.0
  0
LINE
  5
190
330
50
100
AcDbEntity
  8
1
  6
Continuous
 62
     2
100
AcDbLine
 10
200.9316283859452
 20
196.8277047844505
 30
0.0
 11
200.9316283859452
 21
195.0596142603922
 31
0.0
  0
LINE
  5
191
330
50
100
AcDbEntity
  8
1
  6
Continuous
 62
     7
100
AcDbLine
 10
195.9316283859452
 20
197.3420514725464
 30
0.0
 11
196.9316283859451
 21
197.6113736715697
 31
0.0
  0
LINE
  5
192
330
50
100
AcDbEntity
  8
1
  6
Continuous
 62
     7
100
AcDbLine
 10
195.9316283859452
 20
197.3420514725464
 30
0.0
 11
196.9316283859452
 21
197.3420514725464
 31
0.0
  0
LINE
  5
193
330
50
100
AcDbEntity
  8
1
  6
Continuous
 62
     7
100
AcDbLine
 10
196.9316283859452
 20
197.3420514725464
 30
0.0
 11
197.9316283859452
 21
197.3420514725464
 31
0.0
  0
LINE
  5
194
330
50
100
AcDbEntity
  8
1
  6
Continuous
 62
     7
100
AcDbLine
 10
197.9316283859452
 20
197.3420514725464
 30
0.0
 11
207.9316283859451
 21
197.3420514725464
 31
0.0
  0
LINE
  5
195
330
50
100
AcDbEntity
  8
1
  6
Continuous
 62
     2
100
AcDbLine
 10
203.9316283859451
 20
195.3191504841072
 30
0.0
 11
203.9316283859451
 21
196.5843895747177
 31
0.0
  0
LINE
  5
196
330
50
100
AcDbEntity
  8
1
  6
Continuous
 62
     2
100
AcDbLine
 10
204.9316283859451
 20
195.0596142603922
 30
0.0
 11
204.9316283859451
 21
196.8277047844505
 31
0.0
  0
LINE
  5
197
330
50
100
AcDbEntity
  8
1
  6
Continuous
 62
     2
100
AcDbLine
 10
205.9316283859451
 20
194.7027519527842
 30
0.0
 11
205.9316283859451
 21
197.0385779662188
 31
0.0
  0
LINE
  5
198
330
50
100
AcDbEntity
  8
1
  6
Continuous
 62
     2
100
AcDbLine
 10
206.9316283859451
 20
194.5080997849979
 30
0.0
 11
206.9316283859451
 21
197.1521250640942
 31
0.0
  0
LINE
  5
199
330
50
100
AcDbEntity
  8
1
  6
Continuous
 62
     2
100
AcDbLine
 10
207.9316283859451
 20
194.3420514725464
 30
0.0
 11
207.9316283859451
 21
197.3420514725464
 31
0.0
  0
LINE
  5
19A
330
50
100
AcDbEntity
  8
1
  6
Continuous
 62
     7
100
AcDbLine
 10
209.9316283859451
 20
194.3420514725464
 30
0.0
 11
195.9316283859452
 21
194.3420514725464
 31
0.0
  0
LINE
  5
19B
330
50
100
AcDbEntity
  8
1
  6
Continuous
 62
     2
100
AcDbLine
 10
199.9316283859452
 20
197.0385779662188
 30
0.0
 11
199.9316283859452
 21
194.7027519527842
 31
0.0
  0
LINE
  5
19C
330
50
100
AcDbEntity
  8
1
  6
Continuous
 62
     2
100
AcDbLine
 10
198.9316283859452
 20
197.1521250640942
 30
0.0
 11
198.9316283859452
 21
194.5080997849979
 31
0.0
  0
LINE
  5
19D
330
50
100
AcDbEntity
  8
1
  6
Continuous
 62
     2
100
AcDbLine
 10
197.9316283859452
 20
197.3420514725464
 30
0.0
 11
197.9316283859452
 21
194.3420514725464
 31
0.0
  0
LINE
  5
19E
330
50
100
AcDbEntity
  8
1
  6
Continuous
 62
     2
100
AcDbLine
 10
196.9316283859452
 20
197.3420514725464
 30
0.0
 11
196.9316283859452
 21
194.3420514725464
 31
0.0
  0
LINE
  5
19F
330
50
100
AcDbEntity
  8
1
  6
Continuous
 62
     7
100
AcDbLine
 10
195.9316283859452
 20
194.3420514725464
 30
0.0
 11
195.9316283859452
 21
197.3420514725464
 31
0.0
  0
ARC
  5
1A0
330
50
100
AcDbEntity
  8
1
  6
Continuous
 62
     7
100
AcDbCircle
 10
71.41341326227933
 20
173.3441805959728
 30
0.0
 40
24.99999999999999
100
AcDbArc
 50
76.70292825279094
 51
90.0
  0
ARC
  5
1A1
330
50
100
AcDbEntity
  8
1
  6
Continuous
 62
     7
100
AcDbCircle
 10
71.41341326227933
 20
173.3441805959728
 30
0.0
 40
24.99999999999989
100
AcDbArc
 50
90.0
 51
103.2970717472091
  0
ARC
  5
1A2
330
50
100
AcDbEntity
  8
1
  6
Continuous
 62
     7
100
AcDbCircle
 10
71.41341326227933
 20
173.3441805959728
 30
0.0
 40
25.00000000000006
100
AcDbArc
 50
76.11345963737058
 51
76.70292825279094
  0
ARC
  5
1A3
330
50
100
AcDbEntity
  8
1
  6
Continuous
 62
     7
100
AcDbCircle
 10
71.41341326227933
 20
173.3441805959728
 30
0.0
 40
24.99999999999999
100
AcDbArc
 50
103.2970717472091
 51
103.886540362629
  0
ARC
  5
1A4
330
50
100
AcDbEntity
  8
1
  6
Continuous
 62
     7
100
AcDbCircle
 10
202.9316283859452
 20
173.3420514725464
 30
0.0
 40
25.00000000000008
100
AcDbArc
 50
76.70292825279124
 51
90.0
  0
ARC
  5
1A5
330
50
100
AcDbEntity
  8
1
  6
Continuous
 62
     7
100
AcDbCircle
 10
202.9316283859452
 20
173.3420514725464
 30
0.0
 40
25.0
100
AcDbArc
 50
90.0
 51
103.297071747209
  0
ARC
  5
1A6
330
50
100
AcDbEntity
  8
1
  6
Continuous
 62
     7
100
AcDbCircle
 10
202.9316283859452
 20
173.3420514725464
 30
0.0
 40
25.00000000000012
100
AcDbArc
 50
76.11345963737108
 51
76.70292825279124
  0
ARC
  5
1A7
330
50
100
AcDbEntity
  8
1
  6
Continuous
 62
     7
100
AcDbCircle
 10
202.9316283859452
 20
173.3420514725464
 30
0.0
 40
25.0000000000001
100
AcDbArc
 50
103.297071747209
 51
103.8865403626292
  0
CIRCLE
  5
1A8
330
50
100
AcDbEntity
  8
1
  6
Continuous
 62
     7
100
AcDbCircle
 10
71.41341326227928
 20
301.6138438710988
 30
0.0
 40
5.749999999999886
  0
CIRCLE
  5
1A9
330
50
100
AcDbEntity
  8
1
  6
Continuous
 62
     7
100
AcDbCircle
 10
71.41341326227928
 20
301.6138438710988
 30
0.0
 40
6.999999999999886
  0
ENDBLK
  5
52
330
50
100
AcDbEntity
  8
0
100
AcDbBlockEnd
  0
BLOCK
  5
54
330
53
100
AcDbEntity
  8
0
100
AcDbBlockBegin
  2
21-1C
 70
     0
 10
178.0754051292695
 20
83.80745944323735
 30
0.0
  3
21-1C
  1

  0
LINE
  5
1AA
330
53
100
AcDbEntity
  8
1
  6
Continuous
 62
     7
100
AcDbLine
 10
99.05918239126125
 20
183.9137671464529
 30
0.0
 11
98.60727429226885
 21
187.1292603513236
 31
0.0
  0
LINE
  5
1AB
330
53
100
AcDbEntity
  8
1
  6
Continuous
 62
     7
100
AcDbLine
 10
44.26277816766844
 20
183.3441805959728
 30
0.0
 11
98.56404835689047
 21
183.3441805959728
 31
0.0
  0
LINE
  5
1AC
330
53
100
AcDbEntity
  8
1
  6
Continuous
 62
     7
100
AcDbLine
 10
44.21955223229006
 20
187.1292603513236
 30
0.0
 11
43.76764413329775
 21
183.9137671464529
 31
0.0
  0
LINE
  5
1AD
330
53
100
AcDbEntity
  8
1
  6
Continuous
 62
     7
100
AcDbLine
 10
216.7239197894357
 20
183.3420514725464
 30
0.0
 11
220.8564026738709
 21
183.3420514725464
 31
0.0
  0
LINE
  5
1AE
330
53
100
AcDbEntity
  8
1
  6
Continuous
 62
     7
100
AcDbLine
 10
172.4635866541773
 20
187.1271312278971
 30
0.0
 11
172.0116785551849
 21
183.9116380230265
 31
0.0
  0
LINE
  5
1AF
330
53
100
AcDbEntity
  8
1
  6
Continuous
 62
     7
100
AcDbLine
 10
65.61785830454471
 20
275.0609296004835
 30
0.0
 11
61.96644909307432
 21
288.6881742969165
 31
0.0
  0
LINE
  5
1B0
330
53
100
AcDbEntity
  8
1
  6
Continuous
 62
     7
100
AcDbLine
 10
45.52013748054893
 20
309.8712031839795
 30
0.0
 11
55.49597296551133
 21
299.8953676990171
 31
0.0
  0
LINE
  5
1B1
330
53
100
AcDbEntity
  8
1
  6
Continuous
 62
     7
100
AcDbLine
 10
51.31569243828332
 20
319.9093988288331
 30
0.0
 11
64.94293713471612
 21
316.2579896173627
 31
0.0
  0
LINE
  5
1B2
330
53
100
AcDbEntity
  8
1
  6
Continuous
 62
     7
100
AcDbLine
 10
92.27163898889552
 20
320.1131755033301
 30
0.0
 11
77.88388938984221
 21
316.2579896173627
 31
0.0
  0
LINE
  5
1B3
330
53
100
AcDbEntity
  8
1
  6
Continuous
 62
     7
100
AcDbLine
 10
97.30668904400943
 20
309.8712031839795
 30
0.0
 11
87.33085355904711
 21
299.8953676990171
 31
0.0
  0
LINE
  5
1B4
330
53
100
AcDbEntity
  8
1
  6
Continuous
 62
     7
100
AcDbLine
 10
77.2089682200135
 20
275.0609296004835
 30
0.0
 11
80.86037743148401
 21
288.6881742969165
 31
0.0
  0
LINE
  5
1B5
330
53
100
AcDbEntity
  8
1
  6
Continuous
 62
     7
100
AcDbLine
 10
220.7343142402964
 20
188.3011280782901
 30
0.0
 11
221.351531734304
 21
183.911673405259
 31
0.0
  0
LINE
  5
1B6
330
53
100
AcDbEntity
  8
1
  6
Continuous
 62
     7
100
AcDbLine
 10
198.1816283859452
 20
183.3420514725464
 30
0.0
 11
197.1816283859452
 21
183.3420514725464
 31
0.0
  0
LINE
  5
1B7
330
53
100
AcDbEntity
  8
1
  6
Continuous
 62
     7
100
AcDbLine
 10
207.6816283859452
 20
183.3420514725464
 30
0.0
 11
216.7239197894357
 21
183.3420514725464
 31
0.0
  0
LINE
  5
1B8
330
53
100
AcDbEntity
  8
1
  6
Continuous
 62
     7
100
AcDbLine
 10
172.5068125895556
 20
183.3420514725464
 30
0.0
 11
207.6816283859452
 21
183.3420514725464
 31
0.0
  0
LINE
  5
1B9
330
53
100
AcDbEntity
  8
1
  6
Continuous
 62
     7
100
AcDbLine
 10
198.9316283859452
 20
194.3420514725464
 30
0.0
 11
206.9316283859452
 21
194.3420514725464
 31
0.0
  0
ARC
  5
1BA
330
53
100
AcDbEntity
  8
1
  6
Continuous
 62
     7
100
AcDbCircle
 10
69.77632291139025
 20
66.97402805564843
 30
0.0
 40
127.4948334081409
100
AcDbArc
 50
79.19050675364782
 51
87.4658831052027
  0
ARC
  5
1BB
330
53
100
AcDbEntity
  8
1
  6
Continuous
 62
     7
100
AcDbCircle
 10
73.05050361316864
 20
66.97402805564843
 30
0.0
 40
127.4948334081409
100
AcDbArc
 50
92.53411689479739
 51
100.8094932463522
  0
ARC
  5
1BC
330
53
100
AcDbEntity
  8
1
  6
Continuous
 62
     7
100
AcDbCircle
 10
202.9316283859452
 20
44.34205147254643
 30
0.0
 40
150.0533238552215
100
AcDbArc
 50
91.52752544221293
 51
99.80290179376779
  0
ARC
  5
1BD
330
53
100
AcDbEntity
  8
1
  6
Continuous
 62
     7
100
AcDbCircle
 10
71.41341326227911
 20
276.6138438710988
 30
0.0
 40
6.000000000000033
100
AcDbArc
 50
195.0000000000017
 51
270.0
  0
ARC
  5
1BE
330
53
100
AcDbEntity
  8
1
  6
Continuous
 62
     7
100
AcDbCircle
 10
49.76277816766822
 20
314.1138438710988
 30
0.0
 40
5.999999999999869
100
AcDbArc
 50
74.99999999999994
 51
225.0000000000002
  0
ARC
  5
1BF
330
53
100
AcDbEntity
  8
1
  6
Continuous
 62
     7
100
AcDbCircle
 10
93.06404835689011
 20
314.1138438710988
 30
0.0
 40
6.000000000000049
100
AcDbArc
 50
315.0
 51
97.52424107894149
  0
ARC
  5
1C0
330
53
100
AcDbEntity
  8
1
  6
Continuous
 62
     7
100
AcDbCircle
 10
71.41341326227911
 20
276.6138438710988
 30
0.0
 40
6.000000000000114
100
AcDbArc
 50
270.0
 51
344.9999999999983
  0
ARC
  5
1C1
330
53
100
AcDbEntity
  8
1
  6
Continuous
 62
     7
100
AcDbCircle
 10
203.2958240511919
 20
119.4302304638472
 30
0.0
 40
75.0000000000001
100
AcDbArc
 50
80.4085075173349
 51
87.22136103403737
  0
ARC
  5
1C2
330
53
100
AcDbEntity
  8
1
  6
Continuous
 62
     7
100
AcDbCircle
 10
98.56404835689047
 20
183.8441805959728
 30
0.0
 40
0.5
100
AcDbArc
 50
270.0
 51
8.00000000000732
  0
ARC
  5
1C3
330
53
100
AcDbEntity
  8
1
  6
Continuous
 62
     7
100
AcDbCircle
 10
92.66566587981944
 20
186.2942217455631
 30
0.0
 40
6.000000000000005
100
AcDbArc
 50
8.00000000000105
 51
80.19709820623221
  0
ARC
  5
1C4
330
53
100
AcDbEntity
  8
1
  6
Continuous
 62
     7
100
AcDbCircle
 10
44.26277816766844
 20
183.8441805959728
 30
0.0
 40
0.4999999999999177
100
AcDbArc
 50
171.9999999999913
 51
270.0
  0
ARC
  5
1C5
330
53
100
AcDbEntity
  8
1
  6
Continuous
 62
     7
100
AcDbCircle
 10
50.16116064473954
 20
186.2942217455631
 30
0.0
 40
6.000000000000033
100
AcDbArc
 50
99.80290179376861
 51
171.9999999999991
  0
ARC
  5
1C6
330
53
100
AcDbEntity
  8
1
  6
Continuous
 62
     7
100
AcDbCircle
 10
178.4051950666267
 20
186.2920926221368
 30
0.0
 40
6.000000000000019
100
AcDbArc
 50
99.8029017937678
 51
172.0000000000008
  0
ARC
  5
1C7
330
53
100
AcDbEntity
  8
1
  6
Continuous
 62
     7
100
AcDbCircle
 10
37.81830343584761
 20
282.2176981693534
 30
0.0
 40
25.00000000000001
100
AcDbArc
 50
15.00000000000012
 51
44.99999999999991
  0
ARC
  5
1C8
330
53
100
AcDbEntity
  8
1
  6
Continuous
 62
     7
100
AcDbCircle
 10
71.41341326227911
 20
340.4061352745894
 30
0.0
 40
25.00000000000002
100
AcDbArc
 50
255.0000000000001
 51
285.0000000000002
  0
ARC
  5
1C9
330
53
100
AcDbEntity
  8
1
  6
Continuous
 62
     7
100
AcDbCircle
 10
105.0085230887107
 20
282.2176981693534
 30
0.0
 40
24.99999999999991
100
AcDbArc
 50
134.9999999999999
 51
164.9999999999999
  0
ARC
  5
1CA
330
53
100
AcDbEntity
  8
1
  6
Continuous
 62
     7
100
AcDbCircle
 10
214.7927655150992
 20
187.4656648857387
 30
0.0
 40
6.000000000000063
100
AcDbArc
 50
8.00409437170091
 51
80.4085075173346
  0
ARC
  5
1CB
330
53
100
AcDbEntity
  8
1
  6
Continuous
 62
     7
100
AcDbCircle
 10
172.5068125895556
 20
183.8420514725464
 30
0.0
 40
0.4999999999999498
100
AcDbArc
 50
171.9999999999885
 51
270.0
  0
ARC
  5
1CC
330
53
100
AcDbEntity
  8
1
  6
Continuous
 62
     7
100
AcDbCircle
 10
220.8564026738709
 20
183.8420514725464
 30
0.0
 40
0.5
100
AcDbArc
 50
270.0
 51
8.00409437169984
  0
ENDBLK
  5
55
330
53
100
AcDbEntity
  8
0
100
AcDbBlockEnd
  0
BLOCK
  5
57
330
56
100
AcDbEntity
  8
0
100
AcDbBlockBegin
  2
37-1-13
 70
     0
 10
256.0014969545774
 20
92.95359606137842
 30
0.0
  3
37-1-13
  1

  0
LINE
  5
1CD
330
56
100
AcDbEntity
  8
1
  6
Continuous
 62
     7
100
AcDbLine
 10
58.41341326227934
 20
166.2717427607315
 30
0.0
 11
58.41341326227934
 21
173.342456975003
 31
0.0
  0
LINE
  5
1CE
330
56
100
AcDbEntity
  8
1
  6
Continuous
 62
     7
100
AcDbLine
 10
84.41341326227933
 20
173.342456975003
 30
0.0
 11
84.41341326227933
 21
166.2717427607315
 31
0.0
  0
LINE
  5
1CF
330
56
100
AcDbEntity
  8
1
  6
Continuous
 62
     7
100
AcDbLine
 10
71.41341326227933
 20
166.2717427607315
 30
0.0
 11
58.41341326227934
 21
166.2717427607315
 31
0.0
  0
LINE
  5
1D0
330
56
100
AcDbEntity
  8
1
  6
Continuous
 62
     7
100
AcDbLine
 10
71.41341326227933
 20
166.2717427607315
 30
0.0
 11
84.41341326227933
 21
166.2717427607315
 31
0.0
  0
LINE
  5
1D1
330
56
100
AcDbEntity
  8
1
  6
Continuous
 62
     7
100
AcDbLine
 10
66.41341326227933
 20
180.2717427607315
 30
0.0
 11
65.41341326227933
 21
180.2717427607315
 31
0.0
  0
LINE
  5
1D2
330
56
100
AcDbEntity
  8
1
  6
Continuous
 62
     7
100
AcDbLine
 10
71.41341326227933
 20
180.2717427607315
 30
0.0
 11
77.41341326227933
 21
180.2717427607315
 31
0.0
  0
LINE
  5
1D3
330
56
100
AcDbEntity
  8
1
  6
Continuous
 62
     7
100
AcDbLine
 10
71.41341326227933
 20
180.2717427607315
 30
0.0
 11
66.41341326227933
 21
180.2717427607315
 31
0.0
  0
LINE
  5
1D4
330
56
100
AcDbEntity
  8
1
  6
Continuous
 62
     7
100
AcDbLine
 10
60.38904409800063
 20
292.9676593768105
 30
0.0
 11
59.3512643969575
 21
293.5668217665674
 31
0.0
  0
LINE
  5
1D5
330
56
100
AcDbEntity
  8
1
  6
Continuous
 62
     7
100
AcDbLine
 10
84.41341326227922
 20
296.3895523612798
 30
0.0
 11
84.41341326227922
 21
295.1912275817662
 31
0.0
  0
LINE
  5
1D6
330
56
100
AcDbEntity
  8
1
  6
Continuous
 62
     7
100
AcDbLine
 10
69.43778242655782
 20
315.484319875206
 30
0.0
 11
70.47556212760091
 21
316.0834822649628
 31
0.0
  0
LINE
  5
1D7
330
56
100
AcDbEntity
  8
1
  6
Continuous
 62
     7
100
AcDbLine
 10
83.47556212760091
 20
293.5668217665674
 30
0.0
 11
82.43778242655782
 21
292.9676593768105
 31
0.0
  0
LINE
  5
1D8
330
56
100
AcDbEntity
  8
1
  6
Continuous
 62
     7
100
AcDbLine
 10
72.35126439695742
 20
316.0834822649628
 30
0.0
 11
73.38904409800062
 21
315.484319875206
 31
0.0
  0
LINE
  5
1D9
330
56
100
AcDbEntity
  8
1
  6
Continuous
 62
     7
100
AcDbLine
 10
58.41341326227922
 20
295.1912275817662
 30
0.0
 11
58.41341326227922
 21
296.3895523612798
 31
0.0
  0
LINE
  5
1DA
330
56
100
AcDbEntity
  8
1
  6
Continuous
 62
     7
100
AcDbLine
 10
196.9316283859452
 20
180.2717427607315
 30
0.0
 11
198.1816283859452
 21
180.2717427607315
 31
0.0
  0
LINE
  5
1DB
330
56
100
AcDbEntity
  8
1
  6
Continuous
 62
     7
100
AcDbLine
 10
189.8609141716742
 20
166.2717427607315
 30
0.0
 11
190.9316283859452
 21
166.2717427607315
 31
0.0
  0
LINE
  5
1DC
330
56
100
AcDbEntity
  8
1
  6
Continuous
 62
     7
100
AcDbLine
 10
214.9316283859452
 20
166.2717427607315
 30
0.0
 11
216.0023426002173
 21
166.2717427607315
 31
0.0
  0
LINE
  5
1DD
330
56
100
AcDbEntity
  8
1
  6
Continuous
 62
     7
100
AcDbLine
 10
190.9316283859452
 20
166.2717427607315
 30
0.0
 11
214.9316283859452
 21
166.2717427607315
 31
0.0
  0
LINE
  5
1DE
330
56
100
AcDbEntity
  8
1
  6
Continuous
 62
     7
100
AcDbLine
 10
198.1816283859452
 20
180.2717427607315
 30
0.0
 11
207.6816283859452
 21
180.2717427607315
 31
0.0
  0
LINE
  5
1DF
330
56
100
AcDbEntity
  8
1
  6
Continuous
 62
     7
100
AcDbLine
 10
208.9316283859452
 20
180.2717427607315
 30
0.0
 11
207.6816283859452
 21
180.2717427607315
 31
0.0
  0
LINE
  5
1E0
330
56
100
AcDbEntity
  8
1
  6
Continuous
 62
     7
100
AcDbLine
 10
60.9134132622795
 20
173.7717427607316
 30
0.0
 11
81.41341326227928
 21
173.7717427607316
 31
0.0
  0
LINE
  5
1E1
330
56
100
AcDbEntity
  8
1
  6
Continuous
 62
     7
100
AcDbLine
 10
190.4316283859452
 20
173.7717427607315
 30
0.0
 11
215.4316283859452
 21
173.7717427607315
 31
0.0
  0
ARC
  5
1E2
330
56
100
AcDbEntity
  8
1
  6
Continuous
 62
     7
100
AcDbCircle
 10
61.91341326227934
 20
169.7717427607315
 30
0.0
 40
4.999999999999885
100
AcDbArc
 50
126.8698976458423
 51
134.4270040008053
  0
ARC
  5
1E3
330
56
100
AcDbEntity
  8
1
  6
Continuous
 62
     7
100
AcDbCircle
 10
45.50695805716464
 20
193.6781979658464
 30
0.0
 40
23.99999999999996
100
AcDbArc
 50
303.9591925000975
 51
326.0408074999023
  0
ARC
  5
1E4
330
56
100
AcDbEntity
  8
1
  6
Continuous
 62
     7
100
AcDbCircle
 10
80.91341326227933
 20
169.7717427607315
 30
0.0
 40
5.000000000000036
100
AcDbArc
 50
45.57299599919471
 51
53.13010235415597
  0
ARC
  5
1E5
330
56
100
AcDbEntity
  8
1
  6
Continuous
 62
     7
100
AcDbCircle
 10
97.31986846739434
 20
193.6781979658464
 30
0.0
 40
24.00000000000006
100
AcDbArc
 50
213.9591925000973
 51
236.0408074999023
  0
ARC
  5
1E6
330
56
100
AcDbEntity
  8
1
  6
Continuous
 62
     7
100
AcDbCircle
 10
71.41341326227922
 20
301.6138438710988
 30
0.0
 40
14.5
100
AcDbArc
 50
86.29155527472959
 51
90.0
  0
ARC
  5
1E7
330
56
100
AcDbEntity
  8
1
  6
Continuous
 62
     7
100
AcDbCircle
 10
71.41341326227922
 20
301.6138438710988
 30
0.0
 40
14.49999999999996
100
AcDbArc
 50
326.2915552747291
 51
333.7084447252705
  0
ARC
  5
1E8
330
56
100
AcDbEntity
  8
1
  6
Continuous
 62
     7
100
AcDbCircle
 10
71.41341326227922
 20
301.6138438710988
 30
0.0
 40
14.5
100
AcDbArc
 50
90.0
 51
93.70844472527087
  0
ARC
  5
1E9
330
56
100
AcDbEntity
  8
1
  6
Continuous
 62
     7
100
AcDbCircle
 10
71.41341326227922
 20
301.6138438710988
 30
0.0
 40
14.50000000000002
100
AcDbArc
 50
206.2915552747295
 51
213.7084447252707
  0
ARC
  5
1EA
330
56
100
AcDbEntity
  8
1
  6
Continuous
 62
     7
100
AcDbCircle
 10
177.0251731808303
 20
193.6781979658462
 30
0.0
 40
23.9999999999998
100
AcDbArc
 50
303.9591925000977
 51
326.0408074999029
  0
ARC
  5
1EB
330
56
100
AcDbEntity
  8
1
  6
Continuous
 62
     7
100
AcDbCircle
 10
193.4316283859452
 20
169.7717427607315
 30
0.0
 40
5.0
100
AcDbArc
 50
126.869897645844
 51
224.4270040008092
  0
ARC
  5
1EC
330
56
100
AcDbEntity
  8
1
  6
Continuous
 62
     7
100
AcDbCircle
 10
212.4316283859452
 20
169.7717427607315
 30
0.0
 40
5.000000000000483
100
AcDbArc
 50
315.5729959991997
 51
53.13010235415597
  0
ARC
  5
1ED
330
56
100
AcDbEntity
  8
1
  6
Continuous
 62
     7
100
AcDbCircle
 10
228.8380835910602
 20
193.6781979658462
 30
0.0
 40
23.99999999999995
100
AcDbArc
 50
213.9591925000969
 51
236.040807499902
  0
SPLINE
  5
1EE
330
56
100
AcDbEntity
  8
1
  6
Continuous
 62
     7
100
AcDbSpline
210
0.0
220
0.0
230
1.0
 70
     8
 71
     3
 72
    31
 73
    27
 74
    25
 42
0.000000001
 43
0.0000000001
 44
0.00000001
 40
0.0
 40
0.0
 40
0.0
 40
0.0
 40
0.6136223199405738
 40
1.226312601230359
 40
1.823792573447303
 40
2.422492775333449
 40
3.386424968281369
 40
4.347717869217913
 40
4.885942160074792
 40
5.426447779521204
 40
6.277924436989184
 40
7.123147502844185
 40
7.597230763317724
 40
8.070308893530873
 40
8.677827060496423
 40
9.288219921636406
 40
9.899802251345736
 40
10.51167221090279
 40
11.0354017890517
 40
11.55846313488073
 40
12.23409146617694
 40
12.9106550709015
 40
13.4871507324858
 40
14.0624728740196
 40
15.16486056797567
 40
16.27237002934426
 40
16.27237002934426
 40
16.27237002934426
 40
16.27237002934426
 10
202.9316283859452
 20
173.8220897276623
 30
0.0
 10
202.7271948173251
 20
173.8154902257253
 30
0.0
 10
202.3186381972387
 20
173.8023012345852
 30
0.0
 10
201.7117918301009
 20
173.7606391471555
 30
0.0
 10
201.114235042819
 20
173.6761509319464
 30
0.0
 10
200.4090183028226
 20
173.5290409999794
 30
0.0
 10
199.59967652705
 20
173.2937723698894
 30
0.0
 10
198.8410339404267
 20
172.9731121075463
 30
0.0
 10
198.2470537243793
 20
172.6402939073917
 30
0.0
 10
197.7178253357048
 20
172.2727628663012
 30
0.0
 10
197.1666635391124
 20
171.7636225966654
 30
0.0
 10
196.7588268669883
 20
171.1532404119099
 30
0.0
 10
196.5592203815191
 20
170.5865552201395
 30
0.0
 10
196.485574002412
 20
170.0694951214886
 30
0.0
 10
196.5531275843094
 20
169.5025348285295
 30
0.0
 10
196.7719120989498
 20
168.9274756182564
 30
0.0
 10
197.1143833009066
 20
168.4157864962064
 30
0.0
 10
197.5217074152085
 20
167.9963026314765
 30
0.0
 10
197.9543011211589
 20
167.6504020777658
 30
0.0
 10
198.4375295127338
 20
167.3387990494834
 30
0.0
 10
198.9948842902908
 20
167.0532755264111
 30
0.0
 10
199.5926763293113
 20
166.8147142670906
 30
0.0
 10
200.1736153452284
 20
166.6291343934886
 30
0.0
 10
200.9044016261141
 20
166.4510767046089
 30
0.0
 10
201.8275371665681
 20
166.3327412744706
 30
0.0
 10
202.5630297744931
 20
166.2924484108358
 30
0.0
 10
202.9316283859452
 20
166.2722552923916
 30
0.0
 11
202.9316283859452
 21
173.8220897276623
 31
0.0
 11
202.3184566098321
 21
173.7985794646208
 31
0.0
 11
201.7074723395762
 21
173.7528891687292
 31
0.0
 11
201.1157948045679
 21
173.6698228543422
 31
0.0
 11
200.5295878289392
 21
173.5481539836426
 31
0.0
 11
199.6049635980572
 21
173.2756924166198
 31
0.0
 11
198.7210965276053
 21
172.8977201367966
 31
0.0
 11
198.2522781540619
 21
172.6333440405199
 31
0.0
 11
197.8089269782471
 21
172.3241740872774
 31
0.0
 11
197.1901145435893
 21
171.7392948944687
 31
0.0
 11
196.7305297873701
 21
171.0299403396392
 31
0.0
 11
196.5742935101269
 21
170.582341005297
 31
0.0
 11
196.5100274018413
 21
170.113648371238
 31
0.0
 11
196.5771465019686
 21
169.5098492733486
 31
0.0
 11
196.7922477531492
 21
168.9386129845568
 31
0.0
 11
197.1285093637004
 21
168.4277694898073
 31
0.0
 11
197.5513803005323
 21
167.9855421513042
 31
0.0
 11
197.9596487207959
 21
167.6575031772163
 31
0.0
 11
198.3985298702411
 21
167.3729394609757
 31
0.0
 11
198.9989043245393
 21
167.063061811948
 31
0.0
 11
199.6265365079892
 21
166.8104432175579
 31
0.0
 11
200.1758504273384
 21
166.6355104693554
 31
0.0
 11
200.7349642421413
 21
166.4999106565372
 31
0.0
 11
201.8265966614053
 21
166.3462965588251
 31
0.0
 11
202.9316283859452
 21
166.2722552923916
 31
0.0
  0
SPLINE
  5
1EF
330
56
100
AcDbEntity
  8
1
  6
Continuous
 62
     7
100
AcDbSpline
210
0.0
220
0.0
230
1.0
 70
    11
 71
     3
 72
    79
 73
    75
 74
    73
 42
0.000000001
 43
0.0000000001
 44
0.00000001
 40
0.0
 40
0.0
 40
0.0
 40
0.0
 40
0.2806530201385513
 40
0.5613101053390701
 40
0.8450991068789331
 40
1.128898726441242
 40
1.418494775275107
 40
1.708104589298488
 40
2.005348627400889
 40
2.30260643394974
 40
2.608317745712931
 40
2.9140409682919
 40
3.227993290990092
 40
3.541954914338457
 40
3.862980891158931
 40
4.184013408817788
 40
4.510191417899152
 40
4.836373283028638
 40
5.165260516308764
 40
5.494149021269389
 40
5.82303752622182
 40
6.151924759477257
 40
6.478106624565262
 40
6.804284633587231
 40
7.125317151168606
 40
7.446343127890781
 40
7.760304751120562
 40
8.074257073675179
 40
8.37998029608696
 40
8.685691607652311
 40
8.982949413974826
 40
9.280193451811241
 40
9.56980326552849
 40
9.859399313992363
 40
10.14319893309138
 40
10.42698793393787
 40
10.70764501757291
 40
10.98829804633415
 40
11.26895107509538
 40
11.54960815873043
 40
11.83339715957638
 40
12.11719677867488
 40
12.40679282713927
 40
12.69640264085687
 40
12.99364667869338
 40
13.29090448501596
 40
13.59661579658125
 40
13.90233901899295
 40
14.21629134154764
 40
14.53025296477742
 40
14.85127894149938
 40
15.17231145908054
 40
15.49848946810267
 40
15.82467133319078
 40
16.15355856644622
 40
16.48244707139864
 40
16.81133557635932
 40
17.14022280963939
 40
17.46640467476897
 40
17.7925826838505
 40
18.11361520150918
 40
18.43464117832941
 40
18.74860280167779
 40
19.06255512437603
 40
19.36827834695493
 40
19.67398965871806
 40
19.97124746526698
 40
20.26849150336947
 40
20.55810131739326
 40
20.84769736622759
 40
21.13149698578934
 40
21.41528598732869
 40
21.69594307252919
 40
21.97659609266777
 40
21.97659609266777
 40
21.97659609266777
 40
21.97659609266777
 10
191.6732981367472
 20
173.8220897276623
 30
0.0
 10
191.579707310656
 20
173.8192942374135
 30
0.0
 10
191.3925243026563
 20
173.8137032223639
 30
0.0
 10
191.1136598557301
 20
173.7688859532993
 30
0.0
 10
190.8396350467047
 20
173.6976928900839
 30
0.0
 10
190.5713287383013
 20
173.5979887368936
 30
0.0
 10
190.3124007944544
 20
173.4716275354884
 30
0.0
 10
190.0629523488524
 20
173.3187184281076
 30
0.0
 10
189.8269053733599
 20
173.1415621139013
 30
0.0
 10
189.6039668144523
 20
172.94012108178
 30
0.0
 10
189.3978327979518
 20
172.7176480286592
 30
0.0
 10
189.2081733844201
 20
172.4739223015359
 30
0.0
 10
189.0380757491867
 20
172.2128761079522
 30
0.0
 10
188.887398689209
 20
171.9343740516837
 30
0.0
 10
188.7584044469502
 20
171.6426087260318
 30
0.0
 10
188.6511995960028
 20
171.3378522746891
 30
0.0
 10
188.567179547302
 20
171.0241279727386
 30
0.0
 10
188.5066074075643
 20
170.702392523414
 30
0.0
 10
188.4701163499138
 20
170.3761361140178
 30
0.0
 10
188.4579268098881
 20
170.0471725195692
 30
0.0
 10
188.4701163496236
 20
169.7182089251202
 30
0.0
 10
188.5066074069822
 20
169.3919525157106
 30
0.0
 10
188.5671795464238
 20
169.0702170663933
 30
0.0
 10
188.6511995948234
 20
168.7564927643487
 30
0.0
 10
188.7584044454613
 20
168.451736313257
 30
0.0
 10
188.8873986874021
 20
168.1599709865514
 30
0.0
 10
189.0380757470493
 20
167.8814689339698
 30
0.0
 10
189.2081733819406
 20
167.620422726606
 30
0.0
 10
189.3978327951136
 20
167.376697049368
 30
0.0
 10
189.6039668112396
 20
167.1542238125154
 30
0.0
 10
189.8269053697499
 20
166.9527834475694
 30
0.0
 10
190.0629523448204
 20
166.775624678969
 30
0.0
 10
190.3124007899617
 20
166.6227245060084
 30
0.0
 10
190.5713287332923
 20
166.4963303654228
 30
0.0
 10
190.8396350410388
 20
166.3967467923836
 30
0.0
 10
191.1136598490411
 20
166.3251072895733
 30
0.0
 10
191.3925242976472
 20
166.2819386655751
 30
0.0
 10
191.6732981367471
 20
166.2674136557759
 30
0.0
 10
191.9540719758474
 20
166.2819386655751
 30
0.0
 10
192.232936424453
 20
166.3251072895732
 30
0.0
 10
192.5069612324551
 20
166.3967467923837
 30
0.0
 10
192.7752675402013
 20
166.496330365423
 30
0.0
 10
193.0341954835322
 20
166.6227245060083
 30
0.0
 10
193.2836439286738
 20
166.775624678969
 30
0.0
 10
193.5196909037445
 20
166.9527834475693
 30
0.0
 10
193.742629462255
 20
167.1542238125154
 30
0.0
 10
193.9487634783806
 20
167.3766970493681
 30
0.0
 10
194.1384228915536
 20
167.6204227266061
 30
0.0
 10
194.3085205264451
 20
167.8814689339697
 30
0.0
 10
194.4591975860924
 20
168.1599709865513
 30
0.0
 10
194.5881918280324
 20
168.451736313257
 30
0.0
 10
194.6953966786697
 20
168.7564927643489
 30
0.0
 10
194.7794167270699
 20
169.0702170663933
 30
0.0
 10
194.8399888665124
 20
169.3919525157105
 30
0.0
 10
194.876479923871
 20
169.7182089251201
 30
0.0
 10
194.8886694636061
 20
170.0471725195693
 30
0.0
 10
194.8764799235808
 20
170.3761361140178
 30
0.0
 10
194.8399888659304
 20
170.7023925234141
 30
0.0
 10
194.7794167261918
 20
171.0241279727387
 30
0.0
 10
194.6953966774903
 20
171.3378522746889
 30
0.0
 10
194.5881918265435
 20
171.6426087260317
 30
0.0
 10
194.4591975842854
 20
171.9343740516838
 30
0.0
 10
194.3085205243078
 20
172.2128761079523
 30
0.0
 10
194.1384228890742
 20
172.4739223015358
 30
0.0
 10
193.9487634755426
 20
172.7176480286592
 30
0.0
 10
193.7426294590421
 20
172.94012108178
 30
0.0
 10
193.5196909001344
 20
173.1415621139012
 30
0.0
 10
193.2836439246419
 20
173.3187184281078
 30
0.0
 10
193.0341954790393
 20
173.4716275354883
 30
0.0
 10
192.7752675351923
 20
173.5979887368935
 30
0.0
 10
192.5069612267891
 20
173.6976928900837
 30
0.0
 10
192.232936417764
 20
173.7688859532995
 30
0.0
 10
191.9540719708383
 20
173.813703222364
 30
0.0
 10
191.7668889628384
 20
173.8192942374135
 30
0.0
 10
191.6732981367472
 20
173.8220897276623
 30
0.0
 11
191.6732981367472
 21
173.8220897276623
 31
0.0
 11
191.3930163426706
 21
173.8076592540556
 31
0.0
 11
191.1156603294992
 21
173.7647402529336
 31
0.0
 11
190.8410630794835
 21
173.6930984537523
 31
0.0
 11
190.5749660648451
 21
173.5944343635164
 31
0.0
 11
190.3146373832061
 21
173.4675688879066
 31
0.0
 11
190.0676440644141
 21
173.3163467176825
 31
0.0
 11
189.8297828649441
 21
173.1380882875645
 31
0.0
 11
189.6091090504702
 21
172.9389268678307
 31
0.0
 11
189.401182263698
 21
172.7148156065247
 31
0.0
 11
189.2132933773831
 21
172.4736425251153
 31
0.0
 11
189.0417511834158
 21
172.210698925463
 31
0.0
 11
188.8922237040862
 21
171.9346311188447
 31
0.0
 11
188.7622907622908
 21
171.6410751473038
 31
0.0
 11
188.6556555701341
 21
171.3382702378452
 31
0.0
 11
188.571189718977
 21
171.023218474468
 31
0.0
 11
188.5107769785683
 21
170.7026800057129
 31
0.0
 11
188.4741833582607
 21
170.3758349060259
 31
0.0
 11
188.4619899920812
 21
170.0471725100269
 31
0.0
 11
188.4741833582607
 21
169.718510114028
 31
0.0
 11
188.5107769785683
 21
169.391665014341
 31
0.0
 11
188.571189718977
 21
169.0711265455859
 31
0.0
 11
188.6556555701341
 21
168.7560747822087
 31
0.0
 11
188.7622907622908
 21
168.4532698727501
 31
0.0
 11
188.8922237040862
 21
168.1597139012092
 31
0.0
 11
189.0417511834158
 21
167.8836460945909
 31
0.0
 11
189.2132933773831
 21
167.6207024949385
 31
0.0
 11
189.4011822636979
 21
167.3795294135293
 31
0.0
 11
189.6091090504702
 21
167.1554181522233
 31
0.0
 11
189.8297828649441
 21
166.9562567324895
 31
0.0
 11
190.0676440644141
 21
166.7779983023714
 31
0.0
 11
190.3146373832061
 21
166.6267761321471
 31
0.0
 11
190.5749660648451
 21
166.4999106565372
 31
0.0
 11
190.8410630794834
 21
166.4012465663015
 31
0.0
 11
191.1156603294992
 21
166.3296047671203
 31
0.0
 11
191.3930163426705
 21
166.2866857659982
 31
0.0
 11
191.6732981367472
 21
166.2722552923916
 31
0.0
 11
191.9535799308239
 21
166.2866857659982
 31
0.0
 11
192.2309359439952
 21
166.3296047671203
 31
0.0
 11
192.5055331940104
 21
166.4012465663015
 31
0.0
 11
192.7716302086482
 21
166.4999106565372
 31
0.0
 11
193.0319588902878
 21
166.6267761321471
 31
0.0
 11
193.2789522090802
 21
166.7779983023714
 31
0.0
 11
193.5168134085503
 21
166.9562567324895
 31
0.0
 11
193.7374872230243
 21
167.1554181522233
 31
0.0
 11
193.9454140097964
 21
167.3795294135293
 31
0.0
 11
194.1333028961112
 21
167.6207024949385
 31
0.0
 11
194.3048450900787
 21
167.8836460945908
 31
0.0
 11
194.4543725694082
 21
168.1597139012092
 31
0.0
 11
194.584305511203
 21
168.4532698727502
 31
0.0
 11
194.6909407033592
 21
168.7560747822087
 31
0.0
 11
194.7754065545168
 21
169.0711265455859
 31
0.0
 11
194.8358192949262
 21
169.391665014341
 31
0.0
 11
194.8724129152338
 21
169.718510114028
 31
0.0
 11
194.8846062814131
 21
170.0471725100269
 31
0.0
 11
194.8724129152338
 21
170.3758349060259
 31
0.0
 11
194.8358192949262
 21
170.7026800057129
 31
0.0
 11
194.7754065545168
 21
171.023218474468
 31
0.0
 11
194.6909407033592
 21
171.3382702378452
 31
0.0
 11
194.584305511203
 21
171.6410751473038
 31
0.0
 11
194.4543725694082
 21
171.9346311188447
 31
0.0
 11
194.3048450900786
 21
172.210698925463
 31
0.0
 11
194.1333028961112
 21
172.4736425251153
 31
0.0
 11
193.9454140097964
 21
172.7148156065246
 31
0.0
 11
193.7374872230243
 21
172.9389268678307
 31
0.0
 11
193.5168134085503
 21
173.1380882875645
 31
0.0
 11
193.2789522090802
 21
173.3163467176825
 31
0.0
 11
193.0319588902877
 21
173.4675688879066
 31
0.0
 11
192.7716302086482
 21
173.5944343635164
 31
0.0
 11
192.5055331940104
 21
173.6930984537522
 31
0.0
 11
192.2309359439952
 21
173.7647402529336
 31
0.0
 11
191.9535799308239
 21
173.8076592540557
 31
0.0
 11
191.6732981367472
 21
173.8220897276623
 31
0.0
  0
SPLINE
  5
1F0
330
56
100
AcDbEntity
  8
1
  6
Continuous
 62
     7
100
AcDbSpline
210
0.0
220
0.0
230
1.0
 70
     8
 71
     3
 72
    31
 73
    27
 74
    25
 42
0.000000001
 43
0.0000000001
 44
0.00000001
 40
0.0
 40
0.0
 40
0.0
 40
0.0
 40
0.6136223199401761
 40
1.226312601229479
 40
1.823792573446311
 40
2.422492775332373
 40
3.386424968280375
 40
4.347717869217023
 40
4.885942160073902
 40
5.426447779520291
 40
6.277924436988165
 40
7.123147502843072
 40
7.59723076331663
 40
8.070308893529813
 40
8.677827060495284
 40
9.288219921635175
 40
9.8998022513447
 40
10.51167221090209
 40
11.03540178905111
 40
11.55846313488026
 40
12.23409146617644
 40
12.91065507090095
 40
13.48715073248516
 40
14.06247287401894
 40
15.16486056797453
 40
16.27237002934261
 40
16.27237002934261
 40
16.27237002934261
 40
16.27237002934261
 10
202.9316283859452
 20
173.8220897276623
 30
0.0
 10
203.1360619545652
 20
173.8154902257252
 30
0.0
 10
203.5446185746513
 20
173.8023012345852
 30
0.0
 10
204.1514649417888
 20
173.7606391471555
 30
0.0
 10
204.7490217290705
 20
173.6761509319464
 30
0.0
 10
205.4542384690667
 20
173.5290409999793
 30
0.0
 10
206.2635802448394
 20
173.2937723698894
 30
0.0
 10
207.0222228314627
 20
172.9731121075463
 30
0.0
 10
207.6162030475102
 20
172.6402939073917
 30
0.0
 10
208.1454314361847
 20
172.2727628663012
 30
0.0
 10
208.6965932327768
 20
171.7636225966652
 30
0.0
 10
209.1044299049009
 20
171.15324041191
 30
0.0
 10
209.3040363903702
 20
170.5865552201394
 30
0.0
 10
209.3776827694776
 20
170.0694951214887
 30
0.0
 10
209.3101291875806
 20
169.5025348285296
 30
0.0
 10
209.0913446729407
 20
168.9274756182562
 30
0.0
 10
208.7488734709834
 20
168.4157864962063
 30
0.0
 10
208.3415493566811
 20
167.9963026314766
 30
0.0
 10
207.9089556507304
 20
167.6504020777658
 30
0.0
 10
207.4257272591555
 20
167.3387990494834
 30
0.0
 10
206.8683724815985
 20
167.0532755264111
 30
0.0
 10
206.2705804425781
 20
166.8147142670906
 30
0.0
 10
205.6896414266609
 20
166.6291343934886
 30
0.0
 10
204.9588551457755
 20
166.451076704609
 30
0.0
 10
204.0357196053218
 20
166.3327412744705
 30
0.0
 10
203.3002269973971
 20
166.2924484108359
 30
0.0
 10
202.9316283859452
 20
166.2722552923916
 30
0.0
 11
202.9316283859452
 21
173.8220897276623
 31
0.0
 11
203.5448001620579
 21
173.7985794646208
 31
0.0
 11
204.1557844323133
 21
173.7528891687292
 31
0.0
 11
204.7474619673215
 21
173.6698228543422
 31
0.0
 11
205.3336689429501
 21
173.5481539836426
 31
0.0
 11
206.2582931738322
 21
173.2756924166198
 31
0.0
 11
207.1421602442842
 21
172.8977201367966
 31
0.0
 11
207.6109786178277
 21
172.6333440405199
 31
0.0
 11
208.0543297936424
 21
172.3241740872774
 31
0.0
 11
208.6731422283
 21
171.7392948944687
 31
0.0
 11
209.1327269845191
 21
171.0299403396392
 31
0.0
 11
209.2889632617623
 21
170.582341005297
 31
0.0
 11
209.3532293700482
 21
170.113648371238
 31
0.0
 11
209.2861102699214
 21
169.5098492733486
 31
0.0
 11
209.0710090187411
 21
168.9386129845568
 31
0.0
 11
208.7347474081896
 21
168.4277694898073
 31
0.0
 11
208.3118764713572
 21
167.9855421513042
 31
0.0
 11
207.9036080510934
 21
167.6575031772163
 31
0.0
 11
207.4647269016481
 21
167.3729394609757
 31
0.0
 11
206.8643524473499
 21
167.063061811948
 31
0.0
 11
206.2367202639001
 21
166.8104432175579
 31
0.0
 11
205.687406344551
 21
166.6355104693554
 31
0.0
 11
205.1282925297481
 21
166.4999106565372
 31
0.0
 11
204.0366601104846
 21
166.3462965588251
 31
0.0
 11
202.9316283859452
 21
166.2722552923916
 31
0.0
  0
SPLINE
  5
1F1
330
56
100
AcDbEntity
  8
1
  6
Continuous
 62
     7
100
AcDbSpline
210
0.0
220
0.0
230
1.0
 70
    11
 71
     3
 72
    79
 73
    75
 74
    73
 42
0.000000001
 43
0.0000000001
 44
0.00000001
 40
0.0
 40
0.0
 40
0.0
 40
0.0
 40
0.2806530201384632
 40
0.5613101053388783
 40
0.8450991068787556
 40
1.128898726441072
 40
1.418494775275436
 40
1.7081045892992
 40
2.005348627401158
 40
2.302606433949654
 40
2.608317745713293
 40
2.914040968292479
 40
3.227993290990405
 40
3.541954914338627
 40
3.862980891159107
 40
4.184013408817881
 40
4.510191417899245
 40
4.836373283028767
 40
5.165260516308947
 40
5.494149021269584
 40
5.823037526222024
 40
6.151924759477519
 40
6.478106624565566
 40
6.804284633587527
 40
7.125317151168776
 40
7.446343127890998
 40
7.760304751120571
 40
8.074257073674984
 40
8.379980296087037
 40
8.685691607652778
 40
8.982949413974916
 40
9.280193451810911
 40
9.56980326552853
 40
9.859399313992913
 40
10.14319893309197
 40
10.42698793393845
 40
10.70764501757341
 40
10.98829804633453
 40
11.26895107509573
 40
11.5496081587308
 40
11.8333971595767
 40
12.11719677867525
 40
12.4067928271396
 40
12.69640264085725
 40
12.99364667869376
 40
13.29090448501633
 40
13.59661579658163
 40
13.90233901899333
 40
14.21629134154809
 40
14.5302529647779
 40
14.85127894149983
 40
15.17231145908095
 40
15.49848946810307
 40
15.82467133319118
 40
16.15355856644662
 40
16.48244707139904
 40
16.81133557635972
 40
17.14022280963979
 40
17.4664046747693
 40
17.7925826838509
 40
18.11361520150955
 40
18.43464117832972
 40
18.74860280167814
 40
19.06255512437645
 40
19.36827834695535
 40
19.67398965871848
 40
19.97124746526746
 40
20.26849150336989
 40
20.55810131739367
 40
20.847697366228
 40
21.13149698578976
 40
21.41528598732911
 40
21.69594307252964
 40
21.97659609266819
 40
21.97659609266819
 40
21.97659609266819
 40
21.97659609266819
 10
214.1899586351423
 20
173.8220897276623
 30
0.0
 10
214.2835494612335
 20
173.8192942374135
 30
0.0
 10
214.4707324692331
 20
173.813703222364
 30
0.0
 10
214.7495969161591
 20
173.7688859532994
 30
0.0
 10
215.0236217251846
 20
173.6976928900838
 30
0.0
 10
215.2919280335882
 20
173.5979887368935
 30
0.0
 10
215.5508559774354
 20
173.4716275354885
 30
0.0
 10
215.8003044230378
 20
173.3187184281079
 30
0.0
 10
216.0363513985298
 20
173.1415621139011
 30
0.0
 10
216.2592899574371
 20
172.9401210817797
 30
0.0
 10
216.4654239739381
 20
172.7176480286593
 30
0.0
 10
216.6550833874702
 20
172.4739223015361
 30
0.0
 10
216.8251810227035
 20
172.2128761079523
 30
0.0
 10
216.9758580826803
 20
171.9343740516836
 30
0.0
 10
217.1048523249392
 20
171.6426087260318
 30
0.0
 10
217.2120571758865
 20
171.3378522746891
 30
0.0
 10
217.2960772245873
 20
171.0241279727386
 30
0.0
 10
217.3566493643252
 20
170.7023925234141
 30
0.0
 10
217.3931404219762
 20
170.3761361140178
 30
0.0
 10
217.4053299620024
 20
170.0471725195692
 30
0.0
 10
217.3931404222664
 20
169.7182089251201
 30
0.0
 10
217.3566493649072
 20
169.3919525157106
 30
0.0
 10
217.2960772254654
 20
169.0702170663934
 30
0.0
 10
217.2120571770659
 20
168.7564927643487
 30
0.0
 10
217.1048523264281
 20
168.451736313257
 30
0.0
 10
216.9758580844873
 20
168.1599709865516
 30
0.0
 10
216.8251810248408
 20
167.8814689339697
 30
0.0
 10
216.6550833899497
 20
167.6204227266058
 30
0.0
 10
216.4654239767762
 20
167.3766970493681
 30
0.0
 10
216.2592899606498
 20
167.1542238125157
 30
0.0
 10
216.0363514021399
 20
166.9527834475695
 30
0.0
 10
215.8003044270696
 20
166.7756246789687
 30
0.0
 10
215.5508559819284
 20
166.6227245060083
 30
0.0
 10
215.2919280385971
 20
166.4963303654229
 30
0.0
 10
215.0236217308505
 20
166.3967467923837
 30
0.0
 10
214.7495969228481
 20
166.3251072895733
 30
0.0
 10
214.4707324742423
 20
166.2819386655751
 30
0.0
 10
214.1899586351423
 20
166.2674136557759
 30
0.0
 10
213.9091847960422
 20
166.2819386655751
 30
0.0
 10
213.6303203474365
 20
166.3251072895732
 30
0.0
 10
213.3562955394345
 20
166.3967467923837
 30
0.0
 10
213.0879892316883
 20
166.496330365423
 30
0.0
 10
212.8290612883573
 20
166.6227245060084
 30
0.0
 10
212.5796128432157
 20
166.7756246789689
 30
0.0
 10
212.343565868145
 20
166.9527834475693
 30
0.0
 10
212.1206273096345
 20
167.1542238125154
 30
0.0
 10
211.9144932935089
 20
167.3766970493681
 30
0.0
 10
211.7248338803359
 20
167.6204227266061
 30
0.0
 10
211.5547362454442
 20
167.8814689339697
 30
0.0
 10
211.4040591857968
 20
168.1599709865513
 30
0.0
 10
211.275064943857
 20
168.4517363132571
 30
0.0
 10
211.1678600932199
 20
168.7564927643489
 30
0.0
 10
211.0838400448196
 20
169.0702170663933
 30
0.0
 10
211.023267905377
 20
169.3919525157106
 30
0.0
 10
210.9867768480185
 20
169.7182089251201
 30
0.0
 10
210.9745873082835
 20
170.0471725195693
 30
0.0
 10
210.9867768483087
 20
170.3761361140178
 30
0.0
 10
211.0232679059591
 20
170.7023925234141
 30
0.0
 10
211.0838400456978
 20
171.0241279727386
 30
0.0
 10
211.1678600943992
 20
171.3378522746889
 30
0.0
 10
211.2750649453459
 20
171.6426087260317
 30
0.0
 10
211.4040591876038
 20
171.9343740516839
 30
0.0
 10
211.5547362475816
 20
172.2128761079524
 30
0.0
 10
211.7248338828154
 20
172.4739223015358
 30
0.0
 10
211.9144932963468
 20
172.7176480286592
 30
0.0
 10
212.1206273128475
 20
172.9401210817801
 30
0.0
 10
212.3435658717549
 20
173.1415621139012
 30
0.0
 10
212.5796128472476
 20
173.3187184281078
 30
0.0
 10
212.8290612928502
 20
173.4716275354884
 30
0.0
 10
213.0879892366972
 20
173.5979887368935
 30
0.0
 10
213.3562955451003
 20
173.6976928900836
 30
0.0
 10
213.6303203541254
 20
173.7688859532995
 30
0.0
 10
213.9091848010513
 20
173.8137032223641
 30
0.0
 10
214.0963678090511
 20
173.8192942374135
 30
0.0
 10
214.1899586351423
 20
173.8220897276623
 30
0.0
 11
214.1899586351423
 21
173.8220897276623
 31
0.0
 11
214.4702404292188
 21
173.8076592540557
 31
0.0
 11
214.7475964423901
 21
173.7647402529336
 31
0.0
 11
215.0221936924058
 21
173.6930984537523
 31
0.0
 11
215.2882907070442
 21
173.5944343635164
 31
0.0
 11
215.5486193886838
 21
173.4675688879067
 31
0.0
 11
215.7956127074762
 21
173.3163467176825
 31
0.0
 11
216.0334739069456
 21
173.1380882875644
 31
0.0
 11
216.2541477214191
 21
172.9389268678307
 31
0.0
 11
216.4620745081919
 21
172.7148156065246
 31
0.0
 11
216.6499633945072
 21
172.4736425251153
 31
0.0
 11
216.8215055884742
 21
172.2106989254631
 31
0.0
 11
216.9710330678033
 21
171.9346311188447
 31
0.0
 11
217.1009660095986
 21
171.6410751473037
 31
0.0
 11
217.2076012017552
 21
171.3382702378452
 31
0.0
 11
217.2920670529123
 21
171.023218474468
 31
0.0
 11
217.3524797933212
 21
170.7026800057129
 31
0.0
 11
217.3890734136293
 21
170.3758349060259
 31
0.0
 11
217.4012667798091
 21
170.0471725100269
 31
0.0
 11
217.3890734136293
 21
169.718510114028
 31
0.0
 11
217.3524797933212
 21
169.391665014341
 31
0.0
 11
217.2920670529123
 21
169.0711265455859
 31
0.0
 11
217.2076012017552
 21
168.7560747822087
 31
0.0
 11
217.1009660095986
 21
168.4532698727502
 31
0.0
 11
216.9710330678033
 21
168.1597139012092
 31
0.0
 11
216.8215055884742
 21
167.8836460945908
 31
0.0
 11
216.6499633945072
 21
167.6207024949385
 31
0.0
 11
216.4620745081919
 21
167.3795294135293
 31
0.0
 11
216.2541477214191
 21
167.1554181522233
 31
0.0
 11
216.0334739069456
 21
166.9562567324895
 31
0.0
 11
215.7956127074762
 21
166.7779983023714
 31
0.0
 11
215.5486193886838
 21
166.626776132147
 31
0.0
 11
215.2882907070442
 21
166.4999106565372
 31
0.0
 11
215.0221936924058
 21
166.4012465663015
 31
0.0
 11
214.7475964423901
 21
166.3296047671203
 31
0.0
 11
214.4702404292188
 21
166.2866857659982
 31
0.0
 11
214.1899586351423
 21
166.2722552923916
 31
0.0
 11
213.9096768410656
 21
166.2866857659982
 31
0.0
 11
213.6323208278943
 21
166.3296047671203
 31
0.0
 11
213.3577235778791
 21
166.4012465663015
 31
0.0
 11
213.0916265632413
 21
166.4999106565372
 31
0.0
 11
212.8312978816018
 21
166.6267761321471
 31
0.0
 11
212.5843045628093
 21
166.7779983023714
 31
0.0
 11
212.3464433633392
 21
166.9562567324895
 31
0.0
 11
212.1257695488652
 21
167.1554181522233
 31
0.0
 11
211.9178427620931
 21
167.3795294135293
 31
0.0
 11
211.7299538757783
 21
167.6207024949385
 31
0.0
 11
211.5584116818107
 21
167.8836460945908
 31
0.0
 11
211.4088842024811
 21
168.1597139012092
 31
0.0
 11
211.2789512606864
 21
168.4532698727502
 31
0.0
 11
211.1723160685303
 21
168.7560747822087
 31
0.0
 11
211.0878502173727
 21
169.0711265455859
 31
0.0
 11
211.0274374769633
 21
169.391665014341
 31
0.0
 11
210.9908438566557
 21
169.718510114028
 31
0.0
 11
210.9786504904764
 21
170.0471725100269
 31
0.0
 11
210.9908438566557
 21
170.3758349060259
 31
0.0
 11
211.0274374769633
 21
170.7026800057129
 31
0.0
 11
211.0878502173727
 21
171.0232184744679
 31
0.0
 11
211.1723160685303
 21
171.3382702378452
 31
0.0
 11
211.2789512606865
 21
171.6410751473038
 31
0.0
 11
211.4088842024811
 21
171.9346311188447
 31
0.0
 11
211.5584116818107
 21
172.210698925463
 31
0.0
 11
211.7299538757783
 21
172.4736425251153
 31
0.0
 11
211.9178427620931
 21
172.7148156065246
 31
0.0
 11
212.1257695488652
 21
172.9389268678307
 31
0.0
 11
212.3464433633392
 21
173.1380882875646
 31
0.0
 11
212.5843045628093
 21
173.3163467176825
 31
0.0
 11
212.8312978816018
 21
173.4675688879066
 31
0.0
 11
213.0916265632413
 21
173.5944343635164
 31
0.0
 11
213.3577235778791
 21
173.6930984537522
 31
0.0
 11
213.6323208278943
 21
173.7647402529336
 31
0.0
 11
213.9096768410656
 21
173.8076592540557
 31
0.0
 11
214.1899586351423
 21
173.8220897276623
 31
0.0
  0
SPLINE
  5
1F2
330
56
100
AcDbEntity
  8
1
  6
Continuous
 62
     7
100
AcDbSpline
210
0.0
220
0.0
230
1.0
 70
    11
 71
     3
 72
    79
 73
    75
 74
    73
 42
0.000000001
 43
0.0000000001
 44
0.00000001
 40
0.0
 40
0.0
 40
0.0
 40
0.0
 40
0.3102615582252457
 40
0.6205595420822332
 40
0.9422162975290602
 40
1.263944872753868
 40
1.606039020845065
 40
1.948193468907018
 40
2.316051885190491
 40
2.683951048239935
 40
3.079084664080396
 40
3.474244780173792
 40
3.894897959207634
 40
4.315568207494315
 40
4.757452126736498
 40
5.199346674241647
 40
5.656354161987101
 40
6.113367478658257
 40
6.578223037733451
 40
7.043080455843088
 40
7.507937873950461
 40
7.97279343301873
 40
8.429806749677637
 40
8.886814237403591
 40
9.328708784880419
 40
9.770592704081503
 40
10.19126295231283
 40
10.61191613126951
 40
11.00707624726334
 40
11.40220986296892
 40
11.77010902585008
 40
12.13796744191004
 40
12.48012188969642
 40
12.82221603741926
 40
13.14394461216156
 40
13.46560136682488
 40
13.77589934864159
 40
14.08616091447272
 40
14.39642248030379
 40
14.70672046212045
 40
15.02837721678369
 40
15.35010579152588
 40
15.69219993924871
 40
16.03435438703516
 40
16.40221280309517
 40
16.77011196597637
 40
17.16524558168194
 40
17.56040569767578
 40
17.98105887663246
 40
18.40172912486378
 40
18.84361304406483
 40
19.28550759154161
 40
19.74251507926758
 40
20.19952839592649
 40
20.66438395499474
 40
21.12924137310213
 40
21.59409879121176
 40
22.05895435028696
 40
22.51596766695803
 40
22.97297515470351
 40
23.41486970220868
 40
23.85675362145082
 40
24.27742386973749
 40
24.69807704877135
 40
25.09323716486479
 40
25.48837078070521
 40
25.85626994375469
 40
26.2241283600382
 40
26.56628280810021
 40
26.90837695619142
 40
27.23010553141622
 40
27.55176228686286
 40
27.86206027071982
 40
28.17232182894498
 40
28.17232182894498
 40
28.17232182894498
 40
28.17232182894498
 10
72.35126439695773
 20
169.8070998678671
 30
0.0
 10
72.35529758867372
 20
169.9105900497893
 30
0.0
 10
72.36336443734459
 20
170.117582564134
 30
0.0
 10
72.42734841515413
 20
170.4264314321566
 30
0.0
 10
72.52876921145135
 20
170.7283983458908
 30
0.0
 10
72.67119171154897
 20
171.0253080020057
 30
0.0
 10
72.85029428430906
 20
171.3096261103657
 30
0.0
 10
73.06826455216967
 20
171.5851271566621
 30
0.0
 10
73.31854670620464
 20
171.8437331773306
 30
0.0
 10
73.60500886797614
 20
172.0894910669435
 30
0.0
 10
73.91883962026344
 20
172.3151363271382
 30
0.0
 10
74.26475378529472
 20
172.523907995026
 30
0.0
 10
74.63287257744527
 20
172.7101287632973
 30
0.0
 10
75.02756651236206
 20
172.8758132936439
 30
0.0
 10
75.43911971233399
 20
173.0171210664936
 30
0.0
 10
75.87054541192843
 20
173.1349005550682
 30
0.0
 10
76.31331944063902
 20
173.2270188567067
 30
0.0
 10
76.76837743923298
 20
173.2935047840997
 30
0.0
 10
77.22914454131413
 20
173.33356234101
 30
0.0
 10
77.69406671674506
 20
173.3469042983051
 30
0.0
 10
78.15898889217202
 20
173.3335623410885
 30
0.0
 10
78.61975599426464
 20
173.2935047842608
 30
0.0
 10
79.0748139928169
 20
173.2270188569593
 30
0.0
 10
79.51758802168183
 20
173.1349005554244
 30
0.0
 10
79.94901372072351
 20
173.0171210669714
 30
0.0
 10
80.36056692272231
 20
172.8758132942635
 30
0.0
 10
80.75526085044464
 20
172.7101287640864
 30
0.0
 10
81.12337966866674
 20
172.5239079960126
 30
0.0
 10
81.46929374208977
 20
172.31513632836
 30
0.0
 10
81.78312482402784
 20
172.0894910684372
 30
0.0
 10
82.06958583650075
 20
171.8437331791459
 30
0.0
 10
82.31987211557386
 20
171.585127158847
 30
0.0
 10
82.53782801358082
 20
171.3096261129907
 30
0.0
 10
82.71698232731993
 20
171.0253080051513
 30
0.0
 10
82.85922267870764
 20
170.728398349739
 30
0.0
 10
82.96130633074776
 20
170.4264314372296
 30
0.0
 10
83.0228995706756
 20
170.1175825680831
 30
0.0
 10
83.0438533741371
 20
169.8070998678671
 30
0.0
 10
83.02289957067556
 20
169.4966171676512
 30
0.0
 10
82.96130633074776
 20
169.1877682985046
 30
0.0
 10
82.85922267870761
 20
168.8858013859955
 30
0.0
 10
82.71698232731993
 20
168.5888917305832
 30
0.0
 10
82.53782801358076
 20
168.3045736227439
 30
0.0
 10
82.3198721155739
 20
168.0290725768874
 30
0.0
 10
82.06958583650079
 20
167.7704665565884
 30
0.0
 10
81.78312482402784
 20
167.5247086672971
 30
0.0
 10
81.46929374208977
 20
167.2990634073743
 30
0.0
 10
81.12337966866674
 20
167.0902917397218
 30
0.0
 10
80.75526085044464
 20
166.904070971648
 30
0.0
 10
80.36056692272233
 20
166.7383864414708
 30
0.0
 10
79.94901372072351
 20
166.597078668763
 30
0.0
 10
79.51758802168177
 20
166.4792991803102
 30
0.0
 10
79.0748139928169
 20
166.3871808787754
 30
0.0
 10
78.61975599426464
 20
166.3206949514736
 30
0.0
 10
78.15898889217202
 20
166.2806373946461
 30
0.0
 10
77.69406671674506
 20
166.2672954374293
 30
0.0
 10
77.22914454131413
 20
166.2806373947246
 30
0.0
 10
76.768377439233
 20
166.3206949516348
 30
0.0
 10
76.31331944063906
 20
166.3871808790278
 30
0.0
 10
75.87054541192852
 20
166.4792991806665
 30
0.0
 10
75.43911971233408
 20
166.5970786692409
 30
0.0
 10
75.02756651236203
 20
166.7383864420904
 30
0.0
 10
74.63287257744526
 20
166.904070972437
 30
0.0
 10
74.26475378529469
 20
167.0902917407083
 30
0.0
 10
73.91883962026347
 20
167.2990634085962
 30
0.0
 10
73.60500886797614
 20
167.5247086687908
 30
0.0
 10
73.31854670620463
 20
167.7704665584038
 30
0.0
 10
73.06826455216964
 20
168.0290725790723
 30
0.0
 10
72.8502942843091
 20
168.3045736253687
 30
0.0
 10
72.67119171154896
 20
168.5888917337288
 30
0.0
 10
72.52876921145142
 20
168.8858013898437
 30
0.0
 10
72.42734841515409
 20
169.1877683035776
 30
0.0
 10
72.36336443734459
 20
169.4966171716002
 30
0.0
 10
72.35529758867374
 20
169.7036096859449
 30
0.0
 10
72.35126439695773
 20
169.8070998678671
 30
0.0
 11
72.35126439695773
 21
169.8070998678671
 31
0.0
 11
72.37188149015856
 21
170.1166756660038
 31
0.0
 11
72.43243356955665
 21
170.4210081869231
 31
0.0
 11
72.53490045818846
 21
170.7259075221866
 31
0.0
 11
72.67347480311724
 21
171.0162632123572
 31
0.0
 11
72.85526684747457
 21
171.3060563430486
 31
0.0
 11
73.06706418173084
 21
171.574778421435
 31
0.0
 11
73.32242069200468
 21
171.8395667652039
 31
0.0
 11
73.60124269129383
 21
172.0795836121512
 31
0.0
 11
73.9217346189188
 21
172.3107015444765
 31
0.0
 11
74.25977958810074
 21
172.5153405342297
 31
0.0
 11
74.63494331194494
 21
172.7056068668208
 31
0.0
 11
75.02266556177777
 21
172.8688089340965
 31
0.0
 11
75.44050188623905
 21
173.0125942046785
 31
0.0
 11
75.86672070805355
 21
173.1292488532857
 31
0.0
 11
76.3141106741435
 21
173.2225122549851
 31
0.0
 11
76.76629883842125
 21
173.2887469566413
 31
0.0
 11
77.22940205163364
 21
173.329071945408
 31
0.0
 11
77.69406672659795
 21
173.342456975003
 31
0.0
 11
78.15873140156216
 21
173.329071945408
 31
0.0
 11
78.62183461477447
 21
173.2887469566413
 31
0.0
 11
79.0740227790522
 21
173.2225122549851
 31
0.0
 11
79.52141274514217
 21
173.1292488532857
 31
0.0
 11
79.94763156695663
 21
173.0125942046785
 31
0.0
 11
80.36546789141784
 21
172.8688089340965
 31
0.0
 11
80.75319014125071
 21
172.7056068668208
 31
0.0
 11
81.12835386509495
 21
172.5153405342297
 31
0.0
 11
81.46639883427686
 21
172.3107015444765
 31
0.0
 11
81.78689076190184
 21
172.0795836121512
 31
0.0
 11
82.0657127611911
 21
171.8395667652039
 31
0.0
 11
82.32106927146495
 21
171.574778421435
 31
0.0
 11
82.53286660572104
 21
171.3060563430486
 31
0.0
 11
82.71465865007823
 21
171.0162632123572
 31
0.0
 11
82.85323299500715
 21
170.7259075221865
 31
0.0
 11
82.95569988363906
 21
170.4210081869231
 31
0.0
 11
83.01625196303708
 21
170.1166756660038
 31
0.0
 11
83.03686905623783
 21
169.8070998678671
 31
0.0
 11
83.01625196303706
 21
169.4975240697304
 31
0.0
 11
82.95569988363906
 21
169.1931915488112
 31
0.0
 11
82.85323299500713
 21
168.8882922135479
 31
0.0
 11
82.71465865007823
 21
168.5979365233773
 31
0.0
 11
82.53286660572103
 21
168.3081433926859
 31
0.0
 11
82.32106927146495
 21
168.0394213142994
 31
0.0
 11
82.06571276119111
 21
167.7746329705304
 31
0.0
 11
81.78689076190184
 21
167.5346161235831
 31
0.0
 11
81.46639883427686
 21
167.3034981912578
 31
0.0
 11
81.12835386509495
 21
167.0988592015046
 31
0.0
 11
80.75319014125071
 21
166.9085928689135
 31
0.0
 11
80.36546789141784
 21
166.7453908016378
 31
0.0
 11
79.94763156695662
 21
166.6016055310559
 31
0.0
 11
79.52141274514217
 21
166.4849508824489
 31
0.0
 11
79.07402277905219
 21
166.3916874807495
 31
0.0
 11
78.62183461477447
 21
166.3254527790932
 31
0.0
 11
78.15873140156218
 21
166.2851277903265
 31
0.0
 11
77.69406672659795
 21
166.2717427607315
 31
0.0
 11
77.22940205163364
 21
166.2851277903265
 31
0.0
 11
76.76629883842125
 21
166.3254527790932
 31
0.0
 11
76.31411067414359
 21
166.3916874807494
 31
0.0
 11
75.86672070805363
 21
166.4849508824489
 31
0.0
 11
75.44050188623908
 21
166.601605531056
 31
0.0
 11
75.02266556177777
 21
166.7453908016378
 31
0.0
 11
74.63494331194494
 21
166.9085928689134
 31
0.0
 11
74.25977958810074
 21
167.0988592015046
 31
0.0
 11
73.92173461891879
 21
167.3034981912578
 31
0.0
 11
73.60124269129383
 21
167.5346161235831
 31
0.0
 11
73.32242069200468
 21
167.7746329705305
 31
0.0
 11
73.06706418173084
 21
168.0394213142994
 31
0.0
 11
72.85526684747458
 21
168.3081433926859
 31
0.0
 11
72.67347480311724
 21
168.5979365233773
 31
0.0
 11
72.53490045818847
 21
168.8882922135479
 31
0.0
 11
72.43243356955665
 21
169.1931915488112
 31
0.0
 11
72.37188149015856
 21
169.4975240697305
 31
0.0
 11
72.35126439695773
 21
169.8070998678671
 31
0.0
  0
SPLINE
  5
1F3
330
56
100
AcDbEntity
  8
1
  6
Continuous
 62
     7
100
AcDbSpline
210
0.0
220
0.0
230
1.0
 70
    11
 71
     3
 72
    79
 73
    75
 74
    73
 42
0.000000001
 43
0.0000000001
 44
0.00000001
 40
0.0
 40
0.0
 40
0.0
 40
0.0
 40
0.3102615582252457
 40
0.6205595420822332
 40
0.9422162975290739
 40
1.2639448727539
 40
1.606039020845075
 40
1.948193468907001
 40
2.316051885190503
 40
2.68395104824
 40
3.079084664080412
 40
3.474244780173828
 40
3.894897959207607
 40
4.315568207494236
 40
4.757452126736526
 40
5.199346674241799
 40
5.65635416198717
 40
6.113367478658213
 40
6.578223037733392
 40
7.043080455843015
 40
7.507937873950445
 40
7.972793433018756
 40
8.42980674967759
 40
8.88681423740349
 40
9.328708784880385
 40
9.770592704081576
 40
10.1912629523128
 40
10.61191613126936
 40
11.00707624726325
 40
11.40220986296887
 40
11.77010902585003
 40
12.13796744191
 40
12.4801218896964
 40
12.82221603741928
 40
13.14394461216156
 40
13.46560136682489
 40
13.77589934864161
 40
14.08616091447274
 40
14.39642248030382
 40
14.70672046212049
 40
15.02837721678373
 40
15.35010579152591
 40
15.69219993924879
 40
16.03435438703525
 40
16.40221280309527
 40
16.77011196597646
 40
17.16524558168205
 40
17.56040569767597
 40
17.98105887663256
 40
18.40172912486376
 40
18.8436130440649
 40
19.28550759154175
 40
19.74251507926766
 40
20.1995283959265
 40
20.66438395499481
 40
21.12924137310224
 40
21.59409879121187
 40
22.05895435028705
 40
22.51596766695807
 40
22.97297515470348
 40
23.41486970220871
 40
23.85675362145095
 40
24.27742386973758
 40
24.69807704877136
 40
25.09323716486477
 40
25.48837078070519
 40
25.85626994375473
 40
26.22412836003826
 40
26.56628280810025
 40
26.90837695619143
 40
27.23010553141626
 40
27.55176228686291
 40
27.86206027071982
 40
28.17232182894504
 40
28.17232182894504
 40
28.17232182894504
 40
28.17232182894504
 10
70.47556212760125
 20
169.8070998678671
 30
0.0
 10
70.47152893588522
 20
169.9105900497893
 30
0.0
 10
70.46346208721442
 20
170.117582564134
 30
0.0
 10
70.39947810940487
 20
170.4264314321567
 30
0.0
 10
70.29805731310758
 20
170.7283983458908
 30
0.0
 10
70.15563481300993
 20
171.0253080020056
 30
0.0
 10
69.97653224024987
 20
171.3096261103658
 30
0.0
 10
69.75856197238933
 20
171.5851271566621
 30
0.0
 10
69.50827981835431
 20
171.8437331773306
 30
0.0
 10
69.22181765658274
 20
172.0894910669435
 30
0.0
 10
68.90798690429537
 20
172.3151363271381
 30
0.0
 10
68.56207273926425
 20
172.523907995026
 30
0.0
 10
68.19395394711368
 20
172.7101287632973
 30
0.0
 10
67.79926001219692
 20
172.8758132936439
 30
0.0
 10
67.3877068122249
 20
173.0171210664936
 30
0.0
 10
66.95628111263042
 20
173.1349005550681
 30
0.0
 10
66.51350708391986
 20
173.2270188567067
 30
0.0
 10
66.058449085326
 20
173.2935047840997
 30
0.0
 10
65.59768198324485
 20
173.33356234101
 30
0.0
 10
65.13275980781393
 20
173.3469042983052
 30
0.0
 10
64.66783763238693
 20
173.3335623410885
 30
0.0
 10
64.20707053029432
 20
173.2935047842608
 30
0.0
 10
63.75201253174207
 20
173.2270188569593
 30
0.0
 10
63.30923850287718
 20
173.1349005554243
 30
0.0
 10
62.87781280383541
 20
173.0171210669716
 30
0.0
 10
62.46625960183662
 20
172.8758132942636
 30
0.0
 10
62.07156567411438
 20
172.7101287640862
 30
0.0
 10
61.7034468558923
 20
172.5239079960125
 30
0.0
 10
61.35753278246925
 20
172.31513632836
 30
0.0
 10
61.04370170053116
 20
172.0894910684372
 30
0.0
 10
60.75724068805822
 20
171.8437331791459
 30
0.0
 10
60.50695440898511
 20
171.5851271588471
 30
0.0
 10
60.28899851097814
 20
171.3096261129906
 30
0.0
 10
60.10984419723893
 20
171.0253080051513
 30
0.0
 10
59.96760384585129
 20
170.7283983497389
 30
0.0
 10
59.86552019381114
 20
170.4264314372296
 30
0.0
 10
59.80392695388325
 20
170.1175825680832
 30
0.0
 10
59.78297315042168
 20
169.8070998678671
 30
0.0
 10
59.80392695388323
 20
169.4966171676511
 30
0.0
 10
59.86552019381114
 20
169.1877682985047
 30
0.0
 10
59.9676038458513
 20
168.8858013859955
 30
0.0
 10
60.10984419723896
 20
168.5888917305831
 30
0.0
 10
60.28899851097817
 20
168.3045736227439
 30
0.0
 10
60.50695440898508
 20
168.0290725768874
 30
0.0
 10
60.75724068805822
 20
167.7704665565885
 30
0.0
 10
61.04370170053112
 20
167.524708667297
 30
0.0
 10
61.35753278246928
 20
167.2990634073744
 30
0.0
 10
61.70344685589232
 20
167.0902917397218
 30
0.0
 10
62.07156567411432
 20
166.9040709716479
 30
0.0
 10
62.46625960183662
 20
166.7383864414707
 30
0.0
 10
62.87781280383543
 20
166.5970786687629
 30
0.0
 10
63.30923850287721
 20
166.4792991803103
 30
0.0
 10
63.75201253174207
 20
166.3871808787752
 30
0.0
 10
64.2070705302943
 20
166.3206949514736
 30
0.0
 10
64.66783763238692
 20
166.280637394646
 30
0.0
 10
65.13275980781393
 20
166.2672954374293
 30
0.0
 10
65.59768198324485
 20
166.2806373947245
 30
0.0
 10
66.05844908532598
 20
166.3206949516348
 30
0.0
 10
66.51350708391985
 20
166.3871808790278
 30
0.0
 10
66.95628111263038
 20
166.4792991806666
 30
0.0
 10
67.38770681222488
 20
166.5970786692408
 30
0.0
 10
67.79926001219692
 20
166.7383864420904
 30
0.0
 10
68.19395394711373
 20
166.904070972437
 30
0.0
 10
68.56207273926424
 20
167.0902917407083
 30
0.0
 10
68.90798690429537
 20
167.2990634085962
 30
0.0
 10
69.22181765658277
 20
167.5247086687908
 30
0.0
 10
69.50827981835431
 20
167.7704665584037
 30
0.0
 10
69.75856197238934
 20
168.0290725790723
 30
0.0
 10
69.97653224024982
 20
168.3045736253687
 30
0.0
 10
70.15563481300995
 20
168.5888917337289
 30
0.0
 10
70.29805731310753
 20
168.8858013898436
 30
0.0
 10
70.3994781094049
 20
169.1877683035777
 30
0.0
 10
70.4634620872144
 20
169.4966171716002
 30
0.0
 10
70.47152893588523
 20
169.7036096859449
 30
0.0
 10
70.47556212760125
 20
169.8070998678671
 30
0.0
 11
70.47556212760125
 21
169.8070998678671
 31
0.0
 11
70.45494503440042
 21
170.1166756660038
 31
0.0
 11
70.39439295500233
 21
170.4210081869231
 31
0.0
 11
70.29192606637048
 21
170.7259075221866
 31
0.0
 11
70.15335172144165
 21
171.0162632123572
 31
0.0
 11
69.97155967708437
 21
171.3060563430486
 31
0.0
 11
69.75976234282814
 21
171.574778421435
 31
0.0
 11
69.50440583255426
 21
171.8395667652039
 31
0.0
 11
69.22558383326503
 21
172.0795836121512
 31
0.0
 11
68.90509190564006
 21
172.3107015444764
 31
0.0
 11
68.56704693645815
 21
172.5153405342297
 31
0.0
 11
68.19188321261403
 21
172.7056068668208
 31
0.0
 11
67.80416096278125
 21
172.8688089340965
 31
0.0
 11
67.38632463831986
 21
173.0125942046785
 31
0.0
 11
66.96010581650523
 21
173.1292488532857
 31
0.0
 11
66.51271585041536
 21
173.2225122549851
 31
0.0
 11
66.06052768613773
 21
173.2887469566413
 31
0.0
 11
65.59742447292535
 21
173.329071945408
 31
0.0
 11
65.13275979796106
 21
173.342456975003
 31
0.0
 11
64.66809512299679
 21
173.329071945408
 31
0.0
 11
64.20499190978444
 21
173.2887469566413
 31
0.0
 11
63.75280374550678
 21
173.2225122549851
 31
0.0
 11
63.30541377941686
 21
173.1292488532857
 31
0.0
 11
62.87919495760232
 21
173.0125942046786
 31
0.0
 11
62.46135863314103
 21
172.8688089340965
 31
0.0
 11
62.07363638330828
 21
172.7056068668208
 31
0.0
 11
61.69847265946416
 21
172.5153405342297
 31
0.0
 11
61.36042769028218
 21
172.3107015444765
 31
0.0
 11
61.03993576265714
 21
172.0795836121512
 31
0.0
 11
60.7611137633679
 21
171.8395667652039
 31
0.0
 11
60.50575725309403
 21
171.574778421435
 31
0.0
 11
60.29395991883788
 21
171.3060563430486
 31
0.0
 11
60.11216787448064
 21
171.0162632123572
 31
0.0
 11
59.97359352955176
 21
170.7259075221865
 31
0.0
 11
59.87112664091984
 21
170.4210081869231
 31
0.0
 11
59.81057456152175
 21
170.1166756660038
 31
0.0
 11
59.78995746832095
 21
169.8070998678671
 31
0.0
 11
59.81057456152175
 21
169.4975240697304
 31
0.0
 11
59.87112664091984
 21
169.1931915488112
 31
0.0
 11
59.97359352955176
 21
168.8882922135479
 31
0.0
 11
60.11216787448064
 21
168.5979365233773
 31
0.0
 11
60.29395991883789
 21
168.3081433926859
 31
0.0
 11
60.50575725309403
 21
168.0394213142994
 31
0.0
 11
60.7611137633679
 21
167.7746329705305
 31
0.0
 11
61.03993576265714
 21
167.5346161235831
 31
0.0
 11
61.36042769028218
 21
167.3034981912579
 31
0.0
 11
61.69847265946416
 21
167.0988592015046
 31
0.0
 11
62.07363638330827
 21
166.9085928689134
 31
0.0
 11
62.46135863314103
 21
166.7453908016378
 31
0.0
 11
62.87919495760234
 21
166.6016055310559
 31
0.0
 11
63.30541377941686
 21
166.4849508824489
 31
0.0
 11
63.75280374550678
 21
166.3916874807495
 31
0.0
 11
64.20499190978444
 21
166.3254527790932
 31
0.0
 11
64.66809512299679
 21
166.2851277903265
 31
0.0
 11
65.13275979796106
 21
166.2717427607315
 31
0.0
 11
65.59742447292535
 21
166.2851277903265
 31
0.0
 11
66.06052768613773
 21
166.3254527790932
 31
0.0
 11
66.51271585041533
 21
166.3916874807494
 31
0.0
 11
66.96010581650523
 21
166.4849508824489
 31
0.0
 11
67.38632463831986
 21
166.6016055310559
 31
0.0
 11
67.80416096278125
 21
166.7453908016378
 31
0.0
 11
68.19188321261404
 21
166.9085928689134
 31
0.0
 11
68.56704693645815
 21
167.0988592015046
 31
0.0
 11
68.90509190564006
 21
167.3034981912579
 31
0.0
 11
69.22558383326503
 21
167.5346161235831
 31
0.0
 11
69.50440583255427
 21
167.7746329705305
 31
0.0
 11
69.75976234282814
 21
168.0394213142994
 31
0.0
 11
69.97155967708436
 21
168.3081433926859
 31
0.0
 11
70.15335172144165
 21
168.5979365233773
 31
0.0
 11
70.29192606637048
 21
168.8882922135479
 31
0.0
 11
70.39439295500233
 21
169.1931915488112
 31
0.0
 11
70.45494503440042
 21
169.4975240697304
 31
0.0
 11
70.47556212760125
 21
169.8070998678671
 31
0.0
  0
ENDBLK
  5
58
330
56
100
AcDbEntity
  8
0
100
AcDbBlockEnd
  0
BLOCK
  5
5A
330
59
100
AcDbEntity
  8
0
100
AcDbBlockBegin
  2
36-54-M11
 70
     0
 10
-0.24543305705379
 20
44.44791488045885
 30
0.0
  3
36-54-M11
  1

  0
LINE
  5
1F4
330
59
100
AcDbEntity
  8
1
  6
Continuous
 62
     7
100
AcDbLine
 10
76.16341326227933
 20
183.3441805959728
 30
0.0
 11
76.16341326227933
 21
180.2717427607315
 31
0.0
  0
LINE
  5
1F5
330
59
100
AcDbEntity
  8
1
  6
Continuous
 62
     7
100
AcDbLine
 10
66.66341326227933
 20
180.2717427607315
 30
0.0
 11
66.66341326227933
 21
183.3441805959728
 31
0.0
  0
LINE
  5
1F6
330
59
100
AcDbEntity
  8
1
  6
Continuous
 62
     7
100
AcDbLine
 10
198.1816283859451
 20
180.2717427607315
 30
0.0
 11
198.1816283859451
 21
183.3420514725464
 31
0.0
  0
LINE
  5
1F7
330
59
100
AcDbEntity
  8
1
  6
Continuous
 62
     7
100
AcDbLine
 10
207.6816283859452
 20
183.3420514725464
 30
0.0
 11
207.6816283859452
 21
180.2717427607315
 31
0.0
  0
ENDBLK
  5
5B
330
59
100
AcDbEntity
  8
0
100
AcDbBlockEnd
  0
BLOCK
  5
61
330
5C
100
AcDbEntity
  8
0
100
AcDbBlockBegin
  2
R10AK-13-B
 70
     0
 10
48.13298420913429
 20
102.8675551682287
 30
0.0
  3
R10AK-13-B
  1

  0
INSERT
  5
5D
330
5C
100
AcDbEntity
  8
1
100
AcDbBlockReference
  2
42-1
 10
172.9384230464025
 20
99.84498618925049
 30
0.0
  0
INSERT
  5
5E
330
5C
100
AcDbEntity
  8
0
100
AcDbBlockReference
  2
21-1C
 10
178.0754051292695
 20
83.80745944323735
 30
0.0
  0
INSERT
  5
5F
330
5C
100
AcDbEntity
  8
1
100
AcDbBlockReference
  2
37-1-13
 10
256.0014969545774
 20
92.95359606137842
 30
0.0
  0
INSERT
  5
60
330
5C
100
AcDbEntity
  8
1
100
AcDbBlockReference
  2
36-54-M11
 10
-0.24543305705379
 20
44.44791488045885
 30
0.0
  0
LINE
  5
1F8
330
5C
100
AcDbEntity
  8
1
  6
PHANTOM
 62
     4
100
AcDbLine
 10
202.9316283859452
 20
180.0163819200782
 30
0.0
 11
202.9316283859452
 21
195.3420514725464
 31
0.0
  0
ENDBLK
  5
62
330
5C
100
AcDbEntity
  8
0
100
AcDbBlockEnd
  0
BLOCK
  5
64
330
63
100
AcDbEntity
  8
0
100
AcDbBlockBegin
  2
32-1-16
 70
     0
 10
64.14909989121777
 20
-182.8968728765194
 30
0.0
  3
32-1-16
  1

  0
LINE
  5
1F9
330
63
100
AcDbEntity
  8
1
  6
Continuous
 62
     7
100
AcDbLine
 10
177.9316283859452
 20
153.8420514725464
 30
0.0
 11
177.9316283859452
 21
127.5420514725464
 31
0.0
  0
LINE
  5
1FA
330
63
100
AcDbEntity
  8
1
  6
Continuous
 62
     7
100
AcDbLine
 10
167.9316283859452
 20
148.7420514725465
 30
0.0
 11
167.9316283859452
 21
132.9420514725464
 31
0.0
  0
LINE
  5
1FB
330
63
100
AcDbEntity
  8
0
  6
Continuous
 62
     7
100
AcDbLine
 10
170.218451136232
 20
126.8420514725464
 30
0.0
 11
177.3598795647752
 21
126.8420514725464
 31
0.0
  0
LINE
  5
1FC
330
63
100
AcDbEntity
  8
0
  6
Continuous
 62
     7
100
AcDbLine
 10
170.2184511362322
 20
154.8420514725464
 30
0.0
 11
177.3598795647749
 21
154.8420514725464
 31
0.0
  0
LINE
  5
1FD
330
63
100
AcDbEntity
  8
1
  6
Continuous
 62
     7
100
AcDbLine
 10
168.9316283859452
 20
152.3420514725464
 30
0.0
 11
168.9316283859452
 21
152.4000725342771
 31
0.0
  0
LINE
  5
1FE
330
63
100
AcDbEntity
  8
1
  6
Continuous
 62
     7
100
AcDbLine
 10
177.9316283859452
 20
154.1420514725465
 30
0.0
 11
177.9316283859452
 21
154.0290514725465
 31
0.0
  0
LINE
  5
1FF
330
63
100
AcDbEntity
  8
1
  6
Continuous
 62
     7
100
AcDbLine
 10
167.9316283859452
 20
150.6100006649776
 30
0.0
 11
167.9316283859452
 21
148.7420514725465
 31
0.0
  0
LINE
  5
200
330
63
100
AcDbEntity
  8
1
  6
Continuous
 62
     7
100
AcDbLine
 10
168.9316283859452
 20
129.2840304108158
 30
0.0
 11
168.9316283859452
 21
129.3420514725464
 31
0.0
  0
LINE
  5
201
330
63
100
AcDbEntity
  8
1
  6
Continuous
 62
     7
100
AcDbLine
 10
167.9316283859452
 20
132.9420514725464
 30
0.0
 11
167.9316283859452
 21
131.0741022801153
 31
0.0
  0
LINE
  5
202
330
63
100
AcDbEntity
  8
1
  6
Continuous
 62
     7
100
AcDbLine
 10
177.9316283859452
 20
154.0290514725465
 30
0.0
 11
177.9316283859452
 21
153.8420514725464
 31
0.0
  0
LINE
  5
203
330
63
100
AcDbEntity
  8
1
  6
Continuous
 62
     7
100
AcDbLine
 10
168.9316283859452
 20
132.0437294934768
 30
0.0
 11
168.9316283859452
 21
140.8420514725464
 31
0.0
  0
LINE
  5
204
330
63
100
AcDbEntity
  8
1
  6
Continuous
 62
     7
100
AcDbLine
 10
168.9316283859452
 20
140.8420514725464
 30
0.0
 11
168.9316283859452
 21
149.640373451616
 31
0.0
  0
LINE
  5
205
330
63
100
AcDbEntity
  8
1
  6
Continuous
 62
     7
100
AcDbLine
 10
79.61341326227927
 20
266.6138438710987
 30
0.0
 11
81.18136245471038
 21
266.6138438710987
 31
0.0
  0
LINE
  5
206
330
63
100
AcDbEntity
  8
1
  6
Continuous
 62
     7
100
AcDbLine
 10
84.71341326227926
 20
276.6138438710988
 30
0.0
 11
77.62507034473978
 21
276.6138438710988
 31
0.0
  0
LINE
  5
207
330
63
100
AcDbEntity
  8
1
  6
Continuous
 62
     7
100
AcDbLine
 10
84.60041326227926
 20
276.6138438710988
 30
0.0
 11
84.71341326227926
 21
276.6138438710988
 31
0.0
  0
LINE
  5
208
330
63
100
AcDbEntity
  8
1
  6
Continuous
 62
     7
100
AcDbLine
 10
82.97143432400986
 20
267.6138438710987
 30
0.0
 11
82.91341326227928
 21
267.6138438710987
 31
0.0
  0
LINE
  5
209
330
63
100
AcDbEntity
  8
1
  6
Continuous
 62
     7
100
AcDbLine
 10
71.41341326227928
 20
266.6138438710987
 30
0.0
 11
79.61341326227927
 21
266.6138438710987
 31
0.0
  0
LINE
  5
20A
330
63
100
AcDbEntity
  8
1
  6
Continuous
 62
     7
100
AcDbLine
 10
80.21173524134886
 20
267.6138438710987
 30
0.0
 11
71.41341326227928
 21
267.6138438710987
 31
0.0
  0
LINE
  5
20B
330
63
100
AcDbEntity
  8
1
  6
Continuous
 62
     7
100
AcDbLine
 10
61.64546406984817
 20
266.6138438710987
 30
0.0
 11
63.21341326227926
 21
266.6138438710987
 31
0.0
  0
LINE
  5
20C
330
63
100
AcDbEntity
  8
1
  6
Continuous
 62
     7
100
AcDbLine
 10
58.11341326227927
 20
276.6138438710988
 30
0.0
 11
58.22641326227927
 21
276.6138438710988
 31
0.0
  0
LINE
  5
20D
330
63
100
AcDbEntity
  8
1
  6
Continuous
 62
     7
100
AcDbLine
 10
59.91341326227928
 20
267.6138438710987
 30
0.0
 11
59.85539220054866
 21
267.6138438710987
 31
0.0
  0
LINE
  5
20E
330
63
100
AcDbEntity
  8
1
  6
Continuous
 62
     7
100
AcDbLine
 10
63.21341326227926
 20
266.6138438710987
 30
0.0
 11
71.41341326227928
 21
266.6138438710987
 31
0.0
  0
LINE
  5
20F
330
63
100
AcDbEntity
  8
1
  6
Continuous
 62
     7
100
AcDbLine
 10
71.41341326227928
 20
267.6138438710987
 30
0.0
 11
62.61509128320967
 21
267.6138438710987
 31
0.0
  0
LINE
  5
210
330
63
100
AcDbEntity
  8
1
  6
Continuous
 62
     7
100
AcDbLine
 10
65.20175617981877
 20
276.6138438710988
 30
0.0
 11
58.11341326227927
 21
276.6138438710988
 31
0.0
  0
LINE
  5
211
330
63
100
AcDbEntity
  8
1
  6
Continuous
 62
     7
100
AcDbLine
 10
64.76134591445435
 20
154.8420514725464
 30
0.0
 11
78.06548061010434
 21
154.8420514725464
 31
0.0
  0
LINE
  5
212
330
63
100
AcDbEntity
  8
1
  6
Continuous
 62
     7
100
AcDbLine
 10
80.21173524134896
 20
153.6029107834479
 30
0.0
 11
86.86380258917396
 21
142.081192161645
 31
0.0
  0
LINE
  5
213
330
63
100
AcDbEntity
  8
1
  6
Continuous
 62
     7
100
AcDbLine
 10
80.21173524134896
 20
128.081192161645
 30
0.0
 11
86.86380258917396
 21
139.6029107834479
 31
0.0
  0
LINE
  5
214
330
63
100
AcDbEntity
  8
1
  6
Continuous
 62
     7
100
AcDbLine
 10
55.96302393538466
 20
139.6029107834479
 30
0.0
 11
62.61509128320975
 21
128.081192161645
 31
0.0
  0
LINE
  5
215
330
63
100
AcDbEntity
  8
1
  6
Continuous
 62
     7
100
AcDbLine
 10
62.61509128320975
 20
153.6029107834479
 30
0.0
 11
55.96302393538466
 21
142.081192161645
 31
0.0
  0
ARC
  5
216
330
63
100
AcDbEntity
  8
1
  6
Continuous
 62
     7
100
AcDbCircle
 10
71.41341326227933
 20
140.8420514725464
 30
0.0
 40
15.49999999999993
100
AcDbArc
 50
235.414620915161
 51
238.9270490278463
  0
ARC
  5
217
330
63
100
AcDbEntity
  8
1
  6
Continuous
 62
     7
100
AcDbCircle
 10
71.41341326227933
 20
140.8420514725464
 30
0.0
 40
10.5
100
AcDbArc
 50
0.0
 51
220.3675935441848
  0
ARC
  5
218
330
63
100
AcDbEntity
  8
1
  6
Continuous
 62
     7
100
AcDbCircle
 10
71.41341326227933
 20
140.8420514725464
 30
0.0
 40
8.200000000000017
100
AcDbArc
 50
0.0
 51
192.6803834918177
  0
ARC
  5
219
330
63
100
AcDbEntity
  8
1
  6
Continuous
 62
     7
100
AcDbCircle
 10
173.7891653505043
 20
130.3420514725464
 30
0.0
 40
5.000000000000774
100
AcDbArc
 50
195.3375576695527
 51
224.4270040007986
  0
ARC
  5
21A
330
63
100
AcDbEntity
  8
1
  6
Continuous
 62
     7
100
AcDbCircle
 10
173.7891653505043
 20
151.3420514725464
 30
0.0
 40
4.999999999999492
100
AcDbArc
 50
34.05579774257357
 51
44.42700400081237
  0
ARC
  5
21B
330
63
100
AcDbEntity
  8
1
  6
Continuous
 62
     7
100
AcDbCircle
 10
173.7891653505043
 20
151.3420514725464
 30
0.0
 40
5.000000000000483
100
AcDbArc
 50
135.5729959991997
 51
164.662442330445
  0
ARC
  5
21C
330
63
100
AcDbEntity
  8
1
  6
Continuous
 62
     7
100
AcDbCircle
 10
173.7891653505043
 20
130.3420514725464
 30
0.0
 40
4.999999999999621
100
AcDbArc
 50
315.5729959991903
 51
325.9442022574278
  0
ARC
  5
21D
330
63
100
AcDbEntity
  8
1
  6
Continuous
 62
     7
100
AcDbCircle
 10
81.91341326227928
 20
272.471380835657
 30
0.0
 40
4.999999999999985
100
AcDbArc
 50
285.3375576695541
 51
55.94420225743379
  0
ARC
  5
21E
330
63
100
AcDbEntity
  8
1
  6
Continuous
 62
     7
100
AcDbCircle
 10
76.18024184212538
 20
272.4712115933301
 30
0.0
 40
1.885238775575546
100
AcDbArc
 50
0.00514357713391
 51
3.83791798966738
  0
ARC
  5
21F
330
63
100
AcDbEntity
  8
1
  6
Continuous
 62
     7
100
AcDbCircle
 10
76.10642486194547
 20
272.4662596056207
 30
0.0
 40
1.959221670525301
100
AcDbArc
 50
3.83791798967063
 51
9.37260108640118
  0
ARC
  5
220
330
63
100
AcDbEntity
  8
1
  6
Continuous
 62
     7
100
AcDbCircle
 10
76.02219142453197
 20
272.4523562316929
 30
0.0
 40
2.04459482664056
100
AcDbArc
 50
9.37260108639669
 51
14.67807157128463
  0
ARC
  5
221
330
63
100
AcDbEntity
  8
1
  6
Continuous
 62
     7
100
AcDbCircle
 10
75.97948531672608
 20
272.4411699618306
 30
0.0
 40
2.088741675648811
100
AcDbArc
 50
14.67807157128624
 51
19.98794307345857
  0
ARC
  5
222
330
63
100
AcDbEntity
  8
1
  6
Continuous
 62
     7
100
AcDbCircle
 10
75.84519254081337
 20
272.3923233895885
 30
0.0
 40
2.231642121002063
100
AcDbArc
 50
19.98794307345647
 51
23.44839996530657
  0
ARC
  5
223
330
63
100
AcDbEntity
  8
1
  6
Continuous
 62
     7
100
AcDbCircle
 10
75.74725590308248
 20
272.3498441627257
 30
0.0
 40
2.338394496736298
100
AcDbArc
 50
23.44839996531115
 51
26.75137744777829
  0
ARC
  5
224
330
63
100
AcDbEntity
  8
1
  6
Continuous
 62
     7
100
AcDbCircle
 10
75.58679642986218
 20
272.2689610923457
 30
0.0
 40
2.518086771529185
100
AcDbArc
 50
26.75137744777394
 51
29.81983142576664
  0
ARC
  5
225
330
63
100
AcDbEntity
  8
1
  6
Continuous
 62
     7
100
AcDbCircle
 10
75.48479477920367
 20
272.2104973019266
 30
0.0
 40
2.635655268700877
100
AcDbArc
 50
29.81983142576922
 51
32.75164132976806
  0
ARC
  5
226
330
63
100
AcDbEntity
  8
1
  6
Continuous
 62
     7
100
AcDbCircle
 10
75.31725829393298
 20
272.1027274283321
 30
0.0
 40
2.834860739387412
100
AcDbArc
 50
32.75164132976566
 51
35.62806700316914
  0
ARC
  5
227
330
63
100
AcDbEntity
  8
1
  6
Continuous
 62
     7
100
AcDbCircle
 10
75.20835135343287
 20
272.0246769948076
 30
0.0
 40
2.96884802185272
100
AcDbArc
 50
35.62806700316988
 51
38.51810528404838
  0
ARC
  5
228
330
63
100
AcDbEntity
  8
1
  6
Continuous
 62
     7
100
AcDbCircle
 10
75.00489406335367
 20
271.8627347618854
 30
0.0
 40
3.228886779906601
100
AcDbArc
 50
38.51810528404756
 51
41.17514053461989
  0
ARC
  5
229
330
63
100
AcDbEntity
  8
1
  6
Continuous
 62
     7
100
AcDbCircle
 10
74.87160487550426
 20
271.7461510124003
 30
0.0
 40
3.405968055714071
100
AcDbArc
 50
41.17514053462212
 51
43.69457626015145
  0
ARC
  5
22A
330
63
100
AcDbEntity
  8
1
  6
Continuous
 62
     7
100
AcDbCircle
 10
74.63152007409198
 20
271.516764470283
 30
0.0
 40
3.738020608141545
100
AcDbArc
 50
43.69457626014911
 51
45.99039746615465
  0
ARC
  5
22B
330
63
100
AcDbEntity
  8
1
  6
Continuous
 62
     7
100
AcDbCircle
 10
74.48365094508787
 20
271.3636928526412
 30
0.0
 40
3.950849646197854
100
AcDbArc
 50
45.99039746615623
 51
48.29355234314141
  0
ARC
  5
22C
330
63
100
AcDbEntity
  8
1
  6
Continuous
 62
     7
100
AcDbCircle
 10
74.26564402663618
 20
271.1190626820909
 30
0.0
 40
4.2785246938231
100
AcDbArc
 50
48.2935523431407
 51
50.54097616601218
  0
ARC
  5
22D
330
63
100
AcDbEntity
  8
1
  6
Continuous
 62
     7
100
AcDbCircle
 10
71.42268560577378
 20
281.0177435227873
 30
0.0
 40
12.11718326374996
100
AcDbArc
 50
269.9561559655643
 51
276.4967731826921
  0
ARC
  5
22E
330
63
100
AcDbEntity
  8
1
  6
Continuous
 62
     7
100
AcDbCircle
 10
71.46787471930418
 20
280.6209250704765
 30
0.0
 40
11.71780006420845
100
AcDbArc
 50
276.4967731826921
 51
278.7108014309696
  0
ARC
  5
22F
330
63
100
AcDbEntity
  8
1
  6
Continuous
 62
     7
100
AcDbCircle
 10
71.56818256370858
 20
279.9662358507301
 30
0.0
 40
11.05547111413814
100
AcDbArc
 50
278.7108014309696
 51
281.0574916643671
  0
ARC
  5
230
330
63
100
AcDbEntity
  8
1
  6
Continuous
 62
     7
100
AcDbCircle
 10
71.59922073539536
 20
279.807409329621
 30
0.0
 40
10.89364023973747
100
AcDbArc
 50
281.0574916643673
 51
282.1975878865729
  0
ARC
  5
231
330
63
100
AcDbEntity
  8
1
  6
Continuous
 62
     7
100
AcDbCircle
 10
71.72491225650938
 20
279.2259445075189
 30
0.0
 40
10.29874554500375
100
AcDbArc
 50
282.1975878865729
 51
283.403553429709
  0
ARC
  5
232
330
63
100
AcDbEntity
  8
1
  6
Continuous
 62
     7
100
AcDbCircle
 10
71.74987381240658
 20
279.1211956801807
 30
0.0
 40
10.1910636240443
100
AcDbArc
 50
283.4035534297088
 51
284.622235644478
  0
ARC
  5
233
330
63
100
AcDbEntity
  8
1
  6
Continuous
 62
     7
100
AcDbCircle
 10
71.88399794854067
 20
278.607103179987
 30
0.0
 40
9.659762972200975
100
AcDbArc
 50
284.622235644478
 51
285.9079391252785
  0
ARC
  5
234
330
63
100
AcDbEntity
  8
1
  6
Continuous
 62
     7
100
AcDbCircle
 10
71.92954148157708
 20
278.4473054065296
 30
0.0
 40
9.49360177997076
100
AcDbArc
 50
285.9079391252784
 51
287.8289763758408
  0
ARC
  5
235
330
63
100
AcDbEntity
  8
1
  6
Continuous
 62
     7
100
AcDbCircle
 10
72.17963221303467
 20
277.6697153014507
 30
0.0
 40
8.676783718541193
100
AcDbArc
 50
287.8289763758409
 51
289.1699312060527
  0
ARC
  5
236
330
63
100
AcDbEntity
  8
1
  6
Continuous
 62
     7
100
AcDbCircle
 10
72.18292640984777
 20
277.6602396479772
 30
0.0
 40
8.666751782467191
100
AcDbArc
 50
289.1699312060521
 51
290.5124119700255
  0
ARC
  5
237
330
63
100
AcDbEntity
  8
1
  6
Continuous
 62
     7
100
AcDbCircle
 10
72.44137616465969
 20
276.9694406173006
 30
0.0
 40
7.929188512946488
100
AcDbArc
 50
290.5124119700266
 51
291.9797207566682
  0
ARC
  5
238
330
63
100
AcDbEntity
  8
1
  6
Continuous
 62
     7
100
AcDbCircle
 10
72.44740862528306
 20
276.9544945249481
 30
0.0
 40
7.913070936894786
100
AcDbArc
 50
291.9797207566683
 51
293.4500581114128
  0
ARC
  5
239
330
63
100
AcDbEntity
  8
1
  6
Continuous
 62
     7
100
AcDbCircle
 10
72.69955042962516
 20
276.373223044629
 30
0.0
 40
7.279468519499316
100
AcDbArc
 50
293.4500581114115
 51
294.9823606023689
  0
ARC
  5
23A
330
63
100
AcDbEntity
  8
1
  6
Continuous
 62
     7
100
AcDbCircle
 10
72.76406789466196
 20
276.2347536113874
 30
0.0
 40
7.126706327720652
100
AcDbArc
 50
294.9823606023695
 51
296.4800021356235
  0
ARC
  5
23B
330
63
100
AcDbEntity
  8
1
  6
Continuous
 62
     7
100
AcDbCircle
 10
73.06377737046637
 20
275.6331036122209
 30
0.0
 40
6.454539316194668
100
AcDbArc
 50
296.4800021356228
 51
298.1335589234616
  0
ARC
  5
23C
330
63
100
AcDbEntity
  8
1
  6
Continuous
 62
     7
100
AcDbCircle
 10
73.12661838171627
 20
275.5155785816517
 30
0.0
 40
6.321268443513326
100
AcDbArc
 50
298.1335589234619
 51
299.8218682100309
  0
ARC
  5
23D
330
63
100
AcDbEntity
  8
1
  6
Continuous
 62
     7
100
AcDbCircle
 10
73.39604333332778
 20
275.0455521717
 30
0.0
 40
5.779498537923514
100
AcDbArc
 50
299.8218682100307
 51
301.6685426704609
  0
ARC
  5
23E
330
63
100
AcDbEntity
  8
1
  6
Continuous
 62
     7
100
AcDbCircle
 10
73.45284604606897
 20
274.953467695735
 30
0.0
 40
5.671303811210395
100
AcDbArc
 50
301.6685426704609
 51
303.4573887050699
  0
ARC
  5
23F
330
63
100
AcDbEntity
  8
1
  6
Continuous
 62
     7
100
AcDbCircle
 10
73.81196124325396
 20
274.4100261190289
 30
0.0
 40
5.019926445820734
100
AcDbArc
 50
303.4573887050703
 51
304.415209816725
  0
ARC
  5
240
330
63
100
AcDbEntity
  8
1
  6
Continuous
 62
     7
100
AcDbCircle
 10
73.72509857797786
 20
274.536813628363
 30
0.0
 40
5.173615076311104
100
AcDbArc
 50
304.4152098167249
 51
306.273952796523
  0
ARC
  5
241
330
63
100
AcDbEntity
  8
1
  6
Continuous
 62
     7
100
AcDbCircle
 10
74.10709748252648
 20
274.016289335542
 30
0.0
 40
4.52796137463103
100
AcDbArc
 50
306.2739527965216
 51
308.3975050043317
  0
ARC
  5
242
330
63
100
AcDbEntity
  8
1
  6
Continuous
 62
     7
100
AcDbCircle
 10
74.12334281918598
 20
273.9957909881167
 30
0.0
 40
4.5018061990371
100
AcDbArc
 50
308.3975050043333
 51
310.5332751770269
  0
ARC
  5
243
330
63
100
AcDbEntity
  8
1
  6
Continuous
 62
     7
100
AcDbCircle
 10
74.44889100969388
 20
273.6150709799865
 30
0.0
 40
4.000877712191368
100
AcDbArc
 50
310.5332751770272
 51
312.9371670760264
  0
ARC
  5
244
330
63
100
AcDbEntity
  8
1
  6
Continuous
 62
     7
100
AcDbCircle
 10
74.47380426224626
 20
273.5882959790505
 30
0.0
 40
3.964304896769704
100
AcDbArc
 50
312.9371670760257
 51
315.1016581317783
  0
ARC
  5
245
330
63
100
AcDbEntity
  8
1
  6
Continuous
 62
     7
100
AcDbCircle
 10
74.82572107473808
 20
273.2376257463588
 30
0.0
 40
3.467500050768292
100
AcDbArc
 50
315.1016581317783
 51
317.5766003475906
  0
ARC
  5
246
330
63
100
AcDbEntity
  8
1
  6
Continuous
 62
     7
100
AcDbCircle
 10
74.87148500823707
 20
273.1958032460624
 30
0.0
 40
3.405504412693185
100
AcDbArc
 50
317.5766003475919
 51
320.0960707231229
  0
ARC
  5
247
330
63
100
AcDbEntity
  8
1
  6
Continuous
 62
     7
100
AcDbCircle
 10
75.16774920248926
 20
272.9480534061236
 30
0.0
 40
3.019301802674004
100
AcDbArc
 50
320.0960707231205
 51
322.9375036232095
  0
ARC
  5
248
330
63
100
AcDbEntity
  8
1
  6
Continuous
 62
     7
100
AcDbCircle
 10
75.20956100126676
 20
272.9164743923882
 30
0.0
 40
2.966904659378634
100
AcDbArc
 50
322.93750362321
 51
325.8303028980613
  0
ARC
  5
249
330
63
100
AcDbEntity
  8
1
  6
Continuous
 62
     7
100
AcDbCircle
 10
75.45932876890876
 20
272.7469254323104
 30
0.0
 40
2.665025896269494
100
AcDbArc
 50
325.8303028980625
 51
328.7291301953138
  0
ARC
  5
24A
330
63
100
AcDbEntity
  8
1
  6
Continuous
 62
     7
100
AcDbCircle
 10
75.47955758121029
 20
272.7346402039815
 30
0.0
 40
2.641358795005954
100
AcDbArc
 50
328.7291301953152
 51
331.6546868768891
  0
ARC
  5
24B
330
63
100
AcDbEntity
  8
1
  6
Continuous
 62
     7
100
AcDbCircle
 10
75.71689384010477
 20
272.6066055728447
 30
0.0
 40
2.37168980057696
100
AcDbArc
 50
331.6546868768872
 51
334.9119595528059
  0
ARC
  5
24C
330
63
100
AcDbEntity
  8
1
  6
Continuous
 62
     7
100
AcDbCircle
 10
75.75058312501517
 20
272.5908329329221
 30
0.0
 40
2.334491089740273
100
AcDbArc
 50
334.9119595528068
 51
338.219968182275
  0
ARC
  5
24D
330
63
100
AcDbEntity
  8
1
  6
Continuous
 62
     7
100
AcDbCircle
 10
75.95691942605427
 20
272.5083877032722
 30
0.0
 40
2.112293238673963
100
AcDbArc
 50
338.2199681822755
 51
341.876736130063
  0
ARC
  5
24E
330
63
100
AcDbEntity
  8
1
  6
Continuous
 62
     7
100
AcDbCircle
 10
75.97877802709098
 20
272.5012333864488
 30
0.0
 40
2.08929361501413
100
AcDbArc
 50
341.8767361300636
 51
348.7976217525912
  0
ARC
  5
24F
330
63
100
AcDbEntity
  8
1
  6
Continuous
 62
     7
100
AcDbCircle
 10
76.10620102939407
 20
272.4759974560564
 30
0.0
 40
1.959395679315751
100
AcDbArc
 50
348.7976217525889
 51
354.3329218835761
  0
ARC
  5
250
330
63
100
AcDbEntity
  8
1
  6
Continuous
 62
     7
100
AcDbCircle
 10
76.11119625887187
 20
272.475501764535
 30
0.0
 40
1.954375915614177
100
AcDbArc
 50
354.3329218835759
 51
358.0306705209233
  0
ARC
  5
251
330
63
100
AcDbEntity
  8
1
  6
Continuous
 62
     7
100
AcDbCircle
 10
76.26547312086848
 20
272.4701969816173
 30
0.0
 40
1.800007878542563
100
AcDbArc
 50
358.0306705209223
 51
0.03768308224288
  0
ARC
  5
252
330
63
100
AcDbEntity
  8
1
  6
Continuous
 62
     7
100
AcDbCircle
 10
60.91341326227928
 20
272.471380835657
 30
0.0
 40
5.000000000000201
100
AcDbArc
 50
124.0557977425664
 51
254.6624423304447
  0
ARC
  5
253
330
63
100
AcDbEntity
  8
1
  6
Continuous
 62
     7
100
AcDbCircle
 10
66.64658468243309
 20
272.4712115933301
 30
0.0
 40
1.885238775575509
100
AcDbArc
 50
176.1620820103327
 51
179.9948564228661
  0
ARC
  5
254
330
63
100
AcDbEntity
  8
1
  6
Continuous
 62
     7
100
AcDbCircle
 10
66.72040166261297
 20
272.4662596056207
 30
0.0
 40
1.959221670525329
100
AcDbArc
 50
170.6273989135987
 51
176.1620820103294
  0
ARC
  5
255
330
63
100
AcDbEntity
  8
1
  6
Continuous
 62
     7
100
AcDbCircle
 10
66.80463510002647
 20
272.4523562316929
 30
0.0
 40
2.044594826640511
100
AcDbArc
 50
165.3219284287152
 51
170.6273989136032
  0
ARC
  5
256
330
63
100
AcDbEntity
  8
1
  6
Continuous
 62
     7
100
AcDbCircle
 10
66.84734120783247
 20
272.4411699618306
 30
0.0
 40
2.088741675648858
100
AcDbArc
 50
160.0120569265414
 51
165.3219284287144
  0
ARC
  5
257
330
63
100
AcDbEntity
  8
1
  6
Continuous
 62
     7
100
AcDbCircle
 10
66.98163398374518
 20
272.3923233895885
 30
0.0
 40
2.23164212100217
100
AcDbArc
 50
156.5516000346943
 51
160.0120569265435
  0
ARC
  5
258
330
63
100
AcDbEntity
  8
1
  6
Continuous
 62
     7
100
AcDbCircle
 10
67.07957062147608
 20
272.3498441627257
 30
0.0
 40
2.338394496736417
100
AcDbArc
 50
153.2486225522227
 51
156.5516000346897
  0
ARC
  5
259
330
63
100
AcDbEntity
  8
1
  6
Continuous
 62
     7
100
AcDbCircle
 10
67.24003009469638
 20
272.2689610923457
 30
0.0
 40
2.518086771529191
100
AcDbArc
 50
150.1801685742347
 51
153.2486225522269
  0
ARC
  5
25A
330
63
100
AcDbEntity
  8
1
  6
Continuous
 62
     7
100
AcDbCircle
 10
67.34203174535477
 20
272.2104973019266
 30
0.0
 40
2.635655268700837
100
AcDbArc
 50
147.2483586702306
 51
150.1801685742308
  0
ARC
  5
25B
330
63
100
AcDbEntity
  8
1
  6
Continuous
 62
     7
100
AcDbCircle
 10
67.50956823062558
 20
272.1027274283321
 30
0.0
 40
2.834860739387416
100
AcDbArc
 50
144.3719329968322
 51
147.2483586702343
  0
ARC
  5
25C
330
63
100
AcDbEntity
  8
1
  6
Continuous
 62
     7
100
AcDbCircle
 10
67.61847517112557
 20
272.0246769948076
 30
0.0
 40
2.968848021852747
100
AcDbArc
 50
141.4818947159516
 51
144.3719329968301
  0
ARC
  5
25D
330
63
100
AcDbEntity
  8
1
  6
Continuous
 62
     7
100
AcDbCircle
 10
67.82193246120488
 20
271.8627347618854
 30
0.0
 40
3.228886779906781
100
AcDbArc
 50
138.8248594653815
 51
141.4818947159537
  0
ARC
  5
25E
330
63
100
AcDbEntity
  8
1
  6
Continuous
 62
     7
100
AcDbCircle
 10
67.95522164905427
 20
271.7461510124003
 30
0.0
 40
3.405968055713986
100
AcDbArc
 50
136.3054237398492
 51
138.8248594653788
  0
ARC
  5
25F
330
63
100
AcDbEntity
  8
1
  6
Continuous
 62
     7
100
AcDbCircle
 10
68.19530645046646
 20
271.516764470283
 30
0.0
 40
3.738020608141663
100
AcDbArc
 50
134.0096025338454
 51
136.3054237398506
  0
ARC
  5
260
330
63
100
AcDbEntity
  8
1
  6
Continuous
 62
     7
100
AcDbCircle
 10
68.34317557947068
 20
271.3636928526412
 30
0.0
 40
3.950849646197836
100
AcDbArc
 50
131.7064476568598
 51
134.009602533845
  0
ARC
  5
261
330
63
100
AcDbEntity
  8
1
  6
Continuous
 62
     7
100
AcDbCircle
 10
68.56118249792237
 20
271.1190626820909
 30
0.0
 40
4.278524693823201
100
AcDbArc
 50
129.459023833989
 51
131.7064476568604
  0
ARC
  5
262
330
63
100
AcDbEntity
  8
1
  6
Continuous
 62
     7
100
AcDbCircle
 10
71.40414091878466
 20
281.0177435227873
 30
0.0
 40
12.11718326374995
100
AcDbArc
 50
263.5032268173083
 51
270.0438440344362
  0
ARC
  5
263
330
63
100
AcDbEntity
  8
1
  6
Continuous
 62
     7
100
AcDbCircle
 10
71.35895180525426
 20
280.6209250704765
 30
0.0
 40
11.71780006420847
100
AcDbArc
 50
261.2891985690304
 51
263.5032268173083
  0
ARC
  5
264
330
63
100
AcDbEntity
  8
1
  6
Continuous
 62
     7
100
AcDbCircle
 10
71.25864396084987
 20
279.9662358507301
 30
0.0
 40
11.05547111413806
100
AcDbArc
 50
258.9425083356334
 51
261.2891985690304
  0
ARC
  5
265
330
63
100
AcDbEntity
  8
1
  6
Continuous
 62
     7
100
AcDbCircle
 10
71.22760578916308
 20
279.807409329621
 30
0.0
 40
10.89364023973738
100
AcDbArc
 50
257.8024121134271
 51
258.9425083356333
  0
ARC
  5
266
330
63
100
AcDbEntity
  8
1
  6
Continuous
 62
     7
100
AcDbCircle
 10
71.10191426804909
 20
279.2259445075189
 30
0.0
 40
10.29874554500384
100
AcDbArc
 50
256.596446570291
 51
257.8024121134269
  0
ARC
  5
267
330
63
100
AcDbEntity
  8
1
  6
Continuous
 62
     7
100
AcDbCircle
 10
71.07695271215186
 20
279.1211956801807
 30
0.0
 40
10.19106362404425
100
AcDbArc
 50
255.377764355522
 51
256.5964465702913
  0
ARC
  5
268
330
63
100
AcDbEntity
  8
1
  6
Continuous
 62
     7
100
AcDbCircle
 10
70.94282857601777
 20
278.607103179987
 30
0.0
 40
9.659762972201008
100
AcDbArc
 50
254.0920608747217
 51
255.377764355522
  0
ARC
  5
269
330
63
100
AcDbEntity
  8
1
  6
Continuous
 62
     7
100
AcDbCircle
 10
70.89728504298137
 20
278.4473054065296
 30
0.0
 40
9.493601779970756
100
AcDbArc
 50
252.1710236241598
 51
254.0920608747218
  0
ARC
  5
26A
330
63
100
AcDbEntity
  8
1
  6
Continuous
 62
     7
100
AcDbCircle
 10
70.64719431152378
 20
277.6697153014507
 30
0.0
 40
8.676783718541193
100
AcDbArc
 50
250.8300687939475
 51
252.1710236241598
  0
ARC
  5
26B
330
63
100
AcDbEntity
  8
1
  6
Continuous
 62
     7
100
AcDbCircle
 10
70.64390011471076
 20
277.6602396479772
 30
0.0
 40
8.666751782467223
100
AcDbArc
 50
249.487588029974
 51
250.8300687939475
  0
ARC
  5
26C
330
63
100
AcDbEntity
  8
1
  6
Continuous
 62
     7
100
AcDbCircle
 10
70.38545035989878
 20
276.9694406173006
 30
0.0
 40
7.92918851294653
100
AcDbArc
 50
248.0202792433316
 51
249.4875880299732
  0
ARC
  5
26D
330
63
100
AcDbEntity
  8
1
  6
Continuous
 62
     7
100
AcDbCircle
 10
70.37941789927538
 20
276.9544945249481
 30
0.0
 40
7.913070936894643
100
AcDbArc
 50
246.5499418885872
 51
248.0202792433317
  0
ARC
  5
26E
330
63
100
AcDbEntity
  8
1
  6
Continuous
 62
     7
100
AcDbCircle
 10
70.12727609493336
 20
276.373223044629
 30
0.0
 40
7.27946851949936
100
AcDbArc
 50
245.0176393976304
 51
246.5499418885879
  0
ARC
  5
26F
330
63
100
AcDbEntity
  8
1
  6
Continuous
 62
     7
100
AcDbCircle
 10
70.06275862989656
 20
276.2347536113874
 30
0.0
 40
7.12670632772087
100
AcDbArc
 50
243.5199978643759
 51
245.0176393976299
  0
ARC
  5
270
330
63
100
AcDbEntity
  8
1
  6
Continuous
 62
     7
100
AcDbCircle
 10
69.76304915409219
 20
275.6331036122209
 30
0.0
 40
6.454539316194552
100
AcDbArc
 50
241.8664410765375
 51
243.5199978643763
  0
ARC
  5
271
330
63
100
AcDbEntity
  8
1
  6
Continuous
 62
     7
100
AcDbCircle
 10
69.70020814284217
 20
275.5155785816517
 30
0.0
 40
6.321268443513457
100
AcDbArc
 50
240.1781317899691
 51
241.8664410765381
  0
ARC
  5
272
330
63
100
AcDbEntity
  8
1
  6
Continuous
 62
     7
100
AcDbCircle
 10
69.43078319123077
 20
275.0455521717
 30
0.0
 40
5.779498537923489
100
AcDbArc
 50
238.3314573295382
 51
240.1781317899683
  0
ARC
  5
273
330
63
100
AcDbEntity
  8
1
  6
Continuous
 62
     7
100
AcDbCircle
 10
69.37398047848959
 20
274.953467695735
 30
0.0
 40
5.671303811210522
100
AcDbArc
 50
236.542611294929
 51
238.3314573295381
  0
ARC
  5
274
330
63
100
AcDbEntity
  8
1
  6
Continuous
 62
     7
100
AcDbCircle
 10
69.01486528130448
 20
274.4100261190289
 30
0.0
 40
5.019926445820628
100
AcDbArc
 50
235.5847901832761
 51
236.5426112949297
  0
ARC
  5
275
330
63
100
AcDbEntity
  8
1
  6
Continuous
 62
     7
100
AcDbCircle
 10
69.10172794658067
 20
274.536813628363
 30
0.0
 40
5.173615076311125
100
AcDbArc
 50
233.7260472034763
 51
235.5847901832753
  0
ARC
  5
276
330
63
100
AcDbEntity
  8
1
  6
Continuous
 62
     7
100
AcDbCircle
 10
68.71972904203207
 20
274.016289335542
 30
0.0
 40
4.527961374631089
100
AcDbArc
 50
231.6024949956671
 51
233.7260472034772
  0
ARC
  5
277
330
63
100
AcDbEntity
  8
1
  6
Continuous
 62
     7
100
AcDbCircle
 10
68.70348370537246
 20
273.9957909881167
 30
0.0
 40
4.501806199037098
100
AcDbArc
 50
229.4667248229742
 51
231.6024949956667
  0
ARC
  5
278
330
63
100
AcDbEntity
  8
1
  6
Continuous
 62
     7
100
AcDbCircle
 10
68.37793551486467
 20
273.6150709799865
 30
0.0
 40
4.000877712191388
100
AcDbArc
 50
227.0628329239724
 51
229.4667248229728
  0
ARC
  5
279
330
63
100
AcDbEntity
  8
1
  6
Continuous
 62
     7
100
AcDbCircle
 10
68.35302226231218
 20
273.5882959790505
 30
0.0
 40
3.964304896769671
100
AcDbArc
 50
224.8983418682216
 51
227.0628329239744
  0
ARC
  5
27A
330
63
100
AcDbEntity
  8
1
  6
Continuous
 62
     7
100
AcDbCircle
 10
68.00110544982039
 20
273.2376257463588
 30
0.0
 40
3.467500050768317
100
AcDbArc
 50
222.4233996524094
 51
224.8983418682213
  0
ARC
  5
27B
330
63
100
AcDbEntity
  8
1
  6
Continuous
 62
     7
100
AcDbCircle
 10
67.95534151632137
 20
273.1958032460624
 30
0.0
 40
3.405504412693125
100
AcDbArc
 50
219.9039292768771
 51
222.4233996524084
  0
ARC
  5
27C
330
63
100
AcDbEntity
  8
1
  6
Continuous
 62
     7
100
AcDbCircle
 10
67.65907732206927
 20
272.9480534061236
 30
0.0
 40
3.019301802674051
100
AcDbArc
 50
217.0624963767895
 51
219.9039292768784
  0
ARC
  5
27D
330
63
100
AcDbEntity
  8
1
  6
Continuous
 62
     7
100
AcDbCircle
 10
67.61726552329176
 20
272.9164743923882
 30
0.0
 40
2.966904659378727
100
AcDbArc
 50
214.1696971019381
 51
217.062496376789
  0
ARC
  5
27E
330
63
100
AcDbEntity
  8
1
  6
Continuous
 62
     7
100
AcDbCircle
 10
67.36749775564977
 20
272.7469254323104
 30
0.0
 40
2.665025896269569
100
AcDbArc
 50
211.2708698046865
 51
214.1696971019368
  0
ARC
  5
27F
330
63
100
AcDbEntity
  8
1
  6
Continuous
 62
     7
100
AcDbCircle
 10
67.34726894334818
 20
272.7346402039815
 30
0.0
 40
2.641358795006001
100
AcDbArc
 50
208.3453131231106
 51
211.2708698046857
  0
ARC
  5
280
330
63
100
AcDbEntity
  8
1
  6
Continuous
 62
     7
100
AcDbCircle
 10
67.10993268445367
 20
272.6066055728447
 30
0.0
 40
2.37168980057683
100
AcDbArc
 50
205.0880404471941
 51
208.3453131231128
  0
ARC
  5
281
330
63
100
AcDbEntity
  8
1
  6
Continuous
 62
     7
100
AcDbCircle
 10
67.07624339954327
 20
272.5908329329221
 30
0.0
 40
2.33449108974026
100
AcDbArc
 50
201.780031817726
 51
205.0880404471932
  0
ARC
  5
282
330
63
100
AcDbEntity
  8
1
  6
Continuous
 62
     7
100
AcDbCircle
 10
66.86990709850417
 20
272.5083877032722
 30
0.0
 40
2.112293238673916
100
AcDbArc
 50
198.123263869937
 51
201.7800318177256
  0
ARC
  5
283
330
63
100
AcDbEntity
  8
1
  6
Continuous
 62
     7
100
AcDbCircle
 10
66.84804849746757
 20
272.5012333864488
 30
0.0
 40
2.089293615014253
100
AcDbArc
 50
191.2023782474082
 51
198.1232638699354
  0
ARC
  5
284
330
63
100
AcDbEntity
  8
1
  6
Continuous
 62
     7
100
AcDbCircle
 10
66.72062549516437
 20
272.4759974560564
 30
0.0
 40
1.959395679315699
100
AcDbArc
 50
185.6670781164242
 51
191.202378247411
  0
ARC
  5
285
330
63
100
AcDbEntity
  8
1
  6
Continuous
 62
     7
100
AcDbCircle
 10
66.71563026568657
 20
272.475501764535
 30
0.0
 40
1.954375915614116
100
AcDbArc
 50
181.9693294790767
 51
185.6670781164245
  0
ARC
  5
286
330
63
100
AcDbEntity
  8
1
  6
Continuous
 62
     7
100
AcDbCircle
 10
66.56135340368996
 20
272.4701969816173
 30
0.0
 40
1.800007878542561
100
AcDbArc
 50
179.9623169177571
 51
181.9693294790777
  0
ARC
  5
287
330
63
100
AcDbEntity
  8
1
  6
Continuous
 62
     7
100
AcDbCircle
 10
71.41341326227933
 20
140.8420514725464
 30
0.0
 40
10.5
100
AcDbArc
 50
319.632406455814
 51
0.0
  0
ARC
  5
288
330
63
100
AcDbEntity
  8
1
  6
Continuous
 62
     7
100
AcDbCircle
 10
71.41341326227933
 20
140.8420514725464
 30
0.0
 40
8.20000000000001
100
AcDbArc
 50
347.3196165081781
 51
0.0
  0
ARC
  5
289
330
63
100
AcDbEntity
  8
1
  6
Continuous
 62
     7
100
AcDbCircle
 10
71.41341326227933
 20
140.8420514725464
 30
0.0
 40
15.50000000000004
100
AcDbArc
 50
55.41462091516107
 51
64.5853790848391
  0
ARC
  5
28A
330
63
100
AcDbEntity
  8
1
  6
Continuous
 62
     7
100
AcDbCircle
 10
71.41341326227933
 20
140.8420514725464
 30
0.0
 40
15.5
100
AcDbArc
 50
0.0
 51
4.58537908483926
  0
ARC
  5
28B
330
63
100
AcDbEntity
  8
1
  6
Continuous
 62
     7
100
AcDbCircle
 10
71.41341326227933
 20
140.8420514725464
 30
0.0
 40
15.50000000000001
100
AcDbArc
 50
301.072950972153
 51
304.5853790848391
  0
ARC
  5
28C
330
63
100
AcDbEntity
  8
1
  6
Continuous
 62
     7
100
AcDbCircle
 10
71.41341326227933
 20
140.8420514725464
 30
0.0
 40
15.49999999999999
100
AcDbArc
 50
180.0
 51
184.5853790848388
  0
ARC
  5
28D
330
63
100
AcDbEntity
  8
1
  6
Continuous
 62
     7
100
AcDbCircle
 10
71.41341326227933
 20
140.8420514725464
 30
0.0
 40
15.49999999999998
100
AcDbArc
 50
115.4146209151608
 51
124.5853790848388
  0
ARC
  5
28E
330
63
100
AcDbEntity
  8
1
  6
Continuous
 62
     7
100
AcDbCircle
 10
71.41341326227933
 20
140.8420514725464
 30
0.0
 40
15.50000000000002
100
AcDbArc
 50
175.4146209151608
 51
180.0
  0
ARC
  5
28F
330
63
100
AcDbEntity
  8
1
  6
Continuous
 62
     7
100
AcDbCircle
 10
71.41341326227933
 20
140.8420514725464
 30
0.0
 40
15.49999999999996
100
AcDbArc
 50
355.4146209151612
 51
0.0
  0
SPLINE
  5
290
330
63
100
AcDbEntity
  8
1
  6
Continuous
 62
     7
100
AcDbSpline
210
0.0
220
0.0
230
1.0
 70
    11
 71
     3
 72
    79
 73
    75
 74
    73
 42
0.000000001
 43
0.0000000001
 44
0.00000001
 40
0.0
 40
0.0
 40
0.0
 40
0.0
 40
0.290367247183158
 40
0.5807357518971572
 40
0.8724070977358258
 40
1.164081911023918
 40
1.458189924522181
 40
1.75230292047272
 40
2.049663201046306
 40
2.347029106415284
 40
2.648045786115875
 40
2.949067936325324
 40
3.253697746552292
 40
3.558332275329906
 40
3.866104857780008
 40
4.17388101954004
 40
4.483966061108321
 40
4.794053321447477
 40
5.105362217358448
 40
5.416671863434598
 40
5.727981509499948
 40
6.039290405378589
 40
6.349377665663587
 40
6.659462707155387
 40
6.967238868816693
 40
7.275011451144571
 40
7.579645979777339
 40
7.884275789834327
 40
8.185297939849564
 40
8.486314619328384
 40
8.783680524448778
 40
9.081040804740852
 40
9.375153800374076
 40
9.669261813502214
 40
9.960936626337187
 40
10.25260797152396
 40
10.54297647485864
 40
10.83334373090413
 40
11.12371098694968
 40
11.41407949028442
 40
11.7057508354712
 40
11.99742564830617
 40
12.29153366143427
 40
12.58564665706746
 40
12.88300693735953
 40
13.18037284248001
 40
13.48138952195875
 40
13.78241167197401
 40
14.08704148203103
 40
14.39167601066376
 40
14.69944859299172
 40
15.00722475465299
 40
15.31730979614477
 40
15.62739705642976
 40
15.9387059523084
 40
16.25001559837375
 40
16.56132524444984
 40
16.87263414036087
 40
17.18272140070007
 40
17.49280644226828
 40
17.8005826040283
 40
18.10835518647841
 40
18.41298971525607
 40
18.71761952548306
 40
19.01864167569249
 40
19.31965835539303
 40
19.61702426076204
 40
19.9143845413356
 40
20.20849753728614
 40
20.50260555078441
 40
20.7942803640725
 40
21.08595170991118
 40
21.37632021462522
 40
21.66668746180844
 40
21.66668746180844
 40
21.66668746180844
 40
21.66668746180844
 10
59.28905760929706
 20
268.9006666213857
 30
0.0
 10
59.19223380258737
 20
268.9032982187063
 30
0.0
 10
58.99858576967172
 20
268.9085614195249
 30
0.0
 10
58.71022489336491
 20
268.9508564917068
 30
0.0
 10
58.42651274938572
 20
269.0180673842002
 30
0.0
 10
58.14908768660003
 20
269.1121225494694
 30
0.0
 10
57.8807667752189
 20
269.2315540071529
 30
0.0
 10
57.62276701184804
 20
269.3758295026393
 30
0.0
 10
57.37796500859167
 20
269.543433577842
 30
0.0
 10
57.14726878352942
 20
269.7335961320019
 30
0.0
 10
56.93337307625275
 20
269.9442188523138
 30
0.0
 10
56.73699953367331
 20
270.1744404681455
 30
0.0
 10
56.56045018850982
 20
270.4216768915434
 30
0.0
 10
56.40434739183952
 20
270.6849110657902
 30
0.0
 10
56.27045837723011
 20
270.9612746203719
 30
0.0
 10
56.15933036022702
 20
271.2494880642334
 30
0.0
 10
56.07213960024499
 20
271.5466265073863
 30
0.0
 10
56.00931399360467
 20
271.851049661418
 30
0.0
 10
55.97146544364956
 20
272.1599862737103
 30
0.0
 10
55.95880318151124
 20
272.4713808262848
 30
0.0
 10
55.97146544328801
 20
272.7827753788616
 30
0.0
 10
56.00931399288074
 20
273.0917119911702
 30
0.0
 10
56.07213959915676
 20
273.3961351452047
 30
0.0
 10
56.15933035877219
 20
273.6932735884481
 30
0.0
 10
56.2704583754048
 20
273.981487032114
 30
0.0
 10
56.40434738963986
 20
274.2578505876023
 30
0.0
 10
56.56045018592977
 20
274.5210847587241
 30
0.0
 10
56.736999530707
 20
274.7683211939883
 30
0.0
 10
56.93337307289195
 20
274.9985427663646
 30
0.0
 10
57.14726877976477
 20
275.2091656481813
 30
0.0
 10
57.37796500441009
 20
275.3993276070584
 30
0.0
 10
57.62276700723218
 20
275.5669338906518
 30
0.0
 10
57.88076677014038
 20
275.7112012311131
 30
0.0
 10
58.14908768101289
 20
275.8306629704517
 30
0.0
 10
58.42651274316805
 20
275.9246060175058
 30
0.0
 10
58.71022488620852
 20
275.9922339899431
 30
0.0
 10
58.99858576439021
 20
276.0329791147856
 30
0.0
 10
59.28905760929707
 20
276.0466529927106
 30
0.0
 10
59.57952945420396
 20
276.0329791147856
 30
0.0
 10
59.86789033238568
 20
275.9922339899431
 30
0.0
 10
60.15160247542616
 20
275.9246060175057
 30
0.0
 10
60.42902753758135
 20
275.8306629704518
 30
0.0
 10
60.69734844845381
 20
275.7112012311131
 30
0.0
 10
60.95534821136195
 20
275.5669338906517
 30
0.0
 10
61.20015021418421
 20
275.3993276070585
 30
0.0
 10
61.43084643882938
 20
275.2091656481814
 30
0.0
 10
61.6447421457023
 20
274.9985427663646
 30
0.0
 10
61.84111568788715
 20
274.7683211939882
 30
0.0
 10
62.01766503266433
 20
274.5210847587241
 30
0.0
 10
62.17376782895433
 20
274.2578505876023
 30
0.0
 10
62.30765684318937
 20
273.981487032114
 30
0.0
 10
62.41878485982211
 20
273.6932735884481
 30
0.0
 10
62.50597561943746
 20
273.3961351452047
 30
0.0
 10
62.56880122571337
 20
273.0917119911702
 30
0.0
 10
62.60664977530615
 20
272.7827753788617
 30
0.0
 10
62.61931203708293
 20
272.4713808262849
 30
0.0
 10
62.60664977494459
 20
272.1599862737103
 30
0.0
 10
62.56880122498946
 20
271.851049661418
 30
0.0
 10
62.50597561834927
 20
271.5466265073863
 30
0.0
 10
62.41878485836725
 20
271.2494880642334
 30
0.0
 10
62.30765684136419
 20
270.9612746203719
 30
0.0
 10
62.17376782675476
 20
270.6849110657902
 30
0.0
 10
62.01766503008437
 20
270.4216768915435
 30
0.0
 10
61.84111568492085
 20
270.1744404681455
 30
0.0
 10
61.64474214234143
 20
269.9442188523137
 30
0.0
 10
61.43084643506479
 20
269.733596132002
 30
0.0
 10
61.2001502100026
 20
269.5434335778419
 30
0.0
 10
60.95534820674619
 20
269.3758295026393
 30
0.0
 10
60.69734844337533
 20
269.2315540071529
 30
0.0
 10
60.42902753199422
 20
269.1121225494695
 30
0.0
 10
60.15160246920851
 20
269.0180673842001
 30
0.0
 10
59.86789032522933
 20
268.9508564917068
 30
0.0
 10
59.57952944892244
 20
268.9085614195247
 30
0.0
 10
59.38588141600677
 20
268.9032982187064
 30
0.0
 10
59.28905760929706
 20
268.9006666213857
 30
0.0
 11
59.28905760929706
 21
268.9006666213857
 31
0.0
 11
58.99900984749905
 21
268.9142842342382
 31
0.0
 11
58.71149792296336
 21
268.9549137936517
 31
0.0
 11
58.42776061309478
 21
269.0224808914902
 31
0.0
 11
58.15148709543956
 21
269.1160070375709
 31
0.0
 11
57.88277003334082
 21
269.2355506030086
 31
0.0
 11
57.62604077234087
 21
269.3790516164438
 31
0.0
 11
57.38062348255871
 21
269.5469607891505
 31
0.0
 11
57.15112437430597
 21
269.7360550538485
 31
0.0
 11
56.93656981526911
 21
269.9471886196782
 31
0.0
 11
56.74116799576979
 21
270.1761699809919
 31
0.0
 11
56.56406459062956
 21
270.4240282169893
 31
0.0
 11
56.40862795384638
 21
270.6860237285214
 31
0.0
 11
56.27437472522327
 21
270.9629714367883
 31
0.0
 11
56.16360830943609
 21
271.250124648317
 31
0.0
 11
56.07625055396311
 21
271.5476500347643
 31
0.0
 11
56.01355386044838
 21
271.8513328193794
 31
0.0
 11
55.97567144047923
 21
272.1603282092518
 31
0.0
 11
55.96302393538457
 21
272.471380835657
 31
0.0
 11
55.97567144047923
 21
272.7824334620622
 31
0.0
 11
56.01355386044838
 21
273.0914288519348
 31
0.0
 11
56.07625055396309
 21
273.39511163655
 31
0.0
 11
56.16360830943609
 21
273.6926370229973
 31
0.0
 11
56.27437472522328
 21
273.9797902345259
 31
0.0
 11
56.40862795384638
 21
274.2567379427928
 31
0.0
 11
56.56406459062955
 21
274.5187334543251
 31
0.0
 11
56.74116799576979
 21
274.7665916903225
 31
0.0
 11
56.9365698152691
 21
274.9955730516361
 31
0.0
 11
57.15112437430597
 21
275.2067066174657
 31
0.0
 11
57.38062348255868
 21
275.3958008821635
 31
0.0
 11
57.62604077234079
 21
275.5637100548703
 31
0.0
 11
57.88277003334078
 21
275.7072110683054
 31
0.0
 11
58.15148709543956
 21
275.8267546337432
 31
0.0
 11
58.42776061309478
 21
275.920280779824
 31
0.0
 11
58.71149792296336
 21
275.9878478776626
 31
0.0
 11
58.99900984749902
 21
276.0284774370762
 31
0.0
 11
59.28905760929706
 21
276.0420950499286
 31
0.0
 11
59.57910537109515
 21
276.0284774370762
 31
0.0
 11
59.86661729563087
 21
275.9878478776626
 31
0.0
 11
60.15035460549945
 21
275.920280779824
 31
0.0
 11
60.42662812315467
 21
275.8267546337432
 31
0.0
 11
60.69534518525342
 21
275.7072110683054
 31
0.0
 11
60.95207444625337
 21
275.5637100548703
 31
0.0
 11
61.19749173603554
 21
275.3958008821637
 31
0.0
 11
61.42699084428827
 21
275.2067066174657
 31
0.0
 11
61.64154540332509
 21
274.9955730516362
 31
0.0
 11
61.83694722282436
 21
274.7665916903225
 31
0.0
 11
62.01405062796458
 21
274.518733454325
 31
0.0
 11
62.16948726474777
 21
274.2567379427928
 31
0.0
 11
62.30374049337094
 21
273.9797902345259
 31
0.0
 11
62.41450690915818
 21
273.6926370229973
 31
0.0
 11
62.50186466463113
 21
273.39511163655
 31
0.0
 11
62.56456135814577
 21
273.0914288519348
 31
0.0
 11
62.60244377811492
 21
272.7824334620622
 31
0.0
 11
62.61509128320958
 21
272.471380835657
 31
0.0
 11
62.60244377811492
 21
272.1603282092519
 31
0.0
 11
62.56456135814577
 21
271.8513328193794
 31
0.0
 11
62.5018646646311
 21
271.5476500347642
 31
0.0
 11
62.41450690915818
 21
271.250124648317
 31
0.0
 11
62.30374049337102
 21
270.9629714367883
 31
0.0
 11
62.16948726474789
 21
270.6860237285214
 31
0.0
 11
62.01405062796464
 21
270.4240282169893
 31
0.0
 11
61.83694722282436
 21
270.1761699809919
 31
0.0
 11
61.64154540332507
 21
269.9471886196782
 31
0.0
 11
61.42699084428827
 21
269.7360550538485
 31
0.0
 11
61.19749173603554
 21
269.5469607891505
 31
0.0
 11
60.95207444625337
 21
269.3790516164438
 31
0.0
 11
60.69534518525342
 21
269.2355506030086
 31
0.0
 11
60.42662812315467
 21
269.1160070375709
 31
0.0
 11
60.15035460549945
 21
269.0224808914902
 31
0.0
 11
59.86661729563087
 21
268.9549137936517
 31
0.0
 11
59.57910537109514
 21
268.9142842342382
 31
0.0
 11
59.28905760929706
 21
268.9006666213857
 31
0.0
  0
SPLINE
  5
291
330
63
100
AcDbEntity
  8
1
  6
Continuous
 62
     7
100
AcDbSpline
210
0.0
220
0.0
230
1.0
 70
    11
 71
     3
 72
    79
 73
    75
 74
    73
 42
0.000000001
 43
0.0000000001
 44
0.00000001
 40
0.0
 40
0.0
 40
0.0
 40
0.0
 40
0.2903672471832148
 40
0.5807357518972422
 40
0.8724070977359178
 40
1.164081911023997
 40
1.458189924522227
 40
1.752302920472729
 40
2.049663201046324
 40
2.347029106415371
 40
2.648045786115947
 40
2.949067936325373
 40
3.253697746552325
 40
3.558332275329932
 40
3.866104857780061
 40
4.173881019540116
 40
4.483966061108405
 40
4.794053321447556
 40
5.105362217358518
 40
5.416671863434666
 40
5.727981509500014
 40
6.039290405378647
 40
6.349377665663641
 40
6.659462707155446
 40
6.967238868816777
 40
7.275011451144676
 40
7.579645979777392
 40
7.884275789834406
 40
8.185297939849615
 40
8.486314619328436
 40
8.783680524448888
 40
9.08104080474096
 40
9.37515380037416
 40
9.669261813502267
 40
9.960936626337247
 40
10.25260797152402
 40
10.54297647485873
 40
10.83334373090427
 40
11.12371098694977
 40
11.41407949028444
 40
11.70575083547121
 40
11.99742564830619
 40
12.2915336614343
 40
12.5856466570675
 40
12.8830069373596
 40
13.18037284248012
 40
13.48138952195893
 40
13.78241167197407
 40
14.08704148203111
 40
14.39167601066386
 40
14.69944859299179
 40
15.00722475465304
 40
15.31730979614484
 40
15.62739705642984
 40
15.93870595230848
 40
16.25001559837383
 40
16.56132524444992
 40
16.87263414036095
 40
17.18272140070016
 40
17.49280644226839
 40
17.80058260402836
 40
18.10835518647852
 40
18.41298971525609
 40
18.71761952548309
 40
19.01864167569251
 40
19.31965835539308
 40
19.61702426076211
 40
19.91438454133572
 40
20.20849753728623
 40
20.50260555078455
 40
20.79428036407262
 40
21.08595170991131
 40
21.37632021462529
 40
21.66668746180846
 40
21.66668746180846
 40
21.66668746180846
 40
21.66668746180846
 10
83.53776891526138
 20
268.9006666213857
 30
0.0
 10
83.63459272197107
 20
268.9032982187064
 30
0.0
 10
83.82824075488674
 20
268.9085614195247
 30
0.0
 10
84.11660163119365
 20
268.9508564917068
 30
0.0
 10
84.4003137751728
 20
269.0180673842001
 30
0.0
 10
84.6777388379585
 20
269.1121225494695
 30
0.0
 10
84.94605974933958
 20
269.2315540071529
 30
0.0
 10
85.20405951271039
 20
269.3758295026392
 30
0.0
 10
85.44886151596685
 20
269.543433577842
 30
0.0
 10
85.67955774102906
 20
269.7335961320019
 30
0.0
 10
85.89345344830579
 20
269.9442188523138
 30
0.0
 10
86.08982699088517
 20
270.1744404681455
 30
0.0
 10
86.26637633604864
 20
270.4216768915434
 30
0.0
 10
86.4224791327189
 20
270.6849110657902
 30
0.0
 10
86.55636814732839
 20
270.9612746203719
 30
0.0
 10
86.66749616433157
 20
271.2494880642334
 30
0.0
 10
86.7546869243136
 20
271.5466265073863
 30
0.0
 10
86.8175125309539
 20
271.851049661418
 30
0.0
 10
86.85536108090892
 20
272.1599862737102
 30
0.0
 10
86.86802334304718
 20
272.4713808262848
 30
0.0
 10
86.8553610812705
 20
272.7827753788617
 30
0.0
 10
86.8175125316778
 20
273.0917119911702
 30
0.0
 10
86.75468692540184
 20
273.3961351452047
 30
0.0
 10
86.66749616578639
 20
273.693273588448
 30
0.0
 10
86.55636814915366
 20
273.981487032114
 30
0.0
 10
86.42247913491858
 20
274.2578505876022
 30
0.0
 10
86.26637633862866
 20
274.521084758724
 30
0.0
 10
86.0898269938515
 20
274.7683211939882
 30
0.0
 10
85.89345345166657
 20
274.9985427663645
 30
0.0
 10
85.67955774479371
 20
275.2091656481814
 30
0.0
 10
85.44886152014843
 20
275.3993276070584
 30
0.0
 10
85.2040595173263
 20
275.5669338906518
 30
0.0
 10
84.94605975441812
 20
275.7112012311131
 30
0.0
 10
84.6777388435456
 20
275.8306629704516
 30
0.0
 10
84.40031378139048
 20
275.9246060175059
 30
0.0
 10
84.11660163834998
 20
275.9922339899431
 30
0.0
 10
83.82824076016828
 20
276.0329791147856
 30
0.0
 10
83.5377689152614
 20
276.0466529927106
 30
0.0
 10
83.24729707035453
 20
276.0329791147856
 30
0.0
 10
82.95893619217284
 20
275.9922339899431
 30
0.0
 10
82.67522404913238
 20
275.9246060175058
 30
0.0
 10
82.39779898697724
 20
275.8306629704517
 30
0.0
 10
82.12947807610473
 20
275.7112012311131
 30
0.0
 10
81.87147831319658
 20
275.5669338906517
 30
0.0
 10
81.62667631037431
 20
275.3993276070585
 30
0.0
 10
81.39598008572902
 20
275.2091656481814
 30
0.0
 10
81.18208437885625
 20
274.9985427663646
 30
0.0
 10
80.98571083667132
 20
274.7683211939882
 30
0.0
 10
80.80916149189416
 20
274.521084758724
 30
0.0
 10
80.65305869560413
 20
274.2578505876024
 30
0.0
 10
80.51916968136912
 20
273.981487032114
 30
0.0
 10
80.40804166473646
 20
273.6932735884479
 30
0.0
 10
80.32085090512106
 20
273.3961351452047
 30
0.0
 10
80.25802529884504
 20
273.0917119911703
 30
0.0
 10
80.2201767492523
 20
272.7827753788616
 30
0.0
 10
80.20751448747554
 20
272.4713808262848
 30
0.0
 10
80.22017674961388
 20
272.1599862737103
 30
0.0
 10
80.25802529956894
 20
271.8510496614179
 30
0.0
 10
80.32085090620929
 20
271.5466265073863
 30
0.0
 10
80.40804166619128
 20
271.2494880642333
 30
0.0
 10
80.51916968319442
 20
270.9612746203719
 30
0.0
 10
80.65305869780379
 20
270.6849110657902
 30
0.0
 10
80.80916149447415
 20
270.4216768915435
 30
0.0
 10
80.98571083963756
 20
270.1744404681455
 30
0.0
 10
81.18208438221697
 20
269.9442188523137
 30
0.0
 10
81.39598008949366
 20
269.733596132002
 30
0.0
 10
81.62667631455588
 20
269.5434335778419
 30
0.0
 10
81.87147831781229
 20
269.3758295026392
 30
0.0
 10
82.12947808118324
 20
269.2315540071529
 30
0.0
 10
82.39779899256432
 20
269.1121225494695
 30
0.0
 10
82.67522405535003
 20
269.0180673842001
 30
0.0
 10
82.9589361993292
 20
268.9508564917066
 30
0.0
 10
83.24729707563606
 20
268.9085614195248
 30
0.0
 10
83.44094510855172
 20
268.9032982187064
 30
0.0
 10
83.53776891526138
 20
268.9006666213857
 30
0.0
 11
83.53776891526138
 21
268.9006666213857
 31
0.0
 11
83.82781667705945
 21
268.9142842342382
 31
0.0
 11
84.11532860159517
 21
268.9549137936517
 31
0.0
 11
84.39906591146375
 21
269.0224808914902
 31
0.0
 11
84.67533942911896
 21
269.1160070375709
 31
0.0
 11
84.94405649121767
 21
269.2355506030086
 31
0.0
 11
85.20078575221757
 21
269.3790516164438
 31
0.0
 11
85.44620304199978
 21
269.5469607891505
 31
0.0
 11
85.67570215025256
 21
269.7360550538485
 31
0.0
 11
85.8902567092894
 21
269.9471886196782
 31
0.0
 11
86.08565852878868
 21
270.1761699809919
 31
0.0
 11
86.26276193392889
 21
270.4240282169893
 31
0.0
 11
86.41819857071206
 21
270.6860237285214
 31
0.0
 11
86.55245179933523
 21
270.9629714367883
 31
0.0
 11
86.66321821512247
 21
271.250124648317
 31
0.0
 11
86.75057597059549
 21
271.5476500347643
 31
0.0
 11
86.81327266411017
 21
271.8513328193794
 31
0.0
 11
86.85115508407927
 21
272.1603282092518
 31
0.0
 11
86.86380258917387
 21
272.471380835657
 31
0.0
 11
86.85115508407927
 21
272.7824334620622
 31
0.0
 11
86.81327266411017
 21
273.0914288519348
 31
0.0
 11
86.75057597059549
 21
273.39511163655
 31
0.0
 11
86.66321821512247
 21
273.6926370229973
 31
0.0
 11
86.55245179933522
 21
273.9797902345259
 31
0.0
 11
86.41819857071206
 21
274.2567379427928
 31
0.0
 11
86.2627619339289
 21
274.518733454325
 31
0.0
 11
86.08565852878868
 21
274.7665916903225
 31
0.0
 11
85.89025670928942
 21
274.9955730516361
 31
0.0
 11
85.67570215025256
 21
275.2067066174657
 31
0.0
 11
85.44620304199982
 21
275.3958008821636
 31
0.0
 11
85.20078575221768
 21
275.5637100548703
 31
0.0
 11
84.94405649121772
 21
275.7072110683054
 31
0.0
 11
84.67533942911896
 21
275.8267546337432
 31
0.0
 11
84.39906591146374
 21
275.920280779824
 31
0.0
 11
84.11532860159517
 21
275.9878478776626
 31
0.0
 11
83.82781667705946
 21
276.0284774370762
 31
0.0
 11
83.53776891526138
 21
276.0420950499286
 31
0.0
 11
83.24772115346335
 21
276.0284774370762
 31
0.0
 11
82.96020922892768
 21
275.9878478776626
 31
0.0
 11
82.67647191905911
 21
275.920280779824
 31
0.0
 11
82.40019840140388
 21
275.8267546337432
 31
0.0
 11
82.13148133930513
 21
275.7072110683054
 31
0.0
 11
81.87475207830516
 21
275.5637100548703
 31
0.0
 11
81.62933478852295
 21
275.3958008821637
 31
0.0
 11
81.39983568027017
 21
275.2067066174657
 31
0.0
 11
81.18528112123339
 21
274.9955730516361
 31
0.0
 11
80.98987930173416
 21
274.7665916903225
 31
0.0
 11
80.81277589659389
 21
274.518733454325
 31
0.0
 11
80.65733925981067
 21
274.2567379427928
 31
0.0
 11
80.52308603118756
 21
273.9797902345259
 31
0.0
 11
80.41231961540038
 21
273.6926370229973
 31
0.0
 11
80.32496185992738
 21
273.39511163655
 31
0.0
 11
80.26226516641267
 21
273.0914288519348
 31
0.0
 11
80.22438274644352
 21
272.7824334620622
 31
0.0
 11
80.21173524134886
 21
272.471380835657
 31
0.0
 11
80.22438274644352
 21
272.1603282092519
 31
0.0
 11
80.26226516641267
 21
271.8513328193794
 31
0.0
 11
80.3249618599274
 21
271.5476500347642
 31
0.0
 11
80.41231961540038
 21
271.250124648317
 31
0.0
 11
80.52308603118755
 21
270.9629714367884
 31
0.0
 11
80.65733925981067
 21
270.6860237285214
 31
0.0
 11
80.81277589659386
 21
270.4240282169894
 31
0.0
 11
80.98987930173408
 21
270.1761699809919
 31
0.0
 11
81.18528112123334
 21
269.9471886196782
 31
0.0
 11
81.39983568027017
 21
269.7360550538485
 31
0.0
 11
81.62933478852294
 21
269.5469607891505
 31
0.0
 11
81.87475207830516
 21
269.3790516164438
 31
0.0
 11
82.13148133930511
 21
269.2355506030087
 31
0.0
 11
82.40019840140388
 21
269.1160070375709
 31
0.0
 11
82.67647191905908
 21
269.0224808914902
 31
0.0
 11
82.96020922892768
 21
268.9549137936517
 31
0.0
 11
83.24772115346336
 21
268.9142842342382
 31
0.0
 11
83.53776891526138
 21
268.9006666213857
 31
0.0
  0
SPLINE
  5
292
330
63
100
AcDbEntity
  8
1
  6
Continuous
 62
     7
100
AcDbSpline
210
0.0
220
0.0
230
1.0
 70
    11
 71
     3
 72
    79
 73
    75
 74
    73
 42
0.000000001
 43
0.0000000001
 44
0.00000001
 40
0.0
 40
0.0
 40
0.0
 40
0.0
 40
0.3102615582253203
 40
0.6205595420823793
 40
0.9422162975293128
 40
1.263944872754369
 40
1.606039020845109
 40
1.948193468906738
 40
2.316051885190389
 40
2.683951048240024
 40
3.079084664080173
 40
3.474244780173398
 40
3.89489795920761
 40
4.315568207494631
 40
4.757452126736809
 40
5.199346674241989
 40
5.65635416198714
 40
6.113367478657958
 40
6.578223037733388
 40
7.043080455843269
 40
7.507937873950763
 40
7.972793433019194
 40
8.429806749677713
 40
8.886814237403277
 40
9.328708784880147
 40
9.770592704081263
 40
10.19126295231281
 40
10.61191613126971
 40
11.00707624726332
 40
11.4022098629687
 40
11.77010902584978
 40
12.13796744190978
 40
12.48012188969641
 40
12.82221603741951
 40
13.14394461216163
 40
13.46560136682488
 40
13.77589934864147
 40
14.08616091447241
 40
14.39642248030349
 40
14.70672046212023
 40
15.0283772167835
 40
15.35010579152561
 40
15.69219993924895
 40
16.0343543870359
 40
16.40221280309566
 40
16.77011196597651
 40
17.16524558168217
 40
17.56040569767608
 40
17.98105887663266
 40
18.40172912486396
 40
18.84361304406513
 40
19.28550759154205
 40
19.74251507926776
 40
20.19952839592639
 40
20.66438395499481
 40
21.12924137310235
 40
21.59409879121219
 40
22.0589543502876
 40
22.51596766695847
 40
22.97297515470378
 40
23.41486970220882
 40
23.85675362145094
 40
24.27742386973786
 40
24.69807704877196
 40
25.09323716486537
 40
25.48837078070581
 40
25.85626994375499
 40
26.22412836003824
 40
26.56628280810029
 40
26.90837695619153
 40
27.23010553141637
 40
27.55176228686306
 40
27.86206027071986
 40
28.17232182894491
 40
28.17232182894491
 40
28.17232182894491
 40
28.17232182894491
 10
173.2200179756622
 20
142.371891801736
 30
0.0
 10
173.1166093639555
 20
142.3776488334896
 30
0.0
 10
172.9097799994807
 20
142.3891635646282
 30
0.0
 10
172.6020401382235
 20
142.4582848384058
 30
0.0
 10
172.3018050649529
 20
142.5647230631654
 30
0.0
 10
172.0073097360417
 20
142.712073033229
 30
0.0
 10
171.7260153866914
 20
142.8958881776929
 30
0.0
 10
171.454184506365
 20
143.1184187074689
 30
0.0
 10
171.1997847013398
 20
143.3729751251007
 30
0.0
 10
170.9588340912484
 20
143.6634924463234
 30
0.0
 10
170.7384493461396
 20
143.981039432851
 30
0.0
 10
170.5354704390596
 20
144.330384222654
 30
0.0
 10
170.3554092843774
 20
144.7015548037143
 30
0.0
 10
170.1963243235918
 20
145.0989546541273
 30
0.0
 10
170.061893652778
 20
145.5128052525557
 30
0.0
 10
169.951319124376
 20
145.946133552887
 30
0.0
 10
169.8665913113755
 20
146.390381028627
 30
0.0
 10
169.807696995154
 20
146.8464836707399
 30
0.0
 10
169.7753225080613
 20
147.3078542623595
 30
0.0
 10
169.769729145405
 20
147.7729342031506
 30
0.0
 10
169.7908159927794
 20
148.2375695245523
 30
0.0
 10
169.8385454971838
 20
148.6976052021243
 30
0.0
 10
169.9126045754059
 20
149.151492207345
 30
0.0
 10
170.0120877883357
 20
149.5926698500921
 30
0.0
 10
170.1370395347103
 20
150.0220731602467
 30
0.0
 10
170.2851851744654
 20
150.4312146933678
 30
0.0
 10
170.4574232706967
 20
150.8230931162591
 30
0.0
 10
170.6497519473868
 20
151.1880579349935
 30
0.0
 10
170.8642584075088
 20
151.5304453383431
 30
0.0
 10
171.0951015361351
 20
151.8404730488495
 30
0.0
 10
171.3455984495211
 20
152.1227993639532
 30
0.0
 10
171.6083389505526
 20
152.3687418863946
 30
0.0
 10
171.8874334282839
 20
152.5820770036255
 30
0.0
 10
172.1746972144919
 20
152.7564690094924
 30
0.0
 10
172.473935723167
 20
152.8937423716787
 30
0.0
 10
172.7775616778625
 20
152.9907803431095
 30
0.0
 10
173.0873939643267
 20
153.0472188533851
 30
0.0
 10
173.3981827024696
 20
153.0629963454683
 30
0.0
 10
173.7082731572168
 20
153.0368720485878
 30
0.0
 10
174.0160528551476
 20
152.9701411807711
 30
0.0
 10
174.3162768823929
 20
152.863040192313
 30
0.0
 10
174.610775245646
 20
152.7158723456841
 30
0.0
 10
174.8920687323443
 20
152.5320054674325
 30
0.0
 10
175.1638998516679
 20
152.3094893055218
 30
0.0
 10
175.4182995875898
 20
152.0549287634303
 30
0.0
 10
175.6592502165097
 20
151.7644125913521
 30
0.0
 10
175.8796349558545
 20
151.4468652752244
 30
0.0
 10
176.0826138642262
 20
151.097520577021
 30
0.0
 10
176.2626750182757
 20
150.726349969896
 30
0.0
 10
176.4217599790113
 20
150.3289501266793
 30
0.0
 10
176.5561906496494
 20
149.9150995262267
 30
0.0
 10
176.6667651779393
 20
149.4817712264501
 30
0.0
 10
176.7514929908336
 20
149.0375237505575
 30
0.0
 10
176.8103873069641
 20
148.5814211084877
 30
0.0
 10
176.8427617939739
 20
148.1200505168581
 30
0.0
 10
176.8483551565521
 20
147.6549705760723
 30
0.0
 10
176.8272683090998
 20
147.1903352546679
 30
0.0
 10
176.7795388046135
 20
146.7302995771086
 30
0.0
 10
176.7054797262984
 20
146.2764125718477
 30
0.0
 10
176.6059965132667
 20
145.8352349292567
 30
0.0
 10
176.4810447667615
 20
145.4058316185515
 30
0.0
 10
176.3328991268984
 20
144.9966900874593
 30
0.0
 10
176.1606610303782
 20
144.6048116573774
 30
0.0
 10
175.9683323539248
 20
144.2398468647141
 30
0.0
 10
175.753825892041
 20
143.8974593697728
 30
0.0
 10
175.5229827686357
 20
143.5874319888758
 30
0.0
 10
175.2724858357781
 20
143.3051045246384
 30
0.0
 10
175.0097454031105
 20
143.0591661266689
 30
0.0
 10
174.730650685502
 20
142.8458166415871
 30
0.0
 10
174.4433877609046
 20
142.6714763695254
 30
0.0
 10
174.1441462164837
 20
142.5340208839277
 30
0.0
 10
173.8405313053643
 20
142.4376456762364
 30
0.0
 10
173.5306591844739
 20
142.3788167599625
 30
0.0
 10
173.3235609930775
 20
142.3742000335725
 30
0.0
 10
173.2200179756622
 20
142.371891801736
 30
0.0
 11
173.2200179756622
 21
142.371891801736
 31
0.0
 11
172.9108286866726
 21
142.3976643238901
 31
0.0
 11
172.6075473616872
 21
142.4632789222939
 31
0.0
 11
172.3043977044512
 21
142.5708119554873
 31
0.0
 11
172.0163913119162
 21
142.7142050994866
 31
0.0
 11
171.729667513508
 21
142.9008005694574
 31
0.0
 11
171.4645118037832
 21
143.1170460683943
 31
0.0
 11
171.2040150851446
 21
143.3767791504492
 31
0.0
 11
170.9686774168762
 21
143.6595617100251
 31
0.0
 11
170.7429317508978
 21
143.9838601352553
 31
0.0
 11
170.5439538281393
 21
144.3252679611337
 31
0.0
 11
170.3599650565966
 21
144.7035499048646
 31
0.0
 11
170.2032460488932
 21
145.0939376741444
 31
0.0
 11
170.0664429165401
 21
145.5141118059684
 31
0.0
 11
169.9569063126062
 21
145.9422152087921
 31
0.0
 11
169.871110471342
 21
146.3910970612611
 31
0.0
 11
169.81241952751
 21
146.8443260814354
 31
0.0
 11
169.7798165710223
 21
147.3080369159381
 31
0.0
 11
169.7741758514572
 21
147.772860109701
 31
0.0
 11
169.7953014746416
 21
148.2372372486969
 31
0.0
 11
169.8433372991922
 21
148.6996042569993
 31
0.0
 11
169.9170973681768
 21
149.1506260123941
 31
0.0
 11
170.017802435121
 21
149.5963998713696
 31
0.0
 11
170.141542738479
 21
150.0206157697462
 31
0.0
 11
170.2922702243741
 21
150.4359982718709
 31
0.0
 11
170.461910037107
 21
150.820947348652
 31
0.0
 11
170.6584011020622
 21
151.1928886859612
 31
0.0
 11
170.8686443394629
 21
151.5274769380615
 31
0.0
 11
171.105070366737
 21
151.8440733814122
 31
0.0
 11
171.3496997501243
 21
152.1188574036727
 31
0.0
 11
171.6187061988173
 21
152.3697664407692
 31
0.0
 11
171.8909200334318
 21
152.577056803437
 31
0.0
 11
172.1837020334581
 21
152.753994946437
 31
0.0
 11
172.4763264021182
 21
152.8877120162265
 31
0.0
 11
172.7828907581252
 21
152.9850843096983
 31
0.0
 11
173.088189975074
 21
153.040557057412
 31
0.0
 11
173.3980663266233
 21
153.0560129971896
 31
0.0
 11
173.7072556156128
 21
153.0302404750354
 31
0.0
 11
174.0105369405981
 21
152.9646258766316
 31
0.0
 11
174.313686597834
 21
152.8570928434388
 31
0.0
 11
174.601692990369
 21
152.71369969944
 31
0.0
 11
174.8884167887779
 21
152.5271042294688
 31
0.0
 11
175.1535724985031
 21
152.310858730531
 31
0.0
 11
175.414069217141
 21
152.051125648476
 31
0.0
 11
175.6494068854091
 21
151.7683430889004
 31
0.0
 11
175.8751525513882
 21
151.4440446636702
 31
0.0
 11
176.0741304741472
 21
151.1026368377918
 31
0.0
 11
176.2581192456894
 21
150.7243548940611
 31
0.0
 11
176.4148382533921
 21
150.3339671247814
 31
0.0
 11
176.5516413857452
 21
149.9137929929574
 31
0.0
 11
176.6611779896792
 21
149.4856895901337
 31
0.0
 11
176.7469738309434
 21
149.0368077376646
 31
0.0
 11
176.8056647747752
 21
148.5835787174902
 31
0.0
 11
176.8382677312629
 21
148.1198678829877
 31
0.0
 11
176.8439084508283
 21
147.655044689225
 31
0.0
 11
176.8227828276445
 21
147.1906675502289
 31
0.0
 11
176.7747470030942
 21
146.7283005419263
 31
0.0
 11
176.700986934109
 21
146.2772787865315
 31
0.0
 11
176.6002818671641
 21
145.8315049275559
 31
0.0
 11
176.4765415638061
 21
145.4072890291794
 31
0.0
 11
176.3258140779111
 21
144.9919065270547
 31
0.0
 11
176.1561742651783
 21
144.6069574502736
 31
0.0
 11
175.9596832002231
 21
144.2350161129644
 31
0.0
 11
175.7494399628222
 21
143.900427860864
 31
0.0
 11
175.5130139355481
 21
143.583831417513
 31
0.0
 11
175.268384552161
 21
143.3090473952526
 31
0.0
 11
174.9993781034681
 21
143.0581383581564
 31
0.0
 11
174.7271642688534
 21
142.850847995489
 31
0.0
 11
174.4343822688271
 21
142.6739098524893
 31
0.0
 11
174.141757900167
 21
142.5401927826994
 31
0.0
 11
173.8351935441602
 21
142.4428204892272
 31
0.0
 11
173.5298943272115
 21
142.3873477415135
 31
0.0
 11
173.2200179756622
 21
142.371891801736
 31
0.0
  0
SPLINE
  5
293
330
63
100
AcDbEntity
  8
1
  6
Continuous
 62
     7
100
AcDbSpline
210
0.0
220
0.0
230
1.0
 70
    11
 71
     3
 72
    79
 73
    75
 74
    73
 42
0.000000001
 43
0.0000000001
 44
0.00000001
 40
0.0
 40
0.0
 40
0.0
 40
0.0
 40
0.3102615582252882
 40
0.6205595420823433
 40
0.9422162975294982
 40
1.263944872754708
 40
1.606039020845921
 40
1.948193468908018
 40
2.316051885191506
 40
2.683951048240926
 40
3.079084664081509
 40
3.474244780175122
 40
3.894897959208482
 40
4.315568207494692
 40
4.757452126737355
 40
5.199346674242967
 40
5.656354161988186
 40
6.113367478659053
 40
6.578223037734429
 40
7.043080455844195
 40
7.507937873951255
 40
7.972793433019249
 40
8.429806749678157
 40
8.886814237404215
 40
9.32870878488143
 40
9.770592704082931
 40
10.19126295231365
 40
10.61191613126975
 40
11.0070762472638
 40
11.40220986296958
 40
11.77010902585106
 40
12.13796744191144
 40
12.48012188969768
 40
12.82221603742035
 40
13.14394461216242
 40
13.46560136682559
 40
13.77589934864224
 40
14.08616091447335
 40
14.39642248030453
 40
14.70672046212129
 40
15.02837721678437
 40
15.35010579152645
 40
15.69219993924946
 40
16.03435438703598
 40
16.40221280309591
 40
16.77011196597708
 40
17.16524558168287
 40
17.56040569767692
 40
17.98105887663326
 40
18.40172912486421
 40
18.84361304406547
 40
19.28550759154257
 40
19.74251507926868
 40
20.1995283959277
 40
20.66438395499553
 40
21.12924137310255
 40
21.59409879121245
 40
22.05895435028787
 40
22.51596766695876
 40
22.97297515470397
 40
23.41486970220952
 40
23.85675362145203
 40
24.27742386973815
 40
24.69807704877149
 40
25.09323716486514
 40
25.48837078070586
 40
25.8562699437552
 40
26.22412836003862
 40
26.56628280810073
 40
26.90837695619204
 40
27.23010553141685
 40
27.55176228686353
 40
27.86206027072036
 40
28.17232182894547
 40
28.17232182894547
 40
28.17232182894547
 40
28.17232182894547
 10
173.2967554689832
 20
139.5391343775523
 30
0.0
 10
173.1932444815943
 20
139.5356760716825
 30
0.0
 10
172.9862103539195
 20
139.5287590621997
 30
0.0
 10
172.6770108588756
 20
139.4664915348691
 30
0.0
 10
172.3744852737051
 20
139.3667495415608
 30
0.0
 10
172.0767891291643
 20
139.2259783870087
 30
0.0
 10
171.7914806031418
 20
139.0484577873875
 30
0.0
 10
171.514773117288
 20
138.8320211189276
 30
0.0
 10
171.2547809240015
 20
138.5831792213611
 30
0.0
 10
171.0074357061257
 20
138.2980865107777
 30
0.0
 10
170.7800507919093
 20
137.9855139187027
 30
0.0
 10
170.5693610062986
 20
137.6407646864756
 30
0.0
 10
170.3810984395399
 20
137.2736859134211
 30
0.0
 10
170.2132241855215
 20
136.8799183415035
 30
0.0
 10
170.0696326702341
 20
136.4691563668607
 30
0.0
 10
169.9494586968996
 20
136.0383915141479
 30
0.0
 10
169.8548824817455
 20
135.5961359754325
 30
0.0
 10
169.785870015623
 20
135.1414542844164
 30
0.0
 10
169.7432538017866
 20
134.6809167848095
 30
0.0
 10
169.7273296966096
 20
134.2160758873982
 30
0.0
 10
169.7380890943274
 20
133.7510867774324
 30
0.0
 10
169.7755867583994
 20
133.2901042881568
 30
0.0
 10
169.8395440957906
 20
132.8346840211843
 30
0.0
 10
169.9292016418342
 20
132.3914051625044
 30
0.0
 10
170.0445830118731
 20
131.9593319266495
 30
0.0
 10
170.1836026825957
 20
131.5470001962972
 30
0.0
 10
170.3470923775487
 20
131.1513920824208
 30
0.0
 10
170.5312656018268
 20
130.7822446020691
 30
0.0
 10
170.738112711375
 20
130.435176267763
 30
0.0
 10
170.9620113539822
 20
130.1200967077232
 30
0.0
 10
171.2061743394305
 20
129.8322750817928
 30
0.0
 10
171.463386185853
 20
129.5805562678613
 30
0.0
 10
171.7376723723862
 20
129.3610734949129
 30
0.0
 10
172.0209910035744
 20
129.1803427343928
 30
0.0
 10
172.3171060222179
 20
129.0364554285814
 30
0.0
 10
172.6185012654502
 20
128.9326961127535
 30
0.0
 10
172.9270032582315
 20
128.8693883594541
 30
0.0
 10
173.2373647836877
 20
128.8467103408144
 30
0.0
 10
173.5479590798508
 20
128.8659392826445
 30
0.0
 10
173.8571452969554
 20
128.9258161089663
 30
0.0
 10
174.1596745626522
 20
129.0262209477994
 30
0.0
 10
174.4573696947675
 20
129.1668099564552
 30
0.0
 10
174.7426785076585
 20
129.344382296259
 30
0.0
 10
175.0193859132576
 20
129.5608045950886
 30
0.0
 10
175.2793781290861
 20
129.809650617632
 30
0.0
 10
175.526723340256
 20
130.0947421789371
 30
0.0
 10
175.7541082560311
 20
130.4073151006593
 30
0.0
 10
175.9647980408981
 20
130.7520642412809
 30
0.0
 10
176.1530606076045
 20
131.1191430404074
 30
0.0
 10
176.320934861414
 20
131.5129106051315
 30
0.0
 10
176.4645263765706
 20
131.9236725818019
 30
0.0
 10
176.5847003497798
 20
132.3544374339626
 30
0.0
 10
176.6792765648312
 20
132.7966929728333
 30
0.0
 10
176.7482890308618
 20
133.2513746638082
 30
0.0
 10
176.7909052446153
 20
133.7119121634268
 30
0.0
 10
176.8068293497139
 20
134.1767530608345
 30
0.0
 10
176.7960699519187
 20
134.6417421708048
 30
0.0
 10
176.7585722877645
 20
135.1027246600698
 30
0.0
 10
176.6946149502815
 20
135.5581449270844
 30
0.0
 10
176.6049574041324
 20
136.0014237856101
 30
0.0
 10
176.4895760339756
 20
136.4334970220183
 30
0.0
 10
176.3505563631006
 20
136.8458287503449
 30
0.0
 10
176.1870666680186
 20
137.2414368714169
 30
0.0
 10
176.002893443398
 20
137.6105843256983
 30
0.0
 10
175.7960463341225
 20
137.9576527516123
 30
0.0
 10
175.572147689412
 20
138.2727319820073
 30
0.0
 10
175.3279847100261
 20
138.5605547572203
 30
0.0
 10
175.0707728403223
 20
138.8122694461796
 30
0.0
 10
174.7964867331652
 20
139.0317665887628
 30
0.0
 10
174.5131678140671
 20
139.2124456091053
 30
0.0
 10
174.217053806444
 20
139.3565150608211
 30
0.0
 10
173.9156548802353
 20
139.4596115311381
 30
0.0
 10
173.6071661676406
 20
139.5253099854339
 30
0.0
 10
173.4002216526262
 20
139.5345264244195
 30
0.0
 10
173.2967554689832
 20
139.5391343775523
 30
0.0
 11
173.2967554689832
 21
139.5391343775523
 31
0.0
 11
172.987069931126
 21
139.5202371035117
 31
0.0
 11
172.6824057755802
 21
139.4613763361523
 31
0.0
 11
172.3769420037222
 21
139.360604554425
 31
0.0
 11
172.0858210981361
 21
139.2236450924742
 31
0.0
 11
171.7950226958955
 21
139.0434654730888
 31
0.0
 11
171.5251283601903
 21
138.8331639900585
 31
0.0
 11
171.2589257542753
 21
138.5792821534904
 31
0.0
 11
171.0173639268593
 21
138.3017975996112
 31
0.0
 11
170.7844694262435
 21
137.9825943322437
 31
0.0
 11
170.5779559635093
 21
137.6456912200198
 31
0.0
 11
170.3856087646201
 21
137.2715900945398
 31
0.0
 11
170.2202556587561
 21
136.8847803116242
 31
0.0
 11
170.0741517851024
 21
136.4677490703731
 31
0.0
 11
169.9551315553532
 21
136.0421847673336
 31
0.0
 11
169.8593846191394
 21
135.595319722762
 31
0.0
 11
169.7906393150242
 21
135.1435064263904
 31
0.0
 11
169.7477426978114
 21
134.6806343371059
 31
0.0
 11
169.7317769512541
 21
134.2160511754288
 31
0.0
 11
169.7425808509407
 21
133.7513193227136
 31
0.0
 11
169.7803329671812
 21
133.2879992729362
 31
0.0
 11
169.844055022948
 21
132.8354501913713
 31
0.0
 11
169.9348320128302
 21
132.3875491063508
 31
0.0
 11
170.0491174813411
 21
131.9606889151896
 31
0.0
 11
170.1905797128812
 21
131.5420603983353
 31
0.0
 11
170.3516257065632
 21
131.1534376433441
 31
0.0
 11
170.5398053028812
 21
130.7772228954467
 31
0.0
 11
170.7425635062624
 21
130.4380464984522
 31
0.0
 11
170.9718977399951
 21
130.1162757981802
 31
0.0
 11
171.2103622016285
 21
129.8361249555181
 31
0.0
 11
171.4737281141721
 21
129.5793016496335
 31
0.0
 11
171.7412696447988
 21
129.3660149983865
 31
0.0
 11
172.0300485634292
 21
129.1826161375885
 31
0.0
 11
172.3196300803174
 21
129.0424311848882
 31
0.0
 11
172.6239555724281
 21
128.9382723505945
 31
0.0
 11
172.9279470696495
 21
128.8760308272715
 31
0.0
 11
173.2374035772322
 21
128.8536945509758
 31
0.0
 11
173.5470891150894
 21
128.8725918250165
 31
0.0
 11
173.8517532706351
 21
128.9314525923761
 31
0.0
 11
174.1572170424923
 21
129.0322243741037
 31
0.0
 11
174.4483379480781
 21
129.1691838360542
 31
0.0
 11
174.7391363503193
 21
129.3493634554387
 31
0.0
 11
175.009030686025
 21
129.5596649384682
 31
0.0
 11
175.2752332919397
 21
129.8135467750365
 31
0.0
 11
175.5167951193552
 21
130.0910313289163
 31
0.0
 11
175.7496896199708
 21
130.4102345962841
 31
0.0
 11
175.9562030827051
 21
130.7471377085079
 31
0.0
 11
176.1485502815948
 21
131.1212388339878
 31
0.0
 11
176.3139033874592
 21
131.5080486169034
 31
0.0
 11
176.4600072611126
 21
131.9250798581543
 31
0.0
 11
176.5790274908613
 21
132.3506441611936
 31
0.0
 11
176.674774427075
 21
132.7975092057656
 31
0.0
 11
176.7435197311901
 21
133.2493225021377
 31
0.0
 11
176.7864163484026
 21
133.7121945914215
 31
0.0
 11
176.8023820949601
 21
134.176777753098
 31
0.0
 11
176.7915781952743
 21
134.6415096058139
 31
0.0
 11
176.7538260790341
 21
135.1048296555919
 31
0.0
 11
176.6901040232669
 21
135.5573787371565
 31
0.0
 11
176.5993270333842
 21
136.0052798221765
 31
0.0
 11
176.4850415648736
 21
136.4321400133378
 31
0.0
 11
176.3435793333341
 21
136.8507685301923
 31
0.0
 11
176.1825333396524
 21
137.2393912851837
 31
0.0
 11
175.9943537433342
 21
137.615606033081
 31
0.0
 11
175.7915955399524
 21
137.9547824300752
 31
0.0
 11
175.5622613062192
 21
138.2765531303469
 31
0.0
 11
175.3237968445861
 21
138.5567039730087
 31
0.0
 11
175.0604309320432
 21
138.8135272788933
 31
0.0
 11
174.7928894014166
 21
139.026813930141
 31
0.0
 11
174.5041104827861
 21
139.2102127909396
 31
0.0
 11
174.2145289658979
 21
139.35039774364
 31
0.0
 11
173.9102034737871
 21
139.4545565779337
 31
0.0
 11
173.6062119765658
 21
139.5167981012566
 31
0.0
 11
173.2967554689832
 21
139.5391343775523
 31
0.0
  0
ARC
  5
294
330
63
100
AcDbEntity
  8
1
  6
Continuous
 62
     7
100
AcDbCircle
 10
168.9316283859452
 20
150.6100006649776
 30
0.0
 40
0.9999999999999589
100
AcDbArc
 50
120.0000000000014
 51
132.9414028648751
  0
ARC
  5
295
330
63
100
AcDbEntity
  8
1
  6
Continuous
 62
     7
100
AcDbCircle
 10
167.9316283859452
 20
152.3420514725464
 30
0.0
 40
0.9999999999999589
100
AcDbArc
 50
300.0000000000013
 51
0.0
  0
ARC
  5
296
330
63
100
AcDbEntity
  8
1
  6
Continuous
 62
     7
100
AcDbCircle
 10
168.9316283859452
 20
150.6100006649776
 30
0.0
 40
0.9999999999997922
100
AcDbArc
 50
132.9414028648751
 51
180.0
  0
ARC
  5
297
330
63
100
AcDbEntity
  8
1
  6
Continuous
 62
     7
100
AcDbCircle
 10
169.9316283859452
 20
152.400072534277
 30
0.0
 40
0.9999999999994458
100
AcDbArc
 50
164.6624423304342
 51
179.9999999999951
  0
ARC
  5
298
330
63
100
AcDbEntity
  8
1
  6
Continuous
 62
     7
100
AcDbCircle
 10
168.9316283859452
 20
131.0741022801153
 30
0.0
 40
0.9999999999998963
100
AcDbArc
 50
227.0585971351305
 51
240.0000000000019
  0
ARC
  5
299
330
63
100
AcDbEntity
  8
1
  6
Continuous
 62
     7
100
AcDbCircle
 10
167.9316283859452
 20
129.3420514725464
 30
0.0
 40
1.0
100
AcDbArc
 50
0.0
 51
59.99999999999946
  0
ARC
  5
29A
330
63
100
AcDbEntity
  8
1
  6
Continuous
 62
     7
100
AcDbCircle
 10
168.9316283859452
 20
131.0741022801153
 30
0.0
 40
1.0
100
AcDbArc
 50
180.0
 51
227.0585971351305
  0
ARC
  5
29B
330
63
100
AcDbEntity
  8
1
  6
Continuous
 62
     7
100
AcDbCircle
 10
169.9316283859452
 20
129.2840304108158
 30
0.0
 40
1.0
100
AcDbArc
 50
180.0
 51
195.3375576695555
  0
ARC
  5
29C
330
63
100
AcDbEntity
  8
1
  6
Continuous
 62
     7
100
AcDbCircle
 10
81.18136245471038
 20
267.6138438710987
 30
0.0
 40
1.0
100
AcDbArc
 50
270.0
 51
317.0585971351162
  0
ARC
  5
29D
330
63
100
AcDbEntity
  8
1
  6
Continuous
 62
     7
100
AcDbCircle
 10
82.97143432400986
 20
268.6138438710987
 30
0.0
 40
1.0
100
AcDbArc
 50
270.0
 51
285.3375576695503
  0
ARC
  5
29E
330
63
100
AcDbEntity
  8
1
  6
Continuous
 62
     7
100
AcDbCircle
 10
81.18136245471038
 20
267.6138438710987
 30
0.0
 40
1.000000000000088
100
AcDbArc
 50
317.0585971351162
 51
329.9999999999987
  0
ARC
  5
29F
330
63
100
AcDbEntity
  8
1
  6
Continuous
 62
     7
100
AcDbCircle
 10
82.91341326227928
 20
266.6138438710987
 30
0.0
 40
1.0
100
AcDbArc
 50
90.0
 51
150.0000000000019
  0
ARC
  5
2A0
330
63
100
AcDbEntity
  8
1
  6
Continuous
 62
     7
100
AcDbCircle
 10
61.64546406984817
 20
267.6138438710987
 30
0.0
 40
1.000000000000083
100
AcDbArc
 50
222.941402864884
 51
270.0
  0
ARC
  5
2A1
330
63
100
AcDbEntity
  8
1
  6
Continuous
 62
     7
100
AcDbCircle
 10
59.85539220054866
 20
268.6138438710987
 30
0.0
 40
1.000000000000127
100
AcDbArc
 50
254.6624423304457
 51
270.0
  0
ARC
  5
2A2
330
63
100
AcDbEntity
  8
1
  6
Continuous
 62
     7
100
AcDbCircle
 10
61.64546406984817
 20
267.6138438710987
 30
0.0
 40
1.000000000000051
100
AcDbArc
 50
209.9999999999983
 51
222.941402864884
  0
ARC
  5
2A3
330
63
100
AcDbEntity
  8
1
  6
Continuous
 62
     7
100
AcDbCircle
 10
59.91341326227928
 20
266.6138438710987
 30
0.0
 40
0.9999999999999589
100
AcDbArc
 50
30.00000000000136
 51
90.0
  0
ENDBLK
  5
65
330
63
100
AcDbEntity
  8
0
100
AcDbBlockEnd
  0
BLOCK
  5
67
330
66
100
AcDbEntity
  8
0
100
AcDbBlockBegin
  2
75-2
 70
     0
 10
35.6902382145207
 20
5.62522389759565
 30
0.0
  3
75-2
  1

  0
LINE
  5
2A4
330
66
100
AcDbEntity
  8
1
  6
Continuous
 62
     7
100
AcDbLine
 10
72.94577216885507
 20
103.7847212601494
 30
0.0
 11
72.31356575460265
 21
103.1525148458971
 31
0.0
  0
LINE
  5
2A5
330
66
100
AcDbEntity
  8
1
  6
Continuous
 62
     7
100
AcDbLine
 10
72.31356575460265
 20
103.8281264645566
 30
0.0
 11
72.31356575460265
 21
103.1525148458971
 31
0.0
  0
LINE
  5
2A6
330
66
100
AcDbEntity
  8
1
  6
Continuous
 62
     7
100
AcDbLine
 10
70.51356572336095
 20
103.8281418609195
 30
0.0
 11
70.51356572336095
 21
103.1522098924922
 31
0.0
  0
LINE
  5
2A7
330
66
100
AcDbEntity
  8
1
  6
Continuous
 62
     7
100
AcDbLine
 10
68.50482982144605
 20
102.0485008084754
 30
0.0
 11
68.50482982144605
 21
99.72346636319048
 31
0.0
  0
LINE
  5
2A8
330
66
100
AcDbEntity
  8
1
  6
Continuous
 62
     7
100
AcDbLine
 10
74.32199670311263
 20
102.0916169821933
 30
0.0
 11
74.32199670311263
 21
99.72346636319048
 31
0.0
  0
LINE
  5
2A9
330
66
100
AcDbEntity
  8
1
  6
Continuous
 62
     7
100
AcDbLine
 10
72.31356575460265
 20
98.65230528560264
 30
0.0
 11
72.31356575460265
 21
102.9323823696937
 31
0.0
  0
LINE
  5
2AA
330
66
100
AcDbEntity
  8
1
  6
Continuous
 62
     7
100
AcDbLine
 10
74.59047627405725
 20
103.4776345051483
 30
0.0
 11
74.65622204140675
 21
103.5433802724979
 31
0.0
  0
LINE
  5
2AB
330
66
100
AcDbEntity
  8
1
  6
Continuous
 62
     7
100
AcDbLine
 10
66.91587547063193
 20
100.8960569192373
 30
0.0
 11
65.20356514396414
 21
100.8960569192373
 31
0.0
  0
LINE
  5
2AC
330
66
100
AcDbEntity
  8
1
  6
Continuous
 62
     7
100
AcDbLine
 10
74.59047627405725
 20
99.07529934179593
 30
0.0
 11
74.72061883707684
 21
98.94515677877627
 31
0.0
  0
LINE
  5
2AD
330
66
100
AcDbEntity
  8
1
  6
Continuous
 62
     7
100
AcDbLine
 10
77.62395707011103
 20
100.8960569192373
 30
0.0
 11
75.91095105392675
 21
100.8960569192373
 31
0.0
  0
LINE
  5
2AE
330
66
100
AcDbEntity
  8
1
  6
Continuous
 62
     7
100
AcDbLine
 10
75.91095105392675
 20
101.656876927707
 30
0.0
 11
77.62395707011103
 21
101.656876927707
 31
0.0
  0
LINE
  5
2AF
330
66
100
AcDbEntity
  8
1
  6
Continuous
 62
     7
100
AcDbLine
 10
68.23635025050154
 20
103.4776345051483
 30
0.0
 11
68.17060448315486
 21
103.543380272495
 31
0.0
  0
LINE
  5
2B0
330
66
100
AcDbEntity
  8
1
  6
Continuous
 62
     7
100
AcDbLine
 10
70.51356572336095
 20
103.1522098924922
 30
0.0
 11
69.88105435570364
 21
103.7847212601495
 31
0.0
  0
LINE
  5
2B1
330
66
100
AcDbEntity
  8
1
  6
Continuous
 62
     7
100
AcDbLine
 10
65.20286945444764
 20
101.656876927707
 30
0.0
 11
66.91587547063193
 21
101.656876927707
 31
0.0
  0
LINE
  5
2B2
330
66
100
AcDbEntity
  8
1
  6
Continuous
 62
     7
100
AcDbLine
 10
72.31356575460265
 20
99.4004190010471
 30
0.0
 11
73.02919764895896
 21
98.68478710669085
 31
0.0
  0
LINE
  5
2B3
330
66
100
AcDbEntity
  8
1
  6
Continuous
 62
     7
100
AcDbLine
 10
70.51356572336095
 20
98.65230528560264
 30
0.0
 11
70.51356572336095
 21
102.9323823696937
 31
0.0
  0
LINE
  5
2B4
330
66
100
AcDbEntity
  8
1
  6
Continuous
 62
     7
100
AcDbLine
 10
69.79762887559974
 20
98.68478710669085
 30
0.0
 11
70.51356572336095
 21
99.40072395445199
 31
0.0
  0
LINE
  5
2B5
330
66
100
AcDbEntity
  8
1
  6
Continuous
 62
     7
100
AcDbLine
 10
68.10620768748186
 20
98.94515677877627
 30
0.0
 11
68.23635025050154
 21
99.07529934179593
 31
0.0
  0
ARC
  5
2B6
330
66
100
AcDbEntity
  8
1
  6
Continuous
 62
     7
100
AcDbCircle
 10
75.91095105392675
 20
98.97706229454482
 30
0.0
 40
1.918994624692473
100
AcDbArc
 50
90.0
 51
134.6296991517855
  0
ARC
  5
2B7
330
66
100
AcDbEntity
  8
1
  6
Continuous
 62
     7
100
AcDbCircle
 10
75.23864329545175
 20
99.72346636319048
 30
0.0
 40
0.9166465923391979
100
AcDbArc
 50
137.5005082888379
 51
225.0000000000025
  0
ARC
  5
2B8
330
66
100
AcDbEntity
  8
1
  6
Continuous
 62
     7
100
AcDbCircle
 10
67.58818322910693
 20
99.72346636319048
 30
0.0
 40
0.9166465923391938
100
AcDbArc
 50
315.0000000000025
 51
42.49949171116209
  0
ARC
  5
2B9
330
66
100
AcDbEntity
  8
1
  6
Continuous
 62
     7
100
AcDbCircle
 10
66.91587547063193
 20
98.97706229454482
 30
0.0
 40
1.918994624692466
100
AcDbArc
 50
45.37030084821446
 51
90.0
  0
ARC
  5
2BA
330
66
100
AcDbEntity
  8
1
  6
Continuous
 62
     7
100
AcDbCircle
 10
75.91095105392675
 20
103.5758715523994
 30
0.0
 40
1.918994624692486
100
AcDbArc
 50
225.370300848215
 51
270.0
  0
ARC
  5
2BB
330
66
100
AcDbEntity
  8
1
  6
Continuous
 62
     7
100
AcDbCircle
 10
75.23864329545175
 20
102.8294674837538
 30
0.0
 40
0.9166465923390732
100
AcDbArc
 50
135.0
 51
222.499491711166
  0
ARC
  5
2BC
330
66
100
AcDbEntity
  8
1
  6
Continuous
 62
     7
100
AcDbCircle
 10
66.91587547063193
 20
103.5758715523994
 30
0.0
 40
1.918994624692402
100
AcDbArc
 50
270.0
 51
314.629699151785
  0
ARC
  5
2BD
330
66
100
AcDbEntity
  8
1
  6
Continuous
 62
     7
100
AcDbCircle
 10
67.58818322910693
 20
102.8294674837538
 30
0.0
 40
0.9166465923392554
100
AcDbArc
 50
317.500508288834
 51
44.99999999999498
  0
SPLINE
  5
2BE
330
66
100
AcDbEntity
  8
1
  6
Continuous
 62
     7
100
AcDbSpline
210
0.0
220
0.0
230
1.0
 70
     8
 71
     3
 72
    41
 73
    37
 74
    35
 42
0.000000001
 43
0.0000000001
 44
0.00000001
 40
0.0
 40
0.0
 40
0.0
 40
0.0
 40
0.0729288036756531
 40
0.1458278634705054
 40
0.2220831371644935
 40
0.2983654586368678
 40
0.370846625531416
 40
0.4433152243475237
 40
0.5103449923836074
 40
0.577377152983654
 40
0.6376245804700771
 40
0.6978691614447625
 40
0.7504693655677446
 40
0.8030639565728239
 40
0.847879118074508
 40
0.8926919057562848
 40
0.9307529080024013
 40
0.9687649982676279
 40
1.002688508119384
 40
1.036543066964934
 40
1.070397470691153
 40
1.104321114879388
 40
1.142333938195969
 40
1.180394324779495
 40
1.222230617126834
 40
1.264055526364927
 40
1.310191711648171
 40
1.356333454697319
 40
1.426004524433077
 40
1.495712726976148
 40
1.625131683998897
 40
1.754651194938321
 40
1.840966285748879
 40
1.927202321083058
 40
2.000131704865362
 40
2.073101510382953
 40
2.073101510382953
 40
2.073101510382953
 40
2.073101510382953
 10
77.62395707011103
 20
100.8960569192373
 30
0.0
 10
77.64825883607894
 20
100.8966730669978
 30
0.0
 10
77.69685245628341
 20
100.8979051214964
 30
0.0
 10
77.77081270489226
 20
100.9014027981112
 30
0.0
 10
77.84566718477674
 20
100.9083166750977
 30
0.0
 10
77.92001589159749
 20
100.9183696285815
 30
0.0
 10
77.99268601822665
 20
100.9310169315021
 30
0.0
 10
78.0617456784
 20
100.9460852590994
 30
0.0
 10
78.1282803350771
 20
100.9638639217842
 30
0.0
 10
78.18995322273084
 20
100.9837560696297
 30
0.0
 10
78.24834008183969
 20
101.0061684773988
 30
0.0
 10
78.30084278622427
 20
101.0302037881418
 30
0.0
 10
78.34931512429176
 20
101.0566002903261
 30
0.0
 10
78.39116489288145
 20
101.0840959157286
 30
0.0
 10
78.42824902307574
 20
101.1137476890819
 30
0.0
 10
78.45833443296723
 20
101.1440242985783
 30
0.0
 10
78.48281887848647
 20
101.1761793717808
 30
0.0
 10
78.50024930433233
 20
101.2086714436322
 30
0.0
 10
78.51088551941595
 20
101.2424981223683
 30
0.0
 10
78.5146741936444
 20
101.2764213770091
 30
0.0
 10
78.5108920867826
 20
101.3103454108998
 30
0.0
 10
78.50026236128575
 20
101.3441743678497
 30
0.0
 10
78.48283946774599
 20
101.3766703367727
 30
0.0
 10
78.45896289157497
 20
101.4080387763901
 30
0.0
 10
78.43043317089436
 20
101.4370270520569
 30
0.0
 10
78.39688570677136
 20
101.4644483549156
 30
0.0
 10
78.3598993778929
 20
101.4896450502562
 30
0.0
 10
78.3130693616121
 20
101.5165766458167
 30
0.0
 10
78.25719476625612
 20
101.5432589427681
 30
0.0
 10
78.17361410005627
 20
101.5757040849935
 30
0.0
 10
78.06832699062139
 20
101.6066684856551
 30
0.0
 10
77.95539222953687
 20
101.6293586488681
 30
0.0
 10
77.85569948260031
 20
101.6436927304526
 30
0.0
 10
77.77419939238645
 20
101.6514316966322
 30
0.0
 10
77.69689072481327
 20
101.6550559630941
 30
0.0
 10
77.64827277835148
 20
101.6562698308202
 30
0.0
 10
77.62395707011103
 20
101.656876927707
 30
0.0
 11
77.62395707011103
 21
100.8960569192373
 31
0.0
 11
77.69685521433834
 21
100.8981716364773
 31
0.0
 11
77.76965981502914
 21
100.9018815030052
 31
0.0
 11
77.84559603537363
 21
100.9088498084826
 31
0.0
 11
77.92119627244534
 21
100.9190280587945
 31
0.0
 11
77.99259249383914
 21
100.9315220238833
 31
0.0
 11
78.06338089844056
 21
100.9470365210801
 31
0.0
 11
78.12812008754855
 21
100.9644096965608
 31
0.0
 11
78.19189348510285
 21
100.9850558669083
 31
0.0
 11
78.24809894934215
 21
101.0067514502165
 31
0.0
 11
78.30282924251694
 21
101.031930897695
 31
0.0
 11
78.34894825224553
 21
101.0572255303417
 31
0.0
 11
78.39281744383004
 21
101.0862373393495
 31
0.0
 11
78.42768648102634
 21
101.1143895856211
 31
0.0
 11
78.45912384308144
 21
101.1463251181226
 31
0.0
 11
78.48198941978897
 21
101.1767521672539
 31
0.0
 11
78.49973375388265
 21
101.2103684972622
 31
0.0
 11
78.50981832716907
 21
101.2427584019983
 31
0.0
 11
78.51341326464346
 21
101.2764215511006
 31
0.0
 11
78.50982486555488
 21
101.3100852418064
 31
0.0
 11
78.49974673035156
 21
101.3424772910214
 31
0.0
 11
78.48200926350779
 21
101.3760980738167
 31
0.0
 11
78.45914940173587
 21
101.4065286467929
 31
0.0
 11
78.42992683577086
 21
101.4364672008906
 31
0.0
 11
78.39765505253605
 21
101.4630727465804
 31
0.0
 11
78.35959276084624
 21
101.4891459045562
 31
0.0
 11
78.31965242026305
 21
101.5122506587404
 31
0.0
 11
78.25686586725892
 21
101.542448452708
 31
0.0
 11
78.19195073045985
 21
101.5678503926331
 31
0.0
 11
78.06792317261751
 21
101.6048156661425
 31
0.0
 11
77.94103247992905
 21
101.6307782534213
 31
0.0
 11
77.85558829577482
 21
101.6430088038521
 31
0.0
 11
77.76973340824154
 21
101.6511077032633
 31
0.0
 11
77.69689701898483
 21
101.6547894815415
 31
0.0
 11
77.62395707011103
 21
101.656876927707
 31
0.0
  0
SPLINE
  5
2BF
330
66
100
AcDbEntity
  8
1
  6
Continuous
 62
     7
100
AcDbSpline
210
0.0
220
0.0
230
1.0
 70
     8
 71
     3
 72
    41
 73
    37
 74
    35
 42
0.000000001
 43
0.0000000001
 44
0.00000001
 40
0.0
 40
0.0
 40
0.0
 40
0.0
 40
0.0729288036756531
 40
0.145827863470477
 40
0.2220831371644792
 40
0.2983654586368395
 40
0.3708466255313877
 40
0.4433152243474954
 40
0.5103449923835928
 40
0.5773771529836393
 40
0.6376245804700624
 40
0.6978691614447607
 40
0.7504693655677304
 40
0.8030639565727978
 40
0.8478791180744819
 40
0.8926919057562587
 40
0.9307529080023837
 40
0.9687649982676036
 40
1.002688508119356
 40
1.036543066964906
 40
1.07039747069112
 40
1.104321114879334
 40
1.142333938195921
 40
1.180394324779455
 40
1.222230617126825
 40
1.264055526364929
 40
1.310191711648149
 40
1.35633345469726
 40
1.426004524433057
 40
1.495712726976155
 40
1.625131683998863
 40
1.75465119493823
 40
1.840966285748845
 40
1.927202321083052
 40
2.00013170486537
 40
2.073101510382946
 40
2.073101510382946
 40
2.073101510382946
 40
2.073101510382946
 10
65.20286945444764
 20
100.8960569192373
 30
0.0
 10
65.17856768847975
 20
100.8966730669978
 30
0.0
 10
65.12997406827525
 20
100.8979051214964
 30
0.0
 10
65.05601381966645
 20
100.9014027981112
 30
0.0
 10
64.98115933978195
 20
100.9083166750977
 30
0.0
 10
64.90681063296122
 20
100.9183696285815
 30
0.0
 10
64.83414050633205
 20
100.9310169315021
 30
0.0
 10
64.76508084615871
 20
100.9460852590994
 30
0.0
 10
64.69854618948159
 20
100.9638639217842
 30
0.0
 10
64.63687330182785
 20
100.9837560696298
 30
0.0
 10
64.578486442719
 20
101.0061684773988
 30
0.0
 10
64.52598373833439
 20
101.0302037881417
 30
0.0
 10
64.47751140026693
 20
101.0566002903261
 30
0.0
 10
64.43566163167725
 20
101.0840959157286
 30
0.0
 10
64.39857750148298
 20
101.1137476890819
 30
0.0
 10
64.36849209159146
 20
101.1440242985784
 30
0.0
 10
64.34400764607221
 20
101.1761793717808
 30
0.0
 10
64.32657722022637
 20
101.2086714436323
 30
0.0
 10
64.31594100514275
 20
101.2424981223683
 30
0.0
 10
64.31215233091434
 20
101.2764213770091
 30
0.0
 10
64.31593443777606
 20
101.3103454108998
 30
0.0
 10
64.32656416327283
 20
101.3441743678497
 30
0.0
 10
64.34398705681261
 20
101.3766703367726
 30
0.0
 10
64.36786363298364
 20
101.4080387763901
 30
0.0
 10
64.39639335366432
 20
101.4370270520569
 30
0.0
 10
64.42994081778734
 20
101.4644483549155
 30
0.0
 10
64.46692714666571
 20
101.4896450502562
 30
0.0
 10
64.51375716294653
 20
101.5165766458168
 30
0.0
 10
64.56963175830256
 20
101.5432589427681
 30
0.0
 10
64.65321242450239
 20
101.5757040849935
 30
0.0
 10
64.75849953393724
 20
101.6066684856551
 30
0.0
 10
64.87143429502179
 20
101.6293586488681
 30
0.0
 10
64.9711270419583
 20
101.6436927304525
 30
0.0
 10
65.05262713217222
 20
101.6514316966322
 30
0.0
 10
65.12993579974543
 20
101.6550559630941
 30
0.0
 10
65.17855374620716
 20
101.6562698308203
 30
0.0
 10
65.20286945444764
 20
101.656876927707
 30
0.0
 11
65.20286945444764
 21
100.8960569192373
 31
0.0
 11
65.12997131022033
 21
100.8981716364773
 31
0.0
 11
65.05716670952955
 21
100.9018815030052
 31
0.0
 11
64.98123048918505
 21
100.9088498084826
 31
0.0
 11
64.90563025211335
 21
100.9190280587945
 31
0.0
 11
64.83423403071956
 21
100.9315220238833
 31
0.0
 11
64.76344562611814
 21
100.9470365210801
 31
0.0
 11
64.69870643701013
 21
100.9644096965608
 31
0.0
 11
64.63493303945583
 21
100.9850558669083
 31
0.0
 11
64.57872757521653
 21
101.0067514502165
 31
0.0
 11
64.52399728204173
 21
101.031930897695
 31
0.0
 11
64.47787827231315
 21
101.0572255303417
 31
0.0
 11
64.43400908072866
 21
101.0862373393495
 31
0.0
 11
64.39914004353236
 21
101.1143895856211
 31
0.0
 11
64.36770268147725
 21
101.1463251181226
 31
0.0
 11
64.34483710476971
 21
101.1767521672539
 31
0.0
 11
64.32709277067605
 21
101.2103684972622
 31
0.0
 11
64.31700819738964
 21
101.2427584019983
 31
0.0
 11
64.31341325991525
 21
101.2764215511006
 31
0.0
 11
64.3170016590038
 21
101.3100852418064
 31
0.0
 11
64.32707979420704
 21
101.3424772910214
 31
0.0
 11
64.34481726105082
 21
101.3760980738167
 31
0.0
 11
64.36767712282276
 21
101.4065286467929
 31
0.0
 11
64.39689968878781
 21
101.4364672008906
 31
0.0
 11
64.42917147202263
 21
101.4630727465804
 31
0.0
 11
64.46723376371241
 21
101.4891459045562
 31
0.0
 11
64.50717410429556
 21
101.5122506587404
 31
0.0
 11
64.56996065729973
 21
101.542448452708
 31
0.0
 11
64.63487579409883
 21
101.5678503926331
 31
0.0
 11
64.75890335194113
 21
101.6048156661425
 31
0.0
 11
64.88579404462953
 21
101.6307782534213
 31
0.0
 11
64.97123822878382
 21
101.6430088038521
 31
0.0
 11
65.05709311631713
 21
101.6511077032633
 31
0.0
 11
65.12992950557386
 21
101.6547894815415
 31
0.0
 11
65.20286945444764
 21
101.656876927707
 31
0.0
  0
SPLINE
  5
2C0
330
66
100
AcDbEntity
  8
1
  6
Continuous
 62
     7
100
AcDbSpline
210
0.0
220
0.0
230
1.0
 70
     8
 71
     3
 72
    43
 73
    39
 74
    37
 42
0.000000001
 43
0.0000000001
 44
0.00000001
 40
0.0
 40
0.0
 40
0.0
 40
0.0
 40
0.0448557901637731
 40
0.0895229444510496
 40
0.1420251082514682
 40
0.1947532401613067
 40
0.255048715428851
 40
0.3152379064368123
 40
0.3822477338289383
 40
0.4493013354606085
 40
0.521783506726966
 40
0.5942519415060681
 40
0.6705157160779125
 40
0.7467846702037684
 40
0.8249938919558903
 40
0.9032018536927177
 40
0.9814103232139219
 40
1.059619074000574
 40
1.135885763744161
 40
1.212151681689553
 40
1.284627294180529
 40
1.357102770454502
 40
1.424135757138335
 40
1.491164191024593
 40
1.551405676236702
 40
1.611656884965299
 40
1.664277407453757
 40
1.716849526799848
 40
1.761592188488721
 40
1.806484764559267
 40
1.857965131830113
 40
1.908967480764685
 40
1.929576319566402
 40
1.950229041233152
 40
1.97226013551762
 40
1.994167368541318
 40
2.04338922799434
 40
2.093764128064801
 40
2.093764128064801
 40
2.093764128064801
 40
2.093764128064801
 10
73.02919764895185
 20
98.68478710669791
 30
0.0
 10
73.03986504666327
 20
98.67431088099904
 30
0.0
 10
73.0611549912007
 20
98.65340249614991
 30
0.0
 10
73.09692262317967
 20
98.62226661608715
 30
0.0
 10
73.13872166706162
 20
98.59462513387808
 30
0.0
 10
73.18751093707958
 20
98.5687800735569
 30
0.0
 10
73.24005751668821
 20
98.54477140082375
 30
0.0
 10
73.29836633214441
 20
98.5221806369189
 30
0.0
 10
73.36002383315609
 20
98.50229094058653
 30
0.0
 10
73.42657634737705
 20
98.48456381039951
 30
0.0
 10
73.49563403600547
 20
98.46945246125635
 30
0.0
 10
73.56829978856945
 20
98.45680180864386
 30
0.0
 10
73.6426692337171
 20
98.44693713327531
 30
0.0
 10
73.71927117688504
 20
98.4398158079685
 30
0.0
 10
73.79673261610854
 20
98.43552516782322
 30
0.0
 10
73.87494582808056
 20
98.43410364644097
 30
0.0
 10
73.95315863273824
 20
98.43553923498169
 30
0.0
 10
74.03061850363005
 20
98.43984563659652
 30
0.0
 10
74.10721843012134
 20
98.44698673710641
 30
0.0
 10
74.18158821223123
 20
98.45686515278463
 30
0.0
 10
74.25425526067258
 20
98.46951291678482
 30
0.0
 10
74.32330335517749
 20
98.48464056472778
 30
0.0
 10
74.38983400200954
 20
98.50244018262856
 30
0.0
 10
74.45150443453036
 20
98.52233224867322
 30
0.0
 10
74.50989181350873
 20
98.5447407646819
 30
0.0
 10
74.56239402848728
 20
98.56879611913423
 30
0.0
 10
74.61084185266364
 20
98.59524189195781
 30
0.0
 10
74.65266951154491
 20
98.62271701660296
 30
0.0
 10
74.689818220178
 20
98.65228459296574
 30
0.0
 10
74.72301809753426
 20
98.68579600687656
 30
0.0
 10
74.75188498330213
 20
98.72587996012176
 30
0.0
 10
74.76813300003079
 20
98.76414243550963
 30
0.0
 10
74.77397089150449
 20
98.79441114699117
 30
0.0
 10
74.77538013813636
 20
98.81551883075835
 30
0.0
 10
74.77396658696767
 20
98.83706729752632
 30
0.0
 10
74.7676503485201
 20
98.86759829415284
 30
0.0
 10
74.74968286318412
 20
98.90450425332986
 30
0.0
 10
74.73038133303592
 20
98.93150175415002
 30
0.0
 10
74.72061883706974
 20
98.94515677878334
 30
0.0
 11
73.02919764895185
 21
98.68478710669791
 31
0.0
 11
73.06151504998233
 21
98.65368039986838
 31
0.0
 11
73.09550404820325
 21
98.62469932792479
 31
0.0
 11
73.1390752041182
 21
98.59540715690697
 31
0.0
 11
73.18549224951644
 21
98.57039288627023
 31
0.0
 11
73.2403198360323
 21
98.5453034440789
 31
0.0
 11
73.29642800693054
 21
98.52351785548356
 31
0.0
 11
73.3601709760487
 21
98.50285022763185
 31
0.0
 11
73.42494059359275
 21
98.48549850965532
 31
0.0
 11
73.49573811280703
 21
98.46996221657538
 31
0.0
 11
73.56712521958804
 21
98.45749004736976
 31
0.0
 11
73.6427228718228
 21
98.44743230065392
 31
0.0
 11
73.71866167700423
 21
98.44034349158049
 31
0.0
 11
73.79675071050225
 21
98.43600930206574
 31
0.0
 11
73.87494560726395
 21
98.43457983170858
 31
0.0
 11
73.95314074753537
 21
98.43602369114024
 31
0.0
 11
74.03122840222974
 21
98.44037419364268
 31
0.0
 11
74.1071632751555
 21
98.44748074183742
 31
0.0
 11
74.18276148825957
 21
98.45755051862753
 31
0.0
 11
74.25415511243813
 21
98.47002708956757
 31
0.0
 11
74.32494060921366
 21
98.48558691272007
 31
0.0
 11
74.38967687019156
 21
98.5029834011053
 31
0.0
 11
74.45344572444817
 21
98.5236315042729
 31
0.0
 11
74.50964536799191
 21
98.54532566466486
 31
0.0
 11
74.56437227106315
 21
98.57052832762321
 31
0.0
 11
74.61049108243604
 21
98.59586554554305
 31
0.0
 11
74.65434980207145
 21
98.62485244652444
 31
0.0
 11
74.68919921805195
 21
98.65291352215968
 31
0.0
 11
74.72064439572415
 21
98.68495325011308
 31
0.0
 11
74.75032681403935
 21
98.72701489796951
 31
0.0
 11
74.76964849991337
 21
98.77421566068543
 31
0.0
 11
74.77354599507353
 21
98.79445260112001
 31
0.0
 11
74.77490825863165
 21
98.81506034580538
 31
0.0
 11
74.7734566716017
 21
98.83704356680646
 31
0.0
 11
74.76896198429483
 21
98.85848475738999
 31
0.0
 11
74.74873630143118
 21
98.90335917495385
 31
0.0
 11
74.72061883706974
 21
98.94515677878334
 31
0.0
  0
SPLINE
  5
2C1
330
66
100
AcDbEntity
  8
1
  6
Continuous
 62
     7
100
AcDbSpline
210
0.0
220
0.0
230
1.0
 70
     8
 71
     3
 72
    27
 73
    23
 74
    21
 42
0.000000001
 43
0.0000000001
 44
0.00000001
 40
0.0
 40
0.0
 40
0.0
 40
0.0
 40
0.0340794409749838
 40
0.0675402528098653
 40
0.148617915003461
 40
0.2331829782178073
 40
0.3468645482932345
 40
0.458732336480668
 40
0.5978897934231919
 40
0.7376658409656649
 40
0.8922263830692901
 40
1.046563329381497
 40
1.200901780637814
 40
1.355460863749571
 40
1.495230670999097
 40
1.634394107566076
 40
1.746277737395581
 40
1.85994512125439
 40
1.944482087465472
 40
2.025576304279029
 40
2.058971125347613
 40
2.092973121985989
 40
2.092973121985989
 40
2.092973121985989
 40
2.092973121985989
 10
70.51341324665844
 20
98.65212847947319
 30
0.0
 10
70.51497359326075
 20
98.64087965279266
 30
0.0
 10
70.51806597610995
 20
98.61858619663741
 30
0.0
 10
70.5296886411412
 20
98.57015373287811
 30
0.0
 10
70.56823499379087
 20
98.5134985574166
 30
0.0
 10
70.6404664363435
 20
98.45427275576354
 30
0.0
 10
70.72987562859898
 20
98.40139556455773
 30
0.0
 10
70.84284125264904
 20
98.35574191705734
 30
0.0
 10
70.96815836934462
 20
98.31940171273041
 30
0.0
 10
71.11021604490033
 20
98.29208579679403
 30
0.0
 10
71.25899963418105
 20
98.27542307903823
 30
0.0
 10
71.41345130301143
 20
98.27001948188398
 30
0.0
 10
71.56790143637774
 20
98.27545275881084
 30
0.0
 10
71.71667977248798
 20
98.29214443314564
 30
0.0
 10
71.85873086228648
 20
98.3194920717999
 30
0.0
 10
71.98404534974213
 20
98.35585825260287
 30
0.0
 10
72.09701029479137
 20
98.40151929558485
 30
0.0
 10
72.18640384758282
 20
98.45441034101259
 30
0.0
 10
72.25857975762634
 20
98.51369664790789
 30
0.0
 10
72.29709613443386
 20
98.57031398385989
 30
0.0
 10
72.30882153135491
 20
98.61867308172204
 30
0.0
 10
72.31197488205969
 20
98.64090990256136
 30
0.0
 10
72.31356575460265
 20
98.65212847947316
 30
0.0
 11
70.51341324665844
 21
98.65212847947319
 31
0.0
 11
70.51865176698412
 21
98.6184540600287
 31
0.0
 11
70.52709275741924
 21
98.58607542563482
 31
0.0
 11
70.570139151109
 21
98.51736884117314
 31
0.0
 11
70.63400906747185
 21
98.46194426772207
 31
0.0
 11
70.7316266532491
 21
98.40368359505248
 31
0.0
 11
70.83493302619905
 21
98.36076279528086
 31
0.0
 11
70.96844853753096
 21
98.32154028122514
 31
0.0
 11
71.10563023885656
 21
98.29473498716708
 31
0.0
 11
71.25921386437935
 21
98.27738475785117
 31
0.0
 11
71.41345062653245
 21
98.27182477150589
 31
0.0
 11
71.56768781708594
 21
98.27741456891273
 31
0.0
 11
71.72126650752804
 21
98.29479545842482
 31
0.0
 11
71.85843633119087
 21
98.3216289820787
 31
0.0
 11
71.99195074371664
 21
98.36087644407021
 31
0.0
 11
72.095267286372
 21
98.40381405399158
 31
0.0
 11
72.19285482134003
 21
98.46209738632174
 31
0.0
 11
72.25666942671776
 21
98.51754280486404
 31
0.0
 11
72.29974674360835
 21
98.58624954568188
 31
0.0
 11
72.30824118140094
 21
98.61854596893345
 31
0.0
 11
72.31356575460265
 21
98.65212847947316
 31
0.0
  0
SPLINE
  5
2C2
330
66
100
AcDbEntity
  8
1
  6
Continuous
 62
     7
100
AcDbSpline
210
0.0
220
0.0
230
1.0
 70
     8
 71
     3
 72
    43
 73
    39
 74
    37
 42
0.000000001
 43
0.0000000001
 44
0.00000001
 40
0.0
 40
0.0
 40
0.0
 40
0.0
 40
0.0448557901637731
 40
0.0895229444510496
 40
0.1420251082514211
 40
0.1947532401612095
 40
0.2550487154287409
 40
0.3152379064367021
 40
0.3822477338288734
 40
0.4493013354605923
 40
0.5217835067269436
 40
0.5942519415059946
 40
0.670515716077839
 40
0.7467846702036949
 40
0.8249938919558026
 40
0.9032018536926157
 40
0.9814103232138199
 40
1.059619074000473
 40
1.135885763744074
 40
1.212151681689437
 40
1.284627294180464
 40
1.357102770454471
 40
1.424135757138249
 40
1.491164191024467
 40
1.551405676236602
 40
1.611656884965187
 40
1.66427740745367
 40
1.716849526799758
 40
1.761592188488697
 40
1.806484764559253
 40
1.857965131830034
 40
1.908967480764594
 40
1.929576319566337
 40
1.950229041233075
 40
1.972260135517541
 40
1.994167368541236
 40
2.043389227994296
 40
2.093764128064765
 40
2.093764128064765
 40
2.093764128064765
 40
2.093764128064765
 10
69.79762887560673
 20
98.68478710669791
 30
0.0
 10
69.7869614778953
 20
98.67431088099904
 30
0.0
 10
69.76567153335786
 20
98.65340249614991
 30
0.0
 10
69.72990390137896
 20
98.62226661608717
 30
0.0
 10
69.688104857497
 20
98.59462513387805
 30
0.0
 10
69.63931558747913
 20
98.5687800735569
 30
0.0
 10
69.58676900787047
 20
98.54477140082373
 30
0.0
 10
69.52846019241429
 20
98.52218063691889
 30
0.0
 10
69.46680269140256
 20
98.50229094058658
 30
0.0
 10
69.40025017718158
 20
98.48456381039944
 30
0.0
 10
69.33119248855314
 20
98.46945246125645
 30
0.0
 10
69.25852673598924
 20
98.4568018086438
 30
0.0
 10
69.18415729084158
 20
98.44693713327531
 30
0.0
 10
69.10755534767361
 20
98.4398158079685
 30
0.0
 10
69.03009390845017
 20
98.43552516782322
 30
0.0
 10
68.95188069647816
 20
98.43410364644097
 30
0.0
 10
68.87366789182046
 20
98.43553923498169
 30
0.0
 10
68.79620802092865
 20
98.43984563659656
 30
0.0
 10
68.71960809443733
 20
98.44698673710637
 30
0.0
 10
68.64523831232748
 20
98.4568651527847
 30
0.0
 10
68.57257126388606
 20
98.46951291678475
 30
0.0
 10
68.5035231693812
 20
98.48464056472777
 30
0.0
 10
68.4369925225491
 20
98.50244018262859
 30
0.0
 10
68.37532209002835
 20
98.52233224867327
 30
0.0
 10
68.31693471105
 20
98.54474076468186
 30
0.0
 10
68.26443249607141
 20
98.56879611913426
 30
0.0
 10
68.21598467189509
 20
98.59524189195784
 30
0.0
 10
68.17415701301377
 20
98.62271701660302
 30
0.0
 10
68.1370083043806
 20
98.65228459296569
 30
0.0
 10
68.10380842702435
 20
98.68579600687653
 30
0.0
 10
68.07494154125654
 20
98.72587996012179
 30
0.0
 10
68.058693524528
 20
98.76414243550963
 30
0.0
 10
68.05285563305418
 20
98.7944111469912
 30
0.0
 10
68.05144638642227
 20
98.81551883075835
 30
0.0
 10
68.05285993759091
 20
98.83706729752632
 30
0.0
 10
68.05917617603849
 20
98.86759829415281
 30
0.0
 10
68.07714366137446
 20
98.90450425332989
 30
0.0
 10
68.09644519152273
 20
98.93150175415003
 30
0.0
 10
68.10620768748893
 20
98.94515677878334
 30
0.0
 11
69.79762887560673
 21
98.68478710669791
 31
0.0
 11
69.76531147457625
 21
98.65368039986838
 31
0.0
 11
69.73132247635533
 21
98.62469932792479
 31
0.0
 11
69.68775132044044
 21
98.59540715690697
 31
0.0
 11
69.64133427504225
 21
98.57039288627023
 31
0.0
 11
69.58650668852641
 21
98.5453034440789
 31
0.0
 11
69.53039851762817
 21
98.52351785548356
 31
0.0
 11
69.46665554850995
 21
98.50285022763188
 31
0.0
 11
69.40188593096586
 21
98.48549850965532
 31
0.0
 11
69.33108841175158
 21
98.46996221657541
 31
0.0
 11
69.25970130497063
 21
98.45749004736976
 31
0.0
 11
69.18410365273587
 21
98.44743230065392
 31
0.0
 11
69.10816484755443
 21
98.44034349158049
 31
0.0
 11
69.03007581405643
 21
98.43600930206574
 31
0.0
 11
68.95188091729474
 21
98.43457983170858
 31
0.0
 11
68.87368577702333
 21
98.43602369114024
 31
0.0
 11
68.79559812232895
 21
98.44037419364268
 31
0.0
 11
68.71966324940318
 21
98.44748074183742
 31
0.0
 11
68.64406503629914
 21
98.45755051862753
 31
0.0
 11
68.57267141212053
 21
98.47002708956754
 31
0.0
 11
68.50188591534497
 21
98.48558691272007
 31
0.0
 11
68.43714965436712
 21
98.5029834011053
 31
0.0
 11
68.37338080011055
 21
98.5236315042729
 31
0.0
 11
68.31718115656679
 21
98.54532566466486
 31
0.0
 11
68.26245425349556
 21
98.57052832762321
 31
0.0
 11
68.21633544212266
 21
98.59586554554308
 31
0.0
 11
68.17247672248723
 21
98.62485244652444
 31
0.0
 11
68.13762730650664
 21
98.65291352215968
 31
0.0
 11
68.10618212883443
 21
98.68495325011308
 31
0.0
 11
68.07649971051934
 21
98.72701489796951
 31
0.0
 11
68.05717802464535
 21
98.77421566068543
 31
0.0
 11
68.05328052948514
 21
98.79445260112003
 31
0.0
 11
68.05191826592697
 21
98.81506034580538
 31
0.0
 11
68.05336985295689
 21
98.83704356680646
 31
0.0
 11
68.05786454026375
 21
98.85848475738999
 31
0.0
 11
68.07809022312743
 21
98.90335917495388
 31
0.0
 11
68.10620768748893
 21
98.94515677878334
 31
0.0
  0
ENDBLK
  5
68
330
66
100
AcDbEntity
  8
0
100
AcDbBlockEnd
  0
BLOCK
  5
2E0
330
2D9
100
AcDbEntity
  8
0
100
AcDbBlockBegin
  2
*D11
 70
     1
 10
0.0
 20
0.0
 30
0.0
  3
*D11
  1

  0
LINE
  5
2DA
330
2D9
100
AcDbEntity
  8
1
  6
Continuous
 62
     2
100
AcDbLine
 10
111.0505626803969
 20
198.3420514725464
 30
0.0
 11
111.0505626803969
 21
140.8420514725463
 31
0.0
  0
LINE
  5
2DB
330
2D9
100
AcDbEntity
  8
1
  6
Continuous
 62
     2
100
AcDbLine
 10
164.4460425363698
 20
140.8420514725463
 30
0.0
 11
109.5505626803969
 21
140.8420514725463
 31
0.0
  0
LINE
  5
2DC
330
2D9
100
AcDbEntity
  8
1
  6
Continuous
 62
     2
100
AcDbLine
 10
202.9316283859452
 20
198.3420514725464
 30
0.0
 11
109.5505626803969
 21
198.3420514725464
 31
0.0
  0
SOLID
  5
2DD
330
2D9
100
AcDbEntity
  8
1
 62
     2
100
AcDbTrace
 10
111.7417382927307
 20
193.0920514725464
 30
0.0
 11
110.3593870680631
 21
193.0920514725464
 31
0.0
 12
111.0505626803969
 22
198.3420514725464
 32
0.0
 13
111.0505626803969
 23
198.3420514725464
 33
0.0
  0
SOLID
  5
2DE
330
2D9
100
AcDbEntity
  8
1
 62
     2
100
AcDbTrace
 10
110.3593870680631
 20
146.0920514725463
 30
0.0
 11
111.7417382927307
 21
146.0920514725463
 31
0.0
 12
111.0505626803969
 22
140.8420514725463
 32
0.0
 13
111.0505626803969
 23
140.8420514725463
 33
0.0
  0
MTEXT
  5
2DF
330
2D9
100
AcDbEntity
  8
1
 62
     7
100
AcDbMText
 10
109.5505626803969
 20
155.4170514725464
 30
0.0
 40
5.25
 41
0.0
 71
     7
 72
     1
  1
58リフト5
  7
CONVERTER_11
 11
0.0
 21
1.0
 31
0.0
 73
     1
 44
0.45454545454545
  0
ENDBLK
  5
2E1
330
2D9
100
AcDbEntity
  8
0
100
AcDbBlockEnd
  0
BLOCK
  5
2EB
330
2E4
100
AcDbEntity
  8
0
100
AcDbBlockBegin
  2
*D12
 70
     1
 10
0.0
 20
0.0
 30
0.0
  3
*D12
  1

  0
LINE
  5
2E5
330
2E4
100
AcDbEntity
  8
1
  6
Continuous
 62
     2
100
AcDbLine
 10
48.41341326227939
 20
405.6138438710984
 30
0.0
 11
94.41341326227928
 21
405.6138438710984
 31
0.0
  0
LINE
  5
2E6
330
2E4
100
AcDbEntity
  8
1
  6
Continuous
 62
     2
100
AcDbLine
 10
48.41341326227939
 20
376.6138438710985
 30
0.0
 11
48.41341326227939
 21
407.1138438710984
 31
0.0
  0
LINE
  5
2E7
330
2E4
100
AcDbEntity
  8
1
  6
Continuous
 62
     2
100
AcDbLine
 10
94.41341326227928
 20
376.6138438710985
 30
0.0
 11
94.41341326227928
 21
407.1138438710984
 31
0.0
  0
SOLID
  5
2E8
330
2E4
100
AcDbEntity
  8
1
 62
     2
100
AcDbTrace
 10
53.66341326227939
 20
406.3050194834323
 30
0.0
 11
53.66341326227939
 21
404.9226682587646
 31
0.0
 12
48.41341326227939
 22
405.6138438710984
 32
0.0
 13
48.41341326227939
 23
405.6138438710984
 33
0.0
  0
SOLID
  5
2E9
330
2E4
100
AcDbEntity
  8
1
 62
     2
100
AcDbTrace
 10
89.16341326227928
 20
404.9226682587646
 30
0.0
 11
89.16341326227928
 21
406.3050194834323
 31
0.0
 12
94.41341326227928
 22
405.6138438710984
 32
0.0
 13
94.41341326227928
 23
405.6138438710984
 33
0.0
  0
MTEXT
  5
2EA
330
2E4
100
AcDbEntity
  8
1
 62
     7
100
AcDbMText
 10
66.32091326229194
 20
407.1138334354839
 30
0.0
 40
5.25
 41
0.0
 71
     7
 72
     1
  1
\C7;{\Fgdt;n}\C7;46
  7
CONVERTER_12
 11
0.9999999999970619
 21
2.424068405545306E-6
 31
0.0
 73
     1
 44
0.60024009603842
  0
ENDBLK
  5
2EC
330
2E4
100
AcDbEntity
  8
0
100
AcDbBlockEnd
  0
BLOCK
  5
2F6
330
2EF
100
AcDbEntity
  8
0
100
AcDbBlockBegin
  2
*D13
 70
     1
 10
0.0
 20
0.0
 30
0.0
  3
*D13
  1

  0
LINE
  5
2F0
330
2EF
100
AcDbEntity
  8
1
  6
Continuous
 62
     2
100
AcDbLine
 10
111.0505626803969
 20
100.8420514725464
 30
0.0
 11
111.0505626803969
 21
140.8420514725464
 31
0.0
  0
LINE
  5
2F1
330
2EF
100
AcDbEntity
  8
1
  6
Continuous
 62
     2
100
AcDbLine
 10
126.9316283859451
 20
100.8420514725464
 30
0.0
 11
109.5505626803969
 21
100.8420514725464
 31
0.0
  0
LINE
  5
2F2
330
2EF
100
AcDbEntity
  8
1
  6
Continuous
 62
     2
100
AcDbLine
 10
163.4170554231504
 20
140.8420514725464
 30
0.0
 11
109.5505626803969
 21
140.8420514725464
 31
0.0
  0
SOLID
  5
2F3
330
2EF
100
AcDbEntity
  8
1
 62
     2
100
AcDbTrace
 10
110.3593870680631
 20
106.0920514725464
 30
0.0
 11
111.7417382927307
 21
106.0920514725464
 31
0.0
 12
111.0505626803969
 22
100.8420514725464
 32
0.0
 13
111.0505626803969
 23
100.8420514725464
 33
0.0
  0
SOLID
  5
2F4
330
2EF
100
AcDbEntity
  8
1
 62
     2
100
AcDbTrace
 10
111.7417382927307
 20
135.5920514725464
 30
0.0
 11
110.3593870680631
 21
135.5920514725464
 31
0.0
 12
111.0505626803969
 22
140.8420514725464
 32
0.0
 13
111.0505626803969
 23
140.8420514725464
 33
0.0
  0
MTEXT
  5
2F5
330
2EF
100
AcDbEntity
  8
1
 62
     7
100
AcDbMText
 10
109.5505626803969
 20
116.9045514725464
 30
0.0
 40
5.25
 41
0.0
 71
     7
 72
     1
  1
40
  7
CONVERTER_12
 11
0.0
 21
1.0
 31
0.0
 73
     1
 44
0.60024009603842
  0
ENDBLK
  5
2F7
330
2EF
100
AcDbEntity
  8
0
100
AcDbBlockEnd
  0
BLOCK
  5
301
330
2FA
100
AcDbEntity
  8
0
100
AcDbBlockBegin
  2
*D14
 70
     1
 10
0.0
 20
0.0
 30
0.0
  3
*D14
  1

  0
LINE
  5
2FB
330
2FA
100
AcDbEntity
  8
1
  6
Continuous
 62
     2
100
AcDbLine
 10
126.9316283859452
 20
82.63335783778153
 30
0.0
 11
202.9316283859452
 21
82.63335783778153
 31
0.0
  0
LINE
  5
2FC
330
2FA
100
AcDbEntity
  8
1
  6
Continuous
 62
     2
100
AcDbLine
 10
126.9316283859452
 20
100.8420514725463
 30
0.0
 11
126.9316283859452
 21
81.13335783778153
 31
0.0
  0
LINE
  5
2FD
330
2FA
100
AcDbEntity
  8
1
  6
Continuous
 62
     2
100
AcDbLine
 10
202.9316283859452
 20
123.3420514725465
 30
0.0
 11
202.9316283859452
 21
81.13335783778153
 31
0.0
  0
SOLID
  5
2FE
330
2FA
100
AcDbEntity
  8
1
 62
     2
100
AcDbTrace
 10
132.1816283859452
 20
83.32453345011535
 30
0.0
 11
132.1816283859452
 21
81.94218222544771
 31
0.0
 12
126.9316283859452
 22
82.63335783778153
 32
0.0
 13
126.9316283859452
 23
82.63335783778153
 33
0.0
  0
SOLID
  5
2FF
330
2FA
100
AcDbEntity
  8
1
 62
     2
100
AcDbTrace
 10
197.6816283859452
 20
81.94218222544771
 30
0.0
 11
197.6816283859452
 21
83.32453345011535
 31
0.0
 12
202.9316283859452
 22
82.63335783778153
 32
0.0
 13
202.9316283859452
 23
82.63335783778153
 33
0.0
  0
MTEXT
  5
300
330
2FA
100
AcDbEntity
  8
1
 62
     7
100
AcDbMText
 10
160.9941283859452
 20
84.13335783778153
 30
0.0
 40
5.25
 41
0.0
 71
     7
 72
     1
  1
76
  7
CONVERTER_12
 11
0.9999999999970619
 21
2.424068405545306E-6
 31
0.0
 73
     1
 44
0.60024009603842
  0
ENDBLK
  5
302
330
2FA
100
AcDbEntity
  8
0
100
AcDbBlockEnd
  0
BLOCK
  5
30C
330
305
100
AcDbEntity
  8
0
100
AcDbBlockBegin
  2
*D15
 70
     1
 10
0.0
 20
0.0
 30
0.0
  3
*D15
  1

  0
LINE
  5
306
330
305
100
AcDbEntity
  8
1
  6
Continuous
 62
     2
100
AcDbLine
 10
202.9316283859452
 20
82.63335783778153
 30
0.0
 11
277.9316283859453
 21
82.63335783778153
 31
0.0
  0
LINE
  5
307
330
305
100
AcDbEntity
  8
1
  6
Continuous
 62
     2
100
AcDbLine
 10
202.9316283859452
 20
123.3420514725465
 30
0.0
 11
202.9316283859452
 21
81.13335783778153
 31
0.0
  0
LINE
  5
308
330
305
100
AcDbEntity
  8
1
  6
Continuous
 62
     2
100
AcDbLine
 10
277.9316283859453
 20
117.8420514725464
 30
0.0
 11
277.9316283859453
 21
81.13335783778153
 31
0.0
  0
SOLID
  5
309
330
305
100
AcDbEntity
  8
1
 62
     2
100
AcDbTrace
 10
208.1816283859452
 20
83.32453345011535
 30
0.0
 11
208.1816283859452
 21
81.94218222544771
 31
0.0
 12
202.9316283859452
 22
82.63335783778153
 32
0.0
 13
202.9316283859452
 23
82.63335783778153
 33
0.0
  0
SOLID
  5
30A
330
305
100
AcDbEntity
  8
1
 62
     2
100
AcDbTrace
 10
272.6816283859453
 20
81.94218222544771
 30
0.0
 11
272.6816283859453
 21
83.32453345011535
 31
0.0
 12
277.9316283859453
 22
82.63335783778153
 32
0.0
 13
277.9316283859453
 23
82.63335783778153
 33
0.0
  0
MTEXT
  5
30B
330
305
100
AcDbEntity
  8
1
 62
     7
100
AcDbMText
 10
236.4941283859452
 20
84.13335783778153
 30
0.0
 40
5.25
 41
0.0
 71
     7
 72
     1
  1
75
  7
CONVERTER_12
 11
0.9999999999970619
 21
2.424068405545306E-6
 31
0.0
 73
     1
 44
0.60024009603842
  0
ENDBLK
  5
30D
330
305
100
AcDbEntity
  8
0
100
AcDbBlockEnd
  0
BLOCK
  5
319
330
310
100
AcDbEntity
  8
0
100
AcDbBlockBegin
  2
*D16
 70
     1
 10
0.0
 20
0.0
 30
0.0
  3
*D16
  1

  0
LINE
  5
311
330
310
100
AcDbEntity
  8
1
  6
Continuous
 62
     2
100
AcDbLine
 10
267.4316283859453
 20
82.63335783778153
 30
0.0
 11
277.9316283859453
 21
82.63335783778153
 31
0.0
  0
LINE
  5
312
330
310
100
AcDbEntity
  8
1
  6
Continuous
 62
     2
100
AcDbLine
 10
277.9316283859453
 20
82.63335783778153
 30
0.0
 11
291.9316283859453
 21
82.63335783778153
 31
0.0
  0
LINE
  5
313
330
310
100
AcDbEntity
  8
1
  6
Continuous
 62
     2
100
AcDbLine
 10
291.9316283859453
 20
82.63335783778153
 30
0.0
 11
302.4316283859453
 21
82.63335783778153
 31
0.0
  0
LINE
  5
314
330
310
100
AcDbEntity
  8
1
  6
Continuous
 62
     2
100
AcDbLine
 10
277.9316283859453
 20
117.8420514725464
 30
0.0
 11
277.9316283859453
 21
81.13335783778153
 31
0.0
  0
LINE
  5
315
330
310
100
AcDbEntity
  8
1
  6
Continuous
 62
     2
100
AcDbLine
 10
291.9316283859453
 20
131.3420514725464
 30
0.0
 11
291.9316283859453
 21
81.13335783778153
 31
0.0
  0
SOLID
  5
316
330
310
100
AcDbEntity
  8
1
 62
     2
100
AcDbTrace
 10
272.6816283859453
 20
81.94218222544771
 30
0.0
 11
272.6816283859453
 21
83.32453345011535
 31
0.0
 12
277.9316283859453
 22
82.63335783778153
 32
0.0
 13
277.9316283859453
 23
82.63335783778153
 33
0.0
  0
SOLID
  5
317
330
310
100
AcDbEntity
  8
1
 62
     2
100
AcDbTrace
 10
297.1816283859453
 20
83.32453345011535
 30
0.0
 11
297.1816283859453
 21
81.94218222544771
 31
0.0
 12
291.9316283859453
 22
82.63335783778153
 32
0.0
 13
291.9316283859453
 23
82.63335783778153
 33
0.0
  0
MTEXT
  5
318
330
310
100
AcDbEntity
  8
1
 62
     7
100
AcDbMText
 10
281.7816283859453
 20
84.13335783778153
 30
0.0
 40
5.25
 41
0.0
 71
     7
 72
     1
  1
14
  7
CONVERTER_12
 11
0.9999999999970619
 21
2.424068405545306E-6
 31
0.0
 73
     1
 44
0.60024009603842
  0
ENDBLK
  5
31A
330
310
100
AcDbEntity
  8
0
100
AcDbBlockEnd
  0
BLOCK
  5
325
330
31D
100
AcDbEntity
  8
0
100
AcDbBlockBegin
  2
*D17
 70
     1
 10
0.0
 20
0.0
 30
0.0
  3
*D17
  1

  0
LINE
  5
31E
330
31D
100
AcDbEntity
  8
1
  6
Continuous
 62
     2
100
AcDbLine
 10
91.04118855110637
 20
92.83642162252373
 30
0.0
 11
110.0233155007039
 21
83.98491045785612
 31
0.0
  0
LINE
  5
31F
330
31D
100
AcDbEntity
  8
1
  6
Continuous
 62
     2
100
AcDbLine
 10
110.0233155007039
 20
83.98491045785612
 30
0.0
 11
124.886763208105
 21
77.05397096530872
 31
0.0
  0
LINE
  5
320
330
31D
100
AcDbEntity
  8
1
  6
Continuous
 62
     2
100
AcDbLine
 10
120.8600056722171
 20
107.2242675260843
 30
0.0
 11
109.3893881080929
 21
82.62544877730114
 31
0.0
  0
LINE
  5
321
330
31D
100
AcDbEntity
  8
1
  6
Continuous
 62
     2
100
AcDbLine
 10
135.7234533796181
 20
100.2933280335369
 30
0.0
 11
124.252835815494
 21
75.69450928475375
 31
0.0
  0
SOLID
  5
322
330
31D
100
AcDbEntity
  8
1
 62
     2
100
AcDbTrace
 10
115.0735348184884
 20
82.39258242338543
 30
0.0
 11
114.4893279468043
 21
81.13974674404949
 31
0.0
 12
110.0233155007039
 22
83.98491045785612
 32
0.0
 13
110.0233155007039
 23
83.98491045785612
 33
0.0
  0
SOLID
  5
323
330
31D
100
AcDbEntity
  8
1
 62
     2
100
AcDbTrace
 10
119.8365438903205
 20
78.64629899977939
 30
0.0
 11
120.4207507620047
 21
79.89913467911535
 31
0.0
 12
124.886763208105
 22
77.05397096530872
 32
0.0
 13
124.886763208105
 23
77.05397096530872
 33
0.0
  0
MTEXT
  5
324
330
31D
100
AcDbEntity
  8
1
 62
     7
100
AcDbMText
 10
93.7050745662694
 20
93.82857145910026
 30
0.0
 40
5.25
 41
0.0
 71
     7
 72
     1
  1
\C7;{\Fgdt;n}\C7;16,5
  7
CONVERTER_12
 11
0.9063077870366518
 21
-0.4226182617406953
 31
0.0
 73
     1
 44
0.60024009603842
  0
ENDBLK
  5
326
330
31D
100
AcDbEntity
  8
0
100
AcDbBlockEnd
  0
BLOCK
  5
332
330
329
100
AcDbEntity
  8
0
100
AcDbBlockBegin
  2
*D18
 70
     1
 10
0.0
 20
0.0
 30
0.0
  3
*D18
  1

  0
LINE
  5
32A
330
329
100
AcDbEntity
  8
1
  6
Continuous
 62
     2
100
AcDbLine
 10
113.2043179276042
 20
71.40373919465118
 30
0.0
 11
112.5703905349931
 21
70.04427751409621
 31
0.0
  0
LINE
  5
32B
330
329
100
AcDbEntity
  8
1
  6
Continuous
 62
     2
100
AcDbLine
 10
126.9316283859451
 20
68.36046773359436
 30
0.0
 11
126.9316283859451
 21
66.86046773359436
 31
0.0
  0
LINE
  5
32C
330
329
100
AcDbEntity
  8
1
  6
Continuous
 62
     2
100
AcDbLine
 10
125.8750827315933
 20
98.57628200495468
 30
0.0
 11
113.2043179276042
 21
71.40373919465118
 31
0.0
  0
LINE
  5
32D
330
329
100
AcDbEntity
  8
1
  6
Continuous
 62
     2
100
AcDbLine
 10
126.9316283859451
 20
96.8420514725464
 30
0.0
 11
126.9316283859451
 21
68.36046773359436
 31
0.0
  0
ARC
  5
32E
330
329
100
AcDbEntity
  8
1
  6
Continuous
 62
     2
100
AcDbCircle
 10
126.9316283859451
 20
100.8420514725464
 30
0.0
 40
32.48158373895205
100
AcDbArc
 50
231.1089204488376
 51
307.1348087120913
  0
SOLID
  5
32F
330
329
100
AcDbEntity
  8
1
 62
     2
100
AcDbTrace
 10
108.2991253011534
 20
73.39855974409879
 30
0.0
 11
108.9825632365516
 21
74.60014515379667
 31
0.0
 12
113.2043179276042
 22
71.40373919465118
 32
0.0
 13
113.2043179276042
 23
71.40373919465118
 33
0.0
  0
SOLID
  5
330
330
329
100
AcDbEntity
  8
1
 62
     2
100
AcDbTrace
 10
132.1086970676762
 20
69.47320471586998
 30
0.0
 11
132.2202902533043
 21
68.09536515000552
 31
0.0
 12
126.9316283859451
 22
68.36046773359436
 32
0.0
 13
126.9316283859451
 23
68.36046773359436
 33
0.0
  0
MTEXT
  5
331
330
329
100
AcDbEntity
  8
1
 62
     7
100
AcDbMText
 10
134.5166533015853
 20
70.25322094565612
 30
0.0
 40
5.25
 41
0.0
 71
     7
 72
     1
  1
25{\Fgdt;~}
  7
CONVERTER_12
 11
0.9100670187353554
 21
0.4144611217112436
 31
0.0
 73
     1
 44
0.60024009603842
  0
ENDBLK
  5
333
330
329
100
AcDbEntity
  8
0
100
AcDbBlockEnd
  0
ENDSEC
  0
SECTION
  2
ENTITIES
  0
INSERT
  5
69
330
1F
100
AcDbEntity
  8
0
100
AcDbBlockReference
  2
62-1B
 10
168.1995082605861
 20
215.9904345803537
 30
0.0
  0
INSERT
  5
6A
330
1F
100
AcDbEntity
  8
1
100
AcDbBlockReference
  2
Y22-0B-13
 10
147.3619870583374
 20
1284.363957651242
 30
0.0
  0
INSERT
  5
6B
330
1F
100
AcDbEntity
  8
1
100
AcDbBlockReference
  2
開示A4
 10
0.0
 20
0.0
 30
0.0
 41
1.5
 42
1.5
 43
1.5
  0
INSERT
  5
6C
330
1F
100
AcDbEntity
  8
1
100
AcDbBlockReference
  2
R10AK-13-B
 10
48.13298420913429
 20
102.8675551682287
 30
0.0
  0
INSERT
  5
6D
330
1F
100
AcDbEntity
  8
0
100
AcDbBlockReference
  2
32-1-16
 10
64.14909989121777
 20
-182.8968728765194
 30
0.0
  0
INSERT
  5
6E
330
1F
100
AcDbEntity
  8
0
100
AcDbBlockReference
  2
75-2
 10
35.6902382145207
 20
5.62522389759565
 30
0.0
  0
LINE
  5
2C3
330
1F
100
AcDbEntity
  8
1
  6
DASH_CENTER
 62
     2
100
AcDbLine
 10
54.95893059037496
 20
292.1138438710987
 30
0.0
 11
102.1573150966267
 21
319.3638438710987
 31
0.0
  0
LINE
  5
2C4
330
1F
100
AcDbEntity
  8
1
  6
DASH_CENTER
 62
     2
100
AcDbLine
 10
40.66951142793161
 20
319.3638438710989
 30
0.0
 11
87.86789593418354
 21
292.1138438710988
 31
0.0
  0
LINE
  5
2C5
330
1F
100
AcDbEntity
  8
1
  6
DASH_CENTER
 62
     2
100
AcDbLine
 10
71.41341326227933
 20
203.8441805959728
 30
0.0
 11
71.41341326227933
 21
93.13335783778153
 31
0.0
  0
LINE
  5
2C6
330
1F
100
AcDbEntity
  8
1
  6
DASH_CENTER
 62
     2
100
AcDbLine
 10
43.91341326227939
 20
140.8420514725464
 30
0.0
 11
98.91341326227932
 21
140.8420514725464
 31
0.0
  0
LINE
  5
2C7
330
1F
100
AcDbEntity
  8
1
  6
DASH_CENTER
 62
     2
100
AcDbLine
 10
163.4170554231504
 20
140.8420514725464
 30
0.0
 11
294.6758214701923
 21
140.8420514725464
 31
0.0
  0
LINE
  5
2C8
330
1F
100
AcDbEntity
  8
1
  6
DASH_CENTER
 62
     2
100
AcDbLine
 10
125.8750827315933
 20
98.57628200495468
 30
0.0
 11
137.5068089252704
 21
123.5205993247674
 31
0.0
  0
LINE
  5
2C9
330
1F
100
AcDbEntity
  8
1
  6
DASH_CENTER
 62
     2
100
AcDbLine
 10
202.9316283859452
 20
203.8420514725465
 30
0.0
 11
202.9316283859452
 21
123.3420514725465
 31
0.0
  0
LINE
  5
2CA
330
1F
100
AcDbEntity
  8
1
  6
DASH_CENTER
 62
     2
100
AcDbLine
 10
49.27749679342958
 20
301.6138438710988
 30
0.0
 11
93.54932973112884
 21
301.6138438710988
 31
0.0
  0
LINE
  5
2CB
330
1F
100
AcDbEntity
  8
1
  6
Continuous
 62
     2
100
AcDbLine
 10
126.9316283859452
 20
100.8420514725463
 30
0.0
 11
126.9316283859452
 21
96.8420514725464
 31
0.0
  0
LINE
  5
2CC
330
1F
100
AcDbEntity
  8
1
  6
DASH_CENTER
 62
     2
100
AcDbLine
 10
60.43777965424368
 20
226.6138438710987
 30
0.0
 11
82.43777965424368
 21
226.6138438710987
 31
0.0
  0
LINE
  5
2CD
330
1F
100
AcDbEntity
  8
1
  6
DASH_CENTER
 62
     2
100
AcDbLine
 10
71.41341326227928
 20
217.130042936892
 30
0.0
 11
71.4134132622793
 21
392.8228748280665
 31
0.0
  0
LINE
  5
2CE
330
1F
100
AcDbEntity
  8
1
  6
DASH_CENTER
 62
     2
100
AcDbLine
 10
164.3580352571379
 20
140.8420514725464
 30
0.0
 11
165.4460425363698
 21
140.8420514725464
 31
0.0
  0
ARC
  5
2CF
330
1F
100
AcDbEntity
  8
1
  6
DASH_CENTER
 62
     2
100
AcDbCircle
 10
164.5710425363698
 20
111.0382621696862
 30
0.0
 40
29.80405143280495
100
AcDbArc
 50
90.24030268006139
 51
155.2403026800615
  0
SOLID
  5
2D0
330
1F
100
AcDbEntity
  8
1
 62
     2
100
AcDbTrace
 10
83.93983762352198
 20
388.006065047134
 30
0.0
 11
85.13698890103669
 21
387.3148894348002
 31
0.0
 12
81.91341326227929
 22
383.1138438710988
 32
0.0
 13
81.91341326227929
 23
383.1138438710988
 33
0.0
  0
LEADER
  5
2D1
330
1F
100
AcDbEntity
  8
1
  6
Continuous
 62
     2
100
AcDbLeader
  3
Standard
 71
     0
 76
     3
 10
81.91341326227929
 20
383.1138438710988
 30
0.0
 10
91.03291848712041
 20
398.9092902604133
 30
0.0
 10
115.749752907442
 20
398.9092902604133
 30
0.0
  0
MTEXT
  5
2D3
330
1F
100
AcDbEntity
  8
1
 62
     7
100
AcDbMText
 10
105.8913356972812
 20
403.4092902604134
 30
0.0
 40
5.25
 41
0.0
 71
     5
 72
     1
  1
PJ1/2
  7
CONVERTER_12
 73
     1
 44
1.32052821128451
  0
MTEXT
  5
2D4
330
1F
100
AcDbEntity
  8
1
 62
     7
100
AcDbMText
 10
51.0
 20
51.00000000000001
 30
0.0
 40
5.25
 41
0.0
 71
     4
 72
     1
  1
JIS
  7
CONVERTER_12
 73
     1
 44
0.7202881152461
  0
MTEXT
  5
2D5
330
1F
100
AcDbEntity
  8
1
 62
     7
100
AcDbMText
 10
85.5
 20
34.12500000000001
 30
0.0
 40
5.25
 41
0.0
 71
     5
 72
     1
  1
万能ホーム胴長水栓
  7
CONVERTER_11
 73
     1
 44
1.0
  0
MTEXT
  5
2D6
330
1F
100
AcDbEntity
  8
1
 62
     7
100
AcDbMText
 10
85.5
 20
21.375
 30
0.0
 40
5.25
 41
0.0
 71
     5
 72
     1
  1
Y22JK-13
  7
CONVERTER_12
 73
     1
 44
0.90036014405762
  0
MTEXT
  5
2D7
330
1F
100
AcDbEntity
  8
1
 62
     7
100
AcDbMText
 10
127.875
 20
25.5
 30
0.0
 40
5.25
 41
0.0
 71
     5
 72
     1
  1
1
  7
CONVERTER_12
 73
     1
 44
1.32052821128451
  0
MTEXT
  5
2D8
330
1F
100
AcDbEntity
  8
1
 62
     7
100
AcDbMText
 10
140.625
 20
25.5
 30
0.0
 40
5.25
 41
0.0
 71
     5
 72
     1
  1
1,5
  7
CONVERTER_12
 73
     1
 44
1.32052821128451
  0
DIMENSION
  5
2E3
330
1F
100
AcDbEntity
  8
1
100
AcDbDimension
  2
*D11
 10
111.0505626803969
 20
198.3420514725464
 30
0.0
 11
106.9255626803969
 21
169.5920514725464
 31
0.0
 70
    32
  1
58リフト5
 71
     5
 42
-1.0
 53
90.0
  3
ME10_DIM_10
100
AcDbAlignedDimension
 13
164.4460425363698
 23
140.8420514725464
 33
0.0
 14
202.9316283859452
 24
198.3420514725464
 34
0.0
 50
90.0
100
AcDbRotatedDimension
  0
DIMENSION
  5
2EE
330
1F
100
AcDbEntity
  8
1
100
AcDbDimension
  2
*D12
 10
48.41341326227939
 20
405.6138438710984
 30
0.0
 11
71.41341326227928
 21
409.7388438710984
 31
0.0
 70
    32
  1
<>
 71
     5
 42
-1.0
 53
0.00013888888889
  3
ME10_DIM_11
100
AcDbAlignedDimension
 13
94.41341326227928
 23
376.6138438710984
 33
0.0
 14
48.41341326227939
 24
376.6138438710984
 34
0.0
100
AcDbRotatedDimension
  0
DIMENSION
  5
2F9
330
1F
100
AcDbEntity
  8
1
100
AcDbDimension
  2
*D13
 10
111.0505626803969
 20
100.8420514725464
 30
0.0
 11
106.9255626803969
 21
120.8420514725464
 31
0.0
 70
    32
  1
<>
 71
     5
 42
-1.0
 53
90.0
  3
ME10_DIM_12
100
AcDbAlignedDimension
 13
163.4170554231504
 23
140.8420514725464
 33
0.0
 14
126.9316283859452
 24
100.8420514725464
 34
0.0
 50
90.0
100
AcDbRotatedDimension
  0
DIMENSION
  5
304
330
1F
100
AcDbEntity
  8
1
100
AcDbDimension
  2
*D14
 10
126.9316283859452
 20
82.63335783778153
 30
0.0
 11
164.9316283859452
 21
86.75835783778153
 31
0.0
 70
    32
  1
<>
 71
     5
 42
-1.0
 53
0.00013888888889
  3
ME10_DIM_13
100
AcDbAlignedDimension
 13
202.9316283859452
 23
123.3420514725465
 33
0.0
 14
126.9316283859452
 24
100.8420514725463
 34
0.0
100
AcDbRotatedDimension
  0
DIMENSION
  5
30F
330
1F
100
AcDbEntity
  8
1
100
AcDbDimension
  2
*D15
 10
202.9316283859452
 20
82.63335783778153
 30
0.0
 11
240.4316283859452
 21
86.75835783778153
 31
0.0
 70
    32
  1
<>
 71
     5
 42
-1.0
 53
0.00013888888889
  3
ME10_DIM_14
100
AcDbAlignedDimension
 13
277.9316283859453
 23
117.8420514725464
 33
0.0
 14
202.9316283859452
 24
123.3420514725465
 34
0.0
100
AcDbRotatedDimension
  0
DIMENSION
  5
31C
330
1F
100
AcDbEntity
  8
1
100
AcDbDimension
  2
*D16
 10
277.9316283859453
 20
82.63335783778153
 30
0.0
 11
284.9316283859453
 21
86.75835783778153
 31
0.0
 70
    32
  1
<>
 71
     5
 42
-1.0
 53
0.00013888888889
  3
ME10_DIM_15
100
AcDbAlignedDimension
 13
291.9316283859453
 23
131.3420514725464
 33
0.0
 14
277.9316283859453
 24
117.8420514725464
 34
0.0
100
AcDbRotatedDimension
  0
DIMENSION
  5
328
330
1F
100
AcDbEntity
  8
1
100
AcDbDimension
  2
*D17
 10
110.0233155007039
 20
83.98491045785612
 30
0.0
 11
101.5789876590386
 21
92.763635817844
 31
0.0
 70
    33
  1
{\Fgdt;n}16,5
 71
     5
 42
-1.0
 53
-24.99999999999976
  3
ME10_DIM_16
100
AcDbAlignedDimension
 13
135.7234533796182
 23
100.2933280335369
 33
0.0
 14
120.8600056722171
 24
107.2242675260843
 34
0.0
  0
DIMENSION
  5
335
330
1F
100
AcDbEntity
  8
1
100
AcDbDimension
  2
*D18
 10
119.9013269413884
 20
69.13041096327572
 30
0.0
 11
138.68432989029
 21
75.03565984771886
 31
0.0
 70
    37
  1
<>
 71
     5
 42
-1.0
  3
ME10_DIM_17
100
AcDb3PointAngularDimension
 13
125.8750827315933
 23
98.57628200495469
 33
0.0
 14
126.9316283859452
 24
96.84205147254642
 34
0.0
 15
126.9316283859451
 25
100.8420514725464
 35
0.0
  0
ENDSEC
  0
SECTION
  2
OBJECTS
  0
DICTIONARY
  5
C
330
0
100
AcDbDictionary
281
     1
  3
ACAD_GROUP
350
D
  3
ACAD_LAYOUT
350
1A
  3
ACAD_MATERIAL
350
3B
  3
ACAD_MLEADERSTYLE
350
338
  3
ACAD_MLINESTYLE
350
17
  3
ACAD_PLOTSETTINGS
350
19
  3
ACAD_PLOTSTYLENAME
350
E
  3
ACAD_VISUALSTYLE
350
2A
  3
AcDbVariableDictionary
350
336
  0
DICTIONARY
  5
D
102
{ACAD_REACTORS
330
C
102
}
330
C
100
AcDbDictionary
281
     1
  0
DICTIONARY
  5
1A
102
{ACAD_REACTORS
330
C
102
}
330
C
100
AcDbDictionary
281
     1
  3
Layout1
350
1E
  3
Layout2
350
26
  3
Model
350
22
  0
DICTIONARY
  5
3B
102
{ACAD_REACTORS
330
C
102
}
330
C
100
AcDbDictionary
281
     1
  3
ByBlock
350
3D
  3
ByLayer
350
3C
  3
Global
350
3E
  0
DICTIONARY
  5
338
102
{ACAD_REACTORS
330
C
102
}
330
C
100
AcDbDictionary
281
     1
  0
DICTIONARY
  5
17
102
{ACAD_REACTORS
330
C
102
}
330
C
100
AcDbDictionary
281
     1
  3
Standard
350
18
  0
DICTIONARY
  5
19
102
{ACAD_REACTORS
330
C
102
}
330
C
100
AcDbDictionary
281
     1
  0
ACDBDICTIONARYWDFLT
  5
E
102
{ACAD_REACTORS
330
C
102
}
330
C
100
AcDbDictionary
281
     1
  3
Normal
350
F
100
AcDbDictionaryWithDefault
340
F
  0
DICTIONARY
  5
2A
102
{ACAD_REACTORS
330
C
102
}
330
C
100
AcDbDictionary
281
     1
  3
2dWireframe
350
2F
  3
3D Hidden
350
31
  3
3dWireframe
350
30
  3
Basic
350
32
  3
Brighten
350
36
  3
ColorChange
350
3A
  3
Conceptual
350
34
  3
Dim
350
35
  3
Facepattern
350
39
  3
Flat
350
2B
  3
FlatWithEdges
350
2C
  3
Gouraud
350
2D
  3
GouraudWithEdges
350
2E
  3
Linepattern
350
38
  3
Realistic
350
33
  3
Thicken
350
37
  0
DICTIONARY
  5
336
102
{ACAD_REACTORS
330
C
102
}
330
C
100
AcDbDictionary
281
     1
  3
DIMASSOC
350
339
  3
HIDETEXT
350
33A
  0
LAYOUT
  5
1E
102
{ACAD_REACTORS
330
1A
102
}
330
1A
100
AcDbPlotSettings
  1

  2
none_device
  4

  6

 40
0.0
 41
0.0
 42
0.0
 43
0.0
 44
0.0
 45
0.0
 46
0.0
 47
0.0
 48
0.0
 49
0.0
140
0.0
141
0.0
142
1.0
143
1.0
 70
   688
 72
     0
 73
     0
 74
     5
  7

 75
    16
147
1.0
148
0.0
149
0.0
100
AcDbLayout
  1
Layout1
 70
     1
 71
     1
 10
0.0
 20
0.0
 11
12.0
 21
9.0
 12
0.0
 22
0.0
 32
0.0
 14
1.00000000000000E+20
 24
1.00000000000000E+20
 34
1.00000000000000E+20
 15
-1.00000000000000E+20
 25
-1.00000000000000E+20
 35
-1.00000000000000E+20
146
0.0
 13
0.0
 23
0.0
 33
0.0
 16
1.0
 26
0.0
 36
0.0
 17
0.0
 27
1.0
 37
0.0
 76
     0
330
1B
  0
LAYOUT
  5
26
102
{ACAD_REACTORS
330
1A
102
}
330
1A
100
AcDbPlotSettings
  1

  2
none_device
  4

  6

 40
0.0
 41
0.0
 42
0.0
 43
0.0
 44
0.0
 45
0.0
 46
0.0
 47
0.0
 48
0.0
 49
0.0
140
0.0
141
0.0
142
1.0
143
1.0
 70
   688
 72
     0
 73
     0
 74
     5
  7

 75
    16
147
1.0
148
0.0
149
0.0
100
AcDbLayout
  1
Layout2
 70
     1
 71
     2
 10
0.0
 20
0.0
 11
0.0
 21
0.0
 12
0.0
 22
0.0
 32
0.0
 14
0.0
 24
0.0
 34
0.0
 15
0.0
 25
0.0
 35
0.0
146
0.0
 13
0.0
 23
0.0
 33
0.0
 16
1.0
 26
0.0
 36
0.0
 17
0.0
 27
1.0
 37
0.0
 76
     0
330
23
  0
LAYOUT
  5
22
102
{ACAD_REACTORS
330
1A
102
}
330
1A
100
AcDbPlotSettings
  1

  2
none_device
  4

  6

 40
0.0
 41
0.0
 42
0.0
 43
0.0
 44
0.0
 45
0.0
 46
0.0
 47
0.0
 48
0.0
 49
0.0
140
0.0
141
0.0
142
1.0
143
1.0
 70
  1712
 72
     0
 73
     0
 74
     0
  7

 75
     0
147
1.0
148
0.0
149
0.0
100
AcDbLayout
  1
Model
 70
     1
 71
     0
 10
0.0
 20
0.0
 11
12.0
 21
9.0
 12
0.0
 22
0.0
 32
0.0
 14
0.0
 24
0.0
 34
0.0
 15
315.0
 25
445.5
 35
0.0
146
0.0
 13
0.0
 23
0.0
 33
0.0
 16
1.0
 26
0.0
 36
0.0
 17
0.0
 27
1.0
 37
0.0
 76
     0
330
1F
331
29
  0
MATERIAL
  5
3D
102
{ACAD_REACTORS
330
3B
102
}
102
{ACAD_XDICTIONARY
360
35D
102
}
330
3B
100
AcDbMaterial
  1
ByBlock
  0
MATERIAL
  5
3C
102
{ACAD_REACTORS
330
3B
102
}
102
{ACAD_XDICTIONARY
360
35B
102
}
330
3B
100
AcDbMaterial
  1
ByLayer
  0
MATERIAL
  5
3E
102
{ACAD_REACTORS
330
3B
102
}
102
{ACAD_XDICTIONARY
360
35F
102
}
330
3B
100
AcDbMaterial
  1
Global
  0
MLINESTYLE
  5
18
102
{ACAD_REACTORS
330
17
102
}
330
17
100
AcDbMlineStyle
  2
Standard
 70
     0
  3

 62
   256
 51
90.0
 52
90.0
 71
     2
 49
0.5
 62
   256
  6
BYLAYER
 49
-0.5
 62
   256
  6
BYLAYER
  0
ACDBPLACEHOLDER
  5
F
102
{ACAD_REACTORS
330
E
102
}
330
E
  0
VISUALSTYLE
  5
2F
102
{ACAD_REACTORS
330
2A
102
}
102
{ACAD_XDICTIONARY
360
343
102
}
330
2A
100
AcDbVisualStyle
  2
2dWireframe
 70
     4
 71
     0
 72
     2
 73
     0
 90
        0
 40
-0.6
 41
-30.0
 62
     5
 63
     7
 74
     1
 91
        4
 64
     7
 65
   257
 75
     1
175
     1
 42
1.0
 92
        0
 66
   257
 43
1.0
 76
     1
 77
     6
 78
     2
 67
     7
 79
     5
170
     0
171
     0
290
     0
174
     0
 93
        1
 44
0.0
173
     0
291
     0
 45
0.0
1001
ACAD
1000
AcDbSavedByObjectVersion
1070
     0
  0
VISUALSTYLE
  5
31
102
{ACAD_REACTORS
330
2A
102
}
102
{ACAD_XDICTIONARY
360
347
102
}
330
2A
100
AcDbVisualStyle
  2
3D Hidden
 70
     6
 71
     1
 72
     2
 73
     2
 90
        0
 40
-0.6
 41
-30.0
 62
     5
 63
     7
 74
     2
 91
        2
 64
     7
 65
   257
 75
     2
175
     1
 42
40.0
 92
        0
 66
   257
 43
1.0
 76
     1
 77
     6
 78
     2
 67
     7
 79
     3
170
     0
171
     0
290
     0
174
     0
 93
        1
 44
0.0
173
     0
291
     0
 45
0.0
1001
ACAD
1000
AcDbSavedByObjectVersion
1070
     0
  0
VISUALSTYLE
  5
30
102
{ACAD_REACTORS
330
2A
102
}
102
{ACAD_XDICTIONARY
360
345
102
}
330
2A
100
AcDbVisualStyle
  2
3dWireframe
 70
     5
 71
     0
 72
     2
 73
     0
 90
        0
 40
-0.6
 41
-30.0
 62
     5
 63
     7
 74
     1
 91
        4
 64
     7
 65
   257
 75
     1
175
     1
 42
1.0
 92
        0
 66
   257
 43
1.0
 76
     1
 77
     6
 78
     2
 67
     7
 79
     5
170
     0
171
     0
290
     0
174
     0
 93
        1
 44
0.0
173
     0
291
     0
 45
0.0
1001
ACAD
1000
AcDbSavedByObjectVersion
1070
     0
  0
VISUALSTYLE
  5
32
102
{ACAD_REACTORS
330
2A
102
}
102
{ACAD_XDICTIONARY
360
349
102
}
330
2A
100
AcDbVisualStyle
  2
Basic
 70
     7
 71
     1
 72
     0
 73
     1
 90
        0
 40
-0.6
 41
-30.0
 62
     5
 63
     7
 74
     0
 91
        4
 64
     7
 65
   257
 75
     1
175
     1
 42
1.0
 92
        8
 66
     7
 43
1.0
 76
     1
 77
     6
 78
     2
 67
     7
 79
     5
170
     0
171
     0
290
     0
174
     0
 93
        1
 44
0.0
173
     0
291
     1
 45
0.0
1001
ACAD
1000
AcDbSavedByObjectVersion
1070
     0
  0
VISUALSTYLE
  5
36
102
{ACAD_REACTORS
330
2A
102
}
102
{ACAD_XDICTIONARY
360
351
102
}
330
2A
100
AcDbVisualStyle
  2
Brighten
 70
    12
 71
     2
 72
     2
 73
     0
 90
        0
 40
-0.6
 41
-30.0
 62
     5
 63
     7
 74
     1
 91
        4
 64
     7
 65
   257
 75
     1
175
     1
 42
1.0
 92
        8
 66
     7
 43
1.0
 76
     1
 77
     6
 78
     2
 67
     7
 79
     5
170
     0
171
     0
290
     0
174
     0
 93
        1
 44
50.0
173
     0
291
     1
 45
0.0
1001
ACAD
1000
AcDbSavedByObjectVersion
1070
     0
  0
VISUALSTYLE
  5
3A
102
{ACAD_REACTORS
330
2A
102
}
102
{ACAD_XDICTIONARY
360
359
102
}
330
2A
100
AcDbVisualStyle
  2
ColorChange
 70
    16
 71
     2
 72
     2
 73
     3
 90
        0
 40
-0.6
 41
-30.0
 62
     5
 63
     8
 74
     1
 91
        4
 64
     7
 65
   257
 75
     1
175
     1
 42
1.0
 92
        8
 66
     8
 43
1.0
 76
     1
 77
     6
 78
     2
 67
     7
 79
     5
170
     0
171
     0
290
     0
174
     0
 93
        1
 44
0.0
173
     0
291
     1
 45
0.0
1001
ACAD
1000
AcDbSavedByObjectVersion
1070
     0
  0
VISUALSTYLE
  5
34
102
{ACAD_REACTORS
330
2A
102
}
102
{ACAD_XDICTIONARY
360
34D
102
}
330
2A
100
AcDbVisualStyle
  2
Conceptual
 70
     9
 71
     3
 72
     2
 73
     0
 90
        0
 40
-0.6
 41
-30.0
 62
     5
 63
     7
 74
     2
 91
        2
 64
     7
 65
   257
 75
     1
175
     1
 42
40.0
 92
        8
 66
     7
 43
1.0
 76
     1
 77
     6
 78
     2
 67
     7
 79
     3
170
     0
171
     0
290
     0
174
     0
 93
        1
 44
0.0
173
     0
291
     0
 45
0.0
1001
ACAD
1000
AcDbSavedByObjectVersion
1070
     0
  0
VISUALSTYLE
  5
35
102
{ACAD_REACTORS
330
2A
102
}
102
{ACAD_XDICTIONARY
360
34F
102
}
330
2A
100
AcDbVisualStyle
  2
Dim
 70
    11
 71
     2
 72
     2
 73
     0
 90
        0
 40
-0.6
 41
-30.0
 62
     5
 63
     7
 74
     1
 91
        4
 64
     7
 65
   257
 75
     1
175
     1
 42
1.0
 92
        8
 66
     7
 43
1.0
 76
     1
 77
     6
 78
     2
 67
     7
 79
     5
170
     0
171
     0
290
     0
174
     0
 93
        1
 44
-50.0
173
     0
291
     1
 45
0.0
1001
ACAD
1000
AcDbSavedByObjectVersion
1070
     0
  0
VISUALSTYLE
  5
39
102
{ACAD_REACTORS
330
2A
102
}
102
{ACAD_XDICTIONARY
360
357
102
}
330
2A
100
AcDbVisualStyle
  2
Facepattern
 70
    15
 71
     2
 72
     2
 73
     0
 90
        0
 40
-0.6
 41
-30.0
 62
     5
 63
     7
 74
     1
 91
        4
 64
     7
 65
   257
 75
     1
175
     1
 42
1.0
 92
        8
 66
     7
 43
1.0
 76
     1
 77
     6
 78
     2
 67
     7
 79
     5
170
     0
171
     0
290
     0
174
     0
 93
        1
 44
0.0
173
     0
291
     1
 45
0.0
1001
ACAD
1000
AcDbSavedByObjectVersion
1070
     0
  0
VISUALSTYLE
  5
2B
102
{ACAD_REACTORS
330
2A
102
}
102
{ACAD_XDICTIONARY
360
33B
102
}
330
2A
100
AcDbVisualStyle
  2
Flat
 70
     0
 71
     2
 72
     1
 73
     1
 90
        2
 40
-0.6
 41
30.0
 62
     5
 63
     7
 74
     0
 91
        4
 64
     7
 65
   257
 75
     1
175
     1
 42
1.0
 92
        8
 66
     7
 43
1.0
 76
     1
 77
     6
 78
     2
 67
     7
 79
     5
170
     0
171
     0
290
     0
174
     0
 93
       13
 44
0.0
173
     0
291
     1
 45
0.0
1001
ACAD
1000
AcDbSavedByObjectVersion
1070
     0
  0
VISUALSTYLE
  5
2C
102
{ACAD_REACTORS
330
2A
102
}
102
{ACAD_XDICTIONARY
360
33D
102
}
330
2A
100
AcDbVisualStyle
  2
FlatWithEdges
 70
     1
 71
     2
 72
     1
 73
     1
 90
        2
 40
-0.6
 41
30.0
 62
     5
 63
     7
 74
     1
 91
        4
 64
     7
 65
   257
 75
     1
175
     1
 42
1.0
 92
        0
 66
   257
 43
1.0
 76
     1
 77
     6
 78
     2
 67
     7
 79
     5
170
     0
171
     0
290
     0
174
     0
 93
       13
 44
0.0
173
     0
291
     1
 45
0.0
1001
ACAD
1000
AcDbSavedByObjectVersion
1070
     0
  0
VISUALSTYLE
  5
2D
102
{ACAD_REACTORS
330
2A
102
}
102
{ACAD_XDICTIONARY
360
33F
102
}
330
2A
100
AcDbVisualStyle
  2
Gouraud
 70
     2
 71
     2
 72
     2
 73
     1
 90
        2
 40
-0.6
 41
30.0
 62
     5
 63
     7
 74
     0
 91
        4
 64
     7
 65
   257
 75
     1
175
     1
 42
1.0
 92
        0
 66
     7
 43
1.0
 76
     1
 77
     6
 78
     2
 67
     7
 79
     5
170
     0
171
     0
290
     0
174
     0
 93
       13
 44
0.0
173
     0
291
     1
 45
0.0
1001
ACAD
1000
AcDbSavedByObjectVersion
1070
     0
  0
VISUALSTYLE
  5
2E
102
{ACAD_REACTORS
330
2A
102
}
102
{ACAD_XDICTIONARY
360
341
102
}
330
2A
100
AcDbVisualStyle
  2
GouraudWithEdges
 70
     3
 71
     2
 72
     2
 73
     1
 90
        2
 40
-0.6
 41
30.0
 62
     5
 63
     7
 74
     1
 91
        4
 64
     7
 65
   257
 75
     1
175
     1
 42
1.0
 92
        0
 66
   257
 43
1.0
 76
     1
 77
     6
 78
     2
 67
     7
 79
     5
170
     0
171
     0
290
     0
174
     0
 93
       13
 44
0.0
173
     0
291
     1
 45
0.0
1001
ACAD
1000
AcDbSavedByObjectVersion
1070
     0
  0
VISUALSTYLE
  5
38
102
{ACAD_REACTORS
330
2A
102
}
102
{ACAD_XDICTIONARY
360
355
102
}
330
2A
100
AcDbVisualStyle
  2
Linepattern
 70
    14
 71
     2
 72
     2
 73
     0
 90
        0
 40
-0.6
 41
-30.0
 62
     5
 63
     7
 74
     1
 91
        4
 64
     7
 65
   257
 75
     7
175
     7
 42
1.0
 92
        8
 66
     7
 43
1.0
 76
     1
 77
     6
 78
     2
 67
     7
 79
     5
170
     0
171
     0
290
     0
174
     0
 93
        1
 44
0.0
173
     0
291
     1
 45
0.0
1001
ACAD
1000
AcDbSavedByObjectVersion
1070
     0
  0
VISUALSTYLE
  5
33
102
{ACAD_REACTORS
330
2A
102
}
102
{ACAD_XDICTIONARY
360
34B
102
}
330
2A
100
AcDbVisualStyle
  2
Realistic
 70
     8
 71
     2
 72
     2
 73
     0
 90
        0
 40
-0.6
 41
-30.0
 62
     5
 63
     7
 74
     1
 91
        0
 64
     7
 65
   257
 75
     1
175
     1
 42
1.0
 92
        8
 66
     8
 43
1.0
 76
     1
 77
     6
 78
     2
 67
     7
 79
     5
170
     0
171
     0
290
     0
174
     0
 93
       13
 44
0.0
173
     0
291
     0
 45
0.0
1001
ACAD
1000
AcDbSavedByObjectVersion
1070
     0
  0
VISUALSTYLE
  5
37
102
{ACAD_REACTORS
330
2A
102
}
102
{ACAD_XDICTIONARY
360
353
102
}
330
2A
100
AcDbVisualStyle
  2
Thicken
 70
    13
 71
     2
 72
     2
 73
     0
 90
        0
 40
-0.6
 41
-30.0
 62
     5
 63
     7
 74
     1
 91
        4
 64
     7
 65
   257
 75
     1
175
     1
 42
1.0
 92
       12
 66
     7
 43
1.0
 76
     1
 77
     6
 78
     2
 67
     7
 79
     5
170
     0
171
     0
290
     0
174
     0
 93
        1
 44
0.0
173
     0
291
     1
 45
0.0
1001
ACAD
1000
AcDbSavedByObjectVersion
1070
     0
  0
DICTIONARYVAR
  5
339
102
{ACAD_REACTORS
330
336
102
}
330
336
100
DictionaryVariables
280
     0
  1
2
  0
DICTIONARYVAR
  5
33A
102
{ACAD_REACTORS
330
336
102
}
330
336
100
DictionaryVariables
280
     0
  1
1
  0
DICTIONARY
  5
35D
330
3D
100
AcDbDictionary
280
     1
281
     1
  3
ACAD_XREC_ROUNDTRIP
360
35E
  0
DICTIONARY
  5
35B
330
3C
100
AcDbDictionary
280
     1
281
     1
  3
ACAD_XREC_ROUNDTRIP
360
35C
  0
DICTIONARY
  5
35F
330
3E
100
AcDbDictionary
280
     1
281
     1
  3
ACAD_XREC_ROUNDTRIP
360
360
  0
DICTIONARY
  5
343
330
2F
100
AcDbDictionary
280
     1
281
     1
  3
ACAD_XREC_ROUNDTRIP
360
344
  0
DICTIONARY
  5
347
330
31
100
AcDbDictionary
280
     1
281
     1
  3
ACAD_XREC_ROUNDTRIP
360
348
  0
DICTIONARY
  5
345
330
30
100
AcDbDictionary
280
     1
281
     1
  3
ACAD_XREC_ROUNDTRIP
360
346
  0
DICTIONARY
  5
349
330
32
100
AcDbDictionary
280
     1
281
     1
  3
ACAD_XREC_ROUNDTRIP
360
34A
  0
DICTIONARY
  5
351
330
36
100
AcDbDictionary
280
     1
281
     1
  3
ACAD_XREC_ROUNDTRIP
360
352
  0
DICTIONARY
  5
359
330
3A
100
AcDbDictionary
280
     1
281
     1
  3
ACAD_XREC_ROUNDTRIP
360
35A
  0
DICTIONARY
  5
34D
330
34
100
AcDbDictionary
280
     1
281
     1
  3
ACAD_XREC_ROUNDTRIP
360
34E
  0
DICTIONARY
  5
34F
330
35
100
AcDbDictionary
280
     1
281
     1
  3
ACAD_XREC_ROUNDTRIP
360
350
  0
DICTIONARY
  5
357
330
39
100
AcDbDictionary
280
     1
281
     1
  3
ACAD_XREC_ROUNDTRIP
360
358
  0
DICTIONARY
  5
33B
330
2B
100
AcDbDictionary
280
     1
281
     1
  3
ACAD_XREC_ROUNDTRIP
360
33C
  0
DICTIONARY
  5
33D
330
2C
100
AcDbDictionary
280
     1
281
     1
  3
ACAD_XREC_ROUNDTRIP
360
33E
  0
DICTIONARY
  5
33F
330
2D
100
AcDbDictionary
280
     1
281
     1
  3
ACAD_XREC_ROUNDTRIP
360
340
  0
DICTIONARY
  5
341
330
2E
100
AcDbDictionary
280
     1
281
     1
  3
ACAD_XREC_ROUNDTRIP
360
342
  0
DICTIONARY
  5
355
330
38
100
AcDbDictionary
280
     1
281
     1
  3
ACAD_XREC_ROUNDTRIP
360
356
  0
DICTIONARY
  5
34B
330
33
100
AcDbDictionary
280
     1
281
     1
  3
ACAD_XREC_ROUNDTRIP
360
34C
  0
DICTIONARY
  5
353
330
37
100
AcDbDictionary
280
     1
281
     1
  3
ACAD_XREC_ROUNDTRIP
360
354
  0
XRECORD
  5
35E
102
{ACAD_REACTORS
330
35D
102
}
330
35D
100
AcDbXrecord
280
     1
102
MATERIAL
148
0.0
149
0.0
149
0.0
 93
        0
 94
      127
282
     0
 72
     1
 77
     1
171
     1
175
     1
179
     1
273
     0
  0
XRECORD
  5
35C
102
{ACAD_REACTORS
330
35B
102
}
330
35B
100
AcDbXrecord
280
     1
102
MATERIAL
148
0.0
149
0.0
149
0.0
 93
        0
 94
      127
282
     0
 72
     1
 77
     1
171
     1
175
     1
179
     1
273
     0
  0
XRECORD
  5
360
102
{ACAD_REACTORS
330
35F
102
}
330
35F
100
AcDbXrecord
280
     1
102
MATERIAL
148
0.0
149
0.0
149
0.0
 93
        0
 94
      127
282
     0
 72
     1
 77
     1
171
     1
175
     1
179
     1
273
     0
  0
XRECORD
  5
344
102
{ACAD_REACTORS
330
343
102
}
330
343
100
AcDbXrecord
280
     1
102
RTVSPropertyOp0
 70
     1
102
RTVSPropertyOp1
 70
     1
102
RTVSPropertyOp2
 70
     1
102
RTVSPropertyOp3
 70
     1
102
RTVSPropertyOp4
 70
     1
102
RTVSPropertyOp5
 70
     1
102
RTVSPropertyOp6
 70
     1
102
RTVSPropertyOp7
 70
     1
102
RTVSPropertyOp8
 70
     1
102
RTVSPropertyOp9
 70
     1
102
RTVSPropertyOp10
 70
     1
102
RTVSPropertyOp11
 70
     1
102
RTVSPropertyOp12
 70
     1
102
RTVSPropertyOp13
 70
     1
102
RTVSPropertyOp14
 70
     1
102
RTVSPropertyOp15
 70
     1
102
RTVSPropertyOp16
 70
     1
102
RTVSPropertyOp17
 70
     1
102
RTVSPropertyOp18
 70
     1
102
RTVSPropertyOp19
 70
     1
102
RTVSPropertyOp20
 70
     1
102
RTVSPropertyOp21
 70
     1
102
RTVSPropertyOp22
 70
     1
102
RTVSPropertyOp23
 70
     1
102
RTVSPropertyOp24
 70
     1
102
RTVSPropertyOp25
 70
     1
102
RTVSPropertyOp26
 70
     1
102
RTVSPropertyOp27
 70
     1
102
RTVSPropertyOp28
 70
     1
102
RTVSPropertyOp29
 70
     1
102
RTVSPropertyOp30
 70
     1
102
RTVSPropertyOp31
 70
     1
102
RTVSPropertyOp32
 70
     1
  0
XRECORD
  5
348
102
{ACAD_REACTORS
330
347
102
}
330
347
100
AcDbXrecord
280
     1
102
RTVSPropertyOp0
 70
     1
102
RTVSPropertyOp1
 70
     1
102
RTVSPropertyOp2
 70
     1
102
RTVSPropertyOp3
 70
     1
102
RTVSPropertyOp4
 70
     1
102
RTVSPropertyOp5
 70
     1
102
RTVSPropertyOp6
 70
     1
102
RTVSPropertyOp7
 70
     1
102
RTVSPropertyOp8
 70
     1
102
RTVSPropertyOp9
 70
     1
102
RTVSPropertyOp10
 70
     1
102
RTVSPropertyOp11
 70
     1
102
RTVSPropertyOp12
 70
     1
102
RTVSPropertyOp13
 70
     1
102
RTVSPropertyOp14
 70
     1
102
RTVSPropertyOp15
 70
     1
102
RTVSPropertyOp16
 70
     1
102
RTVSPropertyOp17
 70
     1
102
RTVSPropertyOp18
 70
     1
102
RTVSPropertyOp19
 70
     1
102
RTVSPropertyOp20
 70
     1
102
RTVSPropertyOp21
 70
     1
102
RTVSPropertyOp22
 70
     1
102
RTVSPropertyOp23
 70
     1
102
RTVSPropertyOp24
 70
     1
102
RTVSPropertyOp25
 70
     1
102
RTVSPropertyOp26
 70
     1
102
RTVSPropertyOp27
 70
     1
102
RTVSPropertyOp28
 70
     1
102
RTVSPropertyOp29
 70
     1
102
RTVSPropertyOp30
 70
     1
102
RTVSPropertyOp31
 70
     1
102
RTVSPropertyOp32
 70
     1
  0
XRECORD
  5
346
102
{ACAD_REACTORS
330
345
102
}
330
345
100
AcDbXrecord
280
     1
102
RTVSPropertyOp0
 70
     1
102
RTVSPropertyOp1
 70
     1
102
RTVSPropertyOp2
 70
     1
102
RTVSPropertyOp3
 70
     1
102
RTVSPropertyOp4
 70
     1
102
RTVSPropertyOp5
 70
     1
102
RTVSPropertyOp6
 70
     1
102
RTVSPropertyOp7
 70
     1
102
RTVSPropertyOp8
 70
     1
102
RTVSPropertyOp9
 70
     1
102
RTVSPropertyOp10
 70
     1
102
RTVSPropertyOp11
 70
     1
102
RTVSPropertyOp12
 70
     1
102
RTVSPropertyOp13
 70
     1
102
RTVSPropertyOp14
 70
     1
102
RTVSPropertyOp15
 70
     1
102
RTVSPropertyOp16
 70
     1
102
RTVSPropertyOp17
 70
     1
102
RTVSPropertyOp18
 70
     1
102
RTVSPropertyOp19
 70
     1
102
RTVSPropertyOp20
 70
     1
102
RTVSPropertyOp21
 70
     1
102
RTVSPropertyOp22
 70
     1
102
RTVSPropertyOp23
 70
     1
102
RTVSPropertyOp24
 70
     1
102
RTVSPropertyOp25
 70
     1
102
RTVSPropertyOp26
 70
     1
102
RTVSPropertyOp27
 70
     1
102
RTVSPropertyOp28
 70
     1
102
RTVSPropertyOp29
 70
     1
102
RTVSPropertyOp30
 70
     1
102
RTVSPropertyOp31
 70
     1
102
RTVSPropertyOp32
 70
     1
  0
XRECORD
  5
34A
102
{ACAD_REACTORS
330
349
102
}
330
349
100
AcDbXrecord
280
     1
102
RTVSPropertyOp0
 70
     1
102
RTVSPropertyOp1
 70
     1
102
RTVSPropertyOp2
 70
     1
102
RTVSPropertyOp3
 70
     1
102
RTVSPropertyOp4
 70
     1
102
RTVSPropertyOp5
 70
     1
102
RTVSPropertyOp6
 70
     1
102
RTVSPropertyOp7
 70
     1
102
RTVSPropertyOp8
 70
     1
102
RTVSPropertyOp9
 70
     1
102
RTVSPropertyOp10
 70
     1
102
RTVSPropertyOp11
 70
     1
102
RTVSPropertyOp12
 70
     1
102
RTVSPropertyOp13
 70
     1
102
RTVSPropertyOp14
 70
     1
102
RTVSPropertyOp15
 70
     1
102
RTVSPropertyOp16
 70
     1
102
RTVSPropertyOp17
 70
     1
102
RTVSPropertyOp18
 70
     1
102
RTVSPropertyOp19
 70
     1
102
RTVSPropertyOp20
 70
     1
102
RTVSPropertyOp21
 70
     1
102
RTVSPropertyOp22
 70
     1
102
RTVSPropertyOp23
 70
     1
102
RTVSPropertyOp24
 70
     1
102
RTVSPropertyOp25
 70
     1
102
RTVSPropertyOp26
 70
     1
102
RTVSPropertyOp27
 70
     1
102
RTVSPropertyOp28
 70
     1
102
RTVSPropertyOp29
 70
     1
102
RTVSPropertyOp30
 70
     1
102
RTVSPropertyOp31
 70
     1
102
RTVSPropertyOp32
 70
     1
  0
XRECORD
  5
352
102
{ACAD_REACTORS
330
351
102
}
330
351
100
AcDbXrecord
280
     1
102
RTVSPropertyOp0
 70
     1
102
RTVSPropertyOp1
 70
     1
102
RTVSPropertyOp2
 70
     1
102
RTVSPropertyOp3
 70
     1
102
RTVSPropertyOp4
 70
     1
102
RTVSPropertyOp5
 70
     1
102
RTVSPropertyOp6
 70
     1
102
RTVSPropertyOp7
 70
     1
102
RTVSPropertyOp8
 70
     1
102
RTVSPropertyOp9
 70
     1
102
RTVSPropertyOp10
 70
     1
102
RTVSPropertyOp11
 70
     1
102
RTVSPropertyOp12
 70
     1
102
RTVSPropertyOp13
 70
     1
102
RTVSPropertyOp14
 70
     1
102
RTVSPropertyOp15
 70
     1
102
RTVSPropertyOp16
 70
     1
102
RTVSPropertyOp17
 70
     1
102
RTVSPropertyOp18
 70
     1
102
RTVSPropertyOp19
 70
     1
102
RTVSPropertyOp20
 70
     1
102
RTVSPropertyOp21
 70
     1
102
RTVSPropertyOp22
 70
     1
102
RTVSPropertyOp23
 70
     1
102
RTVSPropertyOp24
 70
     1
102
RTVSPropertyOp25
 70
     1
102
RTVSPropertyOp26
 70
     1
102
RTVSPropertyOp27
 70
     1
102
RTVSPropertyOp28
 70
     1
102
RTVSPropertyOp29
 70
     1
102
RTVSPropertyOp30
 70
     1
102
RTVSPropertyOp31
 70
     1
102
RTVSPropertyOp32
 70
     1
  0
XRECORD
  5
35A
102
{ACAD_REACTORS
330
359
102
}
330
359
100
AcDbXrecord
280
     1
102
RTVSPropertyOp0
 70
     1
102
RTVSPropertyOp1
 70
     1
102
RTVSPropertyOp2
 70
     1
102
RTVSPropertyOp3
 70
     1
102
RTVSPropertyOp4
 70
     1
102
RTVSPropertyOp5
 70
     1
102
RTVSPropertyOp6
 70
     1
102
RTVSPropertyOp7
 70
     1
102
RTVSPropertyOp8
 70
     1
102
RTVSPropertyOp9
 70
     1
102
RTVSPropertyOp10
 70
     1
102
RTVSPropertyOp11
 70
     1
102
RTVSPropertyOp12
 70
     1
102
RTVSPropertyOp13
 70
     1
102
RTVSPropertyOp14
 70
     1
102
RTVSPropertyOp15
 70
     1
102
RTVSPropertyOp16
 70
     1
102
RTVSPropertyOp17
 70
     1
102
RTVSPropertyOp18
 70
     1
102
RTVSPropertyOp19
 70
     1
102
RTVSPropertyOp20
 70
     1
102
RTVSPropertyOp21
 70
     1
102
RTVSPropertyOp22
 70
     1
102
RTVSPropertyOp23
 70
     1
102
RTVSPropertyOp24
 70
     1
102
RTVSPropertyOp25
 70
     1
102
RTVSPropertyOp26
 70
     1
102
RTVSPropertyOp27
 70
     1
102
RTVSPropertyOp28
 70
     1
102
RTVSPropertyOp29
 70
     1
102
RTVSPropertyOp30
 70
     1
102
RTVSPropertyOp31
 70
     1
102
RTVSPropertyOp32
 70
     1
  0
XRECORD
  5
34E
102
{ACAD_REACTORS
330
34D
102
}
330
34D
100
AcDbXrecord
280
     1
102
RTVSPropertyOp0
 70
     1
102
RTVSPropertyOp1
 70
     1
102
RTVSPropertyOp2
 70
     1
102
RTVSPropertyOp3
 70
     1
102
RTVSPropertyOp4
 70
     1
102
RTVSPropertyOp5
 70
     1
102
RTVSPropertyOp6
 70
     1
102
RTVSPropertyOp7
 70
     1
102
RTVSPropertyOp8
 70
     1
102
RTVSPropertyOp9
 70
     1
102
RTVSPropertyOp10
 70
     1
102
RTVSPropertyOp11
 70
     1
102
RTVSPropertyOp12
 70
     1
102
RTVSPropertyOp13
 70
     1
102
RTVSPropertyOp14
 70
     1
102
RTVSPropertyOp15
 70
     1
102
RTVSPropertyOp16
 70
     1
102
RTVSPropertyOp17
 70
     1
102
RTVSPropertyOp18
 70
     1
102
RTVSPropertyOp19
 70
     1
102
RTVSPropertyOp20
 70
     1
102
RTVSPropertyOp21
 70
     1
102
RTVSPropertyOp22
 70
     1
102
RTVSPropertyOp23
 70
     1
102
RTVSPropertyOp24
 70
     1
102
RTVSPropertyOp25
 70
     1
102
RTVSPropertyOp26
 70
     1
102
RTVSPropertyOp27
 70
     1
102
RTVSPropertyOp28
 70
     1
102
RTVSPropertyOp29
 70
     1
102
RTVSPropertyOp30
 70
     1
102
RTVSPropertyOp31
 70
     1
102
RTVSPropertyOp32
 70
     1
  0
XRECORD
  5
350
102
{ACAD_REACTORS
330
34F
102
}
330
34F
100
AcDbXrecord
280
     1
102
RTVSPropertyOp0
 70
     1
102
RTVSPropertyOp1
 70
     1
102
RTVSPropertyOp2
 70
     1
102
RTVSPropertyOp3
 70
     1
102
RTVSPropertyOp4
 70
     1
102
RTVSPropertyOp5
 70
     1
102
RTVSPropertyOp6
 70
     1
102
RTVSPropertyOp7
 70
     1
102
RTVSPropertyOp8
 70
     1
102
RTVSPropertyOp9
 70
     1
102
RTVSPropertyOp10
 70
     1
102
RTVSPropertyOp11
 70
     1
102
RTVSPropertyOp12
 70
     1
102
RTVSPropertyOp13
 70
     1
102
RTVSPropertyOp14
 70
     1
102
RTVSPropertyOp15
 70
     1
102
RTVSPropertyOp16
 70
     1
102
RTVSPropertyOp17
 70
     1
102
RTVSPropertyOp18
 70
     1
102
RTVSPropertyOp19
 70
     1
102
RTVSPropertyOp20
 70
     1
102
RTVSPropertyOp21
 70
     1
102
RTVSPropertyOp22
 70
     1
102
RTVSPropertyOp23
 70
     1
102
RTVSPropertyOp24
 70
     1
102
RTVSPropertyOp25
 70
     1
102
RTVSPropertyOp26
 70
     1
102
RTVSPropertyOp27
 70
     1
102
RTVSPropertyOp28
 70
     1
102
RTVSPropertyOp29
 70
     1
102
RTVSPropertyOp30
 70
     1
102
RTVSPropertyOp31
 70
     1
102
RTVSPropertyOp32
 70
     1
  0
XRECORD
  5
358
102
{ACAD_REACTORS
330
357
102
}
330
357
100
AcDbXrecord
280
     1
102
RTVSPropertyOp0
 70
     1
102
RTVSPropertyOp1
 70
     1
102
RTVSPropertyOp2
 70
     1
102
RTVSPropertyOp3
 70
     1
102
RTVSPropertyOp4
 70
     1
102
RTVSPropertyOp5
 70
     1
102
RTVSPropertyOp6
 70
     1
102
RTVSPropertyOp7
 70
     1
102
RTVSPropertyOp8
 70
     1
102
RTVSPropertyOp9
 70
     1
102
RTVSPropertyOp10
 70
     1
102
RTVSPropertyOp11
 70
     1
102
RTVSPropertyOp12
 70
     1
102
RTVSPropertyOp13
 70
     1
102
RTVSPropertyOp14
 70
     1
102
RTVSPropertyOp15
 70
     1
102
RTVSPropertyOp16
 70
     1
102
RTVSPropertyOp17
 70
     1
102
RTVSPropertyOp18
 70
     1
102
RTVSPropertyOp19
 70
     1
102
RTVSPropertyOp20
 70
     1
102
RTVSPropertyOp21
 70
     1
102
RTVSPropertyOp22
 70
     1
102
RTVSPropertyOp23
 70
     1
102
RTVSPropertyOp24
 70
     1
102
RTVSPropertyOp25
 70
     1
102
RTVSPropertyOp26
 70
     1
102
RTVSPropertyOp27
 70
     1
102
RTVSPropertyOp28
 70
     1
102
RTVSPropertyOp29
 70
     1
102
RTVSPropertyOp30
 70
     1
102
RTVSPropertyOp31
 70
     1
102
RTVSPropertyOp32
 70
     1
  0
XRECORD
  5
33C
102
{ACAD_REACTORS
330
33B
102
}
330
33B
100
AcDbXrecord
280
     1
102
RTVSPropertyOp0
 70
     1
102
RTVSPropertyOp1
 70
     1
102
RTVSPropertyOp2
 70
     1
102
RTVSPropertyOp3
 70
     1
102
RTVSPropertyOp4
 70
     1
102
RTVSPropertyOp5
 70
     1
102
RTVSPropertyOp6
 70
     1
102
RTVSPropertyOp7
 70
     1
102
RTVSPropertyOp8
 70
     1
102
RTVSPropertyOp9
 70
     1
102
RTVSPropertyOp10
 70
     1
102
RTVSPropertyOp11
 70
     1
102
RTVSPropertyOp12
 70
     1
102
RTVSPropertyOp13
 70
     1
102
RTVSPropertyOp14
 70
     1
102
RTVSPropertyOp15
 70
     1
102
RTVSPropertyOp16
 70
     1
102
RTVSPropertyOp17
 70
     1
102
RTVSPropertyOp18
 70
     1
102
RTVSPropertyOp19
 70
     1
102
RTVSPropertyOp20
 70
     1
102
RTVSPropertyOp21
 70
     1
102
RTVSPropertyOp22
 70
     1
102
RTVSPropertyOp23
 70
     1
102
RTVSPropertyOp24
 70
     1
102
RTVSPropertyOp25
 70
     1
102
RTVSPropertyOp26
 70
     1
102
RTVSPropertyOp27
 70
     1
102
RTVSPropertyOp28
 70
     1
102
RTVSPropertyOp29
 70
     1
102
RTVSPropertyOp30
 70
     1
102
RTVSPropertyOp31
 70
     1
102
RTVSPropertyOp32
 70
     1
  0
XRECORD
  5
33E
102
{ACAD_REACTORS
330
33D
102
}
330
33D
100
AcDbXrecord
280
     1
102
RTVSPropertyOp0
 70
     1
102
RTVSPropertyOp1
 70
     1
102
RTVSPropertyOp2
 70
     1
102
RTVSPropertyOp3
 70
     1
102
RTVSPropertyOp4
 70
     1
102
RTVSPropertyOp5
 70
     1
102
RTVSPropertyOp6
 70
     1
102
RTVSPropertyOp7
 70
     1
102
RTVSPropertyOp8
 70
     1
102
RTVSPropertyOp9
 70
     1
102
RTVSPropertyOp10
 70
     1
102
RTVSPropertyOp11
 70
     1
102
RTVSPropertyOp12
 70
     1
102
RTVSPropertyOp13
 70
     1
102
RTVSPropertyOp14
 70
     1
102
RTVSPropertyOp15
 70
     1
102
RTVSPropertyOp16
 70
     1
102
RTVSPropertyOp17
 70
     1
102
RTVSPropertyOp18
 70
     1
102
RTVSPropertyOp19
 70
     1
102
RTVSPropertyOp20
 70
     1
102
RTVSPropertyOp21
 70
     1
102
RTVSPropertyOp22
 70
     1
102
RTVSPropertyOp23
 70
     1
102
RTVSPropertyOp24
 70
     1
102
RTVSPropertyOp25
 70
     1
102
RTVSPropertyOp26
 70
     1
102
RTVSPropertyOp27
 70
     1
102
RTVSPropertyOp28
 70
     1
102
RTVSPropertyOp29
 70
     1
102
RTVSPropertyOp30
 70
     1
102
RTVSPropertyOp31
 70
     1
102
RTVSPropertyOp32
 70
     1
  0
XRECORD
  5
340
102
{ACAD_REACTORS
330
33F
102
}
330
33F
100
AcDbXrecord
280
     1
102
RTVSPropertyOp0
 70
     1
102
RTVSPropertyOp1
 70
     1
102
RTVSPropertyOp2
 70
     1
102
RTVSPropertyOp3
 70
     1
102
RTVSPropertyOp4
 70
     1
102
RTVSPropertyOp5
 70
     1
102
RTVSPropertyOp6
 70
     1
102
RTVSPropertyOp7
 70
     1
102
RTVSPropertyOp8
 70
     1
102
RTVSPropertyOp9
 70
     1
102
RTVSPropertyOp10
 70
     1
102
RTVSPropertyOp11
 70
     1
102
RTVSPropertyOp12
 70
     1
102
RTVSPropertyOp13
 70
     1
102
RTVSPropertyOp14
 70
     1
102
RTVSPropertyOp15
 70
     1
102
RTVSPropertyOp16
 70
     1
102
RTVSPropertyOp17
 70
     1
102
RTVSPropertyOp18
 70
     1
102
RTVSPropertyOp19
 70
     1
102
RTVSPropertyOp20
 70
     1
102
RTVSPropertyOp21
 70
     1
102
RTVSPropertyOp22
 70
     1
102
RTVSPropertyOp23
 70
     1
102
RTVSPropertyOp24
 70
     1
102
RTVSPropertyOp25
 70
     1
102
RTVSPropertyOp26
 70
     1
102
RTVSPropertyOp27
 70
     1
102
RTVSPropertyOp28
 70
     1
102
RTVSPropertyOp29
 70
     1
102
RTVSPropertyOp30
 70
     1
102
RTVSPropertyOp31
 70
     1
102
RTVSPropertyOp32
 70
     1
  0
XRECORD
  5
342
102
{ACAD_REACTORS
330
341
102
}
330
341
100
AcDbXrecord
280
     1
102
RTVSPropertyOp0
 70
     1
102
RTVSPropertyOp1
 70
     1
102
RTVSPropertyOp2
 70
     1
102
RTVSPropertyOp3
 70
     1
102
RTVSPropertyOp4
 70
     1
102
RTVSPropertyOp5
 70
     1
102
RTVSPropertyOp6
 70
     1
102
RTVSPropertyOp7
 70
     1
102
RTVSPropertyOp8
 70
     1
102
RTVSPropertyOp9
 70
     1
102
RTVSPropertyOp10
 70
     1
102
RTVSPropertyOp11
 70
     1
102
RTVSPropertyOp12
 70
     1
102
RTVSPropertyOp13
 70
     1
102
RTVSPropertyOp14
 70
     1
102
RTVSPropertyOp15
 70
     1
102
RTVSPropertyOp16
 70
     1
102
RTVSPropertyOp17
 70
     1
102
RTVSPropertyOp18
 70
     1
102
RTVSPropertyOp19
 70
     1
102
RTVSPropertyOp20
 70
     1
102
RTVSPropertyOp21
 70
     1
102
RTVSPropertyOp22
 70
     1
102
RTVSPropertyOp23
 70
     1
102
RTVSPropertyOp24
 70
     1
102
RTVSPropertyOp25
 70
     1
102
RTVSPropertyOp26
 70
     1
102
RTVSPropertyOp27
 70
     1
102
RTVSPropertyOp28
 70
     1
102
RTVSPropertyOp29
 70
     1
102
RTVSPropertyOp30
 70
     1
102
RTVSPropertyOp31
 70
     1
102
RTVSPropertyOp32
 70
     1
  0
XRECORD
  5
356
102
{ACAD_REACTORS
330
355
102
}
330
355
100
AcDbXrecord
280
     1
102
RTVSPropertyOp0
 70
     1
102
RTVSPropertyOp1
 70
     1
102
RTVSPropertyOp2
 70
     1
102
RTVSPropertyOp3
 70
     1
102
RTVSPropertyOp4
 70
     1
102
RTVSPropertyOp5
 70
     1
102
RTVSPropertyOp6
 70
     1
102
RTVSPropertyOp7
 70
     1
102
RTVSPropertyOp8
 70
     1
102
RTVSPropertyOp9
 70
     1
102
RTVSPropertyOp10
 70
     1
102
RTVSPropertyOp11
 70
     1
102
RTVSPropertyOp12
 70
     1
102
RTVSPropertyOp13
 70
     1
102
RTVSPropertyOp14
 70
     1
102
RTVSPropertyOp15
 70
     1
102
RTVSPropertyOp16
 70
     1
102
RTVSPropertyOp17
 70
     1
102
RTVSPropertyOp18
 70
     1
102
RTVSPropertyOp19
 70
     1
102
RTVSPropertyOp20
 70
     1
102
RTVSPropertyOp21
 70
     1
102
RTVSPropertyOp22
 70
     1
102
RTVSPropertyOp23
 70
     1
102
RTVSPropertyOp24
 70
     1
102
RTVSPropertyOp25
 70
     1
102
RTVSPropertyOp26
 70
     1
102
RTVSPropertyOp27
 70
     1
102
RTVSPropertyOp28
 70
     1
102
RTVSPropertyOp29
 70
     1
102
RTVSPropertyOp30
 70
     1
102
RTVSPropertyOp31
 70
     1
102
RTVSPropertyOp32
 70
     1
  0
XRECORD
  5
34C
102
{ACAD_REACTORS
330
34B
102
}
330
34B
100
AcDbXrecord
280
     1
102
RTVSPropertyOp0
 70
     1
102
RTVSPropertyOp1
 70
     1
102
RTVSPropertyOp2
 70
     1
102
RTVSPropertyOp3
 70
     1
102
RTVSPropertyOp4
 70
     1
102
RTVSPropertyOp5
 70
     1
102
RTVSPropertyOp6
 70
     1
102
RTVSPropertyOp7
 70
     1
102
RTVSPropertyOp8
 70
     1
102
RTVSPropertyOp9
 70
     1
102
RTVSPropertyOp10
 70
     1
102
RTVSPropertyOp11
 70
     1
102
RTVSPropertyOp12
 70
     1
102
RTVSPropertyOp13
 70
     1
102
RTVSPropertyOp14
 70
     1
102
RTVSPropertyOp15
 70
     1
102
RTVSPropertyOp16
 70
     1
102
RTVSPropertyOp17
 70
     1
102
RTVSPropertyOp18
 70
     1
102
RTVSPropertyOp19
 70
     1
102
RTVSPropertyOp20
 70
     1
102
RTVSPropertyOp21
 70
     1
102
RTVSPropertyOp22
 70
     1
102
RTVSPropertyOp23
 70
     1
102
RTVSPropertyOp24
 70
     1
102
RTVSPropertyOp25
 70
     1
102
RTVSPropertyOp26
 70
     1
102
RTVSPropertyOp27
 70
     1
102
RTVSPropertyOp28
 70
     1
102
RTVSPropertyOp29
 70
     1
102
RTVSPropertyOp30
 70
     1
102
RTVSPropertyOp31
 70
     1
102
RTVSPropertyOp32
 70
     1
  0
XRECORD
  5
354
102
{ACAD_REACTORS
330
353
102
}
330
353
100
AcDbXrecord
280
     1
102
RTVSPropertyOp0
 70
     1
102
RTVSPropertyOp1
 70
     1
102
RTVSPropertyOp2
 70
     1
102
RTVSPropertyOp3
 70
     1
102
RTVSPropertyOp4
 70
     1
102
RTVSPropertyOp5
 70
     1
102
RTVSPropertyOp6
 70
     1
102
RTVSPropertyOp7
 70
     1
102
RTVSPropertyOp8
 70
     1
102
RTVSPropertyOp9
 70
     1
102
RTVSPropertyOp10
 70
     1
102
RTVSPropertyOp11
 70
     1
102
RTVSPropertyOp12
 70
     1
102
RTVSPropertyOp13
 70
     1
102
RTVSPropertyOp14
 70
     1
102
RTVSPropertyOp15
 70
     1
102
RTVSPropertyOp16
 70
     1
102
RTVSPropertyOp17
 70
     1
102
RTVSPropertyOp18
 70
     1
102
RTVSPropertyOp19
 70
     1
102
RTVSPropertyOp20
 70
     1
102
RTVSPropertyOp21
 70
     1
102
RTVSPropertyOp22
 70
     1
102
RTVSPropertyOp23
 70
     1
102
RTVSPropertyOp24
 70
     1
102
RTVSPropertyOp25
 70
     1
102
RTVSPropertyOp26
 70
     1
102
RTVSPropertyOp27
 70
     1
102
RTVSPropertyOp28
 70
     1
102
RTVSPropertyOp29
 70
     1
102
RTVSPropertyOp30
 70
     1
102
RTVSPropertyOp31
 70
     1
102
RTVSPropertyOp32
 70
     1
  0
ENDSEC
  0
EOF
