  0
SECTION
  2
HEADER
  9
$ACADVER
  1
AC1015
  9
$ACADMAINTVER
 70
     6
  9
$DWGCODEPAGE
  3
DOS932
  9
$INSBASE
 10
0.0
 20
0.0
 30
0.0
  9
$EXTMIN
 10
0.0
 20
0.0
 30
0.0
  9
$EXTMAX
 10
315.0
 20
445.5
 30
0.0
  9
$LIMMIN
 10
0.0
 20
0.0
  9
$LIMMAX
 10
12.0
 20
9.0
  9
$ORTHOMODE
 70
     0
  9
$REGENMODE
 70
     1
  9
$FILLMODE
 70
     1
  9
$QTEXTMODE
 70
     0
  9
$MIRRTEXT
 70
     1
  9
$LTSCALE
 40
1.0
  9
$ATTMODE
 70
     1
  9
$TEXTSIZE
 40
0.2
  9
$TRACEWID
 40
0.05
  9
$TEXTSTYLE
  7
Standard
  9
$CLAYER
  8
0
  9
$CELTYPE
  6
ByLayer
  9
$CECOLOR
 62
   256
  9
$CELTSCALE
 40
1.0
  9
$DISPSILH
 70
     0
  9
$DIMSCALE
 40
1.0
  9
$DIMASZ
 40
0.18
  9
$DIMEXO
 40
0.0625
  9
$DIMDLI
 40
0.38
  9
$DIMRND
 40
0.0
  9
$DIMDLE
 40
0.0
  9
$DIMEXE
 40
0.18
  9
$DIMTP
 40
0.0
  9
$DIMTM
 40
0.0
  9
$DIMTXT
 40
0.18
  9
$DIMCEN
 40
0.09
  9
$DIMTSZ
 40
0.0
  9
$DIMTOL
 70
     0
  9
$DIMLIM
 70
     0
  9
$DIMTIH
 70
     1
  9
$DIMTOH
 70
     1
  9
$DIMSE1
 70
     0
  9
$DIMSE2
 70
     0
  9
$DIMTAD
 70
     0
  9
$DIMZIN
 70
     0
  9
$DIMBLK
  1

  9
$DIMASO
 70
     1
  9
$DIMSHO
 70
     1
  9
$DIMPOST
  1

  9
$DIMAPOST
  1

  9
$DIMALT
 70
     0
  9
$DIMALTD
 70
     2
  9
$DIMALTF
 40
25.4
  9
$DIMLFAC
 40
1.0
  9
$DIMTOFL
 70
     0
  9
$DIMTVP
 40
0.0
  9
$DIMTIX
 70
     0
  9
$DIMSOXD
 70
     0
  9
$DIMSAH
 70
     0
  9
$DIMBLK1
  1

  9
$DIMBLK2
  1

  9
$DIMSTYLE
  2
Standard
  9
$DIMCLRD
 70
     0
  9
$DIMCLRE
 70
     0
  9
$DIMCLRT
 70
     0
  9
$DIMTFAC
 40
1.0
  9
$DIMGAP
 40
0.09
  9
$DIMJUST
 70
     0
  9
$DIMSD1
 70
     0
  9
$DIMSD2
 70
     0
  9
$DIMTOLJ
 70
     1
  9
$DIMTZIN
 70
     0
  9
$DIMALTZ
 70
     0
  9
$DIMALTTZ
 70
     0
  9
$DIMUPT
 70
     0
  9
$DIMDEC
 70
     4
  9
$DIMTDEC
 70
     4
  9
$DIMALTU
 70
     2
  9
$DIMALTTD
 70
     2
  9
$DIMTXSTY
  7
Standard
  9
$DIMAUNIT
 70
     0
  9
$DIMADEC
 70
     0
  9
$DIMALTRND
 40
0.0
  9
$DIMAZIN
 70
     0
  9
$DIMDSEP
 70
    46
  9
$DIMATFIT
 70
     3
  9
$DIMFRAC
 70
     0
  9
$DIMLDRBLK
  1

  9
$DIMLUNIT
 70
     2
  9
$DIMLWD
 70
    -2
  9
$DIMLWE
 70
    -2
  9
$DIMTMOVE
 70
     0
  9
$LUNITS
 70
     2
  9
$LUPREC
 70
     4
  9
$SKETCHINC
 40
0.1
  9
$FILLETRAD
 40
0.5
  9
$AUNITS
 70
     0
  9
$AUPREC
 70
     0
  9
$MENU
  1
.
  9
$ELEVATION
 40
0.0
  9
$PELEVATION
 40
0.0
  9
$THICKNESS
 40
0.0
  9
$LIMCHECK
 70
     0
  9
$CHAMFERA
 40
0.5
  9
$CHAMFERB
 40
0.5
  9
$CHAMFERC
 40
1.0
  9
$CHAMFERD
 40
0.0
  9
$SKPOLY
 70
     0
  9
$TDCREATE
 40
2456143.66752441
  9
$TDUCREATE
 40
2456143.29252441
  9
$TDUPDATE
 40
2456143.667524421
  9
$TDUUPDATE
 40
2456143.292524421
  9
$TDINDWG
 40
0.0000000116
  9
$TDUSRTIMER
 40
0.0000000116
  9
$USRTIMER
 70
     1
  9
$ANGBASE
 50
0.0
  9
$ANGDIR
 70
     0
  9
$PDMODE
 70
     0
  9
$PDSIZE
 40
0.0
  9
$PLINEWID
 40
0.0
  9
$SPLFRAME
 70
     0
  9
$SPLINETYPE
 70
     6
  9
$SPLINESEGS
 70
     8
  9
$HANDSEED
  5
34C
  9
$SURFTAB1
 70
     6
  9
$SURFTAB2
 70
     6
  9
$SURFTYPE
 70
     6
  9
$SURFU
 70
     6
  9
$SURFV
 70
     6
  9
$UCSBASE
  2

  9
$UCSNAME
  2

  9
$UCSORG
 10
0.0
 20
0.0
 30
0.0
  9
$UCSXDIR
 10
1.0
 20
0.0
 30
0.0
  9
$UCSYDIR
 10
0.0
 20
1.0
 30
0.0
  9
$UCSORTHOREF
  2

  9
$UCSORTHOVIEW
 70
     0
  9
$UCSORGTOP
 10
0.0
 20
0.0
 30
0.0
  9
$UCSORGBOTTOM
 10
0.0
 20
0.0
 30
0.0
  9
$UCSORGLEFT
 10
0.0
 20
0.0
 30
0.0
  9
$UCSORGRIGHT
 10
0.0
 20
0.0
 30
0.0
  9
$UCSORGFRONT
 10
0.0
 20
0.0
 30
0.0
  9
$UCSORGBACK
 10
0.0
 20
0.0
 30
0.0
  9
$PUCSBASE
  2

  9
$PUCSNAME
  2

  9
$PUCSORG
 10
0.0
 20
0.0
 30
0.0
  9
$PUCSXDIR
 10
1.0
 20
0.0
 30
0.0
  9
$PUCSYDIR
 10
0.0
 20
1.0
 30
0.0
  9
$PUCSORTHOREF
  2

  9
$PUCSORTHOVIEW
 70
     0
  9
$PUCSORGTOP
 10
0.0
 20
0.0
 30
0.0
  9
$PUCSORGBOTTOM
 10
0.0
 20
0.0
 30
0.0
  9
$PUCSORGLEFT
 10
0.0
 20
0.0
 30
0.0
  9
$PUCSORGRIGHT
 10
0.0
 20
0.0
 30
0.0
  9
$PUCSORGFRONT
 10
0.0
 20
0.0
 30
0.0
  9
$PUCSORGBACK
 10
0.0
 20
0.0
 30
0.0
  9
$USERI1
 70
     0
  9
$USERI2
 70
     0
  9
$USERI3
 70
     0
  9
$USERI4
 70
     0
  9
$USERI5
 70
     0
  9
$USERR1
 40
13.2
  9
$USERR2
 40
0.0
  9
$USERR3
 40
0.0
  9
$USERR4
 40
0.0
  9
$USERR5
 40
0.0
  9
$WORLDVIEW
 70
     1
  9
$SHADEDGE
 70
     3
  9
$SHADEDIF
 70
    70
  9
$TILEMODE
 70
     1
  9
$MAXACTVP
 70
    64
  9
$PINSBASE
 10
0.0
 20
0.0
 30
0.0
  9
$PLIMCHECK
 70
     0
  9
$PEXTMIN
 10
1.00000000000000E+20
 20
1.00000000000000E+20
 30
1.00000000000000E+20
  9
$PEXTMAX
 10
-1.00000000000000E+20
 20
-1.00000000000000E+20
 30
-1.00000000000000E+20
  9
$PLIMMIN
 10
0.0
 20
0.0
  9
$PLIMMAX
 10
12.0
 20
9.0
  9
$UNITMODE
 70
     0
  9
$VISRETAIN
 70
     1
  9
$PLINEGEN
 70
     0
  9
$PSLTSCALE
 70
     1
  9
$TREEDEPTH
 70
  3020
  9
$CMLSTYLE
  2
Standard
  9
$CMLJUST
 70
     0
  9
$CMLSCALE
 40
1.0
  9
$PROXYGRAPHICS
 70
     1
  9
$MEASUREMENT
 70
     1
  9
$CELWEIGHT
370
    -1
  9
$ENDCAPS
280
     0
  9
$JOINSTYLE
280
     0
  9
$LWDISPLAY
290
     0
  9
$INSUNITS
 70
     1
  9
$HYPERLINKBASE
  1

  9
$STYLESHEET
  1

  9
$XEDIT
290
     1
  9
$CEPSNTYPE
380
     0
  9
$PSTYLEMODE
290
     0
  9
$FINGERPRINTGUID
  2
{FAEB1C30-E019-11D5-929B-00C0DF256EC4}
  9
$VERSIONGUID
  2
{FAEB1C32-E019-11D5-929B-00C0DF256EC4}
  9
$EXTNAMES
290
     1
  9
$PSVPSCALE
 40
0.0
  9
$OLESTARTUP
290
     0
  0
ENDSEC
  0
SECTION
  2
CLASSES
  0
CLASS
  1
ACDBDICTIONARYWDFLT
  2
AcDbDictionaryWithDefault
  3
ObjectDBX Classes
 90
        0
280
     0
281
     0
  0
CLASS
  1
TABLESTYLE
  2
AcDbTableStyle
  3
ObjectDBX Classes
 90
     2047
280
     0
281
     0
  0
CLASS
  1
DICTIONARYVAR
  2
AcDbDictionaryVar
  3
ObjectDBX Classes
 90
        0
280
     0
281
     0
  0
CLASS
  1

  2
exOdDbCircle
  3

 90
        0
280
     0
281
     1
  0
CLASS
  1

  2
exOdDbSpline
  3

 90
        0
280
     0
281
     1
  0
CLASS
  1
ACDBPLACEHOLDER
  2
AcDbPlaceHolder
  3
ObjectDBX Classes
 90
        0
280
     0
281
     0
  0
CLASS
  1
LAYOUT
  2
AcDbLayout
  3
ObjectDBX Classes
 90
        0
280
     0
281
     0
  0
ENDSEC
  0
SECTION
  2
TABLES
  0
TABLE
  2
VPORT
  5
8
330
0
100
AcDbSymbolTable
 70
     2
  0
VPORT
  5
29
330
8
100
AcDbSymbolTableRecord
100
AcDbViewportTableRecord
  2
*Active
 70
     0
 10
0.0
 20
0.0
 11
1.0
 21
1.0
 12
157.5
 22
222.75
 13
0.0
 23
0.0
 14
0.5
 24
0.5
 15
0.5
 25
0.5
 16
0.0
 26
0.0
 36
1.0
 17
0.0
 27
0.0
 37
0.0
 40
490.05
 41
1.60267857142857
 42
50.0
 43
0.0
 44
0.0
 50
0.0
 51
0.0
 71
     0
 72
   100
 73
     1
 74
     3
 75
     0
 76
     0
 77
     0
 78
     0
281
     0
 65
     1
110
0.0
120
0.0
130
0.0
111
1.0
121
0.0
131
0.0
112
0.0
122
1.0
132
0.0
 79
     0
146
0.0
  0
ENDTAB
  0
TABLE
  2
LTYPE
  5
5
330
0
100
AcDbSymbolTable
 70
     8
  0
LTYPE
  5
14
330
5
100
AcDbSymbolTableRecord
100
AcDbLinetypeTableRecord
  2
ByBlock
 70
     0
  3

 72
    65
 73
     0
 40
0.0
  0
LTYPE
  5
15
330
5
100
AcDbSymbolTableRecord
100
AcDbLinetypeTableRecord
  2
ByLayer
 70
     0
  3

 72
    65
 73
     0
 40
0.0
  0
LTYPE
  5
16
330
5
100
AcDbSymbolTableRecord
100
AcDbLinetypeTableRecord
  2
Continuous
 70
     0
  3
Solid line
 72
    65
 73
     0
 40
0.0
  0
LTYPE
  5
2E
330
5
100
AcDbSymbolTableRecord
100
AcDbLinetypeTableRecord
  2
DASHED
 70
     0
  3
Dashed
 72
    65
 73
     2
 40
15.0
 49
7.0
 74
     0
 49
-8.0
 74
     0
  0
LTYPE
  5
2F
330
5
100
AcDbSymbolTableRecord
100
AcDbLinetypeTableRecord
  2
DOTTED
 70
     0
  3
Dotted
 72
    65
 73
     2
 40
1.0
 49
0.0
 74
     0
 49
-1.0
 74
     0
  0
LTYPE
  5
30
330
5
100
AcDbSymbolTableRecord
100
AcDbLinetypeTableRecord
  2
DOT_CENTER
 70
     0
  3
Dot_Center
 72
    65
 73
     4
 40
14.0
 49
12.0
 74
     0
 49
-1.0
 74
     0
 49
0.0
 74
     0
 49
-1.0
 74
     0
  0
LTYPE
  5
31
330
5
100
AcDbSymbolTableRecord
100
AcDbLinetypeTableRecord
  2
LONG_DASHED
 70
     0
  3
Long_Dashed
 72
    65
 73
     2
 40
15.0
 49
10.0
 74
     0
 49
-5.0
 74
     0
  0
LTYPE
  5
32
330
5
100
AcDbSymbolTableRecord
100
AcDbLinetypeTableRecord
  2
DASH_CENTER
 70
     0
  3
Dash_Center
 72
    65
 73
     4
 40
14.0
 49
11.0
 74
     0
 49
-1.0
 74
     0
 49
1.0
 74
     0
 49
-1.0
 74
     0
  0
LTYPE
  5
33
330
5
100
AcDbSymbolTableRecord
100
AcDbLinetypeTableRecord
  2
PHANTOM
 70
     0
  3
Phantom
 72
    65
 73
     6
 40
13.0
 49
10.0
 74
     0
 49
-1.0
 74
     0
 49
0.0
 74
     0
 49
-1.0
 74
     0
 49
0.0
 74
     0
 49
-1.0
 74
     0
  0
LTYPE
  5
34
330
5
100
AcDbSymbolTableRecord
100
AcDbLinetypeTableRecord
  2
CENTER_DASH_DASH
 70
     0
  3
Center_Dash_Dash
 72
    65
 73
     6
 40
14.0
 49
9.0
 74
     0
 49
-1.0
 74
     0
 49
1.0
 74
     0
 49
-1.0
 74
     0
 49
1.0
 74
     0
 49
-1.0
 74
     0
  0
ENDTAB
  0
TABLE
  2
LAYER
  5
2
330
0
100
AcDbSymbolTable
 70
     2
  0
LAYER
  5
10
330
2
100
AcDbSymbolTableRecord
100
AcDbLayerTableRecord
  2
0
 70
     0
 62
     7
  6
Continuous
370
    -3
390
F
  0
LAYER
  5
35
330
2
100
AcDbSymbolTableRecord
100
AcDbLayerTableRecord
  2
1
 70
     0
 62
     7
  6
Continuous
370
    -3
390
F
  0
ENDTAB
  0
TABLE
  2
STYLE
  5
3
330
0
100
AcDbSymbolTable
 70
     3
  0
STYLE
  5
11
330
3
100
AcDbSymbolTableRecord
100
AcDbTextStyleTableRecord
  2
Standard
 70
     0
 40
0.0
 41
1.0
 50
0.0
 71
     0
 42
0.2
  3
txt
  4

  0
STYLE
  5
B1
330
3
100
AcDbSymbolTableRecord
100
AcDbTextStyleTableRecord
  2
CONVERTER_1
 70
     0
 40
0.0
 41
0.89
 50
0.0
 71
     0
 42
0.2
  3
msmincho.ttc
  4

1001
ACAD
1000
MS Mincho
1071
    32785
  0
STYLE
  5
2E9
330
3
100
AcDbSymbolTableRecord
100
AcDbTextStyleTableRecord
  2
CONVERTER_2
 70
     0
 40
0.0
 41
0.9
 50
0.0
 71
     0
 42
0.2
  3
txt.shx
  4

  0
ENDTAB
  0
TABLE
  2
VIEW
  5
6
330
0
100
AcDbSymbolTable
 70
     0
  0
ENDTAB
  0
TABLE
  2
UCS
  5
7
330
0
100
AcDbSymbolTable
 70
     0
  0
ENDTAB
  0
TABLE
  2
APPID
  5
9
330
0
100
AcDbSymbolTable
 70
     1
  0
APPID
  5
12
330
9
100
AcDbSymbolTableRecord
100
AcDbRegAppTableRecord
  2
ACAD
 70
     0
  0
ENDTAB
  0
TABLE
  2
DIMSTYLE
  5
A
330
0
100
AcDbSymbolTable
 70
     9
100
AcDbDimStyleTable
  0
DIMSTYLE
105
27
330
A
100
AcDbSymbolTableRecord
100
AcDbDimStyleTableRecord
  2
Standard
 70
     0
340
11
  0
DIMSTYLE
105
2F9
102
{ACAD_REACTORS
330
2FA
102
}
330
A
100
AcDbSymbolTableRecord
100
AcDbDimStyleTableRecord
  2
ME10_DIM_0
 70
     0
  3
{\Fgdt;n}<>
 41
5.25
 42
0.0
 44
1.5
 73
     0
 74
     0
 77
     1
 78
     8
140
5.25
147
0.625
172
     1
173
     1
176
     2
177
     2
178
     7
271
     2
340
2E9
  0
DIMSTYLE
105
304
102
{ACAD_REACTORS
330
305
102
}
330
A
100
AcDbSymbolTableRecord
100
AcDbDimStyleTableRecord
  2
ME10_DIM_1
 70
     0
 41
5.25
 42
0.0
 44
1.5
 73
     0
 74
     0
 77
     1
 78
     8
140
5.25
147
0.625
172
     1
173
     1
176
     2
177
     2
178
     7
271
     2
340
2E9
  0
DIMSTYLE
105
30F
102
{ACAD_REACTORS
330
310
102
}
330
A
100
AcDbSymbolTableRecord
100
AcDbDimStyleTableRecord
  2
ME10_DIM_2
 70
     0
 41
5.25
 42
0.0
 44
1.5
 73
     0
 74
     0
 77
     1
 78
     8
140
5.25
147
0.625
172
     1
173
     1
176
     2
177
     2
178
     7
271
     2
340
B1
  0
DIMSTYLE
105
31A
102
{ACAD_REACTORS
330
31B
102
}
330
A
100
AcDbSymbolTableRecord
100
AcDbDimStyleTableRecord
  2
ME10_DIM_3
 70
     0
  3
{\Fgdt;n}<>
 41
5.25
 42
0.0
 44
1.5
 73
     0
 74
     0
 77
     1
 78
     8
140
5.25
147
0.625
172
     1
173
     1
176
     2
177
     2
178
     7
271
     2
340
2E9
  0
DIMSTYLE
105
327
102
{ACAD_REACTORS
330
328
102
}
330
A
100
AcDbSymbolTableRecord
100
AcDbDimStyleTableRecord
  2
ME10_DIM_4
 70
     0
 41
5.25
 42
0.0
 44
1.5
 73
     0
 74
     0
 77
     1
 78
     8
140
5.25
147
0.625
172
     1
173
     1
176
     2
177
     2
178
     7
271
     2
340
2E9
  0
DIMSTYLE
105
332
102
{ACAD_REACTORS
330
333
102
}
330
A
100
AcDbSymbolTableRecord
100
AcDbDimStyleTableRecord
  2
ME10_DIM_5
 70
     0
 41
5.25
 42
0.0
 44
1.5
 73
     0
 74
     0
 77
     1
 78
     8
140
5.25
147
0.625
172
     1
173
     1
176
     2
177
     2
178
     7
271
     2
340
2E9
  0
DIMSTYLE
105
33D
102
{ACAD_REACTORS
330
33E
102
}
330
A
100
AcDbSymbolTableRecord
100
AcDbDimStyleTableRecord
  2
ME10_DIM_6
 70
     0
 41
5.25
 42
0.0
 44
1.5
 73
     0
 74
     0
 77
     1
 78
     8
140
5.25
147
0.625
172
     1
173
     1
176
     2
177
     2
178
     7
271
     2
340
2E9
  0
DIMSTYLE
105
34A
102
{ACAD_REACTORS
330
34B
102
}
330
A
100
AcDbSymbolTableRecord
100
AcDbDimStyleTableRecord
  2
ME10_DIM_7
 70
     0
 41
5.25
 42
0.0
 44
1.5
 73
     0
 74
     0
 77
     1
 78
     8
140
5.25
147
0.625
172
     1
173
     1
176
     2
177
     2
178
     7
271
     2
340
2E9
  0
ENDTAB
  0
TABLE
  2
BLOCK_RECORD
  5
1
330
0
100
AcDbSymbolTable
 70
    21
  0
BLOCK_RECORD
  5
1F
330
1
100
AcDbSymbolTableRecord
100
AcDbBlockTableRecord
  2
*Model_Space
340
22
  0
BLOCK_RECORD
  5
1B
330
1
100
AcDbSymbolTableRecord
100
AcDbBlockTableRecord
  2
*Paper_Space
340
1E
  0
BLOCK_RECORD
  5
23
330
1
100
AcDbSymbolTableRecord
100
AcDbBlockTableRecord
  2
*Paper_Space0
340
26
  0
BLOCK_RECORD
  5
36
330
1
100
AcDbSymbolTableRecord
100
AcDbBlockTableRecord
  2
_J__A4
340
0
102
{BLKREFS
331
5C
102
}
  0
BLOCK_RECORD
  5
39
330
1
100
AcDbSymbolTableRecord
100
AcDbBlockTableRecord
  2
33-6-13
340
0
102
{BLKREFS
331
40
102
}
  0
BLOCK_RECORD
  5
3C
330
1
100
AcDbSymbolTableRecord
100
AcDbBlockTableRecord
  2
32-13-13
340
0
102
{BLKREFS
331
41
102
}
  0
BLOCK_RECORD
  5
3F
330
1
100
AcDbSymbolTableRecord
100
AcDbBlockTableRecord
  2
T30A-13
340
0
102
{BLKREFS
331
5D
102
}
  0
BLOCK_RECORD
  5
44
330
1
100
AcDbSymbolTableRecord
100
AcDbBlockTableRecord
  2
21-1A
340
0
102
{BLKREFS
331
5E
102
}
  0
BLOCK_RECORD
  5
47
330
1
100
AcDbSymbolTableRecord
100
AcDbBlockTableRecord
  2
42-1
340
0
102
{BLKREFS
331
5F
102
}
  0
BLOCK_RECORD
  5
4A
330
1
100
AcDbSymbolTableRecord
100
AcDbBlockTableRecord
  2
Y30VW-0-13
340
0
102
{BLKREFS
331
60
102
}
  0
BLOCK_RECORD
  5
4D
330
1
100
AcDbSymbolTableRecord
100
AcDbBlockTableRecord
  2
37-121
340
0
102
{BLKREFS
331
61
102
}
  0
BLOCK_RECORD
  5
50
330
1
100
AcDbSymbolTableRecord
100
AcDbBlockTableRecord
  2
36-106
340
0
102
{BLKREFS
331
62
102
}
  0
BLOCK_RECORD
  5
53
330
1
100
AcDbSymbolTableRecord
100
AcDbBlockTableRecord
  2
32-137
340
0
102
{BLKREFS
331
63
102
}
  0
BLOCK_RECORD
  5
56
330
1
100
AcDbSymbolTableRecord
100
AcDbBlockTableRecord
  2
32-136
340
0
102
{BLKREFS
331
64
102
}
  0
BLOCK_RECORD
  5
59
330
1
100
AcDbSymbolTableRecord
100
AcDbBlockTableRecord
  2
25X20_5X2
340
0
102
{BLKREFS
331
65
102
}
  0
BLOCK_RECORD
  5
2F0
330
1
100
AcDbSymbolTableRecord
100
AcDbBlockTableRecord
  2
*D013
340
0
  0
BLOCK_RECORD
  5
2FB
330
1
100
AcDbSymbolTableRecord
100
AcDbBlockTableRecord
  2
*D114
340
0
  0
BLOCK_RECORD
  5
306
330
1
100
AcDbSymbolTableRecord
100
AcDbBlockTableRecord
  2
*D215
340
0
  0
BLOCK_RECORD
  5
311
330
1
100
AcDbSymbolTableRecord
100
AcDbBlockTableRecord
  2
*D316
340
0
  0
BLOCK_RECORD
  5
31C
330
1
100
AcDbSymbolTableRecord
100
AcDbBlockTableRecord
  2
*D417
340
0
  0
BLOCK_RECORD
  5
329
330
1
100
AcDbSymbolTableRecord
100
AcDbBlockTableRecord
  2
*D518
340
0
  0
BLOCK_RECORD
  5
334
330
1
100
AcDbSymbolTableRecord
100
AcDbBlockTableRecord
  2
*D619
340
0
  0
BLOCK_RECORD
  5
33F
330
1
100
AcDbSymbolTableRecord
100
AcDbBlockTableRecord
  2
*D720
340
0
  0
ENDTAB
  0
ENDSEC
  0
SECTION
  2
BLOCKS
  0
BLOCK
  5
20
330
1F
100
AcDbEntity
  8
0
100
AcDbBlockBegin
  2
*Model_Space
 70
     0
 71
     0
 10
0.0
 20
0.0
 30
0.0
  3
*Model_Space
  1

  0
ENDBLK
  5
21
330
1F
100
AcDbEntity
  8
0
100
AcDbBlockEnd
  0
BLOCK
  5
1C
330
1B
100
AcDbEntity
 67
     1
  8
0
100
AcDbBlockBegin
  2
*Paper_Space
 70
     0
 71
     0
 10
0.0
 20
0.0
 30
0.0
  3
*Paper_Space
  1

  0
ENDBLK
  5
1D
330
1B
100
AcDbEntity
 67
     1
  8
0
100
AcDbBlockEnd
  0
BLOCK
  5
24
330
23
100
AcDbEntity
  8
0
100
AcDbBlockBegin
  2
*Paper_Space0
 70
     0
 71
     0
 10
0.0
 20
0.0
 30
0.0
  3
*Paper_Space0
  1

  0
ENDBLK
  5
25
330
23
100
AcDbEntity
  8
0
100
AcDbBlockEnd
  0
BLOCK
  5
37
330
36
100
AcDbEntity
  8
0
100
AcDbBlockBegin
  2
_J__A4
 70
     0
 71
     0
 10
0.0
 20
0.0
 30
0.0
  3
_J__A4
  1

  0
POINT
  5
66
330
36
100
AcDbEntity
  8
1
 62
     4
100
AcDbPoint
 10
34.0
 20
34.00000000000001
 30
0.0
  0
POINT
  5
67
330
36
100
AcDbEntity
  8
1
 62
     4
100
AcDbPoint
 10
57.0
 20
12.25
 30
0.0
  0
POINT
  5
68
330
36
100
AcDbEntity
  8
1
 62
     4
100
AcDbPoint
 10
57.0
 20
20.75000000000001
 30
0.0
  0
POINT
  5
69
330
36
100
AcDbEntity
  8
1
 62
     4
100
AcDbPoint
 10
57.0
 20
24.75000000000001
 30
0.0
  0
POINT
  5
6A
330
36
100
AcDbEntity
  8
1
 62
     4
100
AcDbPoint
 10
57.0
 20
16.25
 30
0.0
  0
POINT
  5
6B
330
36
100
AcDbEntity
  8
1
 62
     4
100
AcDbPoint
 10
157.5
 20
19.00000000000001
 30
0.0
  0
POINT
  5
6C
330
36
100
AcDbEntity
  8
1
 62
     4
100
AcDbPoint
 10
47.5
 20
282.0000000000003
 30
0.0
  0
POINT
  5
6D
330
36
100
AcDbEntity
  8
1
 62
     4
100
AcDbPoint
 10
57.0
 20
22.75000000000001
 30
0.0
  0
POINT
  5
6E
330
36
100
AcDbEntity
  8
1
 62
     4
100
AcDbPoint
 10
57.0
 20
14.25
 30
0.0
  0
POINT
  5
6F
330
36
100
AcDbEntity
  8
1
 62
     4
100
AcDbPoint
 10
157.5
 20
12.5
 30
0.0
  0
POINT
  5
70
330
36
100
AcDbEntity
  8
1
 62
     4
100
AcDbPoint
 10
163.25
 20
12.5
 30
0.0
  0
POINT
  5
71
330
36
100
AcDbEntity
  8
1
 62
     4
100
AcDbPoint
 10
151.75
 20
12.5
 30
0.0
  0
POINT
  5
72
330
36
100
AcDbEntity
  8
1
 62
     4
100
AcDbPoint
 10
134.75
 20
12.5
 30
0.0
  0
POINT
  5
73
330
36
100
AcDbEntity
  8
1
 62
     4
100
AcDbPoint
 10
146.25
 20
12.5
 30
0.0
  0
POINT
  5
74
330
36
100
AcDbEntity
  8
1
 62
     4
100
AcDbPoint
 10
140.5
 20
12.5
 30
0.0
  0
POINT
  5
75
330
36
100
AcDbEntity
  8
1
 62
     4
100
AcDbPoint
 10
140.5
 20
19.00000000000001
 30
0.0
  0
POINT
  5
76
330
36
100
AcDbEntity
  8
1
 62
     4
100
AcDbPoint
 10
117.75
 20
12.5
 30
0.0
  0
POINT
  5
77
330
36
100
AcDbEntity
  8
1
 62
     4
100
AcDbPoint
 10
129.25
 20
12.5
 30
0.0
  0
POINT
  5
78
330
36
100
AcDbEntity
  8
1
 62
     4
100
AcDbPoint
 10
123.5
 20
12.5
 30
0.0
  0
POINT
  5
79
330
36
100
AcDbEntity
  8
1
 62
     4
100
AcDbPoint
 10
123.5
 20
19.00000000000001
 30
0.0
  0
POINT
  5
7A
330
36
100
AcDbEntity
  8
1
 62
     4
100
AcDbPoint
 10
100.75
 20
12.5
 30
0.0
  0
POINT
  5
7B
330
36
100
AcDbEntity
  8
1
 62
     4
100
AcDbPoint
 10
112.25
 20
12.5
 30
0.0
  0
POINT
  5
7C
330
36
100
AcDbEntity
  8
1
 62
     4
100
AcDbPoint
 10
106.5
 20
12.5
 30
0.0
  0
POINT
  5
7D
330
36
100
AcDbEntity
  8
1
 62
     4
100
AcDbPoint
 10
106.5
 20
19.00000000000001
 30
0.0
  0
POINT
  5
7E
330
36
100
AcDbEntity
  8
1
 62
     4
100
AcDbPoint
 10
85.25
 20
17.0
 30
0.0
  0
POINT
  5
7F
330
36
100
AcDbEntity
  8
1
 62
     4
100
AcDbPoint
 10
93.75
 20
17.0
 30
0.0
  0
LINE
  5
80
330
36
100
AcDbEntity
  8
1
  6
Continuous
 62
     2
100
AcDbLine
 10
81.0
 20
27.00000000000001
 30
0.0
 11
81.0
 21
10.0
 31
0.0
  0
LINE
  5
81
330
36
100
AcDbEntity
  8
1
  6
DOT_CENTER
 62
     2
100
AcDbLine
 10
187.0
 20
26.50000000000001
 30
0.0
 11
187.0
 21
20.50000000000001
 31
0.0
  0
LINE
  5
82
330
36
100
AcDbEntity
  8
1
  6
DOT_CENTER
 62
     2
100
AcDbLine
 10
184.0
 20
23.50000000000001
 30
0.0
 11
197.0
 21
23.50000000000001
 31
0.0
  0
LINE
  5
83
330
36
100
AcDbEntity
  8
1
  6
Continuous
 62
     7
100
AcDbLine
 10
196.0
 20
21.50000000000001
 30
0.0
 11
191.0
 21
22.30000000000001
 31
0.0
  0
LINE
  5
84
330
36
100
AcDbEntity
  8
1
  6
Continuous
 62
     7
100
AcDbLine
 10
196.0
 20
25.50000000000001
 30
0.0
 11
196.0
 21
21.50000000000001
 31
0.0
  0
LINE
  5
85
330
36
100
AcDbEntity
  8
1
  6
Continuous
 62
     7
100
AcDbLine
 10
191.0
 20
24.70000000000001
 30
0.0
 11
196.0
 21
25.50000000000001
 31
0.0
  0
LINE
  5
86
330
36
100
AcDbEntity
  8
1
  6
Continuous
 62
     7
100
AcDbLine
 10
191.0
 20
24.70000000000001
 30
0.0
 11
191.0
 21
22.30000000000001
 31
0.0
  0
LINE
  5
87
330
36
100
AcDbEntity
  8
1
  6
Continuous
 62
     2
100
AcDbLine
 10
33.0
 20
27.0
 30
0.0
 11
33.0
 21
10.0
 31
0.0
  0
LINE
  5
88
330
36
100
AcDbEntity
  8
1
  6
Continuous
 62
     2
100
AcDbLine
 10
25.0
 20
18.50000000000001
 30
0.0
 11
81.0
 21
18.50000000000001
 31
0.0
  0
LINE
  5
89
330
36
100
AcDbEntity
  8
1
  6
Continuous
 62
     7
100
AcDbLine
 10
200.0
 20
287.0000000000003
 30
0.0
 11
105.0
 21
287.0000000000003
 31
0.0
  0
LINE
  5
8A
330
36
100
AcDbEntity
  8
1
  6
Continuous
 62
     7
100
AcDbLine
 10
200.0
 20
10.0
 30
0.0
 11
200.0
 21
148.5
 31
0.0
  0
LINE
  5
8B
330
36
100
AcDbEntity
  8
1
  6
Continuous
 62
     7
100
AcDbLine
 10
25.0
 20
10.0
 30
0.0
 11
105.0
 21
10.0
 31
0.0
  0
LINE
  5
8C
330
36
100
AcDbEntity
  8
1
  6
PHANTOM
 62
     4
100
AcDbLine
 10
0.0
 20
297.0
 30
0.0
 11
0.0
 21
0.0
 31
0.0
  0
LINE
  5
8D
330
36
100
AcDbEntity
  8
1
  6
PHANTOM
 62
     4
100
AcDbLine
 10
210.0
 20
297.0
 30
0.0
 11
0.0
 21
297.0
 31
0.0
  0
LINE
  5
8E
330
36
100
AcDbEntity
  8
1
  6
PHANTOM
 62
     4
100
AcDbLine
 10
210.0
 20
0.0
 30
0.0
 11
210.0
 21
297.0
 31
0.0
  0
LINE
  5
8F
330
36
100
AcDbEntity
  8
1
  6
PHANTOM
 62
     4
100
AcDbLine
 10
0.0
 20
0.0
 30
0.0
 11
210.0
 21
0.0
 31
0.0
  0
LINE
  5
90
330
36
100
AcDbEntity
  8
1
  6
Continuous
 62
     7
100
AcDbLine
 10
25.0
 20
41.0
 30
0.0
 11
200.0
 21
41.0
 31
0.0
  0
LINE
  5
91
330
36
100
AcDbEntity
  8
1
  6
Continuous
 62
     7
100
AcDbLine
 10
200.0
 20
27.00000000000001
 30
0.0
 11
25.0
 21
27.00000000000001
 31
0.0
  0
LINE
  5
92
330
36
100
AcDbEntity
  8
1
  6
Continuous
 62
     2
100
AcDbLine
 10
33.0
 20
41.00000000000001
 30
0.0
 11
33.0
 21
27.0
 31
0.0
  0
LINE
  5
93
330
36
100
AcDbEntity
  8
1
  6
Continuous
 62
     2
100
AcDbLine
 10
55.0
 20
287.0000000000003
 30
0.0
 11
55.0
 21
277.0000000000003
 31
0.0
  0
LINE
  5
94
330
36
100
AcDbEntity
  8
1
  6
Continuous
 62
     2
100
AcDbLine
 10
40.0
 20
287.0000000000003
 30
0.0
 11
40.0
 21
277.0000000000003
 31
0.0
  0
LINE
  5
95
330
36
100
AcDbEntity
  8
1
  6
Continuous
 62
     7
100
AcDbLine
 10
25.0
 20
10.0
 30
0.0
 11
25.0
 21
148.5
 31
0.0
  0
LINE
  5
96
330
36
100
AcDbEntity
  8
1
  6
Continuous
 62
     2
100
AcDbLine
 10
55.0
 20
277.0000000000003
 30
0.0
 11
25.0
 21
277.0000000000003
 31
0.0
  0
LINE
  5
97
330
36
100
AcDbEntity
  8
1
  6
Continuous
 62
     2
100
AcDbLine
 10
166.0
 20
27.00000000000001
 30
0.0
 11
166.0
 21
10.0
 31
0.0
  0
LINE
  5
98
330
36
100
AcDbEntity
  8
1
  6
Continuous
 62
     2
100
AcDbLine
 10
132.0
 20
27.00000000000001
 30
0.0
 11
132.0
 21
9.99999999999999
 31
0.0
  0
LINE
  5
99
330
36
100
AcDbEntity
  8
1
  6
Continuous
 62
     2
100
AcDbLine
 10
149.0
 20
27.00000000000001
 30
0.0
 11
149.0
 21
10.0
 31
0.0
  0
LINE
  5
9A
330
36
100
AcDbEntity
  8
1
  6
Continuous
 62
     2
100
AcDbLine
 10
115.0
 20
27.00000000000001
 30
0.0
 11
115.0
 21
9.99999999999999
 31
0.0
  0
LINE
  5
9B
330
36
100
AcDbEntity
  8
1
  6
Continuous
 62
     2
100
AcDbLine
 10
98.0
 20
27.00000000000001
 30
0.0
 11
98.0
 21
9.99999999999999
 31
0.0
  0
LINE
  5
9C
330
36
100
AcDbEntity
  8
1
  6
Continuous
 62
     2
100
AcDbLine
 10
166.0
 20
20.00000000000001
 30
0.0
 11
200.0
 21
20.00000000000001
 31
0.0
  0
LINE
  5
9D
330
36
100
AcDbEntity
  8
1
  6
Continuous
 62
     2
100
AcDbLine
 10
105.0
 20
287.0000000000003
 30
0.0
 11
105.0
 21
292.0000000000003
 31
0.0
  0
LINE
  5
9E
330
36
100
AcDbEntity
  8
1
  6
Continuous
 62
     7
100
AcDbLine
 10
105.0
 20
287.0000000000003
 30
0.0
 11
25.0
 21
287.0000000000003
 31
0.0
  0
LINE
  5
9F
330
36
100
AcDbEntity
  8
1
  6
Continuous
 62
     2
100
AcDbLine
 10
25.0
 20
148.5
 30
0.0
 11
20.0
 21
148.5
 31
0.0
  0
LINE
  5
A0
330
36
100
AcDbEntity
  8
1
  6
Continuous
 62
     7
100
AcDbLine
 10
25.0
 20
148.5
 30
0.0
 11
25.0
 21
287.0000000000003
 31
0.0
  0
LINE
  5
A1
330
36
100
AcDbEntity
  8
1
  6
Continuous
 62
     2
100
AcDbLine
 10
200.0
 20
148.5
 30
0.0
 11
205.0
 21
148.5
 31
0.0
  0
LINE
  5
A2
330
36
100
AcDbEntity
  8
1
  6
Continuous
 62
     7
100
AcDbLine
 10
200.0
 20
148.5
 30
0.0
 11
200.0
 21
287.0000000000003
 31
0.0
  0
LINE
  5
A3
330
36
100
AcDbEntity
  8
1
  6
Continuous
 62
     2
100
AcDbLine
 10
105.0
 20
10.0
 30
0.0
 11
105.0
 21
5.0
 31
0.0
  0
LINE
  5
A4
330
36
100
AcDbEntity
  8
1
  6
Continuous
 62
     7
100
AcDbLine
 10
105.0
 20
10.0
 30
0.0
 11
200.0
 21
10.0
 31
0.0
  0
CIRCLE
  5
A5
330
36
100
AcDbEntity
  8
1
  6
DOT_CENTER
 62
     7
100
AcDbCircle
 10
89.5
 20
18.0
 30
0.0
 40
0.1000000000000227
  0
CIRCLE
  5
A6
330
36
100
AcDbEntity
  8
1
  6
DOT_CENTER
 62
     7
100
AcDbCircle
 10
89.5
 20
16.0
 30
0.0
 40
0.1000000000000227
  0
CIRCLE
  5
A7
330
36
100
AcDbEntity
  8
1
  6
Continuous
 62
     7
100
AcDbCircle
 10
187.0
 20
23.50000000000001
 30
0.0
 40
2.0
  0
CIRCLE
  5
A8
330
36
100
AcDbEntity
  8
1
  6
Continuous
 62
     7
100
AcDbCircle
 10
187.0
 20
23.50000000000001
 30
0.0
 40
1.200000000000102
  0
CIRCLE
  5
A9
330
36
100
AcDbEntity
  8
1
  6
Continuous
 62
     7
100
AcDbCircle
 10
154.5
 20
12.5
 30
0.0
 40
0.3000000000000114
  0
CIRCLE
  5
AA
330
36
100
AcDbEntity
  8
1
  6
Continuous
 62
     7
100
AcDbCircle
 10
160.5
 20
12.5
 30
0.0
 40
0.3000000000000114
  0
CIRCLE
  5
AB
330
36
100
AcDbEntity
  8
1
  6
Continuous
 62
     7
100
AcDbCircle
 10
143.5
 20
12.5
 30
0.0
 40
0.3000000000000114
  0
CIRCLE
  5
AC
330
36
100
AcDbEntity
  8
1
  6
Continuous
 62
     7
100
AcDbCircle
 10
137.5
 20
12.5
 30
0.0
 40
0.3000000000000114
  0
CIRCLE
  5
AD
330
36
100
AcDbEntity
  8
1
  6
Continuous
 62
     7
100
AcDbCircle
 10
126.5
 20
12.5
 30
0.0
 40
0.2999999999999972
  0
CIRCLE
  5
AE
330
36
100
AcDbEntity
  8
1
  6
Continuous
 62
     7
100
AcDbCircle
 10
120.5
 20
12.5
 30
0.0
 40
0.2999999999999972
  0
CIRCLE
  5
AF
330
36
100
AcDbEntity
  8
1
  6
Continuous
 62
     7
100
AcDbCircle
 10
109.5
 20
12.5
 30
0.0
 40
0.2999999999999972
  0
CIRCLE
  5
B0
330
36
100
AcDbEntity
  8
1
  6
Continuous
 62
     7
100
AcDbCircle
 10
103.5
 20
12.5
 30
0.0
 40
0.2999999999999972
  0
MTEXT
  5
B2
330
36
100
AcDbEntity
  8
1
 62
   250
100
AcDbMText
 10
25.0
 20
5.0
 30
0.0
 40
3.5
 41
0.0
 71
     4
 72
     1
  1
備考欄の文字列 原点位置=4
  7
CONVERTER_1
 73
     1
 44
0.7202881152461
  0
MTEXT
  5
B3
330
36
100
AcDbEntity
  8
1
 62
     2
100
AcDbMText
 10
89.5
 20
24.00000000000001
 30
0.0
 40
3.5
 41
0.0
 71
     5
 72
     1
  1
尺度
  7
CONVERTER_1
 73
     1
 44
0.7202881152461
  0
MTEXT
  5
B4
330
36
100
AcDbEntity
  8
1
 62
     2
100
AcDbMText
 10
135.5
 20
25.00000000000001
 30
0.0
 40
3.0
 41
0.0
 71
     5
 72
     1
  1
製図
  7
CONVERTER_1
 73
     1
 44
0.78031212484994
  0
MTEXT
  5
B5
330
36
100
AcDbEntity
  8
1
 62
     2
100
AcDbMText
 10
152.5
 20
25.00000000000001
 30
0.0
 40
3.0
 41
0.0
 71
     5
 72
     1
  1
設計
  7
CONVERTER_1
 73
     1
 44
0.78031212484994
  0
MTEXT
  5
B6
330
36
100
AcDbEntity
  8
1
 62
     2
100
AcDbMText
 10
118.5
 20
25.00000000000001
 30
0.0
 40
3.0
 41
0.0
 71
     5
 72
     1
  1
検図
  7
CONVERTER_1
 73
     1
 44
0.78031212484994
  0
MTEXT
  5
B7
330
36
100
AcDbEntity
  8
1
 62
     2
100
AcDbMText
 10
175.0
 20
23.50000000000001
 30
0.0
 40
3.5
 41
0.0
 71
     5
 72
     1
  1
第三角法
  7
CONVERTER_1
 73
     1
 44
0.7202881152461
  0
MTEXT
  5
B8
330
36
100
AcDbEntity
  8
1
 62
     2
100
AcDbMText
 10
101.5
 20
25.00000000000001
 30
0.0
 40
3.0
 41
0.0
 71
     5
 72
     1
  1
承認
  7
CONVERTER_1
 73
     1
 44
0.78031212484994
  0
MTEXT
  5
B9
330
36
100
AcDbEntity
  8
1
 62
     2
100
AcDbMText
 10
29.0
 20
14.25
 30
0.0
 40
3.5
 41
0.0
 71
     5
 72
     1
  1
品番
  7
CONVERTER_1
 73
     1
 44
0.96038415366146
  0
MTEXT
  5
BA
330
36
100
AcDbEntity
  8
1
 62
     2
100
AcDbMText
 10
29.0
 20
22.75
 30
0.0
 40
3.5
 41
0.0
 71
     5
 72
     1
  1
品名
  7
CONVERTER_1
 73
     1
 44
0.96038415366146
  0
MTEXT
  5
BB
330
36
100
AcDbEntity
  8
1
 62
     2
100
AcDbMText
 10
29.0
 20
34.00000000000001
 30
0.0
 40
3.5
 41
0.0
 71
     5
 72
     1
  1
備考
  7
CONVERTER_1
 73
     1
 44
0.60024009603842
  0
MTEXT
  5
BC
330
36
100
AcDbEntity
  8
1
 62
     2
100
AcDbMText
 10
32.5
 20
282.0000000000003
 30
0.0
 40
5.0
 41
0.0
 71
     5
 72
     1
  1
図番
  7
CONVERTER_1
 73
     1
 44
0.60024009603842
  0
MTEXT
  5
BD
330
36
100
AcDbEntity
  8
1
 62
     7
100
AcDbMText
 10
171.5
 20
15.0
 30
0.0
 40
2.5
 41
0.0
 71
     5
 72
     1
  1
株式会社
  7
CONVERTER_1
 73
     1
 44
1.32052821128451
  0
MTEXT
  5
BE
330
36
100
AcDbEntity
  8
1
 62
     7
100
AcDbMText
 10
188.5
 20
15.0
 30
0.0
 40
3.0
 41
0.0
 71
     5
 72
     1
  1
三栄水栓製作所
  7
CONVERTER_1
 73
     1
 44
1.32052821128451
  0
ENDBLK
  5
38
330
36
100
AcDbEntity
  8
0
100
AcDbBlockEnd
  0
BLOCK
  5
3A
330
39
100
AcDbEntity
  8
0
100
AcDbBlockBegin
  2
33-6-13
 70
     0
 71
     0
 10
227.3409682978441
 20
11.55963398696706
 30
0.0
  3
33-6-13
  1

  0
LINE
  5
BF
330
39
100
AcDbEntity
  8
1
  6
Continuous
 62
     7
100
AcDbLine
 10
160.7697400777749
 20
112.3610500724253
 30
0.0
 11
160.7389352935237
 21
112.7697928705214
 31
0.0
  0
LINE
  5
C0
330
39
100
AcDbEntity
  8
1
  6
Continuous
 62
     7
100
AcDbLine
 10
161.1765866821468
 20
112.3110955907526
 30
0.0
 11
160.7697400777749
 21
112.3610500724253
 31
0.0
  0
LINE
  5
C1
330
39
100
AcDbEntity
  8
1
  6
PHANTOM
 62
     4
100
AcDbLine
 10
171.1255069035075
 20
141.3148165536803
 30
0.0
 11
167.2256879145436
 21
109.5533397011581
 31
0.0
  0
LINE
  5
C2
330
39
100
AcDbEntity
  8
1
  6
Continuous
 62
     7
100
AcDbLine
 10
161.8445749129204
 20
131.3717636328655
 30
0.0
 11
162.5757909733512
 21
137.3270405427141
 31
0.0
  0
LINE
  5
C3
330
39
100
AcDbEntity
  8
1
  6
Continuous
 62
     7
100
AcDbLine
 10
161.8445749129204
 20
131.3717636328655
 30
0.0
 11
161.979637809626
 21
126.3176308671065
 31
0.0
  0
LINE
  5
C4
330
39
100
AcDbEntity
  8
1
  6
Continuous
 62
     7
100
AcDbLine
 10
161.2352281958949
 20
126.4090328746603
 30
0.0
 11
161.979637809626
 21
126.3176308671065
 31
0.0
  0
LINE
  5
C5
330
39
100
AcDbEntity
  8
1
  6
Continuous
 62
     7
100
AcDbLine
 10
161.1438261883411
 20
125.6646232609293
 30
0.0
 11
161.3702910926004
 21
121.3549001088998
 31
0.0
  0
LINE
  5
C6
330
39
100
AcDbEntity
  8
1
  6
Continuous
 62
     7
100
AcDbLine
 10
160.6258814788694
 20
121.4463021164537
 30
0.0
 11
161.3702910926004
 21
121.3549001088998
 31
0.0
  0
LINE
  5
C7
330
39
100
AcDbEntity
  8
1
  6
Continuous
 62
     7
100
AcDbLine
 10
160.5344794713156
 20
120.7018925027227
 30
0.0
 11
160.8218790472774
 21
116.8884424265137
 31
0.0
  0
LINE
  5
C8
330
39
100
AcDbEntity
  8
1
  6
Continuous
 62
     7
100
AcDbLine
 10
160.0774694335464
 20
116.9798444340677
 30
0.0
 11
160.8218790472774
 21
116.8884424265137
 31
0.0
  0
LINE
  5
C9
330
39
100
AcDbEntity
  8
1
  6
Continuous
 62
     7
100
AcDbLine
 10
161.1438261883411
 20
125.6646232609293
 30
0.0
 11
161.2352281958949
 21
126.4090328746603
 31
0.0
  0
LINE
  5
CA
330
39
100
AcDbEntity
  8
1
  6
Continuous
 62
     7
100
AcDbLine
 10
160.5344794713156
 20
120.7018925027227
 30
0.0
 11
160.6258814788694
 21
121.4463021164537
 31
0.0
  0
LINE
  5
CB
330
39
100
AcDbEntity
  8
1
  6
Continuous
 62
     7
100
AcDbLine
 10
159.9860674259925
 20
116.2354348203367
 30
0.0
 11
160.0774694335464
 21
116.9798444340677
 31
0.0
  0
LINE
  5
CC
330
39
100
AcDbEntity
  8
1
  6
Continuous
 62
     7
100
AcDbLine
 10
167.4694266013538
 20
111.5384320044406
 30
0.0
 11
161.1765866821468
 21
112.3110955907526
 31
0.0
  0
LINE
  5
CD
330
39
100
AcDbEntity
  8
1
  6
Continuous
 62
     7
100
AcDbLine
 10
160.7389352935237
 20
112.7697928705214
 30
0.0
 11
159.9860674259925
 21
116.2354348203367
 31
0.0
  0
LINE
  5
CE
330
39
100
AcDbEntity
  8
0
  6
Continuous
 62
     7
100
AcDbLine
 10
161.8445749129204
 20
131.3717636328655
 30
0.0
 11
169.7849441260507
 21
130.3968088856246
 31
0.0
  0
LINE
  5
CF
330
39
100
AcDbEntity
  8
0
  6
Continuous
 62
     7
100
AcDbLine
 10
161.979637809626
 20
126.3176308671065
 30
0.0
 11
169.1755974090256
 21
125.4340781274194
 31
0.0
  0
LINE
  5
D0
330
39
100
AcDbEntity
  8
0
  6
Continuous
 62
     7
100
AcDbLine
 10
161.1438261883411
 20
125.6646232609293
 30
0.0
 11
169.0841954014717
 21
124.6896685136883
 31
0.0
  0
LINE
  5
D1
330
39
100
AcDbEntity
  8
0
  6
Continuous
 62
     7
100
AcDbLine
 10
161.3702910926004
 20
121.3549001088998
 30
0.0
 11
168.5662506919999
 21
120.4713473692127
 31
0.0
  0
LINE
  5
D2
330
39
100
AcDbEntity
  8
0
  6
Continuous
 62
     7
100
AcDbLine
 10
160.5344794713156
 20
120.7018925027227
 30
0.0
 11
168.4748486844461
 21
119.7269377554817
 31
0.0
  0
LINE
  5
D3
330
39
100
AcDbEntity
  8
0
  6
Continuous
 62
     7
100
AcDbLine
 10
160.8218790472774
 20
116.8884424265137
 30
0.0
 11
168.0178386466769
 21
116.0048896868267
 31
0.0
  0
LINE
  5
D4
330
39
100
AcDbEntity
  8
0
  6
Continuous
 62
     7
100
AcDbLine
 10
159.9860674259925
 20
116.2354348203367
 30
0.0
 11
167.926436639123
 21
115.2604800730957
 31
0.0
  0
LINE
  5
D5
330
39
100
AcDbEntity
  8
0
  6
Continuous
 62
     7
100
AcDbLine
 10
167.926436639123
 20
115.2604800730957
 30
0.0
 11
175.8668058522541
 21
114.285525325855
 31
0.0
  0
LINE
  5
D6
330
39
100
AcDbEntity
  8
0
  6
Continuous
 62
     7
100
AcDbLine
 10
168.0178386466769
 20
116.0048896868267
 30
0.0
 11
175.2137982460769
 21
115.1213369471398
 31
0.0
  0
LINE
  5
D7
330
39
100
AcDbEntity
  8
0
  6
Continuous
 62
     7
100
AcDbLine
 10
168.4748486844461
 20
119.7269377554817
 30
0.0
 11
176.415217897577
 21
118.751983008241
 31
0.0
  0
LINE
  5
D8
330
39
100
AcDbEntity
  8
0
  6
Continuous
 62
     7
100
AcDbLine
 10
168.5662506919999
 20
120.4713473692127
 30
0.0
 11
175.7622102913998
 21
119.5877946295258
 31
0.0
  0
LINE
  5
D9
330
39
100
AcDbEntity
  8
1
  6
Continuous
 62
     7
100
AcDbLine
 10
175.8668058522541
 20
114.285525325855
 30
0.0
 11
174.2978867079694
 21
111.1049629747955
 31
0.0
  0
LINE
  5
DA
330
39
100
AcDbEntity
  8
1
  6
Continuous
 62
     7
100
AcDbLine
 10
173.7622665205616
 20
110.765768418129
 30
0.0
 11
167.4694266013538
 21
111.5384320044406
 31
0.0
  0
LINE
  5
DB
330
39
100
AcDbEntity
  8
1
  6
Continuous
 62
     7
100
AcDbLine
 10
175.9582078598079
 20
115.029934939586
 30
0.0
 11
175.8668058522541
 21
114.285525325855
 31
0.0
  0
LINE
  5
DC
330
39
100
AcDbEntity
  8
1
  6
Continuous
 62
     7
100
AcDbLine
 10
176.5066199051308
 20
119.496392621972
 30
0.0
 11
176.415217897577
 21
118.751983008241
 31
0.0
  0
LINE
  5
DD
330
39
100
AcDbEntity
  8
1
  6
Continuous
 62
     7
100
AcDbLine
 10
177.1159666221563
 20
124.4591233801785
 30
0.0
 11
177.0245646146025
 21
123.7147137664476
 31
0.0
  0
LINE
  5
DE
330
39
100
AcDbEntity
  8
1
  6
Continuous
 62
     7
100
AcDbLine
 10
175.2137982460769
 20
115.1213369471398
 30
0.0
 11
175.9582078598079
 21
115.029934939586
 31
0.0
  0
LINE
  5
DF
330
39
100
AcDbEntity
  8
1
  6
Continuous
 62
     7
100
AcDbLine
 10
175.2137982460769
 20
115.1213369471398
 30
0.0
 11
176.415217897577
 21
118.751983008241
 31
0.0
  0
LINE
  5
E0
330
39
100
AcDbEntity
  8
1
  6
Continuous
 62
     7
100
AcDbLine
 10
175.7622102913998
 20
119.5877946295258
 30
0.0
 11
176.5066199051308
 21
119.496392621972
 31
0.0
  0
LINE
  5
E1
330
39
100
AcDbEntity
  8
1
  6
Continuous
 62
     7
100
AcDbLine
 10
175.7622102913998
 20
119.5877946295258
 30
0.0
 11
177.0245646146025
 21
123.7147137664476
 31
0.0
  0
LINE
  5
E2
330
39
100
AcDbEntity
  8
1
  6
Continuous
 62
     7
100
AcDbLine
 10
176.3715570084252
 20
124.5505253877325
 30
0.0
 11
177.1159666221563
 21
124.4591233801785
 31
0.0
  0
LINE
  5
E3
330
39
100
AcDbEntity
  8
1
  6
Continuous
 62
     7
100
AcDbLine
 10
176.3715570084252
 20
124.5505253877325
 30
0.0
 11
177.7253133391815
 21
129.4218541383839
 31
0.0
  0
LINE
  5
E4
330
39
100
AcDbEntity
  8
1
  6
Continuous
 62
     7
100
AcDbLine
 10
174.1691131249335
 20
110.7158139364564
 30
0.0
 11
173.7622665205616
 21
110.765768418129
 31
0.0
  0
LINE
  5
E5
330
39
100
AcDbEntity
  8
1
  6
Continuous
 62
     7
100
AcDbLine
 10
174.2978867079694
 20
111.1049629747955
 30
0.0
 11
174.1691131249335
 21
110.7158139364564
 31
0.0
  0
LINE
  5
E6
330
39
100
AcDbEntity
  8
0
  6
Continuous
 62
     7
100
AcDbLine
 10
169.0841954014717
 20
124.6896685136883
 30
0.0
 11
177.0245646146025
 21
123.7147137664476
 31
0.0
  0
LINE
  5
E7
330
39
100
AcDbEntity
  8
0
  6
Continuous
 62
     7
100
AcDbLine
 10
169.1755974090256
 20
125.4340781274194
 30
0.0
 11
176.3715570084252
 21
124.5505253877325
 31
0.0
  0
LINE
  5
E8
330
39
100
AcDbEntity
  8
1
  6
Continuous
 62
     7
100
AcDbLine
 10
178.4565293996121
 20
135.3771310482319
 30
0.0
 11
177.7253133391815
 21
129.4218541383839
 31
0.0
  0
LINE
  5
E9
330
39
100
AcDbEntity
  8
0
  6
Continuous
 62
     7
100
AcDbLine
 10
169.7849441260507
 20
130.3968088856246
 30
0.0
 11
177.7253133391815
 21
129.4218541383839
 31
0.0
  0
LINE
  5
EA
330
39
100
AcDbEntity
  8
1
  6
Continuous
 62
     7
100
AcDbLine
 10
82.9989170456999
 20
136.352085795473
 30
0.0
 11
82.9989170456999
 21
131.3893550372661
 31
0.0
  0
LINE
  5
EB
330
39
100
AcDbEntity
  8
1
  6
Continuous
 62
     7
100
AcDbLine
 10
99.4989170456999
 20
136.352085795473
 30
0.0
 11
99.4989170456999
 21
131.3893550372661
 31
0.0
  0
LINE
  5
EC
330
39
100
AcDbEntity
  8
1
  6
Continuous
 62
     7
100
AcDbLine
 10
98.80952740520422
 20
126.8276814728969
 30
0.0
 11
99.4989170456999
 21
131.3893550372661
 31
0.0
  0
LINE
  5
ED
330
39
100
AcDbEntity
  8
1
  6
Continuous
 62
     7
100
AcDbLine
 10
82.9989170456999
 20
131.3893550372661
 30
0.0
 11
83.6883066861956
 21
126.8276814728969
 31
0.0
  0
LINE
  5
EE
330
39
100
AcDbEntity
  8
1
  6
Continuous
 62
     7
100
AcDbLine
 10
98.80952740520422
 20
121.8649507146902
 30
0.0
 11
99.4989170456999
 21
126.4266242790591
 31
0.0
  0
LINE
  5
EF
330
39
100
AcDbEntity
  8
1
  6
Continuous
 62
     7
100
AcDbLine
 10
98.80952740520422
 20
116.9022199564836
 30
0.0
 11
99.4989170456999
 21
121.4638935208525
 31
0.0
  0
LINE
  5
F0
330
39
100
AcDbEntity
  8
1
  6
Continuous
 62
     7
100
AcDbLine
 10
82.9989170456999
 20
126.4266242790591
 30
0.0
 11
83.6883066861956
 21
121.8649507146902
 31
0.0
  0
LINE
  5
F1
330
39
100
AcDbEntity
  8
1
  6
Continuous
 62
     7
100
AcDbLine
 10
82.9989170456999
 20
121.4638935208525
 30
0.0
 11
83.6883066861956
 21
116.9022199564837
 31
0.0
  0
LINE
  5
F2
330
39
100
AcDbEntity
  8
1
  6
Continuous
 62
     7
100
AcDbLine
 10
99.4989170456999
 20
116.5011627626459
 30
0.0
 11
98.81815762879882
 21
112.0171523140942
 31
0.0
  0
LINE
  5
F3
330
39
100
AcDbEntity
  8
1
  6
Continuous
 62
     7
100
AcDbLine
 10
83.67967646260101
 20
112.0171523140942
 30
0.0
 11
82.9989170456999
 21
116.5011627626459
 31
0.0
  0
LINE
  5
F4
330
39
100
AcDbEntity
  8
0
  6
Continuous
 62
     7
100
AcDbLine
 10
98.70391173600231
 20
111.8689269503865
 30
0.0
 11
98.1439107088523
 21
111.3914080690527
 31
0.0
  0
LINE
  5
F5
330
39
100
AcDbEntity
  8
0
  6
Continuous
 62
     7
100
AcDbLine
 10
84.35392338254749
 20
111.3914080690527
 30
0.0
 11
83.79392235539751
 21
111.8689269503865
 31
0.0
  0
SPLINE
  5
F6
330
39
100
AcDbEntity
  8
1
  6
Continuous
 62
     7
100
AcDbSpline
210
0.0
220
0.0
230
1.0
 70
     8
 71
     3
 72
     9
 73
     5
 74
     3
 42
0.0000000001
 43
0.0000000001
 44
0.00000001
 40
0.0
 40
0.0
 40
0.0
 40
0.0
 40
0.0471601779247049
 40
0.1023980571084864
 40
0.1023980571084864
 40
0.1023980571084864
 40
0.1023980571084864
 10
99.4989170456999
 20
136.3520857954662
 30
0.0
 10
99.49674624369533
 20
136.3679530295146
 30
0.0
 10
99.49203281984035
 20
136.402405273118
 30
0.0
 10
99.47008420245457
 20
136.4295465358445
 30
0.0
 10
99.45824418214912
 20
136.4441876905082
 30
0.0
 11
99.4989170456999
 21
136.3520857954662
 31
0.0
 11
99.4887488298137
 21
136.3981367429872
 31
0.0
 11
99.45824418214912
 21
136.4441876905082
 31
0.0
  0
SPLINE
  5
F7
330
39
100
AcDbEntity
  8
1
  6
Continuous
 62
     7
100
AcDbSpline
210
0.0
220
0.0
230
1.0
 70
     8
 71
     3
 72
    43
 73
    39
 74
    37
 42
0.0000000001
 43
0.0000000001
 44
0.00000001
 40
0.0
 40
0.0
 40
0.0
 40
0.0
 40
0.1688137855046529
 40
0.3257916605814397
 40
0.5840608809992929
 40
0.8432525004892169
 40
1.210036324264172
 40
1.576450108881258
 40
2.04190767945517
 40
2.507335469006642
 40
3.05904271411587
 40
3.610725051693
 40
4.232678113220538
 40
4.854618900493244
 40
5.528446411375454
 40
6.20226820092347
 40
6.907902927074998
 40
7.613535086912827
 40
8.329885337892549
 40
9.046235588872241
 40
9.751867748710012
 40
10.45750247486158
 40
11.13132426440963
 40
11.80515177529182
 40
12.4270925625645
 40
13.04904562409205
 40
13.60072796166921
 40
14.15243520677846
 40
14.61786299632995
 40
15.08332056690378
 40
15.44973435152087
 40
15.81651817529584
 40
16.07570979478579
 40
16.3339790152036
 40
16.49095689028037
 40
16.65977067578502
 40
16.71500855496647
 40
16.76216873288928
 40
16.76216873288928
 40
16.76216873288928
 40
16.76216873288928
 10
99.45824418214912
 20
136.4441876905082
 30
0.0
 10
99.41859725945264
 20
136.484737554722
 30
0.0
 10
99.34208314809843
 20
136.5629942418702
 30
0.0
 10
99.16418415189747
 20
136.6483051655286
 30
0.0
 10
98.94912396426967
 20
136.7128365890301
 30
0.0
 10
98.66568700823135
 20
136.7942403355157
 30
0.0
 10
98.34309375189976
 20
136.8681295575709
 30
0.0
 10
97.95028761331513
 20
136.9416208996659
 30
0.0
 10
97.52269955364582
 20
137.0066098838824
 30
0.0
 10
97.03267676454635
 20
137.0708914075924
 30
0.0
 10
96.51280879643434
 20
137.12784956383
 30
0.0
 10
95.94011639362638
 20
137.1808037790075
 30
0.0
 10
95.34330211674909
 20
137.2263496908393
 30
0.0
 10
94.7053048461564
 20
137.2664611860972
 30
0.0
 10
94.04956934077408
 20
137.2991128161616
 30
0.0
 10
93.36562435453109
 20
137.3251995477577
 30
0.0
 10
92.67082683531361
 20
137.3437182808228
 30
0.0
 10
91.96169836498696
 20
137.3550475240029
 30
0.0
 10
91.24891704570698
 20
137.3587473282128
 30
0.0
 10
90.53613572638494
 20
137.3550475240323
 30
0.0
 10
89.82700725618265
 20
137.3437182807072
 30
0.0
 10
89.13220973651744
 20
137.3251995481831
 30
0.0
 10
88.44826475187094
 20
137.2991128146529
 30
0.0
 10
87.79252924074068
 20
137.2664611915532
 30
0.0
 10
87.15453199002336
 20
137.2263496722124
 30
0.0
 10
86.55771764299237
 20
137.1808038453854
 30
0.0
 10
85.98502547391053
 20
137.1278493470036
 30
0.0
 10
85.46515670058612
 20
137.070892166436
 30
0.0
 10
84.97513647264766
 20
137.0066075393855
 30
0.0
 10
84.5475398676286
 20
136.9416289095088
 30
0.0
 10
84.15475926050728
 20
136.8681066311205
 30
0.0
 10
83.83208464241326
 20
136.7943159945368
 30
0.0
 10
83.54886839234563
 20
136.7126448201891
 30
0.0
 10
83.33315317382738
 20
136.64890709298
 30
0.0
 10
83.1568508387987
 20
136.5616615062832
 30
0.0
 10
83.06302760005534
 20
136.4753905428059
 30
0.0
 10
83.00590204525612
 20
136.402283166347
 30
0.0
 10
83.00111962466053
 20
136.3679145256061
 30
0.0
 10
82.9989170456999
 20
136.3520857954706
 30
0.0
 11
99.45824418214912
 21
136.4441876905082
 31
0.0
 11
99.33320355824903
 21
136.5576025773224
 31
0.0
 11
99.19418886515238
 21
136.630520122309
 31
0.0
 11
98.94920301704089
 21
136.7122815095302
 31
0.0
 11
98.69968902717854
 21
136.7824460623812
 31
0.0
 11
98.34248935258798
 21
136.8657453172121
 31
0.0
 11
97.98243931499854
 21
136.9337381991135
 31
0.0
 11
97.52247589242326
 21
137.0050431771824
 31
0.0
 11
97.06101085617935
 21
137.0656488502764
 31
0.0
 11
96.51264772880035
 21
137.1263016724459
 31
0.0
 11
95.96332445171201
 21
137.1772657661149
 31
0.0
 11
95.34320328054788
 21
137.2249663302364
 31
0.0
 11
94.72249368801431
 21
137.2640808366272
 31
0.0
 11
94.04951078314284
 21
137.2978080388899
 31
0.0
 11
93.37618038298565
 21
137.3235369388636
 31
0.0
 11
92.6707995256435
 21
137.3424634505918
 31
0.0
 11
91.96525734408291
 21
137.3537317706141
 31
0.0
 11
91.24891704569991
 21
137.3575078785654
 31
0.0
 11
90.53257674731694
 21
137.3537317706141
 31
0.0
 11
89.82703456575641
 21
137.3424634505918
 31
0.0
 11
89.12165370841422
 21
137.3235369388636
 31
0.0
 11
88.448323308257
 21
137.2978080388899
 31
0.0
 11
87.77534040338554
 21
137.2640808366272
 31
0.0
 11
87.154630810852
 21
137.2249663302364
 31
0.0
 11
86.53450963968786
 21
137.1772657661149
 31
0.0
 11
85.98518636259949
 21
137.1263016724459
 31
0.0
 11
85.43682323522046
 21
137.0656488502764
 31
0.0
 11
84.97535819897654
 21
137.0050431771824
 31
0.0
 11
84.51539477640134
 21
136.9337381991135
 31
0.0
 11
84.15534473881191
 21
136.8657453172121
 31
0.0
 11
83.79814506422133
 21
136.7824460623812
 31
0.0
 11
83.54863107435897
 21
136.7122815095302
 31
0.0
 11
83.3036452262475
 21
136.630520122309
 31
0.0
 11
83.16463053315087
 21
136.5576025773225
 31
0.0
 11
83.03958990925078
 21
136.4441876905082
 31
0.0
 11
83.00908526158707
 21
136.3981367429894
 31
0.0
 11
82.9989170456999
 21
136.3520857954706
 31
0.0
  0
SPLINE
  5
F8
330
39
100
AcDbEntity
  8
1
  6
Continuous
 62
     7
100
AcDbSpline
210
0.0
220
0.0
230
1.0
 70
     8
 71
     3
 72
     9
 73
     5
 74
     3
 42
0.0000000001
 43
0.0000000001
 44
0.00000001
 40
0.0
 40
0.0
 40
0.0
 40
0.0
 40
0.047160177925538
 40
0.1023980571104235
 40
0.1023980571104235
 40
0.1023980571104235
 40
0.1023980571104235
 10
82.9989170456999
 20
131.3893550372574
 30
0.0
 10
83.00108784770427
 20
131.4052222713061
 30
0.0
 10
83.00580127155885
 20
131.4396745149103
 30
0.0
 10
83.02774988894507
 20
131.4668157776373
 30
0.0
 10
83.03958990925079
 20
131.4814569323013
 30
0.0
 11
82.9989170456999
 21
131.3893550372574
 31
0.0
 11
83.00908526158571
 21
131.4354059847793
 31
0.0
 11
83.03958990925079
 21
131.4814569323013
 31
0.0
  0
SPLINE
  5
F9
330
39
100
AcDbEntity
  8
1
  6
Continuous
 62
     7
100
AcDbSpline
210
0.0
220
0.0
230
1.0
 70
     8
 71
     3
 72
    43
 73
    39
 74
    37
 42
0.0000000001
 43
0.0000000001
 44
0.00000001
 40
0.0
 40
0.0
 40
0.0
 40
0.0
 40
0.1688137855046003
 40
0.3257916605813871
 40
0.5840608809992584
 40
0.8432525004892251
 40
1.210036324264213
 40
1.576450108881277
 40
2.041907679455141
 40
2.507335469006678
 40
3.059042714115951
 40
3.610725051693095
 40
4.232678113220652
 40
4.854618900493289
 40
5.528446411375473
 40
6.202268200923531
 40
6.907902927075116
 40
7.613535086912888
 40
8.329885337892581
 40
9.046235588872287
 40
9.751867748710117
 40
10.45750247486166
 40
11.13132426440969
 40
11.80515177529188
 40
12.42709256256458
 40
13.04904562409212
 40
13.60072796166925
 40
14.15243520677848
 40
14.61786299632998
 40
15.08332056690387
 40
15.44973435152098
 40
15.81651817529594
 40
16.07570979478589
 40
16.33397901520375
 40
16.49095689028052
 40
16.65977067578515
 40
16.71500855496551
 40
16.76216873288704
 40
16.76216873288704
 40
16.76216873288704
 40
16.76216873288704
 10
83.03958990925079
 20
131.4814569323013
 30
0.0
 10
83.07923683194727
 20
131.5220067965151
 30
0.0
 10
83.15575094330141
 20
131.6002634836633
 30
0.0
 10
83.33364993950238
 20
131.6855744073217
 30
0.0
 10
83.54871012713019
 20
131.7501058308233
 30
0.0
 10
83.83214708316851
 20
131.831509577309
 30
0.0
 10
84.15474033950011
 20
131.9053987993643
 30
0.0
 10
84.54754647808471
 20
131.9788901414592
 30
0.0
 10
84.97513453775399
 20
132.0438791256758
 30
0.0
 10
85.46515732685349
 20
132.1081606493858
 30
0.0
 10
85.98502529496552
 20
132.1651188056235
 30
0.0
 10
86.55771769777358
 20
132.218073020801
 30
0.0
 10
87.15453197465078
 20
132.2636189326329
 30
0.0
 10
87.79252924524351
 20
132.3037304278907
 30
0.0
 10
88.44826475062577
 20
132.3363820579552
 30
0.0
 10
89.13220973686876
 20
132.3624687895513
 30
0.0
 10
89.82700725608628
 20
132.3809875226164
 30
0.0
 10
90.53613572641295
 20
132.3923167657966
 30
0.0
 10
91.24891704569285
 20
132.3960165700064
 30
0.0
 10
91.96169836501495
 20
132.392316765826
 30
0.0
 10
92.67082683521721
 20
132.3809875225008
 30
0.0
 10
93.36562435488244
 20
132.3624687899768
 30
0.0
 10
94.04956933952887
 20
132.3363820564465
 30
0.0
 10
94.70530485065922
 20
132.3037304333467
 30
0.0
 10
95.34330210137645
 20
132.263618914006
 30
0.0
 10
95.94011644840754
 20
132.2180730871789
 30
0.0
 10
96.51280861748931
 20
132.1651185887971
 30
0.0
 10
97.03267739081373
 20
132.1081614082295
 30
0.0
 10
97.52269761875213
 20
132.0438767811789
 30
0.0
 10
97.95029422377127
 20
131.9788981513021
 30
0.0
 10
98.3430748308926
 20
131.9053758729138
 30
0.0
 10
98.66574944898656
 20
131.83158523633
 30
0.0
 10
98.94896569905428
 20
131.7499140619823
 30
0.0
 10
99.16468091757244
 20
131.6861763347731
 30
0.0
 10
99.34098325260121
 20
131.5989307480763
 30
0.0
 10
99.4348064913442
 20
131.5126597845992
 30
0.0
 10
99.49193204614304
 20
131.4395524081411
 30
0.0
 10
99.49671446673904
 20
131.4051837674012
 30
0.0
 10
99.4989170456999
 20
131.3893550372661
 30
0.0
 11
83.03958990925079
 21
131.4814569323013
 31
0.0
 11
83.16463053315081
 21
131.5948718191156
 31
0.0
 11
83.30364522624745
 21
131.6677893641021
 31
0.0
 11
83.54863107435895
 21
131.7495507513234
 31
0.0
 11
83.79814506422133
 21
131.8197153041745
 31
0.0
 11
84.15534473881191
 21
131.9030145590054
 31
0.0
 11
84.51539477640131
 21
131.9710074409069
 31
0.0
 11
84.97535819897654
 21
132.0423124189758
 31
0.0
 11
85.4368232352205
 21
132.1029180920698
 31
0.0
 11
85.98518636259955
 21
132.1635709142394
 31
0.0
 11
86.5345096396879
 21
132.2145350079084
 31
0.0
 11
87.15463081085204
 21
132.2622355720299
 31
0.0
 11
87.77534040338554
 21
132.3013500784208
 31
0.0
 11
88.44832330825699
 21
132.3350772806835
 31
0.0
 11
89.12165370841422
 21
132.3608061806572
 31
0.0
 11
89.82703456575642
 21
132.3797326923854
 31
0.0
 11
90.53257674731695
 21
132.3910010124077
 31
0.0
 11
91.24891704569993
 21
132.394777120359
 31
0.0
 11
91.96525734408291
 21
132.3910010124077
 31
0.0
 11
92.6707995256435
 21
132.3797326923854
 31
0.0
 11
93.37618038298567
 21
132.3608061806572
 31
0.0
 11
94.04951078314286
 21
132.3350772806835
 31
0.0
 11
94.72249368801431
 21
132.3013500784208
 31
0.0
 11
95.34320328054788
 21
132.2622355720299
 31
0.0
 11
95.96332445171201
 21
132.2145350079084
 31
0.0
 11
96.51264772880035
 21
132.1635709142394
 31
0.0
 11
97.06101085617935
 21
132.1029180920698
 31
0.0
 11
97.52247589242327
 21
132.0423124189758
 31
0.0
 11
97.98243931499853
 21
131.9710074409069
 31
0.0
 11
98.34248935258798
 21
131.9030145590054
 31
0.0
 11
98.69968902717852
 21
131.8197153041745
 31
0.0
 11
98.94920301704089
 21
131.7495507513234
 31
0.0
 11
99.19418886515237
 21
131.6677893641021
 31
0.0
 11
99.333203558249
 21
131.5948718191156
 31
0.0
 11
99.45824418214906
 21
131.4814569323013
 31
0.0
 11
99.48874882981234
 21
131.4354059847836
 31
0.0
 11
99.4989170456999
 21
131.3893550372661
 31
0.0
  0
SPLINE
  5
FA
330
39
100
AcDbEntity
  8
1
  6
Continuous
 62
     7
100
AcDbSpline
210
0.0
220
0.0
230
1.0
 70
     8
 71
     3
 72
    27
 73
    23
 74
    21
 42
0.0000000001
 43
0.0000000001
 44
0.00000001
 40
0.0
 40
0.0
 40
0.0
 40
0.0
 40
0.3581713932725231
 40
0.7163527390381583
 40
1.421984898875988
 40
2.127619625027516
 40
2.801441414575531
 40
3.475268925457729
 40
4.097209712730396
 40
4.719162774257969
 40
5.270845111835144
 40
5.822552356944374
 40
6.287980146495882
 40
6.753437717069764
 40
7.119851501686868
 40
7.486635325461828
 40
7.745826944951771
 40
8.004096165369651
 40
8.161074040446446
 40
8.329887825951106
 40
8.385125705130628
 40
8.432285883051772
 40
8.432285883051772
 40
8.432285883051772
 40
8.432285883051772
 10
91.2489170456999
 20
127.4320463621523
 30
0.0
 10
91.36830765442818
 20
127.4318630656421
 30
0.0
 10
91.60709218938642
 20
127.4314964675284
 30
0.0
 10
92.08107441265484
 20
127.4276391648702
 30
0.0
 10
92.67082703324311
 20
127.4182702014994
 30
0.0
 10
93.36562430446784
 20
127.3997346108497
 30
0.0
 10
94.04956935280872
 20
127.3736521993544
 30
0.0
 10
94.70530484740353
 20
127.3409994542271
 30
0.0
 10
95.34330210222248
 20
127.300888213206
 30
0.0
 10
95.940116448209
 20
127.2553423155062
 30
0.0
 10
96.51280861754007
 20
127.2023878340336
 30
0.0
 10
97.03267739080246
 20
127.1454306492587
 30
0.0
 10
97.52269761875496
 20
127.0811460231634
 30
0.0
 10
97.95029422377071
 20
127.016167393056
 30
0.0
 10
98.34307483089273
 20
126.9426451147166
 30
0.0
 10
98.66574944898653
 20
126.8688544781214
 30
0.0
 10
98.94896569905428
 20
126.787183303776
 30
0.0
 10
99.1646809175725
 20
126.7234455765662
 30
0.0
 10
99.34098325260115
 20
126.6361999898694
 30
0.0
 10
99.43480649134412
 20
126.5499290263926
 30
0.0
 10
99.4919320461425
 20
126.4768216499347
 30
0.0
 10
99.49671446673889
 20
126.4424530091953
 30
0.0
 10
99.4989170456999
 20
126.4266242790604
 30
0.0
 11
91.2489170456999
 21
127.4320463621523
 31
0.0
 11
91.60708719489135
 21
127.4311023351645
 31
0.0
 11
91.9652573440829
 21
127.428270254201
 31
0.0
 11
92.67079952564349
 21
127.4170019341787
 31
0.0
 11
93.37618038298564
 21
127.3980754224505
 31
0.0
 11
94.04951078314282
 21
127.3723465224768
 31
0.0
 11
94.72249368801428
 21
127.3386193202141
 31
0.0
 11
95.34320328054781
 21
127.2995048138232
 31
0.0
 11
95.96332445171197
 21
127.2518042497016
 31
0.0
 11
96.51264772880035
 21
127.2008401560326
 31
0.0
 11
97.06101085617935
 21
127.1401873338631
 31
0.0
 11
97.52247589242329
 21
127.079581660769
 31
0.0
 11
97.98243931499853
 21
127.0082766827001
 31
0.0
 11
98.34248935258798
 21
126.9402838007986
 31
0.0
 11
98.69968902717852
 21
126.8569845459677
 31
0.0
 11
98.94920301704087
 21
126.7868199931166
 31
0.0
 11
99.19418886515237
 21
126.7050586058953
 31
0.0
 11
99.333203558249
 21
126.6321410609087
 31
0.0
 11
99.45824418214906
 21
126.5187261740944
 31
0.0
 11
99.48874882981194
 21
126.4726752265774
 31
0.0
 11
99.4989170456999
 21
126.4266242790604
 31
0.0
  0
SPLINE
  5
FB
330
39
100
AcDbEntity
  8
1
  6
Continuous
 62
     7
100
AcDbSpline
210
0.0
220
0.0
230
1.0
 70
     8
 71
     3
 72
    27
 73
    23
 74
    21
 42
0.0000000001
 43
0.0000000001
 44
0.00000001
 40
0.0
 40
0.0
 40
0.0
 40
0.0
 40
0.3581713932724947
 40
0.7163527390380875
 40
1.421984898875888
 40
2.127619625027459
 40
2.801441414575517
 40
3.4752689254577
 40
4.097209712730382
 40
4.71916277425794
 40
5.270845111835116
 40
5.822552356944359
 40
6.28798014649584
 40
6.753437717069708
 40
7.119851501686783
 40
7.486635325461771
 40
7.745826944951728
 40
8.004096165369608
 40
8.161074040446415
 40
8.329887825951044
 40
8.385125705130566
 40
8.432285883051724
 40
8.432285883051724
 40
8.432285883051724
 40
8.432285883051724
 10
91.2489170456999
 20
127.4320463621523
 30
0.0
 10
91.12952643697165
 20
127.4318630656421
 30
0.0
 10
90.89074190201337
 20
127.4314964675284
 30
0.0
 10
90.41675967874508
 20
127.4276391648702
 30
0.0
 10
89.82700705815675
 20
127.4182702014994
 30
0.0
 10
89.13220978693204
 20
127.3997346108498
 30
0.0
 10
88.44826473859112
 20
127.3736521993544
 30
0.0
 10
87.79252924399626
 20
127.3409994542271
 30
0.0
 10
87.1545319891774
 20
127.300888213206
 30
0.0
 10
86.5577176431908
 20
127.2553423155062
 30
0.0
 10
85.98502547385976
 20
127.2023878340337
 30
0.0
 10
85.4651567005974
 20
127.1454306492587
 30
0.0
 10
84.97513647264483
 20
127.0811460231634
 30
0.0
 10
84.54753986762916
 20
127.016167393056
 30
0.0
 10
84.15475926050713
 20
126.9426451147166
 30
0.0
 10
83.83208464241332
 20
126.8688544781215
 30
0.0
 10
83.5488683923456
 20
126.7871833037759
 30
0.0
 10
83.33315317382733
 20
126.7234455765662
 30
0.0
 10
83.15685083879869
 20
126.6361999898695
 30
0.0
 10
83.06302760005573
 20
126.5499290263925
 30
0.0
 10
83.00590204525739
 20
126.4768216499348
 30
0.0
 10
83.00111962466096
 20
126.4424530091953
 30
0.0
 10
82.9989170456999
 20
126.4266242790604
 30
0.0
 11
91.2489170456999
 21
127.4320463621523
 31
0.0
 11
90.89074689650848
 21
127.4311023351645
 31
0.0
 11
90.53257674731697
 21
127.428270254201
 31
0.0
 11
89.82703456575641
 21
127.4170019341787
 31
0.0
 11
89.12165370841422
 21
127.3980754224505
 31
0.0
 11
88.44832330825699
 21
127.3723465224768
 31
0.0
 11
87.77534040338554
 21
127.3386193202141
 31
0.0
 11
87.154630810852
 21
127.2995048138232
 31
0.0
 11
86.53450963968786
 21
127.2518042497016
 31
0.0
 11
85.98518636259948
 21
127.2008401560326
 31
0.0
 11
85.43682323522046
 21
127.1401873338631
 31
0.0
 11
84.97535819897655
 21
127.079581660769
 31
0.0
 11
84.51539477640132
 21
127.0082766827001
 31
0.0
 11
84.15534473881191
 21
126.9402838007986
 31
0.0
 11
83.79814506422133
 21
126.8569845459677
 31
0.0
 11
83.54863107435897
 21
126.7868199931166
 31
0.0
 11
83.30364522624747
 21
126.7050586058953
 31
0.0
 11
83.16463053315083
 21
126.6321410609087
 31
0.0
 11
83.03958990925081
 21
126.5187261740944
 31
0.0
 11
83.00908526158793
 21
126.4726752265774
 31
0.0
 11
82.9989170456999
 21
126.4266242790604
 31
0.0
  0
SPLINE
  5
FC
330
39
100
AcDbEntity
  8
1
  6
Continuous
 62
     7
100
AcDbSpline
210
0.0
220
0.0
230
1.0
 70
     8
 71
     3
 72
    27
 73
    23
 74
    21
 42
0.0000000001
 43
0.0000000001
 44
0.00000001
 40
0.0
 40
0.0
 40
0.0
 40
0.0
 40
0.3581713932725231
 40
0.7163527390381586
 40
1.421984898875988
 40
2.127619625027516
 40
2.801441414575531
 40
3.475268925457729
 40
4.097209712730395
 40
4.719162774257968
 40
5.270845111835143
 40
5.822552356944369
 40
6.287980146495872
 40
6.753437717069761
 40
7.11985150168687
 40
7.486635325461833
 40
7.745826944951773
 40
8.004096165369653
 40
8.161074040446447
 40
8.329887825951108
 40
8.38512570513063
 40
8.432285883051788
 40
8.432285883051788
 40
8.432285883051788
 40
8.432285883051788
 10
91.2489170456999
 20
122.4693156039457
 30
0.0
 10
91.36830765442818
 20
122.4691323074355
 30
0.0
 10
91.60709218938645
 20
122.4687657093218
 30
0.0
 10
92.0810744126548
 20
122.4649084066636
 30
0.0
 10
92.67082703324313
 20
122.4555394432928
 30
0.0
 10
93.36562430446783
 20
122.4370038526431
 30
0.0
 10
94.04956935280873
 20
122.4109214411478
 30
0.0
 10
94.70530484740354
 20
122.3782686960205
 30
0.0
 10
95.34330210222244
 20
122.3381574549994
 30
0.0
 10
95.94011644820903
 20
122.2926115572996
 30
0.0
 10
96.51280861754006
 20
122.2396570758271
 30
0.0
 10
97.03267739080243
 20
122.1826998910522
 30
0.0
 10
97.52269761875499
 20
122.118415264957
 30
0.0
 10
97.95029422377068
 20
122.0534366348494
 30
0.0
 10
98.34307483089273
 20
121.97991435651
 30
0.0
 10
98.66574944898653
 20
121.9061237199149
 30
0.0
 10
98.94896569905428
 20
121.8244525455693
 30
0.0
 10
99.16468091757247
 20
121.7607148183596
 30
0.0
 10
99.34098325260116
 20
121.6734692316628
 30
0.0
 10
99.43480649134409
 20
121.5871982681859
 30
0.0
 10
99.49193204614252
 20
121.5140908917282
 30
0.0
 10
99.49671446673889
 20
121.4797222509887
 30
0.0
 10
99.4989170456999
 20
121.4638935208538
 30
0.0
 11
91.2489170456999
 21
122.4693156039457
 31
0.0
 11
91.60708719489135
 21
122.4683715769579
 31
0.0
 11
91.9652573440829
 21
122.4655394959944
 31
0.0
 11
92.67079952564349
 21
122.4542711759721
 31
0.0
 11
93.37618038298564
 21
122.4353446642439
 31
0.0
 11
94.04951078314282
 21
122.4096157642702
 31
0.0
 11
94.72249368801428
 21
122.3758885620075
 31
0.0
 11
95.34320328054781
 21
122.3367740556166
 31
0.0
 11
95.96332445171197
 21
122.289073491495
 31
0.0
 11
96.51264772880035
 21
122.238109397826
 31
0.0
 11
97.06101085617935
 21
122.1774565756565
 31
0.0
 11
97.52247589242329
 21
122.1168509025625
 31
0.0
 11
97.98243931499853
 21
122.0455459244935
 31
0.0
 11
98.34248935258798
 21
121.977553042592
 31
0.0
 11
98.69968902717852
 21
121.894253787761
 31
0.0
 11
98.94920301704087
 21
121.82408923491
 31
0.0
 11
99.19418886515237
 21
121.7423278476887
 31
0.0
 11
99.333203558249
 21
121.6694103027021
 31
0.0
 11
99.45824418214906
 21
121.5559954158878
 31
0.0
 11
99.48874882981194
 21
121.5099444683708
 31
0.0
 11
99.4989170456999
 21
121.4638935208538
 31
0.0
  0
SPLINE
  5
FD
330
39
100
AcDbEntity
  8
1
  6
Continuous
 62
     7
100
AcDbSpline
210
0.0
220
0.0
230
1.0
 70
     8
 71
     3
 72
    27
 73
    23
 74
    21
 42
0.0000000001
 43
0.0000000001
 44
0.00000001
 40
0.0
 40
0.0
 40
0.0
 40
0.0
 40
0.3581713932724946
 40
0.7163527390380875
 40
1.421984898875888
 40
2.127619625027459
 40
2.801441414575517
 40
3.4752689254577
 40
4.097209712730381
 40
4.719162774257939
 40
5.270845111835115
 40
5.822552356944355
 40
6.28798014649583
 40
6.753437717069705
 40
7.119851501686786
 40
7.486635325461777
 40
7.74582694495173
 40
8.00409616536961
 40
8.161074040446417
 40
8.329887825951046
 40
8.385125705130568
 40
8.43228588305174
 40
8.43228588305174
 40
8.43228588305174
 40
8.43228588305174
 10
91.2489170456999
 20
122.4693156039457
 30
0.0
 10
91.12952643697162
 20
122.4691323074355
 30
0.0
 10
90.89074190201339
 20
122.4687657093218
 30
0.0
 10
90.41675967874507
 20
122.4649084066636
 30
0.0
 10
89.82700705815674
 20
122.4555394432928
 30
0.0
 10
89.13220978693201
 20
122.4370038526431
 30
0.0
 10
88.44826473859112
 20
122.4109214411478
 30
0.0
 10
87.79252924399629
 20
122.3782686960205
 30
0.0
 10
87.15453198917734
 20
122.3381574549994
 30
0.0
 10
86.55771764319081
 20
122.2926115572996
 30
0.0
 10
85.98502547385976
 20
122.2396570758271
 30
0.0
 10
85.46515670059739
 20
122.1826998910521
 30
0.0
 10
84.97513647264483
 20
122.1184152649569
 30
0.0
 10
84.54753986762917
 20
122.0534366348494
 30
0.0
 10
84.15475926050712
 20
121.97991435651
 30
0.0
 10
83.83208464241329
 20
121.9061237199149
 30
0.0
 10
83.54886839234558
 20
121.8244525455693
 30
0.0
 10
83.33315317382731
 20
121.7607148183596
 30
0.0
 10
83.15685083879868
 20
121.6734692316628
 30
0.0
 10
83.06302760005578
 20
121.5871982681859
 30
0.0
 10
83.00590204525736
 20
121.5140908917281
 30
0.0
 10
83.00111962466094
 20
121.4797222509887
 30
0.0
 10
82.9989170456999
 20
121.4638935208538
 30
0.0
 11
91.2489170456999
 21
122.4693156039457
 31
0.0
 11
90.89074689650848
 21
122.4683715769579
 31
0.0
 11
90.53257674731697
 21
122.4655394959944
 31
0.0
 11
89.82703456575641
 21
122.4542711759721
 31
0.0
 11
89.12165370841422
 21
122.4353446642439
 31
0.0
 11
88.44832330825699
 21
122.4096157642702
 31
0.0
 11
87.77534040338554
 21
122.3758885620075
 31
0.0
 11
87.154630810852
 21
122.3367740556166
 31
0.0
 11
86.53450963968786
 21
122.289073491495
 31
0.0
 11
85.98518636259948
 21
122.238109397826
 31
0.0
 11
85.43682323522046
 21
122.1774565756565
 31
0.0
 11
84.97535819897655
 21
122.1168509025625
 31
0.0
 11
84.51539477640132
 21
122.0455459244935
 31
0.0
 11
84.15534473881191
 21
121.977553042592
 31
0.0
 11
83.79814506422133
 21
121.894253787761
 31
0.0
 11
83.54863107435897
 21
121.82408923491
 31
0.0
 11
83.30364522624747
 21
121.7423278476887
 31
0.0
 11
83.16463053315083
 21
121.6694103027021
 31
0.0
 11
83.03958990925081
 21
121.5559954158878
 31
0.0
 11
83.00908526158793
 21
121.5099444683708
 31
0.0
 11
82.9989170456999
 21
121.4638935208538
 31
0.0
  0
SPLINE
  5
FE
330
39
100
AcDbEntity
  8
1
  6
Continuous
 62
     7
100
AcDbSpline
210
0.0
220
0.0
230
1.0
 70
     8
 71
     3
 72
    27
 73
    23
 74
    21
 42
0.0000000001
 43
0.0000000001
 44
0.00000001
 40
0.0
 40
0.0
 40
0.0
 40
0.0
 40
0.3581713932725233
 40
0.7163527390381589
 40
1.421984898875988
 40
2.127619625027516
 40
2.801441414575532
 40
3.475268925457729
 40
4.097209712730397
 40
4.719162774257964
 40
5.270845111835137
 40
5.822552356944367
 40
6.287980146495875
 40
6.753437717069764
 40
7.119851501686878
 40
7.486635325461836
 40
7.745826944951779
 40
8.00409616536966
 40
8.161074040446454
 40
8.329887825951115
 40
8.385125705130637
 40
8.432285883051796
 40
8.432285883051796
 40
8.432285883051796
 40
8.432285883051796
 10
91.2489170456999
 20
117.5065848457392
 30
0.0
 10
91.36830765442817
 20
117.5064015492289
 30
0.0
 10
91.60709218938645
 20
117.5060349511152
 30
0.0
 10
92.08107441265481
 20
117.502177648457
 30
0.0
 10
92.67082703324314
 20
117.4928086850862
 30
0.0
 10
93.36562430446782
 20
117.4742730944365
 30
0.0
 10
94.04956935280875
 20
117.4481906829412
 30
0.0
 10
94.70530484740353
 20
117.4155379378139
 30
0.0
 10
95.34330210222245
 20
117.3754266967927
 30
0.0
 10
95.94011644820901
 20
117.329880799093
 30
0.0
 10
96.51280861754006
 20
117.2769263176206
 30
0.0
 10
97.03267739080242
 20
117.2199691328456
 30
0.0
 10
97.52269761875502
 20
117.1556845067504
 30
0.0
 10
97.95029422377066
 20
117.0907058766428
 30
0.0
 10
98.34307483089276
 20
117.0171835983034
 30
0.0
 10
98.66574944898656
 20
116.9433929617083
 30
0.0
 10
98.94896569905428
 20
116.8617217873627
 30
0.0
 10
99.1646809175725
 20
116.797984060153
 30
0.0
 10
99.34098325260116
 20
116.7107384734562
 30
0.0
 10
99.43480649134409
 20
116.6244675099793
 30
0.0
 10
99.49193204614252
 20
116.5513601335215
 30
0.0
 10
99.49671446673889
 20
116.5169914927821
 30
0.0
 10
99.4989170456999
 20
116.5011627626472
 30
0.0
 11
91.2489170456999
 21
117.5065848457392
 31
0.0
 11
91.60708719489135
 21
117.5056408187513
 31
0.0
 11
91.9652573440829
 21
117.5028087377878
 31
0.0
 11
92.67079952564349
 21
117.4915404177655
 31
0.0
 11
93.37618038298564
 21
117.4726139060373
 31
0.0
 11
94.04951078314282
 21
117.4468850060636
 31
0.0
 11
94.72249368801428
 21
117.4131578038009
 31
0.0
 11
95.34320328054781
 21
117.37404329741
 31
0.0
 11
95.96332445171197
 21
117.3263427332885
 31
0.0
 11
96.51264772880035
 21
117.2753786396195
 31
0.0
 11
97.06101085617935
 21
117.21472581745
 31
0.0
 11
97.52247589242329
 21
117.1541201443559
 31
0.0
 11
97.98243931499853
 21
117.0828151662869
 31
0.0
 11
98.34248935258798
 21
117.0148222843854
 31
0.0
 11
98.69968902717852
 21
116.9315230295545
 31
0.0
 11
98.94920301704087
 21
116.8613584767034
 31
0.0
 11
99.19418886515237
 21
116.7795970894821
 31
0.0
 11
99.333203558249
 21
116.7066795444955
 31
0.0
 11
99.45824418214906
 21
116.5932646576812
 31
0.0
 11
99.48874882981194
 21
116.5472137101642
 31
0.0
 11
99.4989170456999
 21
116.5011627626472
 31
0.0
  0
SPLINE
  5
FF
330
39
100
AcDbEntity
  8
1
  6
Continuous
 62
     7
100
AcDbSpline
210
0.0
220
0.0
230
1.0
 70
     8
 71
     3
 72
    27
 73
    23
 74
    21
 42
0.0000000001
 43
0.0000000001
 44
0.00000001
 40
0.0
 40
0.0
 40
0.0
 40
0.0
 40
0.3581713932724949
 40
0.7163527390380878
 40
1.421984898875889
 40
2.127619625027459
 40
2.801441414575518
 40
3.475268925457701
 40
4.097209712730383
 40
4.719162774257936
 40
5.270845111835109
 40
5.822552356944352
 40
6.287980146495833
 40
6.753437717069708
 40
7.119851501686794
 40
7.486635325461779
 40
7.745826944951736
 40
8.004096165369615
 40
8.161074040446422
 40
8.329887825951051
 40
8.385125705130573
 40
8.432285883051746
 40
8.432285883051746
 40
8.432285883051746
 40
8.432285883051746
 10
91.2489170456999
 20
117.5065848457392
 30
0.0
 10
91.12952643697162
 20
117.506401549229
 30
0.0
 10
90.89074190201342
 20
117.5060349511152
 30
0.0
 10
90.41675967874501
 20
117.502177648457
 30
0.0
 10
89.8270070581568
 20
117.4928086850862
 30
0.0
 10
89.13220978693201
 20
117.4742730944365
 30
0.0
 10
88.44826473859112
 20
117.4481906829412
 30
0.0
 10
87.79252924399626
 20
117.4155379378139
 30
0.0
 10
87.15453198917737
 20
117.3754266967927
 30
0.0
 10
86.5577176431908
 20
117.3298807990931
 30
0.0
 10
85.98502547385976
 20
117.2769263176206
 30
0.0
 10
85.46515670059739
 20
117.2199691328456
 30
0.0
 10
84.97513647264485
 20
117.1556845067503
 30
0.0
 10
84.54753986762916
 20
117.0907058766428
 30
0.0
 10
84.15475926050712
 20
117.0171835983034
 30
0.0
 10
83.83208464241332
 20
116.9433929617083
 30
0.0
 10
83.54886839234558
 20
116.8617217873627
 30
0.0
 10
83.33315317382733
 20
116.797984060153
 30
0.0
 10
83.15685083879868
 20
116.7107384734563
 30
0.0
 10
83.06302760005578
 20
116.6244675099793
 30
0.0
 10
83.00590204525736
 20
116.5513601335215
 30
0.0
 10
83.00111962466094
 20
116.5169914927821
 30
0.0
 10
82.9989170456999
 20
116.5011627626472
 30
0.0
 11
91.2489170456999
 21
117.5065848457392
 31
0.0
 11
90.89074689650848
 21
117.5056408187513
 31
0.0
 11
90.53257674731697
 21
117.5028087377878
 31
0.0
 11
89.82703456575641
 21
117.4915404177655
 31
0.0
 11
89.12165370841422
 21
117.4726139060373
 31
0.0
 11
88.44832330825699
 21
117.4468850060636
 31
0.0
 11
87.77534040338554
 21
117.4131578038009
 31
0.0
 11
87.154630810852
 21
117.37404329741
 31
0.0
 11
86.53450963968786
 21
117.3263427332885
 31
0.0
 11
85.98518636259948
 21
117.2753786396195
 31
0.0
 11
85.43682323522046
 21
117.21472581745
 31
0.0
 11
84.97535819897655
 21
117.1541201443559
 31
0.0
 11
84.51539477640132
 21
117.0828151662869
 31
0.0
 11
84.15534473881191
 21
117.0148222843854
 31
0.0
 11
83.79814506422133
 21
116.9315230295545
 31
0.0
 11
83.54863107435897
 21
116.8613584767034
 31
0.0
 11
83.30364522624747
 21
116.7795970894821
 31
0.0
 11
83.16463053315083
 21
116.7066795444955
 31
0.0
 11
83.03958990925081
 21
116.5932646576812
 31
0.0
 11
83.00908526158793
 21
116.5472137101642
 31
0.0
 11
82.9989170456999
 21
116.5011627626472
 31
0.0
  0
SPLINE
  5
100
330
39
100
AcDbEntity
  8
0
  6
Continuous
 62
     7
100
AcDbSpline
210
0.0
220
0.0
230
1.0
 70
     8
 71
     3
 72
    47
 73
    43
 74
    41
 42
0.0000000001
 43
0.0000000001
 44
0.00000001
 40
0.0
 40
0.0
 40
0.0
 40
0.0
 40
0.0486926897404626
 40
0.105803479434564
 40
0.260721840739074
 40
0.4047869320802354
 40
0.6417872719784104
 40
0.8796297996747948
 40
1.216188790456244
 40
1.552409232703191
 40
1.979507215646751
 40
2.406577548617441
 40
2.912813684204648
 40
3.419027001969157
 40
3.989717703206562
 40
4.560397117994816
 40
5.178685638640668
 40
5.796968906016957
 40
6.444442445434535
 40
7.09191362714073
 40
7.749219303371048
 40
8.406524979601379
 40
9.053996161307573
 40
9.701469700725193
 40
10.31975296810153
 40
10.93804148874735
 40
11.50872090353558
 40
12.07941160477295
 40
12.58562492253746
 40
13.09186105812471
 40
13.51893139109541
 40
13.94602937403898
 40
14.28224981628589
 40
14.61880880706733
 40
14.85665133476372
 40
15.09365167466185
 40
15.23771676600304
 40
15.39263512730753
 40
15.48506050720378
 40
15.57748588710002
 40
15.63276619020053
 40
15.68605989361379
 40
15.68605989361379
 40
15.68605989361379
 40
15.68605989361379
 10
83.67967646260101
 20
112.0171523140942
 30
0.0
 10
83.68022035560573
 20
112.0337517672092
 30
0.0
 10
83.68140217104131
 20
112.0698204236263
 30
0.0
 10
83.73628096337231
 20
112.1413766834309
 30
0.0
 10
83.82377489741091
 20
112.2214684068968
 30
0.0
 10
83.98560804340082
 20
112.3017705678571
 30
0.0
 10
84.18352534984118
 20
112.3602181183893
 30
0.0
 10
84.44340842947349
 20
112.4352262430356
 30
0.0
 10
84.73948597548601
 20
112.5029597877615
 30
0.0
 10
85.09989289728189
 20
112.5704625657047
 30
0.0
 10
85.49224599878723
 20
112.6301183167954
 30
0.0
 10
85.94187705242908
 20
112.6891371479312
 30
0.0
 10
86.41889658615759
 20
112.741428277345
 30
0.0
 10
86.94438512300826
 20
112.790044862203
 30
0.0
 10
87.49200784799118
 20
112.8318597122927
 30
0.0
 10
88.0774187390071
 20
112.8686853565648
 30
0.0
 10
88.67910597243485
 20
112.8986622105954
 30
0.0
 10
89.30667738188642
 20
112.9226119569624
 30
0.0
 10
89.9442068966365
 20
112.9396136682182
 30
0.0
 10
90.59488607549142
 20
112.9500148356171
 30
0.0
 10
91.24891704569694
 20
112.9534115584481
 30
0.0
 10
91.9029480159202
 20
112.9500148356406
 30
0.0
 10
92.55362719472274
 20
112.9396136681254
 30
0.0
 10
93.19115670966136
 20
112.9226119573041
 30
0.0
 10
93.81872811844069
 20
112.8986622093835
 30
0.0
 10
94.42041535428888
 20
112.8686853609476
 30
0.0
 10
95.00582623693529
 20
112.8318596973297
 30
0.0
 10
95.55344899145979
 20
112.7900449155245
 30
0.0
 10
96.07893742988864
 20
112.7414281031673
 30
0.0
 10
96.55595730269212
 20
112.689137757515
 30
0.0
 10
97.00558727782257
 20
112.6301164334334
 30
0.0
 10
97.3979439778159
 20
112.5704690001364
 30
0.0
 10
97.75834014808828
 20
112.5029413703792
 30
0.0
 10
98.05445195661835
 20
112.435287022403
 30
0.0
 10
98.31424209034884
 20
112.3600640561792
 30
0.0
 10
98.51243526434114
 20
112.3022541649612
 30
0.0
 10
98.67359592485462
 20
112.2203975746212
 30
0.0
 10
98.77181106167109
 20
112.1370882159478
 30
0.0
 10
98.83643093858176
 20
112.0296971648433
 30
0.0
 10
98.79109494220633
 20
111.9512906989758
 30
0.0
 10
98.74451610581932
 20
111.9047615749481
 30
0.0
 10
98.71728041369157
 20
111.8807252259918
 30
0.0
 10
98.70391173600231
 20
111.8689269503865
 30
0.0
 11
83.67967646260101
 21
112.0171523140942
 31
0.0
 11
83.68577471088881
 21
112.0654616237765
 31
0.0
 11
83.71623538877699
 21
112.1137709334598
 31
0.0
 11
83.83095540911521
 21
112.2178815265946
 31
0.0
 11
83.95851958308717
 21
112.2848302537071
 31
0.0
 11
84.18331568121485
 21
112.3599027212196
 31
0.0
 11
84.41226815336155
 21
112.4243219223861
 31
0.0
 11
84.74002394036475
 21
112.5007947826813
 31
0.0
 11
85.07039880648463
 21
112.5632178042439
 31
0.0
 11
85.49244986779515
 21
112.6286822119868
 31
0.0
 11
85.91588005952016
 21
112.6843234021198
 31
0.0
 11
86.4190443583251
 21
112.7400074517427
 31
0.0
 11
86.92309067754442
 21
112.7867966723346
 31
0.0
 11
87.49209862831222
 21
112.830589690521
 31
0.0
 11
88.06164708347144
 21
112.8665000189629
 31
0.0
 11
88.67915976076515
 21
112.8974643233149
 31
0.0
 11
89.29699164419631
 21
112.9210855538797
 31
0.0
 11
89.94423198299278
 21
112.9384616317042
 31
0.0
 11
90.59162051179858
 21
112.9488068678384
 31
0.0
 11
91.2489170456999
 21
112.952273642407
 31
0.0
 11
91.90621357960123
 21
112.9488068678384
 31
0.0
 11
92.55360210840703
 21
112.9384616317042
 31
0.0
 11
93.20084244720354
 21
112.9210855538798
 31
0.0
 11
93.81867433063475
 21
112.8974643233149
 31
0.0
 11
94.43618700792842
 21
112.8665000189629
 31
0.0
 11
95.00573546308762
 21
112.830589690521
 31
0.0
 11
95.57474341385539
 21
112.7867966723346
 31
0.0
 11
96.07878973307471
 21
112.7400074517427
 31
0.0
 11
96.58195403187969
 21
112.6843234021198
 31
0.0
 11
97.00538422360472
 21
112.6286822119868
 31
0.0
 11
97.42743528491525
 21
112.5632178042439
 31
0.0
 11
97.75781015103509
 21
112.5007947826813
 31
0.0
 11
98.08556593803827
 21
112.4243219223861
 31
0.0
 11
98.31451841018499
 21
112.3599027212196
 31
0.0
 11
98.53931450831263
 21
112.2848302537071
 31
0.0
 11
98.66687868228462
 21
112.2178815265946
 31
0.0
 11
98.78159870262283
 21
112.1137709334599
 31
0.0
 11
98.81891704569992
 21
112.0292144900688
 31
0.0
 11
98.78159870262284
 21
111.9446580466777
 31
0.0
 11
98.74351778942838
 21
111.9045861617562
 31
0.0
 11
98.70391173600231
 21
111.8689269503865
 31
0.0
  0
SPLINE
  5
101
330
39
100
AcDbEntity
  8
1
  6
Continuous
 62
     7
100
AcDbSpline
210
0.0
220
0.0
230
1.0
 70
    11
 71
     3
 72
    79
 73
    75
 74
    73
 42
0.0000000001
 43
0.0000000001
 44
0.00000001
 40
0.0
 40
0.0
 40
0.0
 40
0.0
 40
0.1227736621851899
 40
0.2369393895137468
 40
0.4247715498176413
 40
0.6132745458103343
 40
0.880026417646683
 40
1.14650917009545
 40
1.485023766876439
 40
1.823516704732041
 40
2.224758337538768
 40
2.625981855776681
 40
3.078311355069438
 40
3.530631927631392
 40
4.020688299182099
 40
4.510740509762473
 40
5.023929401509047
 40
5.537116426845623
 40
6.058098427558122
 40
6.579080428270636
 40
7.092267453607226
 40
7.605456345353842
 40
8.095508555934245
 40
8.585564927484912
 40
9.037885500046853
 40
9.490214999339592
 40
9.891438517577502
 40
10.29268015038424
 40
10.63117308823986
 40
10.96968768502086
 40
11.23617043746966
 40
11.50292230930603
 40
11.69142530529869
 40
11.87925746560258
 40
11.99342319293118
 40
12.11619685511636
 40
12.18942076269117
 40
12.26264467026602
 40
12.3854183324512
 40
12.49958405977974
 40
12.68741622008364
 40
12.87591921607632
 40
13.14267108791269
 40
13.40915384036147
 40
13.74766843714246
 40
14.08616137499809
 40
14.48740300780478
 40
14.88862652604272
 40
15.3409560253355
 40
15.79327659789744
 40
16.28333296944809
 40
16.7733851800285
 40
17.28657407177512
 40
17.79976109711172
 40
18.32074309782423
 40
18.84172509853675
 40
19.35491212387331
 40
19.86810101561988
 40
20.35815322620027
 40
20.84820959775097
 40
21.30053017031291
 40
21.75285966960568
 40
22.15408318784361
 40
22.55532482065032
 40
22.89381775850594
 40
23.23233235528696
 40
23.49881510773574
 40
23.76556697957207
 40
23.95406997556473
 40
24.14190213586861
 40
24.25606786319715
 40
24.37884152538233
 40
24.45206543295718
 40
24.52528934053201
 40
24.52528934053201
 40
24.52528934053201
 40
24.52528934053201
 10
85.27849731010058
 20
111.4714488080508
 30
0.0
 10
85.307331435698
 20
111.4419579977135
 30
0.0
 10
85.36297806213742
 20
111.3850440434239
 30
0.0
 10
85.49235915028356
 20
111.3229997353087
 30
0.0
 10
85.64876655946742
 20
111.2760677909438
 30
0.0
 10
85.85490252749533
 20
111.2168650662272
 30
0.0
 10
86.08951580482734
 20
111.1631274501869
 30
0.0
 10
86.37519299652524
 20
111.1096792013906
 30
0.0
 10
86.68616613083017
 20
111.0624144855967
 30
0.0
 10
87.04254634108433
 20
111.015664286535
 30
0.0
 10
87.42063213607493
 20
110.9742401729077
 30
0.0
 10
87.83713570175344
 20
110.9357280164149
 30
0.0
 10
88.27118244857324
 20
110.9026037169008
 30
0.0
 10
88.7351804635498
 20
110.8734317203497
 30
0.0
 10
89.21207901291871
 20
110.8496850803029
 30
0.0
 10
89.70949354836822
 20
110.8307129118692
 30
0.0
 10
90.21480083507166
 20
110.8172447423679
 30
0.0
 10
90.73053063167352
 20
110.8090052927802
 30
0.0
 10
91.24891704569272
 20
110.8063145260903
 30
0.0
 10
91.76730345975481
 20
110.8090052927364
 30
0.0
 10
92.28303325622989
 20
110.8172447425399
 30
0.0
 10
92.78834054338988
 20
110.8307129112364
 30
0.0
 10
93.28575507721156
 20
110.8496850825472
 30
0.0
 10
93.7626536324411
 20
110.8734317122338
 30
0.0
 10
94.22665162715298
 20
110.9026037446092
 30
0.0
 10
94.66069844550009
 20
110.9357279176749
 30
0.0
 10
95.07720177287644
 20
110.9742404954463
 30
0.0
 10
95.4552883888442
 20
111.0156631577223
 30
0.0
 10
95.81166598779367
 20
111.0624179731373
 30
0.0
 10
96.12264783475347
 20
111.1096672864032
 30
0.0
 10
96.40829899512065
 20
111.1631615542727
 30
0.0
 10
96.64299522715544
 20
111.2167525201639
 30
0.0
 10
96.84890616812334
 20
111.2763530553817
 30
0.0
 10
97.00598143271265
 20
111.3221043422142
 30
0.0
 10
97.13373459947336
 20
111.3870265451998
 30
0.0
 10
97.21152667246037
 20
111.4527813186558
 30
0.0
 10
97.26288593948597
 20
111.53843200444
 30
0.0
 10
97.21152667246034
 20
111.6240826902241
 30
0.0
 10
97.13373459947337
 20
111.6898374636802
 30
0.0
 10
97.00598143271265
 20
111.7547596666658
 30
0.0
 10
96.84890616812331
 20
111.8005109534983
 30
0.0
 10
96.64299522715544
 20
111.8601114887159
 30
0.0
 10
96.4082989951206
 20
111.9137024546072
 30
0.0
 10
96.12264783475351
 20
111.9671967224767
 30
0.0
 10
95.8116659877937
 20
112.0144460357427
 30
0.0
 10
95.45528838884422
 20
112.0612008511577
 30
0.0
 10
95.07720177287649
 20
112.1026235134337
 30
0.0
 10
94.66069844550012
 20
112.1411360912051
 30
0.0
 10
94.22665162715299
 20
112.1742602642707
 30
0.0
 10
93.76265363244107
 20
112.2034322966464
 30
0.0
 10
93.28575507721163
 20
112.2271789263328
 30
0.0
 10
92.78834054338975
 20
112.2461510976438
 30
0.0
 10
92.28303325623037
 20
112.2596192663392
 30
0.0
 10
91.76730345975301
 20
112.2678587161471
 30
0.0
 10
91.2489170456995
 20
112.2705494827764
 30
0.0
 10
90.73053063164832
 20
112.2678587161495
 30
0.0
 10
90.21480083516416
 20
112.2596192663299
 30
0.0
 10
89.70949354802937
 20
112.2461510976779
 30
0.0
 10
89.21207901411994
 20
112.227178926212
 30
0.0
 10
88.73518045920584
 20
112.203432297083
 30
0.0
 10
88.27118246340351
 20
112.1742602627799
 30
0.0
 10
87.83713564890502
 20
112.1411360965179
 30
0.0
 10
87.4206323087065
 20
112.1026234960791
 30
0.0
 10
87.04254573691247
 20
112.0612009118949
 30
0.0
 10
86.6861679974584
 20
112.0144458480911
 30
0.0
 10
86.37518661929423
 20
111.967197363578
 30
0.0
 10
86.08953405827771
 20
111.9137006195928
 30
0.0
 10
85.85484228972791
 20
111.8601175444024
 30
0.0
 10
85.64891924088826
 20
111.8004956044765
 30
0.0
 10
85.49187991112224
 20
111.7548078444486
 30
0.0
 10
85.36403915194723
 20
111.6897307926097
 30
0.0
 10
85.28651333271918
 20
111.6244467116169
 30
0.0
 10
85.23451543880958
 20
111.5376670394764
 30
0.0
 10
85.26383668633689
 20
111.4935215518593
 30
0.0
 10
85.27849731010056
 20
111.4714488080508
 30
0.0
 11
85.27849731010058
 21
111.4714488080508
 31
0.0
 11
85.36943594566426
 21
111.3889652540041
 31
0.0
 11
85.47053754064363
 21
111.3359343121957
 31
0.0
 11
85.64870906654289
 21
111.2764714851257
 31
0.0
 11
85.83017378644281
 21
111.2254427194159
 31
0.0
 11
86.08995536796323
 21
111.1648614431752
 31
0.0
 11
86.35180994075552
 21
111.1154120745196
 31
0.0
 11
86.6863287935375
 21
111.0635539086513
 31
0.0
 11
87.0219397289876
 21
111.0194770554921
 31
0.0
 11
87.42074927617236
 21
110.9753659120961
 31
0.0
 11
87.82025711405478
 21
110.9383011167005
 31
0.0
 11
88.27125432944688
 21
110.9036097973394
 31
0.0
 11
88.7226794876531
 21
110.8751628836006
 31
0.0
 11
89.21212160028691
 21
110.8506340092278
 31
0.0
 11
89.70181643676486
 21
110.8319220819742
 31
0.0
 11
90.21482069665007
 21
110.8181573461718
 31
0.0
 11
90.72794228323956
 21
110.8099622043374
 31
0.0
 11
91.2489170456999
 21
110.8072159440092
 31
0.0
 11
91.76989180816025
 21
110.8099622043374
 31
0.0
 11
92.28301339474976
 21
110.8181573461718
 31
0.0
 11
92.79601765463501
 21
110.8319220819741
 31
0.0
 11
93.28571249111299
 21
110.8506340092278
 31
0.0
 11
93.77515460374676
 21
110.8751628836006
 31
0.0
 11
94.22657976195296
 21
110.9036097973394
 31
0.0
 11
94.67757697734504
 21
110.9383011167005
 31
0.0
 11
95.07708481522747
 21
110.9753659120961
 31
0.0
 11
95.47589436241222
 21
111.0194770554921
 31
0.0
 11
95.81150529786234
 21
111.0635539086514
 31
0.0
 11
96.14602415064434
 21
111.1154120745196
 31
0.0
 11
96.40787872343667
 21
111.1648614431752
 31
0.0
 11
96.66766030495711
 21
111.2254427194159
 31
0.0
 11
96.84912502485699
 21
111.2764714851257
 31
0.0
 11
97.02729655075626
 21
111.3359343121957
 31
0.0
 11
97.12839814573566
 21
111.3889652540041
 31
0.0
 11
97.21933678129935
 21
111.4714488080508
 31
0.0
 11
97.24891704569997
 21
111.53843200444
 31
0.0
 11
97.21933678129933
 21
111.6054152008292
 31
0.0
 11
97.12839814573565
 21
111.6878987548759
 31
0.0
 11
97.02729655075629
 21
111.7409296966843
 31
0.0
 11
96.849125024857
 21
111.8003925237542
 31
0.0
 11
96.6676603049571
 21
111.851421289464
 31
0.0
 11
96.40787872343665
 21
111.9120025657047
 31
0.0
 11
96.14602415064435
 21
111.9614519343603
 31
0.0
 11
95.81150529786237
 21
112.0133101002286
 31
0.0
 11
95.47589436241225
 21
112.0573869533879
 31
0.0
 11
95.07708481522754
 21
112.1014980967839
 31
0.0
 11
94.67757697734508
 21
112.1385628921795
 31
0.0
 11
94.22657976195296
 21
112.1732542115406
 31
0.0
 11
93.77515460374676
 21
112.2017011252794
 31
0.0
 11
93.285712491113
 21
112.2262299996523
 31
0.0
 11
92.79601765463502
 21
112.2449419269059
 31
0.0
 11
92.28301339474976
 21
112.2587066627082
 31
0.0
 11
91.76989180816025
 21
112.2669018045426
 31
0.0
 11
91.2489170456999
 21
112.2696480648709
 31
0.0
 11
90.72794228323954
 21
112.2669018045426
 31
0.0
 11
90.21482069665007
 21
112.2587066627082
 31
0.0
 11
89.70181643676486
 21
112.2449419269059
 31
0.0
 11
89.21212160028689
 21
112.2262299996523
 31
0.0
 11
88.7226794876531
 21
112.2017011252794
 31
0.0
 11
88.27125432944689
 21
112.1732542115406
 31
0.0
 11
87.82025711405478
 21
112.1385628921795
 31
0.0
 11
87.42074927617233
 21
112.1014980967839
 31
0.0
 11
87.0219397289876
 21
112.0573869533879
 31
0.0
 11
86.68632879353748
 21
112.0133101002286
 31
0.0
 11
86.35180994075547
 21
111.9614519343603
 31
0.0
 11
86.08995536796317
 21
111.9120025657047
 31
0.0
 11
85.83017378644277
 21
111.851421289464
 31
0.0
 11
85.64870906654289
 21
111.8003925237542
 31
0.0
 11
85.47053754064362
 21
111.7409296966843
 31
0.0
 11
85.36943594566425
 21
111.6878987548759
 31
0.0
 11
85.27849731010058
 21
111.6054152008292
 31
0.0
 11
85.24891704569993
 21
111.53843200444
 31
0.0
 11
85.27849731010056
 21
111.4714488080508
 31
0.0
  0
SPLINE
  5
102
330
39
100
AcDbEntity
  8
0
  6
Continuous
 62
     7
100
AcDbSpline
210
0.0
220
0.0
230
1.0
 70
     8
 71
     3
 72
    45
 73
    41
 74
    39
 42
0.0000000001
 43
0.0000000001
 44
0.00000001
 40
0.0
 40
0.0
 40
0.0
 40
0.0
 40
0.1432359392160209
 40
0.2764292877659593
 40
0.4955668081204812
 40
0.7154869701119628
 40
1.026697487254401
 40
1.337594031778
 40
1.732527728022501
 40
2.12743615552069
 40
2.595551393795156
 40
3.063645498406098
 40
3.591363247581013
 40
4.119070582236597
 40
4.690803015712382
 40
5.262530594722885
 40
5.861250968427288
 40
6.45996916465329
 40
7.067781498817875
 40
7.67559383298246
 40
8.274312029208478
 40
8.873032402912809
 40
9.444759981923255
 40
10.01649241539908
 40
10.5441997500547
 40
11.07191749922957
 40
11.54001160384045
 40
12.00812684211495
 40
12.4030352696132
 40
12.7979689658577
 40
13.1088655103813
 40
13.4200760275237
 40
13.63999618951516
 40
13.85913370986972
 40
13.99232705841969
 40
14.1355629976357
 40
14.22099088980635
 40
14.30641878197701
 40
14.35662216711938
 40
14.40504875606336
 40
14.40504875606336
 40
14.40504875606336
 40
14.40504875606336
 10
98.21440673723251
 20
111.6165790668941
 30
0.0
 10
98.18076692403548
 20
111.6509850122875
 30
0.0
 10
98.11584585985618
 20
111.7173846256254
 30
0.0
 10
97.96490125701907
 20
111.7897696517598
 30
0.0
 10
97.78242594630456
 20
111.844523586852
 30
0.0
 10
97.54193398360535
 20
111.913593432355
 30
0.0
 10
97.26821849338465
 20
111.9762873177352
 30
0.0
 10
96.93492843640368
 20
112.0386436079976
 30
0.0
 10
96.57212644638128
 20
112.0937857764239
 30
0.0
 10
96.15634953441816
 20
112.1483276753292
 30
0.0
 10
95.7152494402625
 20
112.1966558078945
 30
0.0
 10
95.22932861363748
 20
112.2415866571359
 30
0.0
 10
94.72294074234773
 20
112.2802316732357
 30
0.0
 10
94.1816097248751
 20
112.314265669212
 30
0.0
 10
93.62522808394468
 20
112.3419700826001
 30
0.0
 10
93.04491112592024
 20
112.364104279106
 30
0.0
 10
92.45538595809953
 20
112.3798171435242
 30
0.0
 10
91.85370119539729
 20
112.3894298347098
 30
0.0
 10
91.24891704570838
 20
112.3925690625152
 30
0.0
 10
90.64413289596884
 20
112.3894298347595
 30
0.0
 10
90.04244813341613
 20
112.3798171433291
 30
0.0
 10
89.45292296505714
 20
112.364104279824
 30
0.0
 10
88.87260600895229
 20
112.3419700800534
 30
0.0
 10
88.31622436111087
 20
112.3142656784216
 30
0.0
 10
87.7748933675351
 20
112.2802316417943
 30
0.0
 10
87.26850541189731
 20
112.241586769179
 30
0.0
 10
86.78258486628832
 20
112.196655441901
 30
0.0
 10
86.34148380400191
 20
112.1483289562241
 30
0.0
 10
85.9257099713987
 20
112.0937818190155
 30
0.0
 10
85.56289770704822
 20
112.0386571282619
 30
0.0
 10
85.22963834730444
 20
111.9762486188901
 30
0.0
 10
84.95582503341881
 20
111.9137211414718
 30
0.0
 10
84.7155984320672
 20
111.84419988944
 30
0.0
 10
84.53233555824644
 20
111.7907856789583
 30
0.0
 10
84.38331066858747
 20
111.7151350262732
 30
0.0
 10
84.29249102290734
 20
111.6381417233375
 30
0.0
 10
84.23272113400196
 20
111.5388860836185
 30
0.0
 10
84.27447415748176
 20
111.4666795035299
 30
0.0
 10
84.31710640490698
 20
111.4240426745798
 30
0.0
 10
84.34179933581379
 20
111.4021548361124
 30
0.0
 10
84.3539233825442
 20
111.3914080690555
 30
0.0
 11
98.21440673723251
 21
111.6165790668941
 31
0.0
 11
98.10831166240821
 21
111.7128098799486
 31
0.0
 11
97.99035980159898
 21
111.7746793120583
 31
0.0
 11
97.78249302138319
 21
111.8440526103066
 31
0.0
 11
97.57078418149996
 21
111.9035861703015
 31
0.0
 11
97.26770566972611
 21
111.9742643259156
 31
0.0
 11
96.96220866813508
 21
112.0319552560138
 31
0.0
 11
96.57193667322275
 21
112.0924564495268
 31
0.0
 11
96.18039058186432
 21
112.1438794448793
 31
0.0
 11
95.71511277681549
 21
112.195342445508
 31
0.0
 11
95.24902029928595
 21
112.2385847068028
 31
0.0
 11
94.72285688132847
 21
112.2790579127241
 31
0.0
 11
94.19619419675458
 21
112.3122459787527
 31
0.0
 11
93.62517839868184
 21
112.3408629988544
 31
0.0
 11
93.05386775612416
 21
112.3626935806502
 31
0.0
 11
92.45536278625802
 21
112.3787524390863
 31
0.0
 11
91.85672093523695
 21
112.3883134378931
 31
0.0
 11
91.24891704569988
 21
112.391517408276
 31
0.0
 11
90.64111315616282
 21
112.3883134378931
 31
0.0
 11
90.04247130514173
 21
112.3787524390863
 31
0.0
 11
89.44396633527566
 21
112.3626935806503
 31
0.0
 11
88.87265569271804
 21
112.3408629988544
 31
0.0
 11
88.30163989464526
 21
112.3122459787527
 31
0.0
 11
87.77497721007134
 21
112.2790579127241
 31
0.0
 11
87.24881379211391
 21
112.2385847068028
 31
0.0
 11
86.78272131458442
 21
112.195342445508
 31
0.0
 11
86.31744350953557
 21
112.1438794448793
 31
0.0
 11
85.92589741817707
 21
112.0924564495268
 31
0.0
 11
85.53562542326475
 21
112.0319552560138
 31
0.0
 11
85.2301284216737
 21
111.9742643259156
 31
0.0
 11
84.92704990989989
 21
111.9035861703015
 31
0.0
 11
84.71534107001668
 21
111.8440526103067
 31
0.0
 11
84.50747428980085
 21
111.7746793120583
 31
0.0
 11
84.3895224289916
 21
111.7128098799485
 31
0.0
 11
84.28342735416732
 21
111.6165790668941
 31
0.0
 11
84.24891704569991
 21
111.53843200444
 31
0.0
 11
84.28342735416734
 21
111.4602849419859
 31
0.0
 11
84.31799670967665
 21
111.4238797289056
 31
0.0
 11
84.3539233825442
 21
111.3914080690555
 31
0.0
  0
SPLINE
  5
103
330
39
100
AcDbEntity
  8
0
  6
Continuous
 62
     7
100
AcDbSpline
210
0.0
220
0.0
230
1.0
 70
     8
 71
     3
 72
    43
 73
    39
 74
    37
 42
0.0000000001
 43
0.0000000001
 44
0.00000001
 40
0.0
 40
0.0
 40
0.0
 40
0.0
 40
0.0906672726460744
 40
0.1782766920146008
 40
0.3974142123691361
 40
0.6173343743605806
 40
0.9285448915029845
 40
1.239441436026578
 40
1.634375132271075
 40
2.029283559769317
 40
2.497398798043811
 40
2.965492902654699
 40
3.493210651829575
 40
4.020917986485202
 40
4.592650419961001
 40
5.164377998971461
 40
5.763098372675792
 40
6.361816568901809
 40
6.969628903066394
 40
7.57744123723098
 40
8.176159433456983
 40
8.774879807161343
 40
9.346607386171833
 40
9.918339819647631
 40
10.44604715430326
 40
10.97376490347817
 40
11.44185900808909
 40
11.90997424636358
 40
12.30488267386178
 40
12.69981637010627
 40
13.01071291462986
 40
13.32192343177229
 40
13.54184359376375
 40
13.76098111411828
 40
13.89417446266825
 40
14.03741040188431
 40
14.12283829405495
 40
14.20826618622562
 40
14.20826618622562
 40
14.20826618622562
 40
14.20826618622562
 10
84.3539233825442
 20
111.3914080690555
 30
0.0
 10
84.37799777095377
 20
111.3729398999481
 30
0.0
 10
84.4253346126021
 20
111.3366264210052
 30
0.0
 10
84.54772357085945
 20
111.2838703771601
 30
0.0
 10
84.71531727728862
 20
111.2319354688416
 30
0.0
 10
84.95593595808832
 20
111.1634303436773
 30
0.0
 10
85.22960473453887
 20
111.1005282779661
 30
0.0
 10
85.56290945038255
 20
111.0382373150556
 30
0.0
 10
85.92570653410138
 20
110.9830732816439
 30
0.0
 10
86.34148491655246
 20
110.9285379359809
 30
0.0
 10
86.7825845483963
 20
110.8802077431189
 30
0.0
 10
87.26850550921489
 20
110.8352774919126
 30
0.0
 10
87.77489334022597
 20
110.7966322963103
 30
0.0
 10
88.31622436911002
 20
110.7625983511892
 30
0.0
 10
88.87260600674023
 20
110.7348939230938
 30
0.0
 10
89.4529229656812
 20
110.7127597306726
 30
0.0
 10
90.04244813324523
 20
110.6970468651105
 30
0.0
 10
90.64413289601734
 20
110.6874341742368
 30
0.0
 10
91.2489170456879
 20
110.6842949463479
 30
0.0
 10
91.85370119542999
 20
110.6874341741209
 30
0.0
 10
92.45538595799073
 20
110.697046865566
 30
0.0
 10
93.04491112631573
 20
110.7127597289963
 30
0.0
 10
93.62522808254315
 20
110.7348939290391
 30
0.0
 10
94.18160972994303
 20
110.7625983296897
 30
0.0
 10
94.72294072504575
 20
110.7966323697099
 30
0.0
 10
95.229328675294
 20
110.835277230349
 30
0.0
 10
95.71524923885895
 20
110.8802085975276
 30
0.0
 10
96.15635023928525
 20
110.9285349457425
 30
0.0
 10
96.57212426864837
 20
110.9830825201804
 30
0.0
 10
96.93493587650656
 20
111.0382057521122
 30
0.0
 10
97.26819719769249
 20
111.1006186200949
 30
0.0
 10
97.54200426100064
 20
111.163132207817
 30
0.0
 10
97.78224781798024
 20
111.2326911377306
 30
0.0
 10
97.9654603693739
 20
111.2859935244299
 30
0.0
 10
98.11460792174475
 20
111.3619167515753
 30
0.0
 10
98.20505471084414
 20
111.4380815127336
 30
0.0
 10
98.26571892040529
 20
111.5393244635642
 30
0.0
 10
98.2315107982901
 20
111.5908275324508
 30
0.0
 10
98.21440673723251
 20
111.6165790668941
 30
0.0
 11
84.3539233825442
 21
111.3914080690555
 31
0.0
 11
84.42810344518338
 21
111.3392748489754
 31
0.0
 11
84.5074742898009
 21
111.3021846968216
 31
0.0
 11
84.71534107001671
 21
111.2328113985733
 31
0.0
 11
84.92704990989989
 21
111.1732778385784
 31
0.0
 11
85.23012842167371
 21
111.1025996829643
 31
0.0
 11
85.53562542326475
 21
111.0449087528661
 31
0.0
 11
85.92589741817707
 21
110.9844075593531
 31
0.0
 11
86.31744350953557
 21
110.9329845640007
 31
0.0
 11
86.78272131458442
 21
110.881521563372
 31
0.0
 11
87.24881379211391
 21
110.8382793020771
 31
0.0
 11
87.77497721007134
 21
110.7978060961558
 31
0.0
 11
88.30163989464528
 21
110.7646180301272
 31
0.0
 11
88.87265569271803
 21
110.7360010100255
 31
0.0
 11
89.44396633527566
 21
110.7141704282297
 31
0.0
 11
90.04247130514173
 21
110.6981115697937
 31
0.0
 11
90.64111315616282
 21
110.6885505709869
 31
0.0
 11
91.24891704569988
 21
110.6853466006039
 31
0.0
 11
91.85672093523695
 21
110.6885505709869
 31
0.0
 11
92.45536278625802
 21
110.6981115697937
 31
0.0
 11
93.05386775612412
 21
110.7141704282298
 31
0.0
 11
93.62517839868178
 21
110.7360010100256
 31
0.0
 11
94.19619419675453
 21
110.7646180301273
 31
0.0
 11
94.72285688132847
 21
110.7978060961558
 31
0.0
 11
95.24902029928595
 21
110.8382793020771
 31
0.0
 11
95.71511277681546
 21
110.881521563372
 31
0.0
 11
96.1803905818643
 21
110.9329845640007
 31
0.0
 11
96.57193667322275
 21
110.9844075593532
 31
0.0
 11
96.96220866813508
 21
111.0449087528662
 31
0.0
 11
97.26770566972611
 21
111.1025996829644
 31
0.0
 11
97.57078418149996
 21
111.1732778385784
 31
0.0
 11
97.78249302138318
 21
111.2328113985732
 31
0.0
 11
97.99035980159897
 21
111.3021846968216
 31
0.0
 11
98.10831166240821
 21
111.3640541289314
 31
0.0
 11
98.21440673723249
 21
111.4602849419859
 31
0.0
 11
98.2489170456999
 21
111.53843200444
 31
0.0
 11
98.21440673723251
 21
111.6165790668941
 31
0.0
  0
SPLINE
  5
104
330
39
100
AcDbEntity
  8
0
  6
Continuous
 62
     7
100
AcDbSpline
210
0.0
220
0.0
230
1.0
 70
     8
 71
     3
 72
    11
 73
     7
 74
     5
 42
0.0000000001
 43
0.0000000001
 44
0.00000001
 40
0.0
 40
0.0
 40
0.0
 40
0.0
 40
0.0532937034145227
 40
0.1085740065138135
 40
0.1526844352126483
 40
0.1906885424806363
 40
0.1906885424806363
 40
0.1906885424806363
 40
0.1906885424806363
 10
83.79392235539751
 20
111.8689269503865
 30
0.0
 10
83.78052940054369
 20
111.8806359621745
 30
0.0
 10
83.75324424912098
 20
111.904490456058
 30
0.0
 10
83.71821728034843
 20
111.9411424920357
 30
0.0
 10
83.68929218616444
 20
111.9778520597291
 30
0.0
 10
83.68271876294627
 20
112.0047181819521
 30
0.0
 10
83.67967646260129
 20
112.0171523140923
 30
0.0
 11
83.79392235539751
 21
111.8689269503865
 31
0.0
 11
83.75431630197063
 21
111.9045861617572
 31
0.0
 11
83.71623538877697
 21
111.9446580466778
 31
0.0
 11
83.69109826050016
 21
111.980905180385
 31
0.0
 11
83.67967646260129
 21
112.0171523140923
 31
0.0
  0
ARC
  5
105
330
39
100
AcDbEntity
  8
1
  6
Continuous
 62
     7
100
AcDbCircle
 10
161.2375213538493
 20
112.8073686665734
 30
0.0
 40
0.4999999999999512
100
AcDbArc
 50
-175.6900675259767
 51
-96.99999999999109
  0
ARC
  5
106
330
39
100
AcDbEntity
  8
1
  6
Continuous
 62
     7
100
AcDbCircle
 10
173.8232011922642
 20
111.2620414939497
 30
0.0
 40
0.5000000000000374
100
AcDbArc
 50
-97.00000000000217
 51
-18.30993247402009
  0
ENDBLK
  5
3B
330
39
100
AcDbEntity
  8
0
100
AcDbBlockEnd
  0
BLOCK
  5
3D
330
3C
100
AcDbEntity
  8
0
100
AcDbBlockBegin
  2
32-13-13
 70
     0
 71
     0
 10
-114.1034552807654
 20
791.6049330809889
 30
0.0
  3
32-13-13
  1

  0
LINE
  5
107
330
3C
100
AcDbEntity
  8
1
  6
Continuous
 62
     7
100
AcDbLine
 10
93.7489170456999
 20
277.6134352257996
 30
0.0
 11
93.7489170456999
 21
282.5418726697527
 31
0.0
  0
LINE
  5
108
330
3C
100
AcDbEntity
  8
1
  6
Continuous
 62
     7
100
AcDbLine
 10
88.7489170456999
 20
277.6134352255321
 30
0.0
 11
88.7489170456999
 21
282.5418726697527
 31
0.0
  0
LINE
  5
109
330
3C
100
AcDbEntity
  8
1
  6
Continuous
 62
     7
100
AcDbLine
 10
79.2489170456999
 20
294.3010541691425
 30
0.0
 11
79.2489170456999
 21
292.8386220482806
 31
0.0
  0
LINE
  5
10A
330
3C
100
AcDbEntity
  8
1
  6
Continuous
 62
     7
100
AcDbLine
 10
103.2489170456999
 20
292.8386220482806
 30
0.0
 11
103.2489170456999
 21
294.3010541691425
 31
0.0
  0
LINE
  5
10B
330
3C
100
AcDbEntity
  8
1
  6
Continuous
 62
     7
100
AcDbLine
 10
93.7489170457001
 20
139.2336067698941
 30
0.0
 11
93.7489170457001
 21
149.1590682863073
 31
0.0
  0
LINE
  5
10C
330
3C
100
AcDbEntity
  8
1
  6
Continuous
 62
     7
100
AcDbLine
 10
88.7489170457001
 20
139.2336067698941
 30
0.0
 11
88.7489170457001
 21
149.1590682863073
 31
0.0
  0
LINE
  5
10D
330
3C
100
AcDbEntity
  8
1
  6
Continuous
 62
     7
100
AcDbLine
 10
93.74891704569902
 20
138.807064067976
 30
0.0
 11
93.7489170457001
 21
139.2336067698941
 31
0.0
  0
LINE
  5
10E
330
3C
100
AcDbEntity
  8
1
  6
Continuous
 62
     7
100
AcDbLine
 10
88.74891704570001
 20
138.807064067976
 30
0.0
 11
88.7489170457001
 21
139.2336067698941
 31
0.0
  0
LINE
  5
10F
330
3C
100
AcDbEntity
  8
1
  6
Continuous
 62
     7
100
AcDbLine
 10
103.2489170457001
 20
136.352085795473
 30
0.0
 11
103.2489170457001
 21
148.2626396151689
 31
0.0
  0
LINE
  5
110
330
3C
100
AcDbEntity
  8
1
  6
Continuous
 62
     7
100
AcDbLine
 10
79.2489170457001
 20
136.352085795473
 30
0.0
 11
79.2489170457001
 21
148.2626396151689
 31
0.0
  0
LINE
  5
111
330
3C
100
AcDbEntity
  8
1
  6
Continuous
 62
     7
100
AcDbLine
 10
189.7225536934818
 20
145.0764452822348
 30
0.0
 11
188.5038602594303
 21
135.1509837658216
 31
0.0
  0
LINE
  5
112
330
3C
100
AcDbEntity
  8
1
  6
Continuous
 62
     7
100
AcDbLine
 10
182.4267140061773
 20
134.8896536746114
 30
0.0
 11
178.7046659375222
 21
135.3466637123806
 31
0.0
  0
LINE
  5
113
330
3C
100
AcDbEntity
  8
1
  6
Continuous
 62
     7
100
AcDbLine
 10
183.7672767836338
 20
145.8076613426657
 30
0.0
 11
182.4267140061773
 21
134.8896536746114
 31
0.0
  0
LINE
  5
114
330
3C
100
AcDbEntity
  8
1
  6
Continuous
 62
     7
100
AcDbLine
 10
188.5038602594303
 20
135.1509837658216
 30
0.0
 11
182.5485833495824
 21
135.8821998262525
 31
0.0
  0
LINE
  5
115
330
3C
100
AcDbEntity
  8
1
  6
Continuous
 62
     7
100
AcDbLine
 10
183.7672767836338
 20
145.8076613426657
 30
0.0
 11
183.889146127039
 21
146.8002074943069
 31
0.0
  0
LINE
  5
116
330
3C
100
AcDbEntity
  8
1
  6
Continuous
 62
     7
100
AcDbLine
 10
161.7057396378553
 20
149.5239873194122
 30
0.0
 11
183.889146127039
 21
146.8002074943069
 31
0.0
  0
LINE
  5
117
330
3C
100
AcDbEntity
  8
1
  6
Continuous
 62
     7
100
AcDbLine
 10
189.7225536934818
 20
145.0764452822348
 30
0.0
 11
183.7672767836338
 21
145.8076613426657
 31
0.0
  0
LINE
  5
118
330
3C
100
AcDbEntity
  8
1
  6
Continuous
 62
     7
100
AcDbLine
 10
152.7721988003427
 20
139.538280128407
 30
0.0
 11
153.9908922343942
 21
149.4637416448202
 31
0.0
  0
LINE
  5
119
330
3C
100
AcDbEntity
  8
1
  6
Continuous
 62
     7
100
AcDbLine
 10
178.7046659375222
 20
135.3466637123806
 30
0.0
 11
158.6056063667854
 21
137.8145179163347
 31
0.0
  0
LINE
  5
11A
330
3C
100
AcDbEntity
  8
1
  6
Continuous
 62
     7
100
AcDbLine
 10
158.6056063667854
 20
137.8145179163347
 30
0.0
 11
159.9461691442421
 21
148.7325255843893
 31
0.0
  0
LINE
  5
11B
330
3C
100
AcDbEntity
  8
1
  6
Continuous
 62
     7
100
AcDbLine
 10
158.7274757101906
 20
138.807064067976
 30
0.0
 11
152.7721988003427
 21
139.538280128407
 31
0.0
  0
LINE
  5
11C
330
3C
100
AcDbEntity
  8
1
  6
Continuous
 62
     7
100
AcDbLine
 10
160.0680384876473
 20
149.7250717360305
 30
0.0
 11
159.9461691442421
 21
148.7325255843893
 31
0.0
  0
LINE
  5
11D
330
3C
100
AcDbEntity
  8
1
  6
Continuous
 62
     7
100
AcDbLine
 10
160.0680384876473
 20
149.7250717360305
 30
0.0
 11
161.7057396378553
 21
149.5239873194122
 31
0.0
  0
LINE
  5
11E
330
3C
100
AcDbEntity
  8
1
  6
Continuous
 62
     7
100
AcDbLine
 10
159.9461691442421
 20
148.7325255843893
 30
0.0
 11
153.9908922343942
 21
149.4637416448202
 31
0.0
  0
ARC
  5
11F
330
3C
100
AcDbEntity
  8
1
  6
Continuous
 62
     7
100
AcDbCircle
 10
91.2489170456999
 20
277.5947306335154
 30
0.0
 40
2.500069971373304
100
AcDbArc
 50
179.5713303265252
 51
0.42866967960516
  0
ARC
  5
120
330
3C
100
AcDbEntity
  8
1
  6
Continuous
 62
     7
100
AcDbCircle
 10
91.2489170456999
 20
293.842014290425
 30
0.0
 40
11.57338328438365
100
AcDbArc
 50
-102.4749582606286
 51
-77.52504173937138
  0
ARC
  5
121
330
3C
100
AcDbEntity
  8
1
  6
Continuous
 62
     7
100
AcDbCircle
 10
91.2489170456999
 20
278.8134240675811
 30
0.0
 40
2.500069971375305
100
AcDbArc
 50
-179.5713303203935
 51
-0.42866967960647
  0
ARC
  5
122
330
3C
100
AcDbEntity
  8
1
  6
Continuous
 62
     7
100
AcDbCircle
 10
91.2489170457001
 20
139.0545186554069
 30
0.0
 40
10.40922298941326
100
AcDbArc
 50
76.10332997544339
 51
103.8966700245566
  0
ARC
  5
123
330
3C
100
AcDbEntity
  8
1
  6
Continuous
 62
     7
100
AcDbCircle
 10
91.2489170457001
 20
129.1290571389937
 30
0.0
 40
10.40922298941326
100
AcDbArc
 50
76.10332997544339
 51
103.8966700245566
  0
SPLINE
  5
124
330
3C
100
AcDbEntity
  8
1
  6
Continuous
 62
     7
100
AcDbSpline
210
0.0
220
0.0
230
1.0
 70
     8
 71
     3
 72
    17
 73
    13
 74
    11
 42
0.0000000001
 43
0.0000000001
 44
0.00000001
 40
0.0
 40
0.0
 40
0.0
 40
0.0
 40
0.9901510383758824
 40
1.980670273415632
 40
3.021716641664222
 40
4.062772160168385
 40
5.102798805805976
 40
6.14283227769455
 40
7.182193656727194
 40
8.221558680047894
 40
8.741753804753044
 40
9.260941569518314
 40
9.260941569518314
 40
9.260941569518314
 40
9.260941569518314
 10
99.80742005487642
 20
302.6496674150702
 30
0.0
 10
100.0341322200964
 20
302.4095386864228
 30
0.0
 10
100.4876408555157
 20
301.9291919350774
 30
0.0
 10
101.0991952771709
 20
301.1266695270912
 30
0.0
 10
101.6543584854693
 20
300.2647286418292
 30
0.0
 10
102.1379111559549
 20
299.341559839429
 30
0.0
 10
102.5394907196215
 20
298.3804025262783
 30
0.0
 10
102.8544009204432
 20
297.3880244933978
 30
0.0
 10
103.081863533408
 20
296.3722380669962
 30
0.0
 10
103.1949279554026
 20
295.512209326027
 30
0.0
 10
103.2422739520844
 20
294.8206259819062
 30
0.0
 10
103.2467041123844
 20
294.4741328341173
 30
0.0
 10
103.2489170456999
 20
294.3010541691425
 30
0.0
 11
99.80742005487642
 21
302.6496674150702
 31
0.0
 11
100.4743994775319
 21
301.9178631184506
 31
0.0
 11
101.0784866463484
 21
301.1328745532759
 31
0.0
 11
101.6409266172767
 21
300.2568386978762
 31
0.0
 11
102.1244187621642
 21
299.3348669312586
 31
0.0
 11
102.5250782829999
 21
298.3751131232433
 31
0.0
 11
102.8398943341902
 21
297.3838712372429
 31
0.0
 11
103.0665694495889
 21
296.3695288550644
 31
0.0
 11
103.2031560866784
 21
295.3391775837637
 31
0.0
 11
103.2374768059445
 21
294.8201158764532
 31
0.0
 11
103.2489170456999
 21
294.3010541691425
 31
0.0
  0
SPLINE
  5
125
330
3C
100
AcDbEntity
  8
1
  6
Continuous
 62
     7
100
AcDbSpline
210
0.0
220
0.0
230
1.0
 70
     8
 71
     3
 72
    25
 73
    21
 74
    19
 42
0.0000000001
 43
0.0000000001
 44
0.00000001
 40
0.0
 40
0.0
 40
0.0
 40
0.0
 40
0.3111043668056396
 40
0.6226978009794595
 40
1.668590390376461
 40
2.714489609613404
 40
3.759364715023081
 40
4.804248797975895
 40
5.847875260757957
 40
6.891511995950011
 40
7.933808749964168
 40
8.976115844595475
 40
10.01716221284398
 40
11.05821773134822
 40
12.09824437698585
 40
13.13827784887442
 40
14.1776392279071
 40
15.21700425122781
 40
15.73719937593051
 40
16.25638714069318
 40
16.25638714069318
 40
16.25638714069318
 40
16.25638714069318
 10
88.74891704570791
 20
281.1894405488893
 30
0.0
 10
88.6476178805701
 20
281.2116638032113
 30
0.0
 10
88.44486030432631
 20
281.2561452476184
 30
0.0
 10
87.90566499762309
 20
281.3928621994342
 30
0.0
 10
87.13984780519434
 20
281.6317791820728
 30
0.0
 10
86.17176763420193
 20
282.0301824876942
 30
0.0
 10
85.2418429584371
 20
282.5102605907006
 30
0.0
 10
84.35804894808457
 20
283.0693381423436
 30
0.0
 10
83.52621115555577
 20
283.702458023153
 30
0.0
 10
82.75361837542354
 20
284.405382971477
 30
0.0
 10
82.04514350057205
 20
285.1722920084588
 30
0.0
 10
81.40723886976106
 20
285.9977435679883
 30
0.0
 10
80.84367835092728
 20
286.875144543021
 30
0.0
 10
80.35986866914026
 20
287.7980636581015
 30
0.0
 10
79.95835790837231
 20
288.7592878134933
 30
0.0
 10
79.64342927256242
 20
289.7516479367224
 30
0.0
 10
79.41597162509437
 20
290.7674391871202
 30
0.0
 10
79.30290600438602
 20
291.6274667635344
 30
0.0
 10
79.25556016250093
 20
292.3190502580388
 30
0.0
 10
79.25112998673892
 20
292.6655433908049
 30
0.0
 10
79.2489170456999
 20
292.8386220482755
 30
0.0
 11
88.74891704570791
 21
281.1894405488893
 31
0.0
 11
88.44540304557661
 21
281.2577426628378
 31
0.0
 11
88.14327158624954
 21
281.3339466621104
 31
0.0
 11
87.14508336412706
 21
281.6462151071565
 31
0.0
 11
86.17776612468106
 21
282.043961929986
 31
0.0
 11
85.24942469343215
 21
282.5234889604354
 31
0.0
 11
84.36630744396774
 21
283.0819571068024
 31
0.0
 11
83.53597759500471
 21
283.7141821741163
 31
0.0
 11
82.76393551629832
 21
284.4164133780292
 31
0.0
 11
82.05681434292887
 21
285.1821562654275
 31
0.0
 11
81.41934744505156
 21
286.0068016641471
 31
0.0
 11
80.85690747412339
 21
286.8828375195467
 31
0.0
 11
80.37341532923577
 21
287.8048092861644
 31
0.0
 11
79.97275580839997
 21
288.7645630941797
 31
0.0
 11
79.65793975720968
 21
289.7558049801801
 31
0.0
 11
79.43126464181107
 21
290.7701473623587
 31
0.0
 11
79.29467800472159
 21
291.8004986336594
 31
0.0
 11
79.26035728545548
 21
292.3195603409674
 31
0.0
 11
79.2489170456999
 21
292.8386220482755
 31
0.0
  0
SPLINE
  5
126
330
3C
100
AcDbEntity
  8
1
  6
Continuous
 62
     7
100
AcDbSpline
210
0.0
220
0.0
230
1.0
 70
     8
 71
     3
 72
     9
 73
     5
 74
     3
 42
0.0000000001
 43
0.0000000001
 44
0.00000001
 40
0.0
 40
0.0
 40
0.0
 40
0.0
 40
0.5191877647677692
 40
1.039382889475642
 40
1.039382889475642
 40
1.039382889475642
 40
1.039382889475642
 10
79.2489170456999
 20
292.8386220482755
 30
0.0
 10
79.2508311334372
 20
293.011726299953
 30
0.0
 10
79.25466302274222
 20
293.3582706707924
 30
0.0
 10
79.28133106192563
 20
293.7038089014177
 30
0.0
 10
79.29467800472139
 20
293.8767454629019
 30
0.0
 11
79.2489170456999
 21
292.8386220482755
 31
0.0
 11
79.26035728545523
 21
293.3576837555887
 31
0.0
 11
79.29467800472139
 21
293.8767454629019
 31
0.0
  0
SPLINE
  5
127
330
3C
100
AcDbEntity
  8
1
  6
Continuous
 62
     7
100
AcDbSpline
210
0.0
220
0.0
230
1.0
 70
     8
 71
     3
 72
     9
 73
     5
 74
     3
 42
0.0000000001
 43
0.0000000001
 44
0.00000001
 40
0.0
 40
0.0
 40
0.0
 40
0.0
 40
0.5191877647677679
 40
1.039382889475588
 40
1.039382889475588
 40
1.039382889475588
 40
1.039382889475588
 10
79.2489170456999
 20
294.3010541691374
 30
0.0
 10
79.25083113343717
 20
294.4741584208148
 30
0.0
 10
79.25466302274214
 20
294.8207027916542
 30
0.0
 10
79.2813310619256
 20
295.1662410222796
 30
0.0
 10
79.29467800472139
 20
295.3391775837637
 30
0.0
 11
79.2489170456999
 21
294.3010541691374
 31
0.0
 11
79.26035728545517
 21
294.8201158764506
 31
0.0
 11
79.29467800472139
 21
295.3391775837637
 31
0.0
  0
SPLINE
  5
128
330
3C
100
AcDbEntity
  8
1
  6
Continuous
 62
     7
100
AcDbSpline
210
0.0
220
0.0
230
1.0
 70
     8
 71
     3
 72
    25
 73
    21
 74
    19
 42
0.0000000001
 43
0.0000000001
 44
0.00000001
 40
0.0
 40
0.0
 40
0.0
 40
0.0
 40
0.5191877647650426
 40
1.039382889470422
 40
2.078747912791172
 40
3.118109291823853
 40
4.15814276371241
 40
5.198169409350022
 40
6.239224927854262
 40
7.280271296102804
 40
8.322578390734199
 40
9.364875144748334
 40
10.40851187994042
 40
11.45213834272254
 40
12.49702242567537
 40
13.54189753108495
 40
14.58779675032175
 40
15.63368933971862
 40
15.94528277388648
 40
16.25638714068627
 40
16.25638714068627
 40
16.25638714068627
 40
16.25638714068627
 10
103.2489170456999
 20
292.8386220482806
 30
0.0
 10
103.246704104661
 20
292.6655433908093
 30
0.0
 10
103.2422739288991
 20
292.3190502580413
 30
0.0
 10
103.1949280870141
 20
291.6274667635354
 30
0.0
 10
103.0818624663056
 20
290.7674391871202
 30
0.0
 10
102.8544048188376
 20
289.7516479367224
 30
0.0
 10
102.5394761830277
 20
288.7592878134933
 30
0.0
 10
102.1379654222598
 20
287.7980636581013
 30
0.0
 10
101.6541557404729
 20
286.8751445430211
 30
0.0
 10
101.0905952216389
 20
285.9977435679883
 30
0.0
 10
100.4526905908279
 20
285.1722920084588
 30
0.0
 10
99.74421571597638
 20
284.405382971477
 30
0.0
 10
98.97162293584408
 20
283.702458023153
 30
0.0
 10
98.13978514331521
 20
283.0693381423436
 30
0.0
 10
97.25599113296269
 20
282.5102605907005
 30
0.0
 10
96.32606645719795
 20
282.0301824876943
 30
0.0
 10
95.35798628620574
 20
281.6317791820725
 30
0.0
 10
94.59216909377889
 20
281.3928621994351
 30
0.0
 10
94.05297378707955
 20
281.2561452476199
 30
0.0
 10
93.85021621083969
 20
281.2116638032134
 30
0.0
 10
93.74891704570382
 20
281.1894405488917
 30
0.0
 11
103.2489170456999
 21
292.8386220482806
 31
0.0
 11
103.2374768059445
 21
292.3195603409702
 31
0.0
 11
103.2031560866783
 21
291.8004986336595
 31
0.0
 11
103.0665694495889
 21
290.7701473623587
 31
0.0
 11
102.8398943341903
 21
289.7558049801801
 31
0.0
 11
102.5250782830001
 21
288.7645630941797
 31
0.0
 11
102.1244187621643
 21
287.8048092861644
 31
0.0
 11
101.6409266172767
 21
286.8828375195467
 31
0.0
 11
101.0784866463485
 21
286.0068016641471
 31
0.0
 11
100.4410197484711
 21
285.1821562654275
 31
0.0
 11
99.73389857510159
 21
284.4164133780292
 31
0.0
 11
98.96185649639516
 21
283.7141821741163
 31
0.0
 11
98.13152664743205
 21
283.0819571068024
 31
0.0
 11
97.24840939796764
 21
282.5234889604354
 31
0.0
 11
96.32006796671882
 21
282.043961929986
 31
0.0
 11
95.35275072727296
 21
281.6462151071565
 31
0.0
 11
94.35456250515058
 21
281.3339466621105
 31
0.0
 11
94.05243104582932
 21
281.2577426628393
 31
0.0
 11
93.74891704570382
 21
281.1894405488917
 31
0.0
  0
SPLINE
  5
129
330
3C
100
AcDbEntity
  8
1
  6
Continuous
 62
     7
100
AcDbSpline
210
0.0
220
0.0
230
1.0
 70
     8
 71
     3
 72
    45
 73
    41
 74
    39
 42
0.0000000001
 43
0.0000000001
 44
0.00000001
 40
0.0
 40
0.0
 40
0.0
 40
0.0
 40
0.5191877647652131
 40
1.039382889470649
 40
2.078747912791343
 40
3.118109291823968
 40
4.158142763712471
 40
5.198169409350136
 40
6.239224927854426
 40
7.280271296102921
 40
8.322578390734316
 40
9.364875144748451
 40
10.4085118799405
 40
11.45213834272265
 40
12.49702242567545
 40
13.54189753108501
 40
14.58779675032186
 40
15.63368933971877
 40
16.6802498368964
 40
17.72680681798975
 40
18.77359566232859
 40
19.82038450666735
 40
20.86694148776059
 40
21.9135019849382
 40
22.95939457433514
 40
24.00529379357209
 40
25.05016889898175
 40
26.09505298193453
 40
27.13867944471663
 40
28.18231617990864
 40
29.22461293392276
 40
30.26692002855407
 40
31.30796639680257
 40
32.34902191530686
 40
33.38904856094455
 40
34.42908203283311
 40
35.46844341186579
 40
36.5078084351865
 40
37.02800355988921
 40
37.54719132465193
 40
37.54719132465193
 40
37.54719132465193
 40
37.54719132465193
 10
103.2489170456999
 20
294.3010541691425
 30
0.0
 10
103.2467041046609
 20
294.1279755116713
 30
0.0
 10
103.242273928899
 20
293.7814823789036
 30
0.0
 10
103.1949280870151
 20
293.0898988843948
 30
0.0
 10
103.0818624662968
 20
292.229871307999
 30
0.0
 10
102.8544048188697
 20
291.2140800575224
 30
0.0
 10
102.539476182908
 20
290.2217199345853
 30
0.0
 10
102.1379654227066
 20
289.2604957781039
 30
0.0
 10
101.6541557388036
 20
288.3375766670936
 30
0.0
 10
101.0905952278717
 20
287.4601756768615
 30
0.0
 10
100.4526905675357
 20
286.6347241741226
 30
0.0
 10
99.74421580294694
 20
285.8678149250528
 30
0.0
 10
98.9716226108031
 20
285.1648907692237
 30
0.0
 10
98.13978635693697
 20
284.5317679288316
 30
0.0
 10
97.25598659761718
 20
283.972701435196
 30
0.0
 10
96.32608338950487
 20
283.4925820396503
 30
0.0
 10
95.35792302535577
 20
283.0943329837352
 30
0.0
 10
94.35821456561251
 20
282.7817781050593
 30
0.0
 10
93.3350904075383
 20
282.5564275610466
 30
0.0
 10
92.29594505201288
 20
282.420907032285
 30
0.0
 10
91.24891704569996
 20
282.3752953240744
 30
0.0
 10
90.201889039387
 20
282.420907032285
 30
0.0
 10
89.16274368386168
 20
282.5564275610466
 30
0.0
 10
88.13961952578748
 20
282.7817781050593
 30
0.0
 10
87.13991106604416
 20
283.0943329837352
 30
0.0
 10
86.17175070189505
 20
283.4925820396504
 30
0.0
 10
85.24184749378262
 20
283.972701435196
 30
0.0
 10
84.35804773446283
 20
284.5317679288316
 30
0.0
 10
83.52621148059676
 20
285.1648907692237
 30
0.0
 10
82.75361828845296
 20
285.8678149250529
 30
0.0
 10
82.04514352386428
 20
286.6347241741226
 30
0.0
 10
81.40723886352828
 20
287.4601756768615
 30
0.0
 10
80.84367835259654
 20
288.3375766670936
 30
0.0
 10
80.35986866869345
 20
289.2604957781039
 30
0.0
 10
79.95835790849203
 20
290.2217199345853
 30
0.0
 10
79.64342927253031
 20
291.2140800575226
 30
0.0
 10
79.41597162510317
 20
292.229871307999
 30
0.0
 10
79.30290600438491
 20
293.089898884394
 30
0.0
 10
79.25556016250108
 20
293.7814823789009
 30
0.0
 10
79.25112998673899
 20
294.127975511667
 30
0.0
 10
79.2489170456999
 20
294.3010541691374
 30
0.0
 11
103.2489170456999
 21
294.3010541691425
 31
0.0
 11
103.2374768059445
 21
293.7819924618319
 31
0.0
 11
103.2031560866783
 21
293.2629307545211
 31
0.0
 11
103.0665694495889
 21
292.2325794832204
 31
0.0
 11
102.8398943341903
 21
291.2182371010418
 31
0.0
 11
102.5250782830001
 21
290.2269952150415
 31
0.0
 11
102.1244187621643
 21
289.2672414070262
 31
0.0
 11
101.6409266172767
 21
288.3452696404085
 31
0.0
 11
101.0784866463485
 21
287.4692337850089
 31
0.0
 11
100.4410197484711
 21
286.6445883862892
 31
0.0
 11
99.73389857510159
 21
285.878845498891
 31
0.0
 11
98.96185649639516
 21
285.1766142949781
 31
0.0
 11
98.13152664743205
 21
284.5443892276642
 31
0.0
 11
97.24840939796764
 21
283.9859210812973
 31
0.0
 11
96.32006796671882
 21
283.5063940508479
 31
0.0
 11
95.35275072727295
 21
283.1086472280183
 31
0.0
 11
94.35456250515053
 21
282.7963787829723
 31
0.0
 11
93.33246793257268
 21
282.5714086539338
 31
0.0
 11
92.29472094295534
 21
282.4358996128503
 31
0.0
 11
91.24891704569991
 21
282.3905003494466
 31
0.0
 11
90.20311314844456
 21
282.4358996128503
 31
0.0
 11
89.16536615882733
 21
282.5714086539338
 31
0.0
 11
88.1432715862495
 21
282.7963787829723
 31
0.0
 11
87.14508336412705
 21
283.1086472280183
 31
0.0
 11
86.17776612468106
 21
283.5063940508479
 31
0.0
 11
85.24942469343215
 21
283.9859210812973
 31
0.0
 11
84.36630744396774
 21
284.5443892276642
 31
0.0
 11
83.53597759500471
 21
285.1766142949781
 31
0.0
 11
82.76393551629832
 21
285.878845498891
 31
0.0
 11
82.05681434292887
 21
286.6445883862892
 31
0.0
 11
81.41934744505156
 21
287.4692337850088
 31
0.0
 11
80.85690747412339
 21
288.3452696404085
 31
0.0
 11
80.37341532923577
 21
289.2672414070262
 31
0.0
 11
79.97275580839997
 21
290.2269952150415
 31
0.0
 11
79.65793975720968
 21
291.2182371010419
 31
0.0
 11
79.43126464181107
 21
292.2325794832205
 31
0.0
 11
79.29467800472159
 21
293.2629307545212
 31
0.0
 11
79.26035728545547
 21
293.7819924618293
 31
0.0
 11
79.2489170456999
 21
294.3010541691374
 31
0.0
  0
SPLINE
  5
12A
330
3C
100
AcDbEntity
  8
1
  6
Continuous
 62
     7
100
AcDbSpline
210
0.0
220
0.0
230
1.0
 70
     8
 71
     3
 72
    15
 73
    11
 74
     9
 42
0.0000000001
 43
0.0000000001
 44
0.00000001
 40
0.0
 40
0.0
 40
0.0
 40
0.0
 40
1.039365023320712
 40
2.078726402353359
 40
3.118759874241938
 40
4.158786519879515
 40
5.199842038383768
 40
6.240888406632342
 40
7.231407641668021
 40
8.221558680039756
 40
8.221558680039756
 40
8.221558680039756
 40
8.221558680039756
 10
79.29467800472139
 20
295.3391775837637
 30
0.0
 10
79.33382652739164
 20
295.683641275686
 30
0.0
 10
79.4121234354671
 20
296.3725674517501
 30
0.0
 10
79.64446474318505
 20
297.3879361717596
 30
0.0
 10
79.9580668965679
 20
298.3804261976635
 30
0.0
 10
80.35999710515824
 20
299.3415534891315
 30
0.0
 10
80.8434556979617
 20
300.2647303463191
 30
0.0
 10
81.39864383613953
 20
301.1266690971218
 30
0.0
 10
82.01019200706722
 20
301.9291920402834
 30
0.0
 10
82.46370146174478
 20
302.4095387214833
 30
0.0
 10
82.69041403651769
 20
302.6496674150645
 30
0.0
 11
79.29467800472139
 21
295.3391775837637
 31
0.0
 11
79.43126464181094
 21
296.3695288550645
 31
0.0
 11
79.65793975720963
 21
297.383871237243
 31
0.0
 11
79.97275580839997
 21
298.3751131232434
 31
0.0
 11
80.37341532923577
 21
299.3348669312586
 31
0.0
 11
80.8569074741234
 21
300.2568386978763
 31
0.0
 11
81.41934744505161
 21
301.1328745532759
 31
0.0
 11
82.02343461386543
 21
301.9178631184475
 31
0.0
 11
82.69041403651769
 21
302.6496674150645
 31
0.0
  0
SPLINE
  5
12B
330
3C
100
AcDbEntity
  8
1
  6
Continuous
 62
     7
100
AcDbSpline
210
0.0
220
0.0
230
1.0
 70
     8
 71
     3
 72
    19
 73
    15
 74
    13
 42
0.0000000001
 43
0.0000000001
 44
0.00000001
 40
0.0
 40
0.0
 40
0.0
 40
0.0
 40
0.1026739651440359
 40
0.2053520900497748
 40
0.8823379657610316
 40
1.559367159323025
 40
2.092332664220609
 40
2.625836407893308
 40
3.002842399878668
 40
3.378506720486421
 40
3.606838175143521
 40
3.852385499513861
 40
3.932731505593175
 40
4.001328128024026
 40
4.001328128024026
 40
4.001328128024026
 40
4.001328128024026
 10
82.99891704570001
 20
135.2902607416659
 30
0.0
 10
82.96491916600765
 20
135.2941940745859
 30
0.0
 10
82.89692202922329
 20
135.3020608997821
 30
0.0
 10
82.60484228867476
 20
135.336588491845
 30
0.0
 10
82.12343312199204
 20
135.400182314752
 30
0.0
 10
81.50145623095602
 20
135.4945422057719
 30
0.0
 10
80.93014284044318
 20
135.601516445618
 30
0.0
 10
80.46079704862592
 20
135.7088406999092
 30
0.0
 10
80.04884630895188
 20
135.8276365747202
 30
0.0
 10
79.73507868172766
 20
135.9203456848918
 30
0.0
 10
79.47863892772185
 20
136.0472484077032
 30
0.0
 10
79.34216876103398
 20
136.1727334349273
 30
0.0
 10
79.25907704506656
 20
136.2790714379234
 30
0.0
 10
79.25212079691933
 20
136.32906218803
 30
0.0
 10
79.2489170457001
 20
136.3520857954713
 30
0.0
 11
82.99891704570001
 21
135.2902607416659
 31
0.0
 11
82.89692829972113
 21
135.3021029885833
 31
0.0
 11
82.79496241227545
 21
135.3141758975772
 31
0.0
 11
82.1237405413752
 21
135.4023296038958
 31
0.0
 11
81.45470283581122
 21
135.5060459356323
 31
0.0
 11
80.93099369022659
 21
135.6049446729435
 31
0.0
 11
80.41143052718574
 21
135.7261072254248
 31
0.0
 11
80.04850108738594
 21
135.8281647568444
 31
0.0
 11
79.69215803558743
 21
135.9470904109843
 31
0.0
 11
79.48995484562869
 21
136.0531522946011
 31
0.0
 11
79.30807757450134
 21
136.2181194026945
 31
0.0
 11
79.26370717790076
 21
136.2851025990829
 31
0.0
 11
79.2489170457001
 21
136.3520857954713
 31
0.0
  0
SPLINE
  5
12C
330
3C
100
AcDbEntity
  8
1
  6
Continuous
 62
     7
100
AcDbSpline
210
0.0
220
0.0
230
1.0
 70
     8
 71
     3
 72
    13
 73
     9
 74
     7
 42
0.0000000001
 43
0.0000000001
 44
0.00000001
 40
0.0
 40
0.0
 40
0.0
 40
0.0
 40
0.7291442365297001
 40
1.45830426556011
 40
2.500268266985081
 40
3.542232268410123
 40
4.271392297440191
 40
5.000536533969111
 40
5.000536533969111
 40
5.000536533969111
 40
5.000536533969111
 10
88.74891704570001
 20
138.807064067976
 30
0.0
 10
88.99189788679917
 20
138.8128346899905
 30
0.0
 10
89.47786483170808
 20
138.8243760590051
 30
0.0
 10
90.31121819574311
 20
138.8359896733386
 30
0.0
 10
91.24891704570005
 20
138.8410484768719
 30
0.0
 10
92.1866158956569
 20
138.8359896733386
 30
0.0
 10
93.01996925969158
 20
138.8243760590052
 30
0.0
 10
93.50593620460013
 20
138.8128346899905
 30
0.0
 10
93.74891704569902
 20
138.807064067976
 30
0.0
 11
88.74891704570001
 21
138.807064067976
 31
0.0
 11
89.47788306939985
 21
138.8231840541957
 31
0.0
 11
90.20696752077939
 21
138.8336821822303
 31
0.0
 11
91.24891704570004
 21
138.8391747028868
 31
0.0
 11
92.29086657062076
 21
138.8336821822303
 31
0.0
 11
93.01995102199996
 21
138.8231840541957
 31
0.0
 11
93.74891704569902
 21
138.807064067976
 31
0.0
  0
SPLINE
  5
12D
330
3C
100
AcDbEntity
  8
1
  6
Continuous
 62
     7
100
AcDbSpline
210
0.0
220
0.0
230
1.0
 70
     8
 71
     3
 72
     9
 73
     5
 74
     3
 42
0.0000000001
 43
0.0000000001
 44
0.00000001
 40
0.0
 40
0.0
 40
0.0
 40
0.0
 40
0.0685966224297066
 40
0.1489426285076482
 40
0.1489426285076482
 40
0.1489426285076482
 40
0.1489426285076482
 10
103.2489170457001
 20
136.3520857954688
 30
0.0
 10
103.2457595155102
 20
136.32900618231
 30
0.0
 10
103.2389036262634
 20
136.2788938279831
 30
0.0
 10
103.2069783646142
 20
136.2394156276577
 30
0.0
 10
103.1897565168988
 20
136.2181194026946
 30
0.0
 11
103.2489170457001
 21
136.3520857954688
 31
0.0
 11
103.2341269134988
 21
136.2851025990817
 31
0.0
 11
103.1897565168988
 21
136.2181194026946
 31
0.0
  0
SPLINE
  5
12E
330
3C
100
AcDbEntity
  8
1
  6
Continuous
 62
     7
100
AcDbSpline
210
0.0
220
0.0
230
1.0
 70
     8
 71
     3
 72
    45
 73
    41
 74
    39
 42
0.0000000001
 43
0.0000000001
 44
0.00000001
 40
0.0
 40
0.0
 40
0.0
 40
0.0
 40
0.0685966224346192
 40
0.1489426285184917
 40
0.3944899528888207
 40
0.6228214075458955
 40
0.9984857281536576
 40
1.37549172013901
 40
1.908995463811743
 40
2.441960968709293
 40
3.118990162271311
 40
3.795976037982582
 40
4.598459303596031
 40
5.400906340071852
 40
6.305565338657346
 40
7.21020648378124
 40
8.190319226882588
 40
9.170423648043395
 40
10.19680143153656
 40
11.22317548220971
 40
12.26513948363471
 40
13.30710348505976
 40
14.33347753573296
 40
15.35985531922609
 40
16.33995974038687
 40
17.32007248348826
 40
18.22471362861219
 40
19.12937262719769
 40
19.93181966367351
 40
20.73430292928695
 40
21.41128880499821
 40
22.08831799856018
 40
22.62128350345773
 40
23.15478724713043
 40
23.53179323911579
 40
23.90745755972355
 40
24.13578901438065
 40
24.38133633875099
 40
24.46168234482892
 40
24.53027896725861
 40
24.53027896725861
 40
24.53027896725861
 40
24.53027896725861
 10
79.2489170457001
 20
148.2626396151621
 30
0.0
 10
79.25212079691525
 20
148.2856632226325
 30
0.0
 10
79.25907704505353
 20
148.3356539728023
 30
0.0
 10
79.34216876112575
 20
148.4419919749257
 30
0.0
 10
79.47863892657097
 20
148.5674770127109
 30
0.0
 10
79.73507868661277
 20
148.6943796842699
 30
0.0
 10
80.04884627718467
 20
148.787089105665
 30
0.0
 10
80.46079718637408
 20
148.9058835410797
 30
0.0
 10
80.93014208541985
 20
149.0132153761107
 30
0.0
 10
81.50145933214179
 20
149.1201568719481
 30
0.0
 10
82.12341803035143
 20
149.2146712426779
 30
0.0
 10
82.83617472553465
 20
149.3081761547514
 30
0.0
 10
83.59234748673373
 20
149.3910229628497
 30
0.0
 10
84.4253542781255
 20
149.4680476877687
 30
0.0
 10
85.29344787380693
 20
149.5342961631534
 30
0.0
 10
86.22144387485022
 20
149.5926401912853
 30
0.0
 10
87.1752409819488
 20
149.6401334612486
 30
0.0
 10
88.17007005052571
 20
149.6780778009291
 30
0.0
 10
89.18068462458329
 20
149.7050141391449
 30
0.0
 10
90.21214421760824
 20
149.7214930385312
 30
0.0
 10
91.24891704570004
 20
149.726874571869
 30
0.0
 10
92.28568987379194
 20
149.7214930385312
 30
0.0
 10
93.31714946681683
 20
149.705014139145
 30
0.0
 10
94.32776404087443
 20
149.6780778009291
 30
0.0
 10
95.32259310945133
 20
149.6401334612487
 30
0.0
 10
96.27639021654993
 20
149.5926401912854
 30
0.0
 10
97.20438621759328
 20
149.5342961631535
 30
0.0
 10
98.07247981327474
 20
149.4680476877686
 30
0.0
 10
98.90548660466645
 20
149.3910229628498
 30
0.0
 10
99.6616593658655
 20
149.3081761547514
 30
0.0
 10
100.3744160610488
 20
149.2146712426779
 30
0.0
 10
100.9963747592584
 20
149.1201568719482
 30
0.0
 10
101.5676920059802
 20
149.0132153761105
 30
0.0
 10
102.037036905026
 20
148.9058835410797
 30
0.0
 10
102.4489878142154
 20
148.787089105665
 30
0.0
 10
102.7627554047874
 20
148.6943796842699
 30
0.0
 10
103.0191951648291
 20
148.567477012711
 30
0.0
 10
103.155665330273
 20
148.4419919749267
 30
0.0
 10
103.238757046343
 20
148.3356539728073
 30
0.0
 10
103.2457132944837
 20
148.2856632226417
 30
0.0
 10
103.2489170457
 20
148.2626396151732
 30
0.0
 11
79.2489170457001
 21
148.2626396151621
 31
0.0
 11
79.26370717789892
 21
148.3296228115548
 31
0.0
 11
79.30807757450137
 21
148.3966060079474
 31
0.0
 11
79.4899548456287
 21
148.5615731160408
 31
0.0
 11
79.69215803558743
 21
148.6676349996575
 31
0.0
 11
80.04850108738594
 21
148.7865606537975
 31
0.0
 11
80.41143052718574
 21
148.8886181852171
 31
0.0
 11
80.93099369022661
 21
149.0097807376984
 31
0.0
 11
81.45470283581122
 21
149.1086794750096
 31
0.0
 11
82.12374054137523
 21
149.2123958067461
 31
0.0
 11
82.7949624122755
 21
149.3005495130647
 31
0.0
 11
83.59258150664499
 21
149.3887717998567
 31
0.0
 11
84.39159718240984
 21
149.4629013906479
 31
0.0
 11
85.29359161319401
 21
149.53228402937
 31
0.0
 11
86.19644192960644
 21
149.5891778568476
 31
0.0
 11
87.17532615487399
 21
149.6382356055933
 31
0.0
 11
88.15471582782995
 21
149.6756594601005
 31
0.0
 11
89.18072434760038
 21
149.7031889317052
 31
0.0
 11
90.20696752077936
 21
149.719579215374
 31
0.0
 11
91.24891704570004
 21
149.7250717360305
 31
0.0
 11
92.29086657062078
 21
149.719579215374
 31
0.0
 11
93.3171097437998
 21
149.7031889317052
 31
0.0
 11
94.3431182635702
 21
149.6756594601006
 31
0.0
 11
95.32250793652614
 21
149.6382356055934
 31
0.0
 11
96.30139216179373
 21
149.5891778568477
 31
0.0
 11
97.2042424782062
 21
149.5322840293701
 31
0.0
 11
98.10623690899037
 21
149.4629013906479
 31
0.0
 11
98.90525258475522
 21
149.3887717998567
 31
0.0
 11
99.7028716791247
 21
149.3005495130647
 31
0.0
 11
100.374093550025
 21
149.2123958067461
 31
0.0
 11
101.0431312555889
 21
149.1086794750096
 31
0.0
 11
101.5668404011735
 21
149.0097807376984
 31
0.0
 11
102.0864035642144
 21
148.8886181852171
 31
0.0
 11
102.4493330040142
 21
148.7865606537975
 31
0.0
 11
102.8056760558127
 21
148.6676349996576
 31
0.0
 11
103.0078792457714
 21
148.5615731160408
 31
0.0
 11
103.1897565168988
 21
148.3966060079474
 31
0.0
 11
103.2341269134988
 21
148.3296228115603
 31
0.0
 11
103.2489170457
 21
148.2626396151732
 31
0.0
  0
SPLINE
  5
12F
330
3C
100
AcDbEntity
  8
1
  6
Continuous
 62
     7
100
AcDbSpline
210
0.0
220
0.0
230
1.0
 70
     8
 71
     3
 72
    45
 73
    41
 74
    39
 42
0.0000000001
 43
0.0000000001
 44
0.00000001
 40
0.0
 40
0.0
 40
0.0
 40
0.0
 40
0.0685966224323265
 40
0.1489426285134465
 40
0.3944899528838263
 40
0.6228214075409143
 40
0.9984857281486673
 40
1.37549172013402
 40
1.908995463806753
 40
2.441960968704308
 40
3.118990162266326
 40
3.795976037977597
 40
4.598459303591046
 40
5.400906340066866
 40
6.30556533865236
 40
7.210206483776254
 40
8.1903192268776
 40
9.170423648038407
 40
10.19680143153157
 40
11.22317548220472
 40
12.26513948362972
 40
13.30710348505478
 40
14.33347753572797
 40
15.3598553192211
 40
16.33995974038188
 40
17.32007248348327
 40
18.22471362860721
 40
19.1293726271927
 40
19.93181966366852
 40
20.73430292928196
 40
21.41128880499321
 40
22.08831799855519
 40
22.62128350345274
 40
23.15478724712544
 40
23.5317932391108
 40
23.90745755971856
 40
24.13578901437566
 40
24.38133633874606
 40
24.46168234482857
 40
24.53027896726198
 40
24.53027896726198
 40
24.53027896726198
 40
24.53027896726198
 10
79.2489170457001
 20
136.3520857954713
 30
0.0
 10
79.25212079691575
 20
136.3751094029408
 30
0.0
 10
79.25907704505515
 20
136.4251001531086
 30
0.0
 10
79.34216876112636
 20
136.5314381552302
 30
0.0
 10
79.47863892657098
 20
136.656923193015
 30
0.0
 10
79.73507868661274
 20
136.7838258645741
 30
0.0
 10
80.04884627718467
 20
136.8765352859691
 30
0.0
 10
80.46079718637405
 20
136.9953297213838
 30
0.0
 10
80.93014208541985
 20
137.1026615564147
 30
0.0
 10
81.50145933214179
 20
137.2096030522522
 30
0.0
 10
82.12341803035142
 20
137.304117422982
 30
0.0
 10
82.83617472553465
 20
137.3976223350555
 30
0.0
 10
83.59234748673376
 20
137.4804691431539
 30
0.0
 10
84.42535427812545
 20
137.5574938680728
 30
0.0
 10
85.29344787380695
 20
137.6237423434575
 30
0.0
 10
86.22144387485025
 20
137.6820863715895
 30
0.0
 10
87.17524098194882
 20
137.7295796415526
 30
0.0
 10
88.17007005052571
 20
137.7675239812332
 30
0.0
 10
89.18068462458329
 20
137.794460319449
 30
0.0
 10
90.21214421760824
 20
137.8109392188352
 30
0.0
 10
91.24891704570004
 20
137.8163207521731
 30
0.0
 10
92.28568987379192
 20
137.8109392188352
 30
0.0
 10
93.31714946681686
 20
137.7944603194489
 30
0.0
 10
94.32776404087444
 20
137.7675239812333
 30
0.0
 10
95.32259310945135
 20
137.7295796415528
 30
0.0
 10
96.27639021654993
 20
137.6820863715895
 30
0.0
 10
97.20438621759328
 20
137.6237423434576
 30
0.0
 10
98.07247981327471
 20
137.5574938680727
 30
0.0
 10
98.90548660466646
 20
137.4804691431539
 30
0.0
 10
99.66165936586556
 20
137.3976223350556
 30
0.0
 10
100.3744160610487
 20
137.304117422982
 30
0.0
 10
100.9963747592584
 20
137.2096030522522
 30
0.0
 10
101.5676920059803
 20
137.1026615564147
 30
0.0
 10
102.037036905026
 20
136.9953297213838
 30
0.0
 10
102.4489878142154
 20
136.8765352859691
 30
0.0
 10
102.7627554047874
 20
136.783825864574
 30
0.0
 10
103.0191951648292
 20
136.6569231930151
 30
0.0
 10
103.1556653302741
 20
136.5314381552299
 30
0.0
 10
103.2387570463459
 20
136.4251001531076
 30
0.0
 10
103.2457132944847
 20
136.3751094029387
 30
0.0
 10
103.2489170457001
 20
136.3520857954688
 30
0.0
 11
79.2489170457001
 21
136.3520857954713
 31
0.0
 11
79.2637071779
 21
136.4190689918614
 31
0.0
 11
79.30807757450133
 21
136.4860521882515
 31
0.0
 11
79.4899548456287
 21
136.6510192963449
 31
0.0
 11
79.69215803558743
 21
136.7570811799617
 31
0.0
 11
80.04850108738594
 21
136.8760068341016
 31
0.0
 11
80.41143052718574
 21
136.9780643655212
 31
0.0
 11
80.93099369022661
 21
137.0992269180025
 31
0.0
 11
81.45470283581122
 21
137.1981256553137
 31
0.0
 11
82.12374054137523
 21
137.3018419870502
 31
0.0
 11
82.7949624122755
 21
137.3899956933688
 31
0.0
 11
83.59258150664499
 21
137.4782179801608
 31
0.0
 11
84.39159718240984
 21
137.552347570952
 31
0.0
 11
85.29359161319401
 21
137.6217302096741
 31
0.0
 11
86.19644192960644
 21
137.6786240371517
 31
0.0
 11
87.17532615487399
 21
137.7276817858974
 31
0.0
 11
88.15471582782995
 21
137.7651056404046
 31
0.0
 11
89.18072434760038
 21
137.7926351120093
 31
0.0
 11
90.20696752077936
 21
137.8090253956781
 31
0.0
 11
91.24891704570004
 21
137.8145179163346
 31
0.0
 11
92.29086657062078
 21
137.8090253956781
 31
0.0
 11
93.3171097437998
 21
137.7926351120092
 31
0.0
 11
94.3431182635702
 21
137.7651056404046
 31
0.0
 11
95.32250793652614
 21
137.7276817858975
 31
0.0
 11
96.30139216179373
 21
137.6786240371518
 31
0.0
 11
97.2042424782062
 21
137.6217302096742
 31
0.0
 11
98.10623690899037
 21
137.552347570952
 31
0.0
 11
98.90525258475522
 21
137.4782179801608
 31
0.0
 11
99.7028716791247
 21
137.3899956933688
 31
0.0
 11
100.374093550025
 21
137.3018419870502
 31
0.0
 11
101.0431312555889
 21
137.1981256553137
 31
0.0
 11
101.5668404011735
 21
137.0992269180024
 31
0.0
 11
102.0864035642144
 21
136.9780643655212
 31
0.0
 11
102.4493330040142
 21
136.8760068341016
 31
0.0
 11
102.8056760558127
 21
136.7570811799617
 31
0.0
 11
103.0078792457714
 21
136.6510192963449
 31
0.0
 11
103.1897565168988
 21
136.4860521882515
 31
0.0
 11
103.2341269135008
 21
136.4190689918601
 31
0.0
 11
103.2489170457001
 21
136.3520857954688
 31
0.0
  0
SPLINE
  5
130
330
3C
100
AcDbEntity
  8
1
  6
Continuous
 62
     7
100
AcDbSpline
210
0.0
220
0.0
230
1.0
 70
     8
 71
     3
 72
    17
 73
    13
 74
    11
 42
0.0000000001
 43
0.0000000001
 44
0.00000001
 40
0.0
 40
0.0
 40
0.0
 40
0.0
 40
0.2455473243704093
 40
0.4738787790275105
 40
0.849543099635286
 40
1.226549091620639
 40
1.760052835293337
 40
2.293018340190879
 40
2.97004753375284
 40
3.647033409464125
 40
3.749711534368535
 40
3.852385499511622
 40
3.852385499511622
 40
3.852385499511622
 40
3.852385499511622
 10
103.1897565168988
 20
136.2181194026946
 30
0.0
 10
103.1320882653535
 20
136.1591377850244
 30
0.0
 10
103.0207950117984
 20
136.0453098822432
 30
0.0
 10
102.7620328413132
 20
135.9212212162272
 30
0.0
 10
102.4492179867677
 20
135.827357637658
 30
0.0
 10
102.0369462183168
 20
135.7089507513077
 30
0.0
 10
101.5677187808338
 20
135.601483087847
 30
0.0
 10
100.9963682106913
 20
135.4945538983141
 30
0.0
 10
100.3744039519008
 20
135.4001787008852
 30
0.0
 10
99.89299170186354
 20
135.3365886140592
 30
0.0
 10
99.60091206974869
 20
135.302060890609
 30
0.0
 10
99.53291492791797
 20
135.2941940715284
 30
0.0
 10
99.4989170457024
 20
135.2902607416661
 30
0.0
 11
103.1897565168988
 21
136.2181194026946
 31
0.0
 11
103.0078792457714
 21
136.0531522946012
 31
0.0
 11
102.8056760558127
 21
135.9470904109843
 31
0.0
 11
102.4493330040142
 21
135.8281647568444
 31
0.0
 11
102.0864035642144
 21
135.7261072254248
 31
0.0
 11
101.5668404011735
 21
135.6049446729435
 31
0.0
 11
101.0431312555889
 21
135.5060459356323
 31
0.0
 11
100.374093550025
 21
135.4023296038958
 31
0.0
 11
99.70287167912468
 21
135.3141758975772
 31
0.0
 11
99.60090579168033
 21
135.3021029885835
 31
0.0
 11
99.4989170457024
 21
135.2902607416661
 31
0.0
  0
ENDBLK
  5
3E
330
3C
100
AcDbEntity
  8
0
100
AcDbBlockEnd
  0
BLOCK
  5
42
330
3F
100
AcDbEntity
  8
0
100
AcDbBlockBegin
  2
T30A-13
 70
     0
 71
     0
 10
-12.00717469802852
 20
133.1023684946001
 30
0.0
  3
T30A-13
  1

  0
INSERT
  5
40
330
3F
100
AcDbEntity
  8
1
100
AcDbBlockReference
  2
33-6-13
 10
227.3409682978441
 20
11.55963398696706
 30
0.0
  0
INSERT
  5
41
330
3F
100
AcDbEntity
  8
0
100
AcDbBlockReference
  2
32-13-13
 10
-114.1034552807654
 20
791.6049330809889
 30
0.0
  0
ENDBLK
  5
43
330
3F
100
AcDbEntity
  8
0
100
AcDbBlockEnd
  0
BLOCK
  5
45
330
44
100
AcDbEntity
  8
0
100
AcDbBlockBegin
  2
21-1A
 70
     0
 71
     0
 10
492.4343177576918
 20
-451.2216830145655
 30
0.0
  3
21-1A
  1

  0
LINE
  5
131
330
44
100
AcDbEntity
  8
1
  6
Continuous
 62
     7
100
AcDbLine
 10
64.05505601571079
 20
234.1049912597755
 30
0.0
 11
63.60314791671851
 21
230.889498054905
 31
0.0
  0
LINE
  5
132
330
44
100
AcDbEntity
  8
1
  6
Continuous
 62
     7
100
AcDbLine
 10
64.09828195108921
 20
230.3199115044248
 30
0.0
 11
118.3995521403112
 21
230.3199115044248
 31
0.0
  0
LINE
  5
133
330
44
100
AcDbEntity
  8
1
  6
Continuous
 62
     7
100
AcDbLine
 10
84.77844091813731
 20
230.3199115044248
 30
0.0
 11
84.77844091813731
 21
234.7239135797337
 31
0.0
  0
LINE
  5
134
330
44
100
AcDbEntity
  8
1
  6
Continuous
 62
     7
100
AcDbLine
 10
97.71939317326331
 20
234.6747154894828
 30
0.0
 11
97.71939317326331
 21
230.3199115044248
 31
0.0
  0
LINE
  5
135
330
44
100
AcDbEntity
  8
1
  6
Continuous
 62
     7
100
AcDbLine
 10
118.894686174682
 20
230.889498054905
 30
0.0
 11
118.4427780756896
 21
234.1049912597755
 31
0.0
  0
LINE
  5
136
330
44
100
AcDbEntity
  8
1
  6
Continuous
 62
     7
100
AcDbLine
 10
97.04447200343452
 20
302.0184646368844
 30
0.0
 11
100.6958812149049
 21
315.6457093333173
 31
0.0
  0
LINE
  5
137
330
44
100
AcDbEntity
  8
1
  6
Continuous
 62
     7
100
AcDbLine
 10
117.1421928274303
 20
336.8287382203803
 30
0.0
 11
107.166357342468
 21
326.8529027354179
 31
0.0
  0
LINE
  5
138
330
44
100
AcDbEntity
  8
1
  6
Continuous
 62
     7
100
AcDbLine
 10
112.1071427723163
 20
347.0707105397309
 30
0.0
 11
97.71939317326311
 21
343.2155246537635
 31
0.0
  0
LINE
  5
139
330
44
100
AcDbEntity
  8
1
  6
Continuous
 62
     7
100
AcDbLine
 10
71.1511962217042
 20
346.8669338652341
 30
0.0
 11
84.77844091813699
 21
343.2155246537635
 31
0.0
  0
LINE
  5
13A
330
44
100
AcDbEntity
  8
1
  6
Continuous
 62
     7
100
AcDbLine
 10
65.3556412639698
 20
336.8287382203803
 30
0.0
 11
75.33147674893209
 21
326.8529027354179
 31
0.0
  0
LINE
  5
13B
330
44
100
AcDbEntity
  8
1
  6
Continuous
 62
     7
100
AcDbLine
 10
85.45336208796562
 20
302.0184646368844
 30
0.0
 11
81.80195287649519
 21
315.6457093333173
 31
0.0
  0
LINE
  5
13C
330
44
100
AcDbEntity
  8
0
  6
Continuous
 62
     7
100
AcDbLine
 10
201.4989170457002
 20
230.3199115044248
 30
0.0
 11
218.4758518180989
 21
230.3199115044248
 31
0.0
  0
LINE
  5
13D
330
44
100
AcDbEntity
  8
1
  6
Continuous
 62
     7
100
AcDbLine
 10
175.8241012493106
 20
230.3199115044248
 30
0.0
 11
201.4989170457002
 21
230.3199115044248
 31
0.0
  0
LINE
  5
13E
330
44
100
AcDbEntity
  8
1
  6
Continuous
 62
     7
100
AcDbLine
 10
224.0516029000513
 20
235.2789881101688
 30
0.0
 11
224.6688203940589
 21
230.889533437138
 31
0.0
  0
LINE
  5
13F
330
44
100
AcDbEntity
  8
1
  6
Continuous
 62
     7
100
AcDbLine
 10
224.1736913336258
 20
230.3199115044248
 30
0.0
 11
218.4758518180989
 21
230.3199115044248
 31
0.0
  0
LINE
  5
140
330
44
100
AcDbEntity
  8
1
  6
Continuous
 62
     7
100
AcDbLine
 10
210.9989170457002
 20
230.3199115044248
 30
0.0
 11
211.9989170457002
 21
230.3199115044248
 31
0.0
  0
LINE
  5
141
330
44
100
AcDbEntity
  8
1
  6
Continuous
 62
     7
100
AcDbLine
 10
201.4989170457002
 20
230.3199115044248
 30
0.0
 11
200.4989170457002
 21
230.3199115044248
 31
0.0
  0
LINE
  5
142
330
44
100
AcDbEntity
  8
1
  6
Continuous
 62
     7
100
AcDbLine
 10
175.7808753139323
 20
234.1049912597758
 30
0.0
 11
175.3289672149399
 21
230.8894980549047
 31
0.0
  0
ARC
  5
143
330
44
100
AcDbEntity
  8
1
  6
Continuous
 62
     7
100
AcDbCircle
 10
92.88600739658941
 20
113.9497589641004
 30
0.0
 40
127.4948334081409
100
AcDbArc
 50
92.53411689479739
 51
100.8094932463522
  0
ARC
  5
144
330
44
100
AcDbEntity
  8
1
  6
Continuous
 62
     7
100
AcDbCircle
 10
89.61182669481102
 20
113.9497589641004
 30
0.0
 40
127.4948334081409
100
AcDbArc
 50
79.19050675364781
 51
87.46588310520271
  0
ARC
  5
145
330
44
100
AcDbEntity
  8
0
  6
Continuous
 62
     7
100
AcDbCircle
 10
91.2490105647872
 20
234.7239135797337
 30
0.0
 40
6.470569646650479
100
AcDbArc
 50
-0.43564481123068
 51
180.0
  0
ARC
  5
146
330
44
100
AcDbEntity
  8
1
  6
Continuous
 62
     7
100
AcDbCircle
 10
91.24891704570001
 20
303.5713789074997
 30
0.0
 40
6.0
100
AcDbArc
 50
-90.0
 51
-15.00000000000141
  0
ARC
  5
147
330
44
100
AcDbEntity
  8
1
  6
Continuous
 62
     7
100
AcDbCircle
 10
112.899552140311
 20
341.0713789074997
 30
0.0
 40
6.000000000000118
100
AcDbArc
 50
-45.00000000000087
 51
97.52424107894154
  0
ARC
  5
148
330
44
100
AcDbEntity
  8
1
  6
Continuous
 62
     7
100
AcDbCircle
 10
69.59828195108909
 20
341.0713789074997
 30
0.0
 40
5.999999999999981
100
AcDbArc
 50
75.00000000000014
 51
-134.999999999999
  0
ARC
  5
149
330
44
100
AcDbEntity
  8
1
  6
Continuous
 62
     7
100
AcDbCircle
 10
91.24891704570001
 20
303.5713789074997
 30
0.0
 40
6.000000000000033
100
AcDbArc
 50
-164.9999999999983
 51
-90.0
  0
ARC
  5
14A
330
44
100
AcDbEntity
  8
1
  6
Continuous
 62
     7
100
AcDbCircle
 10
206.6131127109469
 20
166.4080904957259
 30
0.0
 40
74.99999999999908
100
AcDbArc
 50
80.40850751733494
 51
87.22136103403734
  0
ARC
  5
14B
330
44
100
AcDbEntity
  8
1
  6
Continuous
 62
     7
100
AcDbCircle
 10
206.2489170457002
 20
91.31991150442487
 30
0.0
 40
150.0533238552215
100
AcDbArc
 50
91.52752544221293
 51
99.80290179376783
  0
ARC
  5
14C
330
44
100
AcDbEntity
  8
1
  6
Continuous
 62
     7
100
AcDbCircle
 10
64.09828195108921
 20
230.8199115044248
 30
0.0
 40
0.4999999999999336
100
AcDbArc
 50
171.9999999999784
 51
-90.0
  0
ARC
  5
14D
330
44
100
AcDbEntity
  8
1
  6
Continuous
 62
     7
100
AcDbCircle
 10
69.9966644281603
 20
233.2699526540151
 30
0.0
 40
6.000000000000037
100
AcDbArc
 50
99.80290179376887
 51
172.0000000000002
  0
ARC
  5
14E
330
44
100
AcDbEntity
  8
1
  6
Continuous
 62
     7
100
AcDbCircle
 10
112.5011696632402
 20
233.2699526540151
 30
0.0
 40
5.999999999999976
100
AcDbArc
 50
7.99999999999999
 51
80.19709820623221
  0
ARC
  5
14F
330
44
100
AcDbEntity
  8
1
  6
Continuous
 62
     7
100
AcDbCircle
 10
118.3995521403112
 20
230.8199115044248
 30
0.0
 40
0.5
100
AcDbArc
 50
-90.0
 51
8.00000000002
  0
ARC
  5
150
330
44
100
AcDbEntity
  8
1
  6
Continuous
 62
     7
100
AcDbCircle
 10
124.8440268721316
 20
309.1752332057543
 30
0.0
 40
24.99999999999987
100
AcDbArc
 50
135.0
 51
165.0
  0
ARC
  5
151
330
44
100
AcDbEntity
  8
1
  6
Continuous
 62
     7
100
AcDbCircle
 10
91.24891704570001
 20
367.3636703109902
 30
0.0
 40
24.99999999999997
100
AcDbArc
 50
-105.0
 51
-74.9999999999998
  0
ARC
  5
152
330
44
100
AcDbEntity
  8
1
  6
Continuous
 62
     7
100
AcDbCircle
 10
57.65380721926848
 20
309.1752332057543
 30
0.0
 40
25.0
100
AcDbArc
 50
14.99999999999999
 51
44.99999999999999
  0
ARC
  5
153
330
44
100
AcDbEntity
  8
1
  6
Continuous
 62
     7
100
AcDbCircle
 10
224.1736913336258
 20
230.8199115044248
 30
0.0
 40
0.5
100
AcDbArc
 50
-90.0
 51
8.00409437176757
  0
ARC
  5
154
330
44
100
AcDbEntity
  8
1
  6
Continuous
 62
     7
100
AcDbCircle
 10
218.1100541748542
 20
234.443524917617
 30
0.0
 40
6.000000000000005
100
AcDbArc
 50
8.00409437170483
 51
80.40850751733579
  0
ARC
  5
155
330
44
100
AcDbEntity
  8
1
  6
Continuous
 62
     7
100
AcDbCircle
 10
175.8241012493106
 20
230.8199115044248
 30
0.0
 40
0.49999999999989
100
AcDbArc
 50
172.0000000000139
 51
-90.0
  0
ARC
  5
156
330
44
100
AcDbEntity
  8
1
  6
Continuous
 62
     7
100
AcDbCircle
 10
181.7224837263817
 20
233.2699526540149
 30
0.0
 40
5.999999999999715
100
AcDbArc
 50
99.80290179376857
 51
171.9999999999952
  0
ENDBLK
  5
46
330
44
100
AcDbEntity
  8
0
100
AcDbBlockEnd
  0
BLOCK
  5
48
330
47
100
AcDbEntity
  8
0
100
AcDbBlockBegin
  2
42-1
 70
     0
 71
     0
 10
363.1446569590967
 20
-422.76973750516
 30
0.0
  3
42-1
  1

  0
LINE
  5
157
330
47
100
AcDbEntity
  8
1
  6
Continuous
 62
     2
100
AcDbLine
 10
92.7489170457001
 20
242.2575053327936
 30
0.0
 11
92.7489170457001
 21
243.6062316626467
 31
0.0
  0
LINE
  5
158
330
47
100
AcDbEntity
  8
1
  6
Continuous
 62
     2
100
AcDbLine
 10
93.7489170457001
 20
241.9334606951028
 30
0.0
 11
93.7489170457001
 21
243.8514546317106
 31
0.0
  0
LINE
  5
159
330
47
100
AcDbEntity
  8
1
  6
Continuous
 62
     2
100
AcDbLine
 10
94.7489170457001
 20
241.5743842046876
 30
0.0
 11
94.7489170457001
 21
244.0441298216896
 31
0.0
  0
LINE
  5
15A
330
47
100
AcDbEntity
  8
1
  6
Continuous
 62
     2
100
AcDbLine
 10
95.7489170457001
 20
241.4254988306128
 30
0.0
 11
95.7489170457001
 21
244.1754992694026
 31
0.0
  0
LINE
  5
15B
330
47
100
AcDbEntity
  8
1
  6
Continuous
 62
     7
100
AcDbLine
 10
85.7489170457001
 20
241.3199115044248
 30
0.0
 11
96.7489170457001
 21
241.3199115044248
 31
0.0
  0
LINE
  5
15C
330
47
100
AcDbEntity
  8
1
  6
Continuous
 62
     2
100
AcDbLine
 10
96.7489170457001
 20
241.3199115044248
 30
0.0
 11
96.7489170457001
 21
244.3199115044248
 31
0.0
  0
LINE
  5
15D
330
47
100
AcDbEntity
  8
1
  6
Continuous
 62
     2
100
AcDbLine
 10
97.7489170457001
 20
241.3199115044248
 30
0.0
 11
97.7489170457001
 21
244.3199115044248
 31
0.0
  0
LINE
  5
15E
330
47
100
AcDbEntity
  8
1
  6
Continuous
 62
     7
100
AcDbLine
 10
98.2489170457001
 20
244.3199115044248
 30
0.0
 11
98.2489170457001
 21
241.3199115044248
 31
0.0
  0
LINE
  5
15F
330
47
100
AcDbEntity
  8
1
  6
Continuous
 62
     7
100
AcDbLine
 10
97.7489170457001
 20
241.3199115044248
 30
0.0
 11
98.2489170457001
 21
241.3199115044248
 31
0.0
  0
LINE
  5
160
330
47
100
AcDbEntity
  8
1
  6
Continuous
 62
     7
100
AcDbLine
 10
97.24891704570032
 20
244.5892337034487
 30
0.0
 11
98.2489170457001
 21
244.3199115044248
 31
0.0
  0
LINE
  5
161
330
47
100
AcDbEntity
  8
1
  6
Continuous
 62
     7
100
AcDbLine
 10
97.7489170457001
 20
244.3199115044248
 30
0.0
 11
98.2489170457001
 21
244.3199115044248
 31
0.0
  0
LINE
  5
162
330
47
100
AcDbEntity
  8
1
  6
Continuous
 62
     7
100
AcDbLine
 10
97.7489170457001
 20
244.3199115044248
 30
0.0
 11
96.7489170457001
 21
244.3199115044248
 31
0.0
  0
LINE
  5
163
330
47
100
AcDbEntity
  8
1
  6
Continuous
 62
     7
100
AcDbLine
 10
97.7489170457001
 20
241.3199115044248
 30
0.0
 11
96.7489170457001
 21
241.3199115044248
 31
0.0
  0
LINE
  5
164
330
47
100
AcDbEntity
  8
1
  6
Continuous
 62
     7
100
AcDbLine
 10
91.2489170457001
 20
244.6496772246286
 30
0.0
 11
96.9989170457001
 21
244.6496772246286
 31
0.0
  0
LINE
  5
165
330
47
100
AcDbEntity
  8
1
  6
Continuous
 62
     7
100
AcDbLine
 10
85.4989170457003
 20
244.6496772246286
 30
0.0
 11
91.2489170457001
 21
244.6496772246286
 31
0.0
  0
LINE
  5
166
330
47
100
AcDbEntity
  8
1
  6
Continuous
 62
     7
100
AcDbLine
 10
84.2489170457001
 20
244.3199115044248
 30
0.0
 11
84.7489170457001
 21
244.3199115044248
 31
0.0
  0
LINE
  5
167
330
47
100
AcDbEntity
  8
1
  6
Continuous
 62
     7
100
AcDbLine
 10
84.2489170457001
 20
244.3199115044248
 30
0.0
 11
85.2489170457001
 21
244.5892337034487
 31
0.0
  0
LINE
  5
168
330
47
100
AcDbEntity
  8
1
  6
Continuous
 62
     7
100
AcDbLine
 10
84.2489170457001
 20
241.3199115044248
 30
0.0
 11
84.7489170457001
 21
241.3199115044248
 31
0.0
  0
LINE
  5
169
330
47
100
AcDbEntity
  8
1
  6
Continuous
 62
     7
100
AcDbLine
 10
84.2489170457001
 20
241.3199115044248
 30
0.0
 11
84.2489170457001
 21
244.3199115044248
 31
0.0
  0
LINE
  5
16A
330
47
100
AcDbEntity
  8
1
  6
Continuous
 62
     2
100
AcDbLine
 10
84.7489170457001
 20
244.3199115044248
 30
0.0
 11
84.7489170457001
 21
241.3199115044248
 31
0.0
  0
LINE
  5
16B
330
47
100
AcDbEntity
  8
1
  6
Continuous
 62
     7
100
AcDbLine
 10
85.7489170457001
 20
244.3199115044248
 30
0.0
 11
84.7489170457001
 21
244.3199115044248
 31
0.0
  0
LINE
  5
16C
330
47
100
AcDbEntity
  8
1
  6
Continuous
 62
     7
100
AcDbLine
 10
85.7489170457001
 20
241.3199115044248
 30
0.0
 11
84.7489170457001
 21
241.3199115044248
 31
0.0
  0
LINE
  5
16D
330
47
100
AcDbEntity
  8
1
  6
Continuous
 62
     2
100
AcDbLine
 10
85.7489170457001
 20
244.3199115044248
 30
0.0
 11
85.7489170457001
 21
241.3199115044248
 31
0.0
  0
LINE
  5
16E
330
47
100
AcDbEntity
  8
1
  6
Continuous
 62
     7
100
AcDbLine
 10
96.7489170457001
 20
244.3199115044248
 30
0.0
 11
85.7489170457001
 21
244.3199115044248
 31
0.0
  0
LINE
  5
16F
330
47
100
AcDbEntity
  8
1
  6
Continuous
 62
     2
100
AcDbLine
 10
86.7489170457001
 20
244.1754992694026
 30
0.0
 11
86.7489170457001
 21
241.4254988306128
 31
0.0
  0
LINE
  5
170
330
47
100
AcDbEntity
  8
1
  6
Continuous
 62
     2
100
AcDbLine
 10
87.7489170457001
 20
244.0441298216896
 30
0.0
 11
87.7489170457001
 21
241.5743842046876
 31
0.0
  0
LINE
  5
171
330
47
100
AcDbEntity
  8
1
  6
Continuous
 62
     2
100
AcDbLine
 10
88.7489170457001
 20
243.8514546317106
 30
0.0
 11
88.7489170457001
 21
241.9334606951028
 31
0.0
  0
LINE
  5
172
330
47
100
AcDbEntity
  8
1
  6
Continuous
 62
     2
100
AcDbLine
 10
89.7489170457001
 20
243.6062316626467
 30
0.0
 11
89.7489170457001
 21
242.2575053327936
 31
0.0
  0
LINE
  5
173
330
47
100
AcDbEntity
  8
1
  6
Continuous
 62
     2
100
AcDbLine
 10
207.7489170457001
 20
242.2575053327936
 30
0.0
 11
207.7489170457001
 21
243.6062316626467
 31
0.0
  0
LINE
  5
174
330
47
100
AcDbEntity
  8
1
  6
Continuous
 62
     2
100
AcDbLine
 10
208.7489170457001
 20
241.9334606951028
 30
0.0
 11
208.7489170457001
 21
243.8514546317106
 31
0.0
  0
LINE
  5
175
330
47
100
AcDbEntity
  8
1
  6
Continuous
 62
     2
100
AcDbLine
 10
209.7489170457001
 20
241.5743842046876
 30
0.0
 11
209.7489170457001
 21
244.0441298216896
 31
0.0
  0
LINE
  5
176
330
47
100
AcDbEntity
  8
1
  6
Continuous
 62
     2
100
AcDbLine
 10
210.7489170457001
 20
241.4254988306128
 30
0.0
 11
210.7489170457001
 21
244.1754992694026
 31
0.0
  0
LINE
  5
177
330
47
100
AcDbEntity
  8
1
  6
Continuous
 62
     7
100
AcDbLine
 10
200.7489170457001
 20
241.3199115044248
 30
0.0
 11
211.7489170457001
 21
241.3199115044248
 31
0.0
  0
LINE
  5
178
330
47
100
AcDbEntity
  8
1
  6
Continuous
 62
     2
100
AcDbLine
 10
211.7489170457001
 20
241.3199115044248
 30
0.0
 11
211.7489170457001
 21
244.3199115044248
 31
0.0
  0
LINE
  5
179
330
47
100
AcDbEntity
  8
1
  6
Continuous
 62
     2
100
AcDbLine
 10
212.7489170457001
 20
241.3199115044248
 30
0.0
 11
212.7489170457001
 21
244.3199115044248
 31
0.0
  0
LINE
  5
17A
330
47
100
AcDbEntity
  8
1
  6
Continuous
 62
     7
100
AcDbLine
 10
213.2489170457001
 20
244.3199115044248
 30
0.0
 11
213.2489170457001
 21
241.3199115044248
 31
0.0
  0
LINE
  5
17B
330
47
100
AcDbEntity
  8
1
  6
Continuous
 62
     7
100
AcDbLine
 10
212.7489170457001
 20
241.3199115044248
 30
0.0
 11
213.2489170457001
 21
241.3199115044248
 31
0.0
  0
LINE
  5
17C
330
47
100
AcDbEntity
  8
1
  6
Continuous
 62
     7
100
AcDbLine
 10
212.2489170457003
 20
244.5892337034487
 30
0.0
 11
213.2489170457001
 21
244.3199115044248
 31
0.0
  0
LINE
  5
17D
330
47
100
AcDbEntity
  8
1
  6
Continuous
 62
     7
100
AcDbLine
 10
212.7489170457001
 20
244.3199115044248
 30
0.0
 11
213.2489170457001
 21
244.3199115044248
 31
0.0
  0
LINE
  5
17E
330
47
100
AcDbEntity
  8
1
  6
Continuous
 62
     7
100
AcDbLine
 10
212.7489170457001
 20
244.3199115044248
 30
0.0
 11
211.7489170457001
 21
244.3199115044248
 31
0.0
  0
LINE
  5
17F
330
47
100
AcDbEntity
  8
1
  6
Continuous
 62
     7
100
AcDbLine
 10
212.7489170457001
 20
241.3199115044248
 30
0.0
 11
211.7489170457001
 21
241.3199115044248
 31
0.0
  0
LINE
  5
180
330
47
100
AcDbEntity
  8
1
  6
Continuous
 62
     7
100
AcDbLine
 10
206.2489170457001
 20
244.6496772246286
 30
0.0
 11
211.9989170457001
 21
244.6496772246286
 31
0.0
  0
LINE
  5
181
330
47
100
AcDbEntity
  8
1
  6
Continuous
 62
     7
100
AcDbLine
 10
200.4989170457003
 20
244.6496772246286
 30
0.0
 11
206.2489170457001
 21
244.6496772246286
 31
0.0
  0
LINE
  5
182
330
47
100
AcDbEntity
  8
1
  6
Continuous
 62
     7
100
AcDbLine
 10
199.2489170457001
 20
244.3199115044248
 30
0.0
 11
199.7489170457001
 21
244.3199115044248
 31
0.0
  0
LINE
  5
183
330
47
100
AcDbEntity
  8
1
  6
Continuous
 62
     7
100
AcDbLine
 10
199.2489170457001
 20
244.3199115044248
 30
0.0
 11
200.2489170457001
 21
244.5892337034487
 31
0.0
  0
LINE
  5
184
330
47
100
AcDbEntity
  8
1
  6
Continuous
 62
     7
100
AcDbLine
 10
199.2489170457001
 20
241.3199115044248
 30
0.0
 11
199.7489170457001
 21
241.3199115044248
 31
0.0
  0
LINE
  5
185
330
47
100
AcDbEntity
  8
1
  6
Continuous
 62
     7
100
AcDbLine
 10
199.2489170457001
 20
241.3199115044248
 30
0.0
 11
199.2489170457001
 21
244.3199115044248
 31
0.0
  0
LINE
  5
186
330
47
100
AcDbEntity
  8
1
  6
Continuous
 62
     2
100
AcDbLine
 10
199.7489170457001
 20
244.3199115044248
 30
0.0
 11
199.7489170457001
 21
241.3199115044248
 31
0.0
  0
LINE
  5
187
330
47
100
AcDbEntity
  8
1
  6
Continuous
 62
     7
100
AcDbLine
 10
200.7489170457001
 20
244.3199115044248
 30
0.0
 11
199.7489170457001
 21
244.3199115044248
 31
0.0
  0
LINE
  5
188
330
47
100
AcDbEntity
  8
1
  6
Continuous
 62
     7
100
AcDbLine
 10
200.7489170457001
 20
241.3199115044248
 30
0.0
 11
199.7489170457001
 21
241.3199115044248
 31
0.0
  0
LINE
  5
189
330
47
100
AcDbEntity
  8
1
  6
Continuous
 62
     2
100
AcDbLine
 10
200.7489170457001
 20
244.3199115044248
 30
0.0
 11
200.7489170457001
 21
241.3199115044248
 31
0.0
  0
LINE
  5
18A
330
47
100
AcDbEntity
  8
1
  6
Continuous
 62
     7
100
AcDbLine
 10
211.7489170457001
 20
244.3199115044248
 30
0.0
 11
200.7489170457001
 21
244.3199115044248
 31
0.0
  0
LINE
  5
18B
330
47
100
AcDbEntity
  8
1
  6
Continuous
 62
     2
100
AcDbLine
 10
201.7489170457001
 20
244.1754992694026
 30
0.0
 11
201.7489170457001
 21
241.4254988306128
 31
0.0
  0
LINE
  5
18C
330
47
100
AcDbEntity
  8
1
  6
Continuous
 62
     2
100
AcDbLine
 10
202.7489170457001
 20
244.0441298216896
 30
0.0
 11
202.7489170457001
 21
241.5743842046876
 31
0.0
  0
LINE
  5
18D
330
47
100
AcDbEntity
  8
1
  6
Continuous
 62
     2
100
AcDbLine
 10
203.7489170457001
 20
243.8514546317106
 30
0.0
 11
203.7489170457001
 21
241.9334606951028
 31
0.0
  0
LINE
  5
18E
330
47
100
AcDbEntity
  8
1
  6
Continuous
 62
     2
100
AcDbLine
 10
204.7489170457001
 20
243.6062316626467
 30
0.0
 11
204.7489170457001
 21
242.2575053327936
 31
0.0
  0
ARC
  5
18F
330
47
100
AcDbEntity
  8
1
  6
Continuous
 62
     7
100
AcDbCircle
 10
91.2489170457001
 20
220.3199115044246
 30
0.0
 40
25.0000000000002
100
AcDbArc
 50
90.0
 51
103.2970717472085
  0
ARC
  5
190
330
47
100
AcDbEntity
  8
1
  6
Continuous
 62
     7
100
AcDbCircle
 10
91.2489170457001
 20
220.3199115044246
 30
0.0
 40
25.00000000000095
100
AcDbArc
 50
76.11345963737101
 51
76.70292825279108
  0
ARC
  5
191
330
47
100
AcDbEntity
  8
1
  6
Continuous
 62
     7
100
AcDbCircle
 10
91.2489170457001
 20
220.3199115044246
 30
0.0
 40
25.00000000000027
100
AcDbArc
 50
76.70292825279108
 51
90.0
  0
ARC
  5
192
330
47
100
AcDbEntity
  8
1
  6
Continuous
 62
     7
100
AcDbCircle
 10
91.2489170457001
 20
220.3199115044246
 30
0.0
 40
25.00000000000022
100
AcDbArc
 50
103.2970717472085
 51
103.8865403626285
  0
ARC
  5
193
330
47
100
AcDbEntity
  8
1
  6
Continuous
 62
     7
100
AcDbCircle
 10
206.2489170457001
 20
220.3199115044246
 30
0.0
 40
25.0000000000002
100
AcDbArc
 50
90.0
 51
103.2970717472085
  0
ARC
  5
194
330
47
100
AcDbEntity
  8
1
  6
Continuous
 62
     7
100
AcDbCircle
 10
206.2489170457001
 20
220.3199115044246
 30
0.0
 40
25.00000000000095
100
AcDbArc
 50
76.11345963737107
 51
76.70292825279108
  0
ARC
  5
195
330
47
100
AcDbEntity
  8
1
  6
Continuous
 62
     7
100
AcDbCircle
 10
206.2489170457001
 20
220.3199115044246
 30
0.0
 40
25.00000000000027
100
AcDbArc
 50
76.70292825279108
 51
90.0
  0
ARC
  5
196
330
47
100
AcDbEntity
  8
1
  6
Continuous
 62
     7
100
AcDbCircle
 10
206.2489170457001
 20
220.3199115044246
 30
0.0
 40
25.00000000000022
100
AcDbArc
 50
103.2970717472085
 51
103.8865403626285
  0
CIRCLE
  5
197
330
47
100
AcDbEntity
  8
1
  6
Continuous
 62
     7
100
AcDbCircle
 10
91.2489170457001
 20
328.5713789074997
 30
0.0
 40
7.000000000000227
  0
CIRCLE
  5
198
330
47
100
AcDbEntity
  8
1
  6
Continuous
 62
     7
100
AcDbCircle
 10
91.2489170457001
 20
328.5713789074997
 30
0.0
 40
5.75
  0
ENDBLK
  5
49
330
47
100
AcDbEntity
  8
0
100
AcDbBlockEnd
  0
BLOCK
  5
4B
330
4A
100
AcDbEntity
  8
0
100
AcDbBlockBegin
  2
Y30VW-0-13
 70
     0
 71
     0
 10
76.2489170457001
 20
-569.6800884955752
 30
0.0
  3
Y30VW-0-13
  1

  0
LINE
  5
199
330
4A
100
AcDbEntity
  8
1
  6
Continuous
 62
     7
100
AcDbLine
 10
99.2489170457001
 20
168.2259065438127
 30
0.0
 11
99.2489170457001
 21
154.9360194484601
 31
0.0
  0
LINE
  5
19A
330
4A
100
AcDbEntity
  8
1
  6
Continuous
 62
     7
100
AcDbLine
 10
83.2489170457001
 20
168.2259065438127
 30
0.0
 11
83.2489170457001
 21
154.9360194484601
 31
0.0
  0
LINE
  5
19B
330
4A
100
AcDbEntity
  8
1
  6
Continuous
 62
     7
100
AcDbLine
 10
103.2489170457001
 20
190.3199115044248
 30
0.0
 11
81.2489170457001
 21
190.3199115044248
 31
0.0
  0
LINE
  5
19C
330
4A
100
AcDbEntity
  8
1
  6
Continuous
 62
     7
100
AcDbLine
 10
248.7489170457002
 20
188.8199115044248
 30
0.0
 11
248.7489170457002
 21
167.3199115044248
 31
0.0
  0
LINE
  5
19D
330
4A
100
AcDbEntity
  8
1
  6
Continuous
 62
     7
100
AcDbLine
 10
248.7489170457002
 20
167.3199115044248
 30
0.0
 11
248.7489170457002
 21
145.8199115044248
 31
0.0
  0
LINE
  5
19E
330
4A
100
AcDbEntity
  8
1
  6
Continuous
 62
     7
100
AcDbLine
 10
79.2489170457001
 20
190.3199115044248
 30
0.0
 11
81.2489170457001
 21
190.3199115044248
 31
0.0
  0
LINE
  5
19F
330
4A
100
AcDbEntity
  8
1
  6
Continuous
 62
     7
100
AcDbLine
 10
103.2489170457001
 20
190.3199115044248
 30
0.0
 11
103.2489170457001
 21
172.3199115044242
 31
0.0
  0
LINE
  5
1A0
330
4A
100
AcDbEntity
  8
1
  6
Continuous
 62
     7
100
AcDbLine
 10
79.24891704570021
 20
172.3199115044248
 30
0.0
 11
79.2489170457001
 21
190.3199115044248
 31
0.0
  0
LINE
  5
1A1
330
4A
100
AcDbEntity
  8
1
  6
Continuous
 62
     2
100
AcDbLine
 10
100.5689170457001
 20
151.3036628184822
 30
0.0
 11
100.5689170457001
 21
149.1838335612568
 31
0.0
  0
LINE
  5
1A2
330
4A
100
AcDbEntity
  8
1
  6
Continuous
 62
     2
100
AcDbLine
 10
81.9289170457001
 20
149.1838335612568
 30
0.0
 11
81.9289170457001
 21
151.3036628184844
 31
0.0
  0
LINE
  5
1A3
330
4A
100
AcDbEntity
  8
1
  6
Continuous
 62
     7
100
AcDbLine
 10
101.7289170457001
 20
150.2602807175554
 30
0.0
 11
101.7289170457001
 21
148.9744736612275
 31
0.0
  0
LINE
  5
1A4
330
4A
100
AcDbEntity
  8
1
  6
Continuous
 62
     7
100
AcDbLine
 10
80.76891704570011
 20
150.2602807175554
 30
0.0
 11
80.76891704570011
 21
148.9833946720279
 31
0.0
  0
LINE
  5
1A5
330
4A
100
AcDbEntity
  8
1
  6
Continuous
 62
     7
100
AcDbLine
 10
68.24891704570001
 20
373.5713789074997
 30
0.0
 11
68.2489170457001
 21
371.5698375743658
 31
0.0
  0
LINE
  5
1A6
330
4A
100
AcDbEntity
  8
1
  6
Continuous
 62
     7
100
AcDbLine
 10
114.2489170457001
 20
373.5713789074995
 30
0.0
 11
68.24891704570001
 21
373.5713789074997
 31
0.0
  0
LINE
  5
1A7
330
4A
100
AcDbEntity
  8
1
  6
Continuous
 62
     7
100
AcDbLine
 10
113.7881465935639
 20
371.0713789074995
 30
0.0
 11
68.70968749783611
 21
371.0713789074997
 31
0.0
  0
LINE
  5
1A8
330
4A
100
AcDbEntity
  8
1
  6
Continuous
 62
     7
100
AcDbLine
 10
99.1719565929323
 20
293.0470626157203
 30
0.0
 11
100.0643913281916
 21
306.5328074068837
 31
0.0
  0
LINE
  5
1A9
330
4A
100
AcDbEntity
  8
1
  6
Continuous
 62
     7
100
AcDbLine
 10
82.43344276320821
 20
306.5328074068837
 30
0.0
 11
83.32587749846769
 21
293.0470626157203
 31
0.0
  0
LINE
  5
1AA
330
4A
100
AcDbEntity
  8
1
  6
Continuous
 62
     2
100
AcDbLine
 10
100.7489170457
 20
375.3034297150683
 30
0.0
 11
100.7489170457
 21
387.5713789074995
 31
0.0
  0
LINE
  5
1AB
330
4A
100
AcDbEntity
  8
1
  6
Continuous
 62
     2
100
AcDbLine
 10
100.7489170457
 20
375.3034297150683
 30
0.0
 11
101.7489170457001
 21
373.5713789074995
 31
0.0
  0
LINE
  5
1AC
330
4A
100
AcDbEntity
  8
1
  6
Continuous
 62
     7
100
AcDbLine
 10
114.2489170457
 20
371.5698375743658
 30
0.0
 11
114.2489170457001
 21
373.5713789074995
 31
0.0
  0
LINE
  5
1AD
330
4A
100
AcDbEntity
  8
1
  6
Continuous
 62
     7
100
AcDbLine
 10
99.99891704570001
 20
367.0837095725671
 30
0.0
 11
99.99891704570001
 21
352.5909022166744
 31
0.0
  0
LINE
  5
1AE
330
4A
100
AcDbEntity
  8
1
  6
Continuous
 62
     2
100
AcDbLine
 10
80.74891704570001
 20
373.5713789074997
 30
0.0
 11
81.7489170457001
 21
375.3034297150684
 31
0.0
  0
LINE
  5
1AF
330
4A
100
AcDbEntity
  8
1
  6
Continuous
 62
     2
100
AcDbLine
 10
81.7489170457001
 20
375.3034297150684
 30
0.0
 11
81.7489170457001
 21
387.5713789074997
 31
0.0
  0
LINE
  5
1B0
330
4A
100
AcDbEntity
  8
1
  6
Continuous
 62
     7
100
AcDbLine
 10
82.4989170457001
 20
367.0837095725671
 30
0.0
 11
82.4989170457001
 21
352.5909022166744
 31
0.0
  0
LINE
  5
1B1
330
4A
100
AcDbEntity
  8
1
  6
Continuous
 62
     7
100
AcDbLine
 10
80.74891704570001
 20
373.5713789074997
 30
0.0
 11
80.7489170457001
 21
375.3034297150684
 31
0.0
  0
LINE
  5
1B2
330
4A
100
AcDbEntity
  8
1
  6
Continuous
 62
     7
100
AcDbLine
 10
81.7489170457001
 20
387.5713789074997
 30
0.0
 11
80.74891704570001
 21
386.5713789074997
 31
0.0
  0
LINE
  5
1B3
330
4A
100
AcDbEntity
  8
1
  6
Continuous
 62
     7
100
AcDbLine
 10
80.7489170457001
 20
375.3034297150684
 30
0.0
 11
80.74891704570001
 21
386.5713789074997
 31
0.0
  0
LINE
  5
1B4
330
4A
100
AcDbEntity
  8
1
  6
Continuous
 62
     7
100
AcDbLine
 10
101.7489170457001
 20
386.5713789074997
 30
0.0
 11
101.7489170457001
 21
375.3034297150683
 31
0.0
  0
LINE
  5
1B5
330
4A
100
AcDbEntity
  8
1
  6
Continuous
 62
     7
100
AcDbLine
 10
101.7489170457001
 20
386.5713789074997
 30
0.0
 11
100.7489170457
 21
387.5713789074995
 31
0.0
  0
LINE
  5
1B6
330
4A
100
AcDbEntity
  8
1
  6
Continuous
 62
     7
100
AcDbLine
 10
100.7489170457
 20
387.5713789074995
 30
0.0
 11
81.7489170457001
 21
387.5713789074997
 31
0.0
  0
LINE
  5
1B7
330
4A
100
AcDbEntity
  8
1
  6
Continuous
 62
     7
100
AcDbLine
 10
101.7489170457001
 20
375.3034297150683
 30
0.0
 11
101.7489170457001
 21
373.5713789074995
 31
0.0
  0
LINE
  5
1B8
330
4A
100
AcDbEntity
  8
1
  6
Continuous
 62
     7
100
AcDbLine
 10
80.7489170457001
 20
375.3034297150684
 30
0.0
 11
101.7489170457001
 21
375.3034297150683
 31
0.0
  0
LINE
  5
1B9
330
4A
100
AcDbEntity
  8
1
  6
Continuous
 62
     7
100
AcDbLine
 10
101.7489170457001
 20
386.5713789074997
 30
0.0
 11
80.74891704570001
 21
386.5713789074997
 31
0.0
  0
LINE
  5
1BA
330
4A
100
AcDbEntity
  8
1
  6
PHANTOM
 62
     4
100
AcDbLine
 10
194.2489170457002
 20
190.3199115044248
 30
0.0
 11
196.2489170457002
 21
190.3199115044248
 31
0.0
  0
LINE
  5
1BB
330
4A
100
AcDbEntity
  8
1
  6
Continuous
 62
     7
100
AcDbLine
 10
218.2489170457002
 20
190.3199115044248
 30
0.0
 11
218.2489170457002
 21
182.6519324814583
 31
0.0
  0
LINE
  5
1BC
330
4A
100
AcDbEntity
  8
1
  6
PHANTOM
 62
     4
100
AcDbLine
 10
218.2489170457002
 20
190.3199115044248
 30
0.0
 11
196.2489170457002
 21
190.3199115044248
 31
0.0
  0
LINE
  5
1BD
330
4A
100
AcDbEntity
  8
1
  6
Continuous
 62
     7
100
AcDbLine
 10
248.7126536246627
 20
189.8591410522887
 30
0.0
 11
247.9175250917492
 21
179.7560751215134
 31
0.0
  0
LINE
  5
1BE
330
4A
100
AcDbEntity
  8
1
  6
Continuous
 62
     7
100
AcDbLine
 10
251.2489170457002
 20
190.3199115044248
 30
0.0
 11
249.2111122915293
 21
190.3199115044248
 31
0.0
  0
LINE
  5
1BF
330
4A
100
AcDbEntity
  8
1
  6
Continuous
 62
     7
100
AcDbLine
 10
251.2489170457002
 20
190.3199115044248
 30
0.0
 11
251.2489170457002
 21
177.8199115044248
 31
0.0
  0
LINE
  5
1C0
330
4A
100
AcDbEntity
  8
1
  6
Continuous
 62
     7
100
AcDbLine
 10
251.2489170457002
 20
177.8199115044248
 30
0.0
 11
252.9809678532692
 21
177.8199115044248
 31
0.0
  0
LINE
  5
1C1
330
4A
100
AcDbEntity
  8
1
  6
Continuous
 62
     2
100
AcDbLine
 10
251.2489170457002
 20
177.8199115044248
 30
0.0
 11
252.9809678532692
 21
176.8199115044248
 31
0.0
  0
LINE
  5
1C2
330
4A
100
AcDbEntity
  8
1
  6
Continuous
 62
     2
100
AcDbLine
 10
252.9809678532692
 20
176.8199115044248
 30
0.0
 11
264.2489170457002
 21
176.8199115044248
 31
0.0
  0
LINE
  5
1C3
330
4A
100
AcDbEntity
  8
1
  6
Continuous
 62
     7
100
AcDbLine
 10
265.2489170457002
 20
176.8199115044248
 30
0.0
 11
265.2489170457002
 21
173.3199115044248
 31
0.0
  0
LINE
  5
1C4
330
4A
100
AcDbEntity
  8
1
  6
Continuous
 62
     7
100
AcDbLine
 10
265.2489170457002
 20
176.8199115044248
 30
0.0
 11
264.2489170457002
 21
177.8199115044248
 31
0.0
  0
LINE
  5
1C5
330
4A
100
AcDbEntity
  8
1
  6
Continuous
 62
     7
100
AcDbLine
 10
252.9809678532692
 20
176.8199115044248
 30
0.0
 11
252.9809678532692
 21
177.8199115044248
 31
0.0
  0
LINE
  5
1C6
330
4A
100
AcDbEntity
  8
1
  6
Continuous
 62
     7
100
AcDbLine
 10
252.9809678532692
 20
177.8199115044248
 30
0.0
 11
264.2489170457002
 21
177.8199115044248
 31
0.0
  0
LINE
  5
1C7
330
4A
100
AcDbEntity
  8
1
  6
Continuous
 62
     7
100
AcDbLine
 10
264.2489170457002
 20
177.8199115044248
 30
0.0
 11
264.2489170457002
 21
176.8199115044248
 31
0.0
  0
LINE
  5
1C8
330
4A
100
AcDbEntity
  8
1
  6
Continuous
 62
     2
100
AcDbLine
 10
264.2489170457002
 20
176.8199115044248
 30
0.0
 11
265.2489170457002
 21
176.8199115044248
 31
0.0
  0
LINE
  5
1C9
330
4A
100
AcDbEntity
  8
1
  6
Continuous
 62
     2
100
AcDbLine
 10
265.2489170457002
 20
157.8199115044248
 30
0.0
 11
264.2489170457002
 21
157.8199115044248
 31
0.0
  0
LINE
  5
1CA
330
4A
100
AcDbEntity
  8
1
  6
Continuous
 62
     7
100
AcDbLine
 10
264.2489170457002
 20
157.8199115044248
 30
0.0
 11
264.2489170457002
 21
156.8199115044248
 31
0.0
  0
LINE
  5
1CB
330
4A
100
AcDbEntity
  8
1
  6
Continuous
 62
     7
100
AcDbLine
 10
264.2489170457002
 20
156.8199115044248
 30
0.0
 11
252.980967853269
 21
156.8199115044248
 31
0.0
  0
LINE
  5
1CC
330
4A
100
AcDbEntity
  8
1
  6
Continuous
 62
     7
100
AcDbLine
 10
252.980967853269
 20
156.8199115044248
 30
0.0
 11
252.980967853269
 21
157.8199115044248
 31
0.0
  0
LINE
  5
1CD
330
4A
100
AcDbEntity
  8
1
  6
Continuous
 62
     7
100
AcDbLine
 10
264.2489170457002
 20
156.8199115044248
 30
0.0
 11
265.2489170457002
 21
157.8199115044248
 31
0.0
  0
LINE
  5
1CE
330
4A
100
AcDbEntity
  8
1
  6
Continuous
 62
     7
100
AcDbLine
 10
265.2489170457002
 20
167.3199115044248
 30
0.0
 11
265.2489170457002
 21
161.3199115044248
 31
0.0
  0
LINE
  5
1CF
330
4A
100
AcDbEntity
  8
1
  6
Continuous
 62
     2
100
AcDbLine
 10
264.2489170457002
 20
157.8199115044248
 30
0.0
 11
252.980967853269
 21
157.8199115044248
 31
0.0
  0
LINE
  5
1D0
330
4A
100
AcDbEntity
  8
1
  6
Continuous
 62
     2
100
AcDbLine
 10
252.980967853269
 20
157.8199115044248
 30
0.0
 11
251.2489170457002
 21
156.8199115044248
 31
0.0
  0
LINE
  5
1D1
330
4A
100
AcDbEntity
  8
1
  6
Continuous
 62
     7
100
AcDbLine
 10
252.980967853269
 20
156.8199115044248
 30
0.0
 11
251.2489170457002
 21
156.8199115044248
 31
0.0
  0
LINE
  5
1D2
330
4A
100
AcDbEntity
  8
1
  6
Continuous
 62
     7
100
AcDbLine
 10
251.2489170457002
 20
177.8199115044248
 30
0.0
 11
251.2489170457002
 21
144.3199115044248
 31
0.0
  0
LINE
  5
1D3
330
4A
100
AcDbEntity
  8
1
  6
Continuous
 62
     7
100
AcDbLine
 10
243.9298557568166
 20
158.5699115044248
 30
0.0
 11
243.1151226424037
 21
158.5699115044248
 31
0.0
  0
LINE
  5
1D4
330
4A
100
AcDbEntity
  8
1
  6
Continuous
 62
     7
100
AcDbLine
 10
247.9175250917491
 20
154.8837478873362
 30
0.0
 11
248.7126536246627
 21
144.7806819565609
 31
0.0
  0
LINE
  5
1D5
330
4A
100
AcDbEntity
  8
1
  6
Continuous
 62
     7
100
AcDbLine
 10
265.2489170457002
 20
173.3199115044248
 30
0.0
 11
265.2489170457002
 21
167.3199115044248
 31
0.0
  0
LINE
  5
1D6
330
4A
100
AcDbEntity
  8
1
  6
Continuous
 62
     7
100
AcDbLine
 10
265.2489170457002
 20
161.3199115044248
 30
0.0
 11
265.2489170457002
 21
157.8199115044248
 31
0.0
  0
LINE
  5
1D7
330
4A
100
AcDbEntity
  8
1
  6
Continuous
 62
     7
100
AcDbLine
 10
243.9298557568167
 20
176.0699115044248
 30
0.0
 11
230.2684403548751
 21
176.0699115044248
 31
0.0
  0
LINE
  5
1D8
330
4A
100
AcDbEntity
  8
1
  6
Continuous
 62
     7
100
AcDbLine
 10
194.2489170457003
 20
182.0699115044247
 30
0.0
 11
194.2489170457002
 21
190.3199115044248
 31
0.0
  0
LINE
  5
1D9
330
4A
100
AcDbEntity
  8
1
  6
Continuous
 62
     7
100
AcDbLine
 10
243.1151226424037
 20
158.5699115044248
 30
0.0
 11
230.2684403548752
 21
158.5699115044247
 31
0.0
  0
LINE
  5
1DA
330
4A
100
AcDbEntity
  8
1
  6
Continuous
 62
     7
100
AcDbLine
 10
182.6232740967634
 20
148.9833946720279
 30
0.0
 11
182.3779946111652
 21
146.9857535696413
 31
0.0
  0
LINE
  5
1DB
330
4A
100
AcDbEntity
  8
1
  6
Continuous
 62
     2
100
AcDbLine
 10
181.5980466816718
 20
150.1683889499871
 30
0.0
 11
181.4699354685561
 21
149.1250068490647
 31
0.0
  0
LINE
  5
1DC
330
4A
100
AcDbEntity
  8
1
  6
Continuous
 62
     7
100
AcDbLine
 10
182.6232740967634
 20
148.9833946720279
 30
0.0
 11
181.4699354685561
 21
149.1250068490647
 31
0.0
  0
LINE
  5
1DD
330
4A
100
AcDbEntity
  8
1
  6
Continuous
 62
     7
100
AcDbLine
 10
162.9778081173266
 20
151.3955545860461
 30
0.0
 11
161.8244694891194
 21
151.5371667630828
 31
0.0
  0
LINE
  5
1DE
330
4A
100
AcDbEntity
  8
1
  6
Continuous
 62
     7
100
AcDbLine
 10
189.6081837672604
 20
176.2259065438127
 30
0.0
 11
181.4380088802299
 21
174.325592134753
 31
0.0
  0
LINE
  5
1DF
330
4A
100
AcDbEntity
  8
1
  6
Continuous
 62
     7
100
AcDbLine
 10
249.2111122915293
 20
144.3199115044248
 30
0.0
 11
251.2489170457002
 21
144.3199115044248
 31
0.0
  0
LINE
  5
1E0
330
4A
100
AcDbEntity
  8
0
  6
Continuous
 62
     7
100
AcDbLine
 10
252.9809678532692
 20
176.8199115044248
 30
0.0
 11
252.980967853269
 21
157.8199115044248
 31
0.0
  0
LINE
  5
1E1
330
4A
100
AcDbEntity
  8
0
  6
Continuous
 62
     7
100
AcDbLine
 10
264.2489170457002
 20
157.8199115044248
 30
0.0
 11
264.2489170457002
 21
176.8199115044248
 31
0.0
  0
LINE
  5
1E2
330
4A
100
AcDbEntity
  8
0
  6
Continuous
 62
     7
100
AcDbLine
 10
162.9778081173266
 20
151.3955545860461
 30
0.0
 11
181.4699354685561
 21
149.1250068490647
 31
0.0
  0
LINE
  5
1E3
330
4A
100
AcDbEntity
  8
1
  6
Continuous
 62
     2
100
AcDbLine
 10
181.4699354685561
 20
149.1250068490647
 30
0.0
 11
181.2246559829579
 21
147.127365746678
 31
0.0
  0
LINE
  5
1E4
330
4A
100
AcDbEntity
  8
1
  6
Continuous
 62
     2
100
AcDbLine
 10
162.9778081173266
 20
151.3955545860461
 30
0.0
 11
163.1059193304424
 21
152.4389366869685
 31
0.0
  0
LINE
  5
1E5
330
4A
100
AcDbEntity
  8
1
  6
Continuous
 62
     7
100
AcDbLine
 10
161.5791900035212
 20
149.5395256606963
 30
0.0
 11
161.8244694891194
 21
151.5371667630828
 31
0.0
  0
LINE
  5
1E6
330
4A
100
AcDbEntity
  8
1
  6
Continuous
 62
     2
100
AcDbLine
 10
162.7325286317285
 20
149.3979134836594
 30
0.0
 11
162.9778081173266
 21
151.3955545860461
 31
0.0
  0
ARC
  5
1E7
330
4A
100
AcDbEntity
  8
1
  6
Continuous
 62
     7
100
AcDbCircle
 10
91.24891704570001
 20
167.3199115044246
 30
0.0
 40
23.00000000000005
100
AcDbArc
 50
-58.55101861062025
 51
58.55101861062014
  0
ARC
  5
1E8
330
4A
100
AcDbEntity
  8
1
  6
Continuous
 62
     7
100
AcDbCircle
 10
91.24891704570001
 20
167.3199115044246
 30
0.0
 40
12.99999999999989
100
AcDbArc
 50
157.3801350519584
 51
-127.9798724448518
  0
ARC
  5
1E9
330
4A
100
AcDbEntity
  8
1
  6
Continuous
 62
     7
100
AcDbCircle
 10
91.2489170457001
 20
168.2259065438127
 30
0.0
 40
8.0
100
AcDbArc
 50
0.0
 51
180.0
  0
ARC
  5
1EA
330
4A
100
AcDbEntity
  8
1
  6
Continuous
 62
     7
100
AcDbCircle
 10
91.24891704570001
 20
167.3199115044246
 30
0.0
 40
12.99999999999997
100
AcDbArc
 50
-52.02012755514744
 51
22.61986494803866
  0
ARC
  5
1EB
330
4A
100
AcDbEntity
  8
1
  6
Continuous
 62
     7
100
AcDbCircle
 10
104.8998835299953
 20
154.9360194484603
 30
0.0
 40
5.650966484295292
100
AcDbArc
 50
-140.1038241302335
 51
-124.1650957256376
  0
ARC
  5
1EC
330
4A
100
AcDbEntity
  8
1
  6
Continuous
 62
     7
100
AcDbCircle
 10
104.8998835299953
 20
154.9360194484603
 30
0.0
 40
5.650966484295196
100
AcDbArc
 50
-179.9999999999977
 51
-140.1038241302335
  0
ARC
  5
1ED
330
4A
100
AcDbEntity
  8
1
  6
Continuous
 62
     7
100
AcDbCircle
 10
104.8998835299953
 20
154.9360194484603
 30
0.0
 40
5.650966484295196
100
AcDbArc
 50
-179.9999999999977
 51
-140.1038241302335
  0
ARC
  5
1EE
330
4A
100
AcDbEntity
  8
1
  6
Continuous
 62
     7
100
AcDbCircle
 10
77.59795056140482
 20
154.9360194484603
 30
0.0
 40
5.650966484295335
100
AcDbArc
 50
-55.83490427436256
 51
-39.89617586976583
  0
ARC
  5
1EF
330
4A
100
AcDbEntity
  8
1
  6
Continuous
 62
     7
100
AcDbCircle
 10
77.59795056140482
 20
154.9360194484603
 30
0.0
 40
5.650966484295369
100
AcDbArc
 50
-39.89617586976583
 51
-0.00000000000231
  0
ARC
  5
1F0
330
4A
100
AcDbEntity
  8
1
  6
Continuous
 62
     7
100
AcDbCircle
 10
91.24891704570001
 20
167.3199115044246
 30
0.0
 40
22.99999999999998
100
AcDbArc
 50
121.4489813893794
 51
-121.4489813893792
  0
ARC
  5
1F1
330
4A
100
AcDbEntity
  8
1
  6
Continuous
 62
     7
100
AcDbCircle
 10
91.24891704570001
 20
293.5713789074997
 30
0.0
 40
7.940369213130626
100
AcDbArc
 50
-176.2139059775109
 51
-3.7860940224891
  0
ARC
  5
1F2
330
4A
100
AcDbEntity
  8
1
  6
Continuous
 62
     7
100
AcDbCircle
 10
118.2489170457
 20
328.5713789074997
 30
0.0
 40
40.00000000000019
100
AcDbArc
 50
-160.3149091747088
 51
-159.9319453791808
  0
ARC
  5
1F3
330
4A
100
AcDbEntity
  8
1
  6
Continuous
 62
     7
100
AcDbCircle
 10
206.2489170457002
 20
194.3199115044248
 30
0.0
 40
40.00000000000003
100
AcDbArc
 50
-115.8519833913709
 51
-69.9319453791808
  0
ARC
  5
1F4
330
4A
100
AcDbEntity
  8
1
  6
Continuous
 62
     7
100
AcDbCircle
 10
186.3429152521826
 20
153.2375328787084
 30
0.0
 40
5.650966484295225
100
AcDbArc
 50
-147.1038241302342
 51
-131.1650957256379
  0
ARC
  5
1F5
330
4A
100
AcDbEntity
  8
1
  6
Continuous
 62
     7
100
AcDbCircle
 10
186.3429152521826
 20
153.2375328787084
 30
0.0
 40
5.65096648429519
100
AcDbArc
 50
64.14801660862986
 51
-147.1038241302342
  0
ARC
  5
1F6
330
4A
100
AcDbEntity
  8
1
  6
Continuous
 62
     7
100
AcDbCircle
 10
159.2444867518389
 20
156.564801523282
 30
0.0
 40
5.650966484295275
100
AcDbArc
 50
-62.83490427436228
 51
-46.89617586976583
  0
ARC
  5
1F7
330
4A
100
AcDbEntity
  8
1
  6
Continuous
 62
     7
100
AcDbCircle
 10
188.2489170457002
 20
182.0699115044247
 30
0.0
 40
5.999999999999901
100
AcDbArc
 50
-76.90628577739628
 51
0.0
  0
ARC
  5
1F8
330
4A
100
AcDbEntity
  8
1
  6
Continuous
 62
     7
100
AcDbCircle
 10
186.3429152521826
 20
153.2375328787084
 30
0.0
 40
21.65096648429512
100
AcDbArc
 50
103.0937142226029
 51
173.0000000000001
  0
ARC
  5
1F9
330
4A
100
AcDbEntity
  8
1
  6
Continuous
 62
     7
100
AcDbCircle
 10
159.2444867518389
 20
156.564801523282
 30
0.0
 40
5.650966484295279
100
AcDbArc
 50
-46.89617586976583
 51
-7.0000000000016
  0
ARC
  5
1FA
330
4A
100
AcDbEntity
  8
1
  6
Continuous
 62
     7
100
AcDbCircle
 10
64.24891704570001
 20
328.5713789074997
 30
0.0
 40
39.99999999999994
100
AcDbArc
 50
-20.0680546208193
 51
-19.68509082529133
  0
SPLINE
  5
1FB
330
4A
100
AcDbEntity
  8
1
  6
Continuous
 62
     2
100
AcDbSpline
210
0.0
220
0.0
230
1.0
 70
     8
 71
     3
 72
     9
 73
     5
 74
     3
 42
0.0000000001
 43
0.0000000001
 44
0.00000001
 40
0.0
 40
0.0
 40
0.0
 40
0.0
 40
0.0532526083278642
 40
0.1156349277141864
 40
0.1156349277141864
 40
0.1156349277141864
 40
0.1156349277141864
 10
100.5689170457001
 20
151.3036628184822
 30
0.0
 10
100.5664641687033
 20
151.3215798578229
 30
0.0
 10
100.5611378896135
 20
151.3604856619527
 30
0.0
 10
100.536343024949
 20
151.3911290499844
 30
0.0
 10
100.5229667795772
 20
151.4076604359338
 30
0.0
 11
100.5689170457001
 21
151.3036628184822
 31
0.0
 11
100.5574294791684
 21
151.355661627208
 31
0.0
 11
100.5229667795772
 21
151.4076604359338
 31
0.0
  0
SPLINE
  5
1FC
330
4A
100
AcDbEntity
  8
1
  6
Continuous
 62
     2
100
AcDbSpline
210
0.0
220
0.0
230
1.0
 70
     8
 71
     3
 72
    43
 73
    39
 74
    37
 42
0.0000000001
 43
0.0000000001
 44
0.00000001
 40
0.0
 40
0.0
 40
0.0
 40
0.0
 40
0.1906880145644903
 40
0.3679973976126418
 40
0.6597431057827978
 40
0.9525353647016599
 40
1.366882342592946
 40
1.7808102176762
 40
2.306630399805989
 40
2.832417288111372
 40
3.455676118011237
 40
4.078906770188859
 40
4.781523479886377
 40
5.484126349194447
 40
6.245346457002982
 40
7.006560105219467
 40
7.803713278714104
 40
8.600863556206779
 40
9.410122207899498
 40
10.21938085959223
 40
11.01653113708488
 40
11.81368431057947
 40
12.5748979587959
 40
13.33611806660452
 40
14.03872093591261
 40
14.74133764561014
 40
15.36456829778777
 40
15.98782712768767
 40
16.51361401599309
 40
17.03943419812276
 40
17.45336207320597
 40
17.8677090510973
 40
18.16050131001619
 40
18.45224701818635
 40
18.62955640123451
 40
18.82024441579899
 40
18.88262673518413
 40
18.93587934351105
 40
18.93587934351105
 40
18.93587934351105
 40
18.93587934351105
 10
100.5229667795772
 20
151.4076604359338
 30
0.0
 10
100.4781714367752
 20
151.4534535344822
 30
0.0
 10
100.3917235831229
 20
151.5418268972909
 30
0.0
 10
100.1907546028705
 20
151.6381527492599
 30
0.0
 10
99.94780906166518
 20
151.7110040106348
 30
0.0
 10
99.62761383186945
 20
151.8029215667742
 30
0.0
 10
99.26318356904443
 20
151.8863558979254
 30
0.0
 10
98.81943166494048
 20
151.9693385976677
 30
0.0
 10
98.33638796310211
 20
152.0427197537173
 30
0.0
 10
97.78281100073815
 20
152.1153033340495
 30
0.0
 10
97.19551835851323
 20
152.1796178181248
 30
0.0
 10
96.5485495696793
 20
152.2394111245446
 30
0.0
 10
95.87433066820536
 20
152.2908392631349
 30
0.0
 10
95.15358717081951
 20
152.3361312097528
 30
0.0
 10
94.41280500040421
 20
152.3729998342446
 30
0.0
 10
93.64015449961934
 20
152.4024557008142
 30
0.0
 10
92.85524401402211
 20
152.4233661451027
 30
0.0
 10
92.05414382227166
 20
152.4361585754567
 30
0.0
 10
91.24891704570804
 20
152.4403362127816
 30
0.0
 10
90.443690269097
 20
152.43615857549
 30
0.0
 10
89.64259007748692
 20
152.4233661449721
 30
0.0
 10
88.8576795913844
 20
152.4024557012947
 30
0.0
 10
88.08502909240158
 20
152.3729998325399
 30
0.0
 10
87.3442469154983
 20
152.3361312159176
 30
0.0
 10
86.6235034405465
 20
152.290839242088
 30
0.0
 10
85.94928445988751
 20
152.2394111995464
 30
0.0
 10
85.30231593486789
 20
152.179617573129
 30
0.0
 10
84.71502238377566
 20
152.1153041914781
 30
0.0
 10
84.1614483122559
 20
152.0427171046528
 30
0.0
 10
83.67839496512083
 20
151.9693476480115
 30
0.0
 10
83.23467187862141
 20
151.8863299935204
 30
0.0
 10
82.87014978286049
 20
151.803007052516
 30
0.0
 10
82.55020365499473
 20
151.7107873444282
 30
0.0
 10
82.30651884067601
 20
151.6388327955414
 30
0.0
 10
82.10735175122295
 20
151.5403213129141
 30
0.0
 10
82.00135590695724
 20
151.4429026757563
 30
0.0
 10
81.93680986706661
 20
151.3603477899366
 30
0.0
 10
81.9314057629535
 20
151.3215363848444
 30
0.0
 10
81.9289170457001
 20
151.3036628184844
 30
0.0
 11
100.5229667795772
 21
151.4076604359338
 31
0.0
 11
100.3816934077022
 21
151.5357375740093
 31
0.0
 11
100.2246571995353
 21
151.6180676817554
 31
0.0
 11
99.94790070062395
 21
151.7103791032916
 31
0.0
 11
99.6660303407273
 21
151.7896028818846
 31
0.0
 11
99.26250081745801
 21
151.883663191993
 31
0.0
 11
98.85575519282804
 21
151.9604374234468
 31
0.0
 11
98.33613566675874
 21
152.0409508512866
 31
0.0
 11
97.81482115872336
 21
152.1093835600281
 31
0.0
 11
97.19533654956717
 21
152.1778699679259
 31
0.0
 11
96.57476835201788
 21
152.2354161059733
 31
0.0
 11
95.87421912558445
 21
152.2892772430731
 31
0.0
 11
95.17300579028606
 21
152.3334434106637
 31
0.0
 11
94.41273891096968
 21
152.3715265400857
 31
0.0
 11
93.65207984788557
 21
152.4005783555034
 31
0.0
 11
92.85521319229898
 21
152.4219492522277
 31
0.0
 11
92.0581644648325
 21
152.4346728897076
 31
0.0
 11
91.24891704570011
 21
152.4389366869685
 31
0.0
 11
90.43966962656771
 21
152.4346728897076
 31
0.0
 11
89.64262089910126
 21
152.4219492522277
 31
0.0
 11
88.84575424351471
 21
152.4005783555033
 31
0.0
 11
88.08509518043066
 21
152.3715265400857
 31
0.0
 11
87.3248283011142
 21
152.3334434106637
 31
0.0
 11
86.62361496581579
 21
152.2892772430731
 31
0.0
 11
85.92306573938234
 21
152.2354161059733
 31
0.0
 11
85.30249754183303
 21
152.177869967926
 31
0.0
 11
84.6830129326768
 21
152.1093835600281
 31
0.0
 11
84.1616984246414
 21
152.0409508512867
 31
0.0
 11
83.64207889857221
 21
151.9604374234469
 31
0.0
 11
83.2353332739423
 21
151.883663191993
 31
0.0
 11
82.83180375067296
 21
151.7896028818846
 31
0.0
 11
82.54993339077629
 21
151.7103791032916
 31
0.0
 11
82.27317689186495
 21
151.6180676817554
 31
0.0
 11
82.11614068369805
 21
151.5357375740093
 31
0.0
 11
81.97486731182302
 21
151.4076604359338
 31
0.0
 11
81.94040461223229
 21
151.3556616272091
 31
0.0
 11
81.9289170457001
 21
151.3036628184844
 31
0.0
  0
SPLINE
  5
1FD
330
4A
100
AcDbEntity
  8
1
  6
Continuous
 62
     2
100
AcDbSpline
210
0.0
220
0.0
230
1.0
 70
     8
 71
     3
 72
    15
 73
    11
 74
     9
 42
0.0000000001
 43
0.0000000001
 44
0.00000001
 40
0.0
 40
0.0
 40
0.0
 40
0.0
 40
0.1571701708295415
 40
0.3145296132501289
 40
1.121942507397642
 40
1.929361049434895
 40
2.736223926440045
 40
3.543089819301515
 40
4.349762643077078
 40
5.156435466852699
 40
5.156435466852699
 40
5.156435466852699
 40
5.156435466852699
 10
99.55693133848891
 20
298.8644865286858
 30
0.0
 10
99.58058706779957
 20
298.8177393414727
 30
0.0
 10
99.62792701374458
 20
298.7241886719208
 30
0.0
 10
99.78963945394243
 20
298.3869660346512
 30
0.0
 10
100.0179932704369
 20
297.8412217461724
 30
0.0
 10
100.2624660573573
 20
297.0708693028159
 30
0.0
 10
100.4392467562593
 20
296.2822596140058
 30
0.0
 10
100.54424936153
 20
295.4815066284102
 30
0.0
 10
100.5839685595599
 20
294.6741678971908
 30
0.0
 10
100.5502398571106
 20
294.1370928952732
 30
0.0
 10
100.5333755058859
 20
293.8685553943144
 30
0.0
 11
99.55693133848891
 21
298.8644865286858
 31
0.0
 11
99.62739791252066
 21
298.7239983635515
 31
0.0
 11
99.69555103723046
 21
298.5821634393924
 31
0.0
 11
100.0067280304103
 21
297.8371235340509
 31
0.0
 11
100.2512402987319
 21
297.0676182042021
 31
0.0
 11
100.4272916938498
 21
296.2801960756293
 31
0.0
 11
100.5333755058859
 21
295.4803343413983
 31
0.0
 11
100.5689170457001
 21
294.6744448678564
 31
0.0
 11
100.5333755058859
 21
293.8685553943144
 31
0.0
  0
SPLINE
  5
1FE
330
4A
100
AcDbEntity
  8
1
  6
Continuous
 62
     2
100
AcDbSpline
210
0.0
220
0.0
230
1.0
 70
     8
 71
     3
 72
    49
 73
    45
 74
    43
 42
0.0000000001
 43
0.0000000001
 44
0.00000001
 40
0.0
 40
0.0
 40
0.0
 40
0.0
 40
0.8068658928613568
 40
1.613728769866504
 40
2.421147311903811
 40
3.22856020605133
 40
4.036823694917363
 40
4.845079615564609
 40
5.65437773648136
 40
6.463667308076249
 40
7.274064508814955
 40
8.084453220250653
 40
8.895881398625676
 40
9.70730216076092
 40
10.51956932986359
 40
11.33183102391028
 40
12.14464470029661
 40
12.95745547364136
 40
13.77045786165123
 40
14.58346024966104
 40
15.39627102300573
 40
16.20908469939205
 40
17.02134639343877
 40
17.83361356254147
 40
18.64503432467667
 40
19.45646250305167
 40
20.26685121448739
 40
21.077248415226
 40
21.88653798682095
 40
22.69583610773764
 40
23.50409202838483
 40
24.31235551725084
 40
25.11976841139855
 40
25.92718695343575
 40
26.73404983044094
 40
27.5409157233023
 40
28.34758854707792
 40
29.15426137085343
 40
29.96112726371484
 40
30.76799014071998
 40
31.57540868275728
 40
32.38282157690497
 40
32.54018101931492
 40
32.69735119013355
 40
32.69735119013355
 40
32.69735119013355
 40
32.69735119013355
 10
100.5333755058859
 20
293.8685553943144
 30
0.0
 10
100.5029694073797
 20
293.6011476947861
 30
0.0
 10
100.4421573240174
 20
293.0663332952303
 30
0.0
 10
100.261705130986
 20
292.2780994164967
 30
0.0
 10
100.0181241771447
 20
291.5076491047128
 30
0.0
 10
99.70600542199551
 20
290.7614750344248
 30
0.0
 10
99.33031737733437
 20
290.0450157757161
 30
0.0
 10
98.89259176972362
 20
289.3638936829822
 30
0.0
 10
98.3971570948452
 20
288.7231068379813
 30
0.0
 10
97.84690022158962
 20
288.1277598932161
 30
0.0
 10
97.24685517950786
 20
287.5820925310884
 30
0.0
 10
96.60079103821968
 20
287.0906052851095
 30
0.0
 10
95.91437807214918
 20
286.6566139557015
 30
0.0
 10
95.19215196849724
 20
286.2839034987112
 30
0.0
 10
94.44022120740578
 20
285.9747523277334
 30
0.0
 10
93.66378334735526
 20
285.7321208884837
 30
0.0
 10
92.8691651049994
 20
285.5571871633379
 30
0.0
 10
92.06210113350932
 20
285.4519846909065
 30
0.0
 10
91.2489170457022
 20
285.416578051982
 30
0.0
 10
90.43573295788161
 20
285.4519846909058
 30
0.0
 10
89.62866898643196
 20
285.5571871633405
 30
0.0
 10
88.83405074392809
 20
285.7321208884735
 30
0.0
 10
88.05761288442884
 20
285.9747523277717
 30
0.0
 10
87.30568212128119
 20
286.2839034985682
 30
0.0
 10
86.58345602529522
 20
286.6566139562345
 30
0.0
 10
85.89704303063328
 20
287.0906052831209
 30
0.0
 10
85.25097899591934
 20
287.5820925384999
 30
0.0
 10
84.65093355638109
 20
288.1277598655706
 30
0.0
 10
84.10067816451763
 20
288.7231069409997
 30
0.0
 10
83.60523796490195
 20
289.3638932986995
 30
0.0
 10
83.16753295057299
 20
290.0450172078324
 30
0.0
 10
82.79176809764124
 20
290.7614696917846
 30
0.0
 10
82.47993570762782
 20
291.5076690204738
 30
0.0
 10
82.23528649689337
 20
292.2780251082836
 30
0.0
 10
82.05881848750353
 20
293.0666104058738
 30
0.0
 10
81.95274166817009
 20
293.8674572936594
 30
0.0
 10
81.91700581259151
 20
294.6744448808771
 30
0.0
 10
81.95274305733324
 20
295.4814323899645
 30
0.0
 10
82.05881292930837
 20
296.2822795121961
 30
0.0
 10
82.23530734593301
 20
297.0708639499135
 30
0.0
 10
82.47985781178875
 20
297.8412232448222
 30
0.0
 10
82.70819388721355
 20
298.386965968474
 30
0.0
 10
82.86990714647322
 20
298.7241886779817
 30
0.0
 10
82.91724704652404
 20
298.8177393434795
 30
0.0
 10
82.94090275290139
 20
298.8644865286667
 30
0.0
 11
100.5333755058859
 21
293.8685553943144
 31
0.0
 11
100.4272916938498
 21
293.0686936600835
 31
0.0
 11
100.2512402987319
 21
292.2812715315108
 31
0.0
 11
100.0067280304103
 21
291.5117662016618
 31
0.0
 11
99.69555103723045
 21
290.7667262963204
 31
0.0
 11
99.32002961830153
 21
290.0509934331937
 31
0.0
 11
98.88320688233765
 21
289.370946721117
 31
0.0
 11
98.38809519435915
 21
288.7307687263792
 31
0.0
 11
97.83890742943191
 21
288.1363426085593
 31
0.0
 11
97.23927439347017
 21
287.5911968985437
 31
0.0
 11
96.59439762398402
 21
287.1004181135504
 31
0.0
 11
95.9084974234551
 21
286.66687849186
 31
0.0
 11
95.18749938645016
 21
286.294634641865
 31
0.0
 11
94.4362075390753
 21
285.9858652877021
 31
0.0
 11
93.6609603587972
 21
285.7434588746548
 31
0.0
 11
92.86713025958233
 21
285.5688168233007
 31
0.0
 11
92.0611552156729
 21
285.4636237538499
 31
0.0
 11
91.24891704569993
 21
285.4283811922417
 31
0.0
 11
90.43667887572701
 21
285.4636237538499
 31
0.0
 11
89.63070383181764
 21
285.5688168233007
 31
0.0
 11
88.83687373260278
 21
285.7434588746548
 31
0.0
 11
88.06162655232464
 21
285.9858652877021
 31
0.0
 11
87.31033470494975
 21
286.294634641865
 31
0.0
 11
86.58933666794484
 21
286.66687849186
 31
0.0
 11
85.90343646741597
 21
287.1004181135504
 31
0.0
 11
85.25855969792988
 21
287.5911968985438
 31
0.0
 11
84.65892666196817
 21
288.1363426085593
 31
0.0
 11
84.1097388970409
 21
288.7307687263793
 31
0.0
 11
83.61462720906243
 21
289.370946721117
 31
0.0
 11
83.17780447309856
 21
290.0509934331936
 31
0.0
 11
82.80228305416958
 21
290.7667262963203
 31
0.0
 11
82.49110606098962
 21
291.5117662016619
 31
0.0
 11
82.24659379266809
 21
292.2812715315107
 31
0.0
 11
82.0705423975502
 21
293.0686936600835
 31
0.0
 11
81.96445858551408
 21
293.8685553943144
 31
0.0
 11
81.92891704569998
 21
294.6744448678564
 31
0.0
 11
81.96445858551414
 21
295.4803343413983
 31
0.0
 11
82.07054239755028
 21
296.2801960756292
 31
0.0
 11
82.24659379266819
 21
297.067618204202
 31
0.0
 11
82.49110606098969
 21
297.8371235340509
 31
0.0
 11
82.80228305416959
 21
298.5821634393925
 31
0.0
 11
82.87043617887471
 21
298.723998363542
 31
0.0
 11
82.94090275290139
 21
298.8644865286667
 31
0.0
  0
SPLINE
  5
1FF
330
4A
100
AcDbEntity
  8
1
  6
Continuous
 62
     7
100
AcDbSpline
210
0.0
220
0.0
230
1.0
 70
     8
 71
     3
 72
    45
 73
    41
 74
    39
 42
0.0000000001
 43
0.0000000001
 44
0.00000001
 40
0.0
 40
0.0
 40
0.0
 40
0.0
 40
0.3920458803934814
 40
0.7848268464042991
 40
1.69205466769215
 40
2.599282488980087
 40
3.506510310268004
 40
4.413738131555929
 40
5.320965952843823
 40
6.228193774131707
 40
7.135421595419583
 40
8.04264941670742
 40
8.94987723799526
 40
9.85710505928315
 40
10.76433288057101
 40
11.67156070185893
 40
12.57878852314688
 40
13.48601634443475
 40
14.39324416572265
 40
15.30047198701048
 40
16.20769980829837
 40
17.11492762958622
 40
18.02215545087414
 40
18.929383272162
 40
19.83661109344986
 40
20.74383891473766
 40
21.65106673602551
 40
22.55829455731343
 40
23.4655223786014
 40
24.37275019988924
 40
25.27997802117709
 40
26.187205842465
 40
27.09443366375296
 40
28.00166148504088
 40
28.90888930632879
 40
29.8161171276167
 40
30.72334494890453
 40
31.63057277019243
 40
32.02335373619329
 40
32.41539961657701
 40
32.41539961657701
 40
32.41539961657701
 40
32.41539961657701
 10
101.6475934391238
 20
294.4236939119474
 30
0.0
 10
101.6446118255974
 20
294.2930288307015
 30
0.0
 10
101.6386430080224
 20
294.0314536713187
 30
0.0
 10
101.5989458288651
 20
293.4686711811125
 30
0.0
 10
101.5035647248901
 20
292.7381617133557
 30
0.0
 10
101.306538896114
 20
291.8513984407362
 30
0.0
 10
101.0336515138277
 20
290.9849835785673
 30
0.0
 10
100.6858069556871
 20
290.1458387747118
 30
0.0
 10
100.2665676738268
 20
289.3399909522954
 30
0.0
 10
99.77830409891041
 20
288.5739924330842
 30
0.0
 10
99.2254966730073
 20
287.8531886690196
 30
0.0
 10
98.61163756286922
 20
287.1836131250266
 30
0.0
 10
97.94206202511326
 20
286.5697540839203
 30
0.0
 10
97.22125830513187
 20
286.0169463881272
 30
0.0
 10
96.45525960335081
 20
285.5286838237387
 30
0.0
 10
95.6494124671307
 20
285.1094407696568
 30
0.0
 10
94.8102651010598
 20
284.761610289875
 30
0.0
 10
93.94385980155644
 20
284.4886703663743
 30
0.0
 10
93.05706084049066
 20
284.2918406240976
 30
0.0
 10
92.15642266398416
 20
284.1734969726982
 30
0.0
 10
91.24891704569996
 20
284.133648540029
 30
0.0
 10
90.34141142741575
 20
284.1734969726981
 30
0.0
 10
89.44077325090923
 20
284.2918406240977
 30
0.0
 10
88.55397428984341
 20
284.4886703663743
 30
0.0
 10
87.68756899034017
 20
284.7616102898752
 30
0.0
 10
86.84842162426932
 20
285.1094407696567
 30
0.0
 10
86.04257448804931
 20
285.5286838237388
 30
0.0
 10
85.27657578626817
 20
286.0169463881272
 30
0.0
 10
84.55577206628669
 20
286.5697540839203
 30
0.0
 10
83.88619652853078
 20
287.1836131250266
 30
0.0
 10
83.27233741839274
 20
287.8531886690197
 30
0.0
 10
82.71952999248961
 20
288.5739924330844
 30
0.0
 10
82.23126641757318
 20
289.3399909522956
 30
0.0
 10
81.81202713571281
 20
290.1458387747119
 30
0.0
 10
81.4641825775721
 20
290.9849835785674
 30
0.0
 10
81.19129519528592
 20
291.8513984407362
 30
0.0
 10
80.9942693665097
 20
292.7381617133559
 30
0.0
 10
80.89888826253514
 20
293.4686711811092
 30
0.0
 10
80.85919108337819
 20
294.0314536713089
 30
0.0
 10
80.85322226580291
 20
294.2930288306852
 30
0.0
 10
80.8502406522764
 20
294.4236939119277
 30
0.0
 11
101.6475934391238
 21
294.4236939119474
 31
0.0
 11
101.6355434355657
 21
294.0318332610168
 31
0.0
 11
101.6086711912874
 21
293.6399726100861
 31
0.0
 11
101.4903290611967
 21
292.7404963958568
 31
0.0
 11
101.2938953038623
 21
291.8547898424779
 31
0.0
 11
101.0211586511853
 21
290.9895285882862
 31
0.0
 11
100.6739078350672
 21
290.1513882716183
 31
0.0
 11
100.2550636249841
 21
289.3466325028296
 31
0.0
 11
99.76754679041261
 21
288.5815248922753
 31
0.0
 11
99.21532139230145
 21
287.8617267056982
 31
0.0
 11
98.60235149159956
 21
287.192899208841
 31
0.0
 11
97.93352399474237
 21
286.5799293081392
 31
0.0
 11
97.21372580816527
 21
286.027703910028
 31
0.0
 11
96.44861819761098
 21
285.5401870754565
 31
0.0
 11
95.64386242882225
 21
285.1213428653734
 31
0.0
 11
94.80572211215439
 21
284.7740920492552
 31
0.0
 11
93.94046085796271
 21
284.5013553965783
 31
0.0
 11
93.05475430458385
 21
284.3049216392438
 31
0.0
 11
92.15527809035456
 21
284.1865795091532
 31
0.0
 11
91.24891704569996
 21
284.1469313509188
 31
0.0
 11
90.34255600104538
 21
284.1865795091532
 31
0.0
 11
89.443079786816
 21
284.3049216392439
 31
0.0
 11
88.55737323343718
 21
284.5013553965783
 31
0.0
 11
87.69211197924554
 21
284.7740920492553
 31
0.0
 11
86.85397166257781
 21
285.1213428653734
 31
0.0
 11
86.04921589378915
 21
285.5401870754565
 31
0.0
 11
85.2841082832348
 21
286.027703910028
 31
0.0
 11
84.56431009665759
 21
286.5799293081392
 31
0.0
 11
83.8954825998004
 21
287.192899208841
 31
0.0
 11
83.28251269909856
 21
287.8617267056982
 31
0.0
 11
82.73028730098741
 21
288.5815248922754
 31
0.0
 11
82.24277046641585
 21
289.3466325028298
 31
0.0
 11
81.82392625633275
 21
290.1513882716185
 31
0.0
 11
81.47667544021452
 21
290.9895285882863
 31
0.0
 11
81.20393878753757
 21
291.854789842478
 31
0.0
 11
81.00750503020311
 21
292.7404963958568
 31
0.0
 11
80.88916290011244
 21
293.6399726100862
 31
0.0
 11
80.8622906558347
 21
294.0318332610069
 31
0.0
 11
80.8502406522764
 21
294.4236939119277
 31
0.0
  0
SPLINE
  5
200
330
4A
100
AcDbEntity
  8
1
  6
Continuous
 62
     7
100
AcDbSpline
210
0.0
220
0.0
230
1.0
 70
     8
 71
     3
 72
    61
 73
    57
 74
    55
 42
0.0000000001
 43
0.0000000001
 44
0.00000001
 40
0.0
 40
0.0
 40
0.0
 40
0.0
 40
0.0928305390904381
 40
0.1857258632508321
 40
1.092953684538836
 40
2.00018150582678
 40
2.907409327114611
 40
3.814637148402519
 40
4.721864969690397
 40
5.629092790978303
 40
6.536320612266186
 40
7.443548433554128
 40
8.350776254841923
 40
9.258004076129804
 40
10.16523189741761
 40
11.07245971870549
 40
11.97968753999333
 40
12.88691536128126
 40
13.79414318256923
 40
14.70137100385711
 40
15.60859882514498
 40
16.51582664643287
 40
17.42305446772076
 40
18.33028228900868
 40
19.2375101102966
 40
20.1447379315845
 40
21.0519657528724
 40
21.95919357416023
 40
22.86642139544812
 40
23.77364921673598
 40
24.68087703802389
 40
25.58810485931177
 40
26.49533268059964
 40
27.40256050188744
 40
28.30978832317531
 40
29.21701614446326
 40
30.1242439657512
 40
31.03147178703904
 40
31.93869960832689
 40
32.8459274296148
 40
33.75315525090276
 40
34.66038307219068
 40
35.56761089347855
 40
36.47483871476646
 40
37.38206653605434
 40
38.28929435734224
 40
39.19652217863012
 40
40.103749999918
 40
41.01097782120591
 40
41.91820564249379
 40
42.82543346378171
 40
43.73266128506965
 40
44.63988910635751
 40
45.54711692764533
 40
45.64001225180333
 40
45.73284279089138
 40
45.73284279089138
 40
45.73284279089138
 40
45.73284279089138
 10
99.6596738702157
 20
300.4170477495129
 30
0.0
 10
99.67780503611695
 20
300.3919722071479
 30
0.0
 10
99.71408002139381
 20
300.341803622565
 30
0.0
 10
99.92424815489004
 20
300.044219985797
 30
0.0
 10
100.2666295560215
 20
299.5073912346144
 30
0.0
 10
100.6857931359109
 20
298.7015510621982
 30
0.0
 10
101.0336449107382
 20
297.8624018301816
 30
0.0
 10
101.3065791282488
 20
296.995997030657
 30
0.0
 10
101.5034103994408
 20
296.1091979356223
 30
0.0
 10
101.6217536411689
 20
295.2085597950127
 30
0.0
 10
101.6616021836088
 20
294.3010541671099
 30
0.0
 10
101.6217537215269
 20
293.3935485514025
 30
0.0
 10
101.5034100780081
 20
292.4929103742074
 30
0.0
 10
101.3065803336211
 20
291.6061114133195
 30
0.0
 10
101.0336404106811
 20
290.7397061137935
 30
0.0
 10
100.6858099307663
 20
289.9005587476356
 30
0.0
 10
100.2665668766567
 20
289.0947116117861
 30
0.0
 10
99.77830431251147
 20
288.3287129086099
 30
0.0
 10
99.22549661577307
 20
287.6079091938384
 30
0.0
 10
98.61163757820509
 20
286.9383336366373
 30
0.0
 10
97.94206202100406
 20
286.3244745990701
 30
0.0
 10
97.22125830623293
 20
285.7716669023286
 30
0.0
 10
96.45525960305577
 20
285.2834043381941
 30
0.0
 10
95.64941246720979
 20
284.8641612840441
 30
0.0
 10
94.81026510103857
 20
284.5163308042807
 30
0.0
 10
93.94385980156216
 20
284.243390880775
 30
0.0
 10
93.0570608404891
 20
284.0465611384997
 30
0.0
 10
92.15642266398454
 20
283.9282174870997
 30
0.0
 10
91.24891704569997
 20
283.8883690544308
 30
0.0
 10
90.34141142741537
 20
283.9282174870997
 30
0.0
 10
89.44077325091072
 20
284.0465611384997
 30
0.0
 10
88.55397428983775
 20
284.2433908807749
 30
0.0
 10
87.68756899036134
 20
284.5163308042809
 30
0.0
 10
86.84842162419025
 20
284.8641612840441
 30
0.0
 10
86.04257448834434
 20
285.2834043381943
 30
0.0
 10
85.27657578516711
 20
285.7716669023287
 30
0.0
 10
84.55577207039595
 20
286.32447459907
 30
0.0
 10
83.88619651319489
 20
286.9383336366373
 30
0.0
 10
83.27233747562697
 20
287.6079091938384
 30
0.0
 10
82.71952977888856
 20
288.3287129086098
 30
0.0
 10
82.23126721474321
 20
289.0947116117861
 30
0.0
 10
81.81202416063368
 20
289.9005587476357
 30
0.0
 10
81.46419368071869
 20
290.7397061137934
 30
0.0
 10
81.19125375777875
 20
291.6061114133195
 30
0.0
 10
80.99442401339174
 20
292.4929103742074
 30
0.0
 10
80.87608036987297
 20
293.3935485514027
 30
0.0
 10
80.8362319077911
 20
294.3010541671101
 30
0.0
 10
80.87608045023114
 20
295.2085597950127
 30
0.0
 10
80.99442369195918
 20
296.1091979356224
 30
0.0
 10
81.19125496315124
 20
296.9959970306571
 30
0.0
 10
81.46418918066185
 20
297.8624018301817
 30
0.0
 10
81.8120409554891
 20
298.7015510621984
 30
0.0
 10
82.23120453537854
 20
299.5073912346145
 30
0.0
 10
82.57358593650957
 20
300.0442199857962
 30
0.0
 10
82.78375407000492
 20
300.3418036225629
 30
0.0
 10
82.82002905528077
 20
300.3919722071445
 30
0.0
 10
82.83816022118151
 20
300.417047749509
 30
0.0
 11
99.6596738702157
 21
300.4170477495129
 31
0.0
 11
99.71392719888289
 21
300.3417212248596
 31
0.0
 11
99.76754679041265
 21
300.265862931608
 31
0.0
 11
100.2550636249842
 21
299.5007553210535
 31
0.0
 11
100.6739078350672
 21
298.6959995522648
 31
0.0
 11
101.0211586511854
 21
297.857859235597
 31
0.0
 11
101.2938953038623
 21
296.9925979814053
 31
0.0
 11
101.4903290611968
 21
296.1068914280265
 31
0.0
 11
101.6086711912875
 21
295.2074152137971
 31
0.0
 11
101.6483193495219
 21
294.3010541691425
 31
0.0
 11
101.6086711912874
 21
293.3946931244878
 31
0.0
 11
101.4903290611967
 21
292.4952169102586
 31
0.0
 11
101.2938953038623
 21
291.6095103568798
 31
0.0
 11
101.0211586511853
 21
290.7442491026882
 31
0.0
 11
100.6739078350672
 21
289.9061087860204
 31
0.0
 11
100.2550636249841
 21
289.1013530172317
 31
0.0
 11
99.76754679041261
 21
288.3362454066773
 31
0.0
 11
99.21532139230145
 21
287.6164472201001
 31
0.0
 11
98.60235149159956
 21
286.9476197232429
 31
0.0
 11
97.93352399474237
 21
286.334649822541
 31
0.0
 11
97.21372580816527
 21
285.7824244244298
 31
0.0
 11
96.44861819761098
 21
285.2949075898582
 31
0.0
 11
95.64386242882225
 21
284.8760633797752
 31
0.0
 11
94.80572211215439
 21
284.528812563657
 31
0.0
 11
93.94046085796271
 21
284.2560759109801
 31
0.0
 11
93.05475430458385
 21
284.0596421536456
 31
0.0
 11
92.15527809035456
 21
283.9413000235549
 31
0.0
 11
91.24891704569996
 21
283.9016518653205
 31
0.0
 11
90.34255600104538
 21
283.9413000235549
 31
0.0
 11
89.443079786816
 21
284.0596421536456
 31
0.0
 11
88.55737323343718
 21
284.2560759109801
 31
0.0
 11
87.69211197924554
 21
284.5288125636571
 31
0.0
 11
86.85397166257781
 21
284.8760633797753
 31
0.0
 11
86.04921589378915
 21
285.2949075898583
 31
0.0
 11
85.2841082832348
 21
285.7824244244299
 31
0.0
 11
84.56431009665759
 21
286.3346498225411
 31
0.0
 11
83.8954825998004
 21
286.9476197232429
 31
0.0
 11
83.28251269909856
 21
287.6164472201001
 31
0.0
 11
82.73028730098741
 21
288.3362454066773
 31
0.0
 11
82.24277046641585
 21
289.1013530172317
 31
0.0
 11
81.82392625633275
 21
289.9061087860204
 31
0.0
 11
81.47667544021452
 21
290.7442491026881
 31
0.0
 11
81.20393878753757
 21
291.6095103568798
 31
0.0
 11
81.00750503020311
 21
292.4952169102587
 31
0.0
 11
80.88916290011245
 21
293.394693124488
 31
0.0
 11
80.84951474187808
 21
294.3010541691426
 31
0.0
 11
80.8891629001125
 21
295.2074152137972
 31
0.0
 11
81.00750503020319
 21
296.1068914280266
 31
0.0
 11
81.20393878753765
 21
296.9925979814054
 31
0.0
 11
81.47667544021462
 21
297.8578592355971
 31
0.0
 11
81.82392625633281
 21
298.695999552265
 31
0.0
 11
82.24277046641586
 21
299.5007553210537
 31
0.0
 11
82.73028730098744
 21
300.2658629316078
 31
0.0
 11
82.7839068925158
 21
300.3417212248575
 31
0.0
 11
82.83816022118151
 21
300.417047749509
 31
0.0
  0
SPLINE
  5
201
330
4A
100
AcDbEntity
  8
1
  6
Continuous
 62
     7
100
AcDbSpline
210
0.0
220
0.0
230
1.0
 70
     8
 71
     3
 72
    15
 73
    11
 74
     9
 42
0.0000000001
 43
0.0000000001
 44
0.00000001
 40
0.0
 40
0.0
 40
0.0
 40
0.0
 40
0.0745532900139038
 40
0.1491366203250281
 40
0.4783797813291851
 40
0.8064487059615917
 40
1.005842593806739
 40
1.220275917918867
 40
1.290433793172921
 40
1.350328120218898
 40
1.350328120218898
 40
1.350328120218898
 40
1.350328120218898
 10
100.5689170457024
 20
150.8427888603789
 30
0.0
 10
100.5930616699419
 20
150.8369063216877
 30
0.0
 10
100.6413606471891
 20
150.8251388740113
 30
0.0
 10
100.7960457300869
 20
150.7863710577077
 30
0.0
 10
101.0302420645913
 20
150.7179494897771
 30
0.0
 10
101.3043369279595
 20
150.6372883916352
 30
0.0
 10
101.5282812416696
 20
150.5264419162562
 30
0.0
 10
101.6474699831319
 20
150.4168840696112
 30
0.0
 10
101.7200429094061
 20
150.3240338193971
 30
0.0
 10
101.7261188349443
 20
150.2803834756568
 30
0.0
 10
101.7289170457001
 20
150.2602807175534
 30
0.0
 11
100.5689170457024
 21
150.8427888603789
 31
0.0
 11
100.6413320896688
 21
150.8250616367033
 31
0.0
 11
100.7136545856908
 21
150.8068372099785
 31
0.0
 11
101.0306102751316
 21
150.71772969066
 31
0.0
 11
101.3418147241935
 21
150.6138980471521
 31
0.0
 11
101.5184009162417
 21
150.5212954592406
 31
0.0
 11
101.6772489308162
 21
150.3772504705893
 31
0.0
 11
101.7160000169796
 21
150.3187655940714
 31
0.0
 11
101.7289170457001
 21
150.2602807175534
 31
0.0
  0
SPLINE
  5
202
330
4A
100
AcDbEntity
  8
1
  6
Continuous
 62
     7
100
AcDbSpline
210
0.0
220
0.0
230
1.0
 70
     8
 71
     3
 72
    33
 73
    29
 74
    27
 42
0.0000000001
 43
0.0000000001
 44
0.00000001
 40
0.0
 40
0.0
 40
0.0
 40
0.0
 40
0.3912515342425127
 40
0.7822656337307856
 40
1.373534559786159
 40
1.96476584913613
 40
2.665599471391225
 40
3.366401431461702
 40
4.156469301664884
 40
4.946521594175154
 40
5.802486284577356
 40
6.658443709253445
 40
7.554813507737205
 40
8.451180047977621
 40
9.361161911395705
 40
10.27114377481379
 40
11.1675103150542
 40
12.06388011353796
 40
12.91983753821406
 40
13.77580222861623
 40
14.5658545211265
 40
15.3559223913297
 40
16.05672435140017
 40
16.75755797365527
 40
17.34878926300521
 40
17.94005818906059
 40
18.33107228854986
 40
18.7223238227938
 40
18.7223238227938
 40
18.7223238227938
 40
18.7223238227938
 10
81.9289170457001
 20
150.8427888603795
 30
0.0
 10
82.05600828259402
 20
150.8721336237155
 30
0.0
 10
82.31011362984319
 20
150.9308053422357
 30
0.0
 10
82.76079539435706
 20
151.0122124539853
 30
0.0
 10
83.279278156253
 20
151.0916838525399
 30
0.0
 10
83.90180197045414
 20
151.1731129040517
 30
0.0
 10
84.56217684421971
 20
151.2455153617192
 30
0.0
 10
85.28967394037947
 20
151.3127481747456
 30
0.0
 10
86.04780743952075
 20
151.3705971396968
 30
0.0
 10
86.85825761917658
 20
151.4215371157456
 30
0.0
 10
87.69124017929792
 20
151.4630051465666
 30
0.0
 10
88.56005755376799
 20
151.4961351624316
 30
0.0
 10
89.44266084729932
 20
151.5196539836404
 30
0.0
 10
90.34346884291529
 20
151.5340421113802
 30
0.0
 10
91.24891704570011
 20
151.538740864941
 30
0.0
 10
92.15436524848491
 20
151.5340421113802
 30
0.0
 10
93.05517324410087
 20
151.5196539836405
 30
0.0
 10
93.93777653763219
 20
151.4961351624317
 30
0.0
 10
94.80659391210229
 20
151.4630051465666
 30
0.0
 10
95.63957647222358
 20
151.4215371157456
 30
0.0
 10
96.4500266518794
 20
151.3705971396967
 30
0.0
 10
97.20816015102069
 20
151.3127481747456
 30
0.0
 10
97.9356572471805
 20
151.2455153617192
 30
0.0
 10
98.59603212094601
 20
151.1731129040516
 30
0.0
 10
99.21855593514717
 20
151.0916838525399
 30
0.0
 10
99.73703869704343
 20
151.0122124539852
 30
0.0
 10
100.1877204615581
 20
150.9308053422355
 30
0.0
 10
100.441825808808
 20
150.872133623715
 30
0.0
 10
100.5689170457024
 20
150.8427888603789
 30
0.0
 11
81.9289170457001
 21
150.8427888603795
 31
0.0
 11
82.31083371859396
 21
150.9277442487478
 31
0.0
 11
82.69530416677024
 21
150.9989797769465
 31
0.0
 11
83.27959723054185
 21
151.0895367123356
 31
0.0
 11
83.8657970282796
 21
151.1665057622105
 31
0.0
 11
84.56238461840242
 21
151.2435349473944
 31
0.0
 11
85.26019128410194
 21
151.308259321041
 31
0.0
 11
86.04793320840933
 21
151.3688390223927
 31
0.0
 11
86.8364222566895
 21
151.418514425189
 31
0.0
 11
87.69131455288959
 21
151.4613479764435
 31
0.0
 11
88.54664806193284
 21
151.4940236733127
 31
0.0
 11
89.44269552396011
 21
151.5180603417238
 31
0.0
 11
90.33894781906281
 21
151.5323711064035
 31
0.0
 11
91.2489170457001
 21
151.5371667630828
 31
0.0
 11
92.15888627233738
 21
151.5323711064035
 31
0.0
 11
93.05513856744008
 21
151.5180603417238
 31
0.0
 11
93.95118602946735
 21
151.4940236733127
 31
0.0
 11
94.8065195385106
 21
151.4613479764435
 31
0.0
 11
95.66141183471066
 21
151.418514425189
 31
0.0
 11
96.44990088299083
 21
151.3688390223927
 31
0.0
 11
97.23764280729824
 21
151.308259321041
 31
0.0
 11
97.93544947299776
 21
151.2435349473944
 31
0.0
 11
98.63203706312058
 21
151.1665057622105
 31
0.0
 11
99.2182368608583
 21
151.0895367123356
 31
0.0
 11
99.80252992462991
 21
150.9989797769465
 31
0.0
 11
100.1870003728072
 21
150.9277442487476
 31
0.0
 11
100.5689170457024
 21
150.8427888603789
 31
0.0
  0
SPLINE
  5
203
330
4A
100
AcDbEntity
  8
1
  6
Continuous
 62
     7
100
AcDbSpline
210
0.0
220
0.0
230
1.0
 70
     8
 71
     3
 72
     9
 73
     5
 74
     3
 42
0.0000000001
 43
0.0000000001
 44
0.00000001
 40
0.0
 40
0.0
 40
0.0
 40
0.0
 40
0.0598943270463234
 40
0.1300522023009213
 40
0.1300522023009213
 40
0.1300522023009213
 40
0.1300522023009213
 10
80.76891704570011
 20
150.2602807175525
 30
0.0
 10
80.7716749156493
 20
150.2804323981487
 30
0.0
 10
80.77766324673573
 20
150.3241889702788
 30
0.0
 10
80.80554440781967
 20
150.3586565907754
 30
0.0
 10
80.8205851605841
 20
150.3772504705893
 30
0.0
 11
80.76891704570011
 21
150.2602807175525
 31
0.0
 11
80.78183407442045
 21
150.3187655940709
 31
0.0
 11
80.8205851605841
 21
150.3772504705893
 31
0.0
  0
SPLINE
  5
204
330
4A
100
AcDbEntity
  8
1
  6
Continuous
 62
     7
100
AcDbSpline
210
0.0
220
0.0
230
1.0
 70
     8
 71
     3
 72
    13
 73
     9
 74
     7
 42
0.0000000001
 43
0.0000000001
 44
0.00000001
 40
0.0
 40
0.0
 40
0.0
 40
0.0
 40
0.2144333241121328
 40
0.4138272119572545
 40
0.7418961365896115
 40
1.071139297593692
 40
1.14572262790583
 40
1.220275917921251
 40
1.220275917921251
 40
1.220275917921251
 40
1.220275917921251
 10
80.8205851605841
 20
150.3772504705893
 30
0.0
 10
80.87095288395958
 20
150.4287496974607
 30
0.0
 10
80.96815575400508
 20
150.5281362156821
 30
0.0
 10
81.19412981456907
 20
150.6365211568466
 30
0.0
 10
81.46737917211851
 20
150.7182076249736
 30
0.0
 10
81.70179942270966
 20
150.7863576432247
 30
0.0
 10
81.85647230333365
 20
150.8251402575887
 30
0.0
 10
81.90477204121845
 20
150.8369067828187
 30
0.0
 10
81.9289170457001
 20
150.8427888603795
 30
0.0
 11
80.8205851605841
 21
150.3772504705893
 31
0.0
 11
80.97943317515849
 21
150.5212954592406
 31
0.0
 11
81.15601936720668
 21
150.6138980471521
 31
0.0
 11
81.46722381626852
 21
150.71772969066
 31
0.0
 11
81.78417950570929
 21
150.8068372099785
 31
0.0
 11
81.85650200173225
 21
150.8250616367035
 31
0.0
 11
81.9289170457001
 21
150.8427888603795
 31
0.0
  0
ARC
  5
205
330
4A
100
AcDbEntity
  8
1
  6
Continuous
 62
     7
100
AcDbCircle
 10
129.9989170457
 20
352.5909022166744
 30
0.0
 40
30.0
100
AcDbArc
 50
180.0
 51
-163.6603718092956
  0
ARC
  5
206
330
4A
100
AcDbEntity
  8
1
  6
Continuous
 62
     7
100
AcDbCircle
 10
68.7489170457001
 20
371.5698375743658
 30
0.0
 40
0.5
100
AcDbArc
 50
180.0
 51
-94.50000000001101
  0
ARC
  5
207
330
4A
100
AcDbEntity
  8
1
  6
Continuous
 62
     7
100
AcDbCircle
 10
129.9989170457
 20
304.5518555983248
 30
0.0
 40
30.00000000000004
100
AcDbArc
 50
159.9319453791811
 51
176.2139059775124
  0
ARC
  5
208
330
4A
100
AcDbEntity
  8
1
  6
Continuous
 62
     7
100
AcDbCircle
 10
113.7489170457001
 20
371.5698375743658
 30
0.0
 40
0.4999999999997538
100
AcDbArc
 50
-85.50000000001214
 51
0.0
  0
ARC
  5
209
330
4A
100
AcDbEntity
  8
1
  6
Continuous
 62
     7
100
AcDbCircle
 10
103.9989170457
 20
367.0837095725671
 30
0.0
 40
3.999999999999868
100
AcDbArc
 50
94.50000000000051
 51
180.0
  0
ARC
  5
20A
330
4A
100
AcDbEntity
  8
1
  6
Continuous
 62
     7
100
AcDbCircle
 10
78.49891704570001
 20
367.0837095725671
 30
0.0
 40
4.000000000000085
100
AcDbArc
 50
0.0
 51
85.49999999999828
  0
ARC
  5
20B
330
4A
100
AcDbEntity
  8
1
  6
Continuous
 62
     7
100
AcDbCircle
 10
52.49891704569998
 20
304.5518555983248
 30
0.0
 40
29.9999999999999
100
AcDbArc
 50
3.78609402248763
 51
20.06805462081902
  0
ARC
  5
20C
330
4A
100
AcDbEntity
  8
1
  6
Continuous
 62
     7
100
AcDbCircle
 10
52.49891704569998
 20
352.5909022166745
 30
0.0
 40
30.00000000000011
100
AcDbArc
 50
-16.33962819070452
 51
-0.00000000000022
  0
ARC
  5
20D
330
4A
100
AcDbEntity
  8
1
  6
Continuous
 62
     7
100
AcDbCircle
 10
224.2489170457002
 20
182.6519324814582
 30
0.0
 40
6.0
100
AcDbArc
 50
179.9999999999992
 51
-120.0881938159435
  0
ARC
  5
20E
330
4A
100
AcDbEntity
  8
1
  6
Continuous
 62
     7
100
AcDbCircle
 10
230.2684403548751
 20
206.0699115044248
 30
0.0
 40
30.00000000000001
100
AcDbArc
 50
-107.5127047003517
 51
-90.0
  0
ARC
  5
20F
330
4A
100
AcDbEntity
  8
1
  6
Continuous
 62
     7
100
AcDbCircle
 10
230.2684403548751
 20
128.5699115044248
 30
0.0
 40
29.99999999999992
100
AcDbArc
 50
89.99999999999983
 51
110.068054620819
  0
ARC
  5
210
330
4A
100
AcDbEntity
  8
1
  6
Continuous
 62
     7
100
AcDbCircle
 10
249.2111122915294
 20
189.8199115044248
 30
0.0
 40
0.5
100
AcDbArc
 50
90.00000000000978
 51
175.5000000000041
  0
ARC
  5
211
330
4A
100
AcDbEntity
  8
1
  6
Continuous
 62
     7
100
AcDbCircle
 10
243.9298557568166
 20
180.0699115044248
 30
0.0
 40
4.0
100
AcDbArc
 50
-89.99999999999878
 51
-4.50000000000024
  0
ARC
  5
212
330
4A
100
AcDbEntity
  8
1
  6
Continuous
 62
     7
100
AcDbCircle
 10
243.9298557568166
 20
154.5699115044248
 30
0.0
 40
3.999999999999981
100
AcDbArc
 50
4.50000000000037
 51
90.0
  0
ARC
  5
213
330
4A
100
AcDbEntity
  8
1
  6
Continuous
 62
     7
100
AcDbCircle
 10
249.2111122915293
 20
144.8199115044248
 30
0.0
 40
0.500000000000045
100
AcDbArc
 50
-175.5000000000033
 51
-90.0
  0
ENDBLK
  5
4C
330
4A
100
AcDbEntity
  8
0
100
AcDbBlockEnd
  0
BLOCK
  5
4E
330
4D
100
AcDbEntity
  8
0
100
AcDbBlockBegin
  2
37-121
 70
     0
 71
     0
 10
317.9521689000102
 20
16.31239461253275
 30
0.0
  3
37-121
  1

  0
LINE
  5
214
330
4D
100
AcDbEntity
  8
1
  6
Continuous
 62
     7
100
AcDbLine
 10
103.2489170457001
 20
213.8199115044248
 30
0.0
 11
103.2489170457001
 21
212.8199115044248
 31
0.0
  0
LINE
  5
215
330
4D
100
AcDbEntity
  8
1
  6
Continuous
 62
     7
100
AcDbLine
 10
100.2489170457004
 20
213.8199115044248
 30
0.0
 11
100.2489170457004
 21
212.8199115044248
 31
0.0
  0
LINE
  5
216
330
4D
100
AcDbEntity
  8
1
  6
Continuous
 62
     7
100
AcDbLine
 10
100.2489170457004
 20
213.8199115044248
 30
0.0
 11
103.2489170457001
 21
213.8199115044248
 31
0.0
  0
LINE
  5
217
330
4D
100
AcDbEntity
  8
1
  6
Continuous
 62
     7
100
AcDbLine
 10
82.24891704569981
 20
213.8199115044248
 30
0.0
 11
82.24891704569981
 21
215.2199115044248
 31
0.0
  0
LINE
  5
218
330
4D
100
AcDbEntity
  8
1
  6
Continuous
 62
     7
100
AcDbLine
 10
82.24891704569981
 20
213.8199115044248
 30
0.0
 11
79.2489170457001
 21
213.8199115044248
 31
0.0
  0
LINE
  5
219
330
4D
100
AcDbEntity
  8
1
  6
Continuous
 62
     7
100
AcDbLine
 10
79.2489170457001
 20
212.8199115044248
 30
0.0
 11
79.2489170457001
 21
213.8199115044248
 31
0.0
  0
LINE
  5
21A
330
4D
100
AcDbEntity
  8
1
  6
Continuous
 62
     7
100
AcDbLine
 10
206.2516631124921
 20
218.2199115044245
 30
0.0
 11
215.2489170457005
 21
218.2199115044245
 31
0.0
  0
LINE
  5
21B
330
4D
100
AcDbEntity
  8
1
  6
Continuous
 62
     2
100
AcDbLine
 10
214.1889170457001
 20
215.2199115044248
 30
0.0
 11
198.3089170457001
 21
213.8199115044248
 31
0.0
  0
LINE
  5
21C
330
4D
100
AcDbEntity
  8
1
  6
Continuous
 62
     2
100
AcDbLine
 10
198.3089170457001
 20
215.2199115044248
 30
0.0
 11
214.1889170457001
 21
213.8199115044248
 31
0.0
  0
LINE
  5
21D
330
4D
100
AcDbEntity
  8
1
  6
Continuous
 62
     7
100
AcDbLine
 10
206.2489170457001
 20
218.2199115044245
 30
0.0
 11
206.2516631124921
 21
218.2199115044245
 31
0.0
  0
LINE
  5
21E
330
4D
100
AcDbEntity
  8
1
  6
Continuous
 62
     7
100
AcDbLine
 10
197.2489170457001
 20
218.2199115044245
 30
0.0
 11
206.2489170457001
 21
218.2199115044245
 31
0.0
  0
LINE
  5
21F
330
4D
100
AcDbEntity
  8
1
  6
Continuous
 62
     7
100
AcDbLine
 10
215.2489170457005
 20
226.2199115044248
 30
0.0
 11
197.2489170457001
 21
226.2199115044248
 31
0.0
  0
LINE
  5
220
330
4D
100
AcDbEntity
  8
1
  6
Continuous
 62
     7
100
AcDbLine
 10
100.2489170457004
 20
218.2199115044245
 30
0.0
 11
82.24891704569981
 21
218.2199115044245
 31
0.0
  0
LINE
  5
221
330
4D
100
AcDbEntity
  8
1
  6
Continuous
 62
     7
100
AcDbLine
 10
82.24891704569981
 20
215.2199115044248
 30
0.0
 11
82.24891704569981
 21
218.2199115044245
 31
0.0
  0
LINE
  5
222
330
4D
100
AcDbEntity
  8
1
  6
Continuous
 62
     7
100
AcDbLine
 10
100.2489170457004
 20
215.2199115044248
 30
0.0
 11
100.2489170457004
 21
213.8199115044248
 31
0.0
  0
LINE
  5
223
330
4D
100
AcDbEntity
  8
1
  6
Continuous
 62
     7
100
AcDbLine
 10
82.24891704569981
 20
215.2199115044248
 30
0.0
 11
100.2489170457004
 21
215.2199115044248
 31
0.0
  0
LINE
  5
224
330
4D
100
AcDbEntity
  8
1
  6
Continuous
 62
     7
100
AcDbLine
 10
82.24891704569981
 20
226.2199115044248
 30
0.0
 11
100.2489170457004
 21
226.2199115044248
 31
0.0
  0
LINE
  5
225
330
4D
100
AcDbEntity
  8
1
  6
Continuous
 62
     7
100
AcDbLine
 10
82.24891704569981
 20
212.8199115044248
 30
0.0
 11
82.24891704569981
 21
213.8199115044248
 31
0.0
  0
LINE
  5
226
330
4D
100
AcDbEntity
  8
1
  6
Continuous
 62
     7
100
AcDbLine
 10
82.24891704569981
 20
226.2199115044248
 30
0.0
 11
82.24891704569981
 21
218.2199115044245
 31
0.0
  0
LINE
  5
227
330
4D
100
AcDbEntity
  8
1
  6
Continuous
 62
     7
100
AcDbLine
 10
83.24891704569981
 20
227.2199115044248
 30
0.0
 11
97.74891704569961
 21
227.2199115044248
 31
0.0
  0
LINE
  5
228
330
4D
100
AcDbEntity
  8
1
  6
Continuous
 62
     7
100
AcDbLine
 10
83.24891704569981
 20
227.2199115044248
 30
0.0
 11
82.24891704569981
 21
226.2199115044248
 31
0.0
  0
LINE
  5
229
330
4D
100
AcDbEntity
  8
1
  6
Continuous
 62
     7
100
AcDbLine
 10
218.2489170457001
 20
215.2199115044248
 30
0.0
 11
214.1889170457001
 21
215.2199115044248
 31
0.0
  0
LINE
  5
22A
330
4D
100
AcDbEntity
  8
1
  6
Continuous
 62
     7
100
AcDbLine
 10
194.2489170457003
 20
215.2199115044248
 30
0.0
 11
198.3089170457001
 21
215.2199115044248
 31
0.0
  0
LINE
  5
22B
330
4D
100
AcDbEntity
  8
1
  6
Continuous
 62
     7
100
AcDbLine
 10
198.3089170457001
 20
213.8199115044248
 30
0.0
 11
214.1889170457001
 21
213.8199115044248
 31
0.0
  0
LINE
  5
22C
330
4D
100
AcDbEntity
  8
1
  6
Continuous
 62
     7
100
AcDbLine
 10
214.1861709788939
 20
227.2199115044248
 30
0.0
 11
214.2489170457005
 21
227.2199115044248
 31
0.0
  0
LINE
  5
22D
330
4D
100
AcDbEntity
  8
1
  6
Continuous
 62
     7
100
AcDbLine
 10
214.1889170457001
 20
213.8199115044248
 30
0.0
 11
214.1889170457001
 21
215.2199115044248
 31
0.0
  0
LINE
  5
22E
330
4D
100
AcDbEntity
  8
1
  6
Continuous
 62
     7
100
AcDbLine
 10
198.2489170457001
 20
227.2199115044248
 30
0.0
 11
210.9989170457002
 21
227.2199115044248
 31
0.0
  0
LINE
  5
22F
330
4D
100
AcDbEntity
  8
1
  6
Continuous
 62
     7
100
AcDbLine
 10
198.3089170457001
 20
213.8199115044248
 30
0.0
 11
198.3089170457001
 21
215.2199115044248
 31
0.0
  0
LINE
  5
230
330
4D
100
AcDbEntity
  8
1
  6
Continuous
 62
     7
100
AcDbLine
 10
194.2489170457003
 20
212.8199115044248
 30
0.0
 11
218.2489170457003
 21
212.8199115044248
 31
0.0
  0
LINE
  5
231
330
4D
100
AcDbEntity
  8
1
  6
Continuous
 62
     7
100
AcDbLine
 10
100.2489170457004
 20
218.2199115044245
 30
0.0
 11
100.2489170457004
 21
215.2199115044248
 31
0.0
  0
LINE
  5
232
330
4D
100
AcDbEntity
  8
1
  6
Continuous
 62
     7
100
AcDbLine
 10
100.2489170457004
 20
218.2199115044245
 30
0.0
 11
100.2489170457004
 21
226.2199115044248
 31
0.0
  0
LINE
  5
233
330
4D
100
AcDbEntity
  8
1
  6
Continuous
 62
     7
100
AcDbLine
 10
97.74891704569961
 20
227.2199115044248
 30
0.0
 11
99.24891704570041
 21
227.2199115044248
 31
0.0
  0
LINE
  5
234
330
4D
100
AcDbEntity
  8
1
  6
Continuous
 62
     7
100
AcDbLine
 10
100.2489170457004
 20
226.2199115044248
 30
0.0
 11
99.24891704570041
 21
227.2199115044248
 31
0.0
  0
LINE
  5
235
330
4D
100
AcDbEntity
  8
1
  6
Continuous
 62
     7
100
AcDbLine
 10
218.2489170457001
 20
215.2199115044248
 30
0.0
 11
215.2489170457005
 21
218.2199115044245
 31
0.0
  0
LINE
  5
236
330
4D
100
AcDbEntity
  8
1
  6
Continuous
 62
     7
100
AcDbLine
 10
210.9989170457002
 20
227.2199115044248
 30
0.0
 11
214.1861709788939
 21
227.2199115044248
 31
0.0
  0
LINE
  5
237
330
4D
100
AcDbEntity
  8
1
  6
Continuous
 62
     7
100
AcDbLine
 10
218.2489170457001
 20
215.2199115044248
 30
0.0
 11
218.2489170457003
 21
212.8199115044248
 31
0.0
  0
LINE
  5
238
330
4D
100
AcDbEntity
  8
1
  6
Continuous
 62
     7
100
AcDbLine
 10
197.2489170457001
 20
226.2199115044248
 30
0.0
 11
197.2489170457001
 21
218.2199115044245
 31
0.0
  0
LINE
  5
239
330
4D
100
AcDbEntity
  8
1
  6
Continuous
 62
     7
100
AcDbLine
 10
198.2489170457001
 20
227.2199115044248
 30
0.0
 11
197.2489170457001
 21
226.2199115044248
 31
0.0
  0
LINE
  5
23A
330
4D
100
AcDbEntity
  8
1
  6
Continuous
 62
     7
100
AcDbLine
 10
194.2489170457003
 20
212.8199115044248
 30
0.0
 11
194.2489170457003
 21
215.2199115044248
 31
0.0
  0
LINE
  5
23B
330
4D
100
AcDbEntity
  8
1
  6
Continuous
 62
     7
100
AcDbLine
 10
197.2489170457001
 20
218.2199115044245
 30
0.0
 11
194.2489170457003
 21
215.2199115044248
 31
0.0
  0
LINE
  5
23C
330
4D
100
AcDbEntity
  8
1
  6
Continuous
 62
     7
100
AcDbLine
 10
215.2489170457005
 20
218.2199115044245
 30
0.0
 11
215.2489170457005
 21
226.2199115044248
 31
0.0
  0
LINE
  5
23D
330
4D
100
AcDbEntity
  8
1
  6
Continuous
 62
     7
100
AcDbLine
 10
215.2489170457005
 20
226.2199115044248
 30
0.0
 11
214.2489170457005
 21
227.2199115044248
 31
0.0
  0
ARC
  5
23E
330
4D
100
AcDbEntity
  8
1
  6
Continuous
 62
     7
100
AcDbCircle
 10
206.2489170457001
 20
206.212646094571
 30
0.0
 40
12.00726572386682
100
AcDbArc
 50
90.01310356932434
 51
131.3965185398751
  0
ARC
  5
23F
330
4D
100
AcDbEntity
  8
1
  6
Continuous
 62
     7
100
AcDbCircle
 10
206.2489170457001
 20
206.212646094571
 30
0.0
 40
12.00726572386689
100
AcDbArc
 50
48.60348146012486
 51
89.98689643067512
  0
LINE
  5
240
330
4D
100
AcDbEntity
  8
1
  6
Continuous
 62
     7
100
AcDbLine
 10
206.2516631124921
 20
218.2199115044245
 30
0.0
 11
206.2489170457001
 21
218.2199115044245
 31
0.0
  0
ENDBLK
  5
4F
330
4D
100
AcDbEntity
  8
0
100
AcDbBlockEnd
  0
BLOCK
  5
51
330
50
100
AcDbEntity
  8
0
100
AcDbBlockBegin
  2
36-106
 70
     0
 71
     0
 10
199.2489170457002
 20
-568.9800884955752
 30
0.0
  3
36-106
  1

  0
LINE
  5
241
330
50
100
AcDbEntity
  8
1
  6
Continuous
 62
     7
100
AcDbLine
 10
86.4989170457001
 20
227.2199115044248
 30
0.0
 11
86.49891704570021
 21
230.3199115044248
 31
0.0
  0
LINE
  5
242
330
50
100
AcDbEntity
  8
1
  6
Continuous
 62
     7
100
AcDbLine
 10
95.9989170457001
 20
230.3199115044248
 30
0.0
 11
95.9989170457001
 21
227.2199115044248
 31
0.0
  0
LINE
  5
243
330
50
100
AcDbEntity
  8
1
  6
Continuous
 62
     7
100
AcDbLine
 10
201.4989170457001
 20
227.2199115044248
 30
0.0
 11
201.4989170457002
 21
230.3199115044248
 31
0.0
  0
LINE
  5
244
330
50
100
AcDbEntity
  8
1
  6
Continuous
 62
     7
100
AcDbLine
 10
210.9989170457002
 20
230.3199115044248
 30
0.0
 11
210.9989170457002
 21
227.2199115044248
 31
0.0
  0
ENDBLK
  5
52
330
50
100
AcDbEntity
  8
0
100
AcDbBlockEnd
  0
BLOCK
  5
54
330
53
100
AcDbEntity
  8
0
100
AcDbBlockBegin
  2
32-137
 70
     0
 71
     0
 10
62.8592859328073
 20
595.394462208597
 30
0.0
  3
32-137
  1

  0
LINE
  5
245
330
53
100
AcDbEntity
  8
1
  6
Continuous
 62
     7
100
AcDbLine
 10
222.9489170457003
 20
207.8199115044248
 30
0.0
 11
196.6089170457002
 21
207.8199115044248
 31
0.0
  0
LINE
  5
246
330
53
100
AcDbEntity
  8
1
  6
Continuous
 62
     7
100
AcDbLine
 10
196.6089170457001
 20
205.8199115044248
 30
0.0
 11
206.2489170457002
 21
205.8199115044248
 31
0.0
  0
LINE
  5
247
330
53
100
AcDbEntity
  8
1
  6
Continuous
 62
     2
100
AcDbLine
 10
215.8889170457002
 20
209.8199115044248
 30
0.0
 11
196.6089170457002
 21
207.8199115044248
 31
0.0
  0
LINE
  5
248
330
53
100
AcDbEntity
  8
1
  6
Continuous
 62
     7
100
AcDbLine
 10
215.8889170457002
 20
205.8199115044248
 30
0.0
 11
223.2489170457003
 21
205.8199115044248
 31
0.0
  0
LINE
  5
249
330
53
100
AcDbEntity
  8
1
  6
Continuous
 62
     2
100
AcDbLine
 10
196.6089170457002
 20
209.8199115044248
 30
0.0
 11
215.8889170457002
 21
207.8199115044248
 31
0.0
  0
LINE
  5
24A
330
53
100
AcDbEntity
  8
1
  6
Continuous
 62
     7
100
AcDbLine
 10
196.6089170457002
 20
207.8199115044248
 30
0.0
 11
189.5489170457002
 21
207.8199115044248
 31
0.0
  0
LINE
  5
24B
330
53
100
AcDbEntity
  8
1
  6
Continuous
 62
     7
100
AcDbLine
 10
189.2489170457002
 20
205.8199115044248
 30
0.0
 11
189.2489170457002
 21
204.3199115044248
 31
0.0
  0
LINE
  5
24C
330
53
100
AcDbEntity
  8
1
  6
Continuous
 62
     7
100
AcDbLine
 10
189.5489170457002
 20
207.8199115044248
 30
0.0
 11
189.2489170457002
 21
207.8199115044248
 31
0.0
  0
LINE
  5
24D
330
53
100
AcDbEntity
  8
1
  6
Continuous
 62
     7
100
AcDbLine
 10
189.2489170457002
 20
205.8199115044248
 30
0.0
 11
196.6089170457001
 21
205.8199115044248
 31
0.0
  0
LINE
  5
24E
330
53
100
AcDbEntity
  8
1
  6
Continuous
 62
     7
100
AcDbLine
 10
206.2489170457002
 20
209.8199115044248
 30
0.0
 11
189.2489170457002
 21
209.8199115044248
 31
0.0
  0
LINE
  5
24F
330
53
100
AcDbEntity
  8
1
  6
Continuous
 62
     7
100
AcDbLine
 10
189.2489170457002
 20
209.8199115044248
 30
0.0
 11
189.2489170457002
 21
207.8199115044248
 31
0.0
  0
LINE
  5
250
330
53
100
AcDbEntity
  8
1
  6
Continuous
 62
     7
100
AcDbLine
 10
192.2489170457
 20
212.8199115044248
 30
0.0
 11
189.2489170457002
 21
209.8199115044248
 31
0.0
  0
LINE
  5
251
330
53
100
AcDbEntity
  8
1
  6
Continuous
 62
     7
100
AcDbLine
 10
189.5489170457002
 20
207.519911504425
 30
0.0
 11
189.5489170457002
 21
206.1199115044249
 31
0.0
  0
LINE
  5
252
330
53
100
AcDbEntity
  8
1
  6
Continuous
 62
     7
100
AcDbLine
 10
189.5489170457002
 20
207.519911504425
 30
0.0
 11
189.5489170457002
 21
207.8199115044248
 31
0.0
  0
LINE
  5
253
330
53
100
AcDbEntity
  8
1
  6
Continuous
 62
     7
100
AcDbLine
 10
189.5489170457002
 20
206.1199115044249
 30
0.0
 11
189.5489170457002
 21
205.8199115044248
 31
0.0
  0
LINE
  5
254
330
53
100
AcDbEntity
  8
1
  6
Continuous
 62
     7
100
AcDbLine
 10
196.6089170457002
 20
207.8199115044248
 30
0.0
 11
196.6089170457002
 21
209.8199115044248
 31
0.0
  0
LINE
  5
255
330
53
100
AcDbEntity
  8
1
  6
Continuous
 62
     7
100
AcDbLine
 10
206.2489170457002
 20
212.8199115044248
 30
0.0
 11
192.2489170457
 21
212.8199115044248
 31
0.0
  0
LINE
  5
256
330
53
100
AcDbEntity
  8
1
  6
Continuous
 62
     7
100
AcDbLine
 10
105.2489170456999
 20
318.9277281465066
 30
0.0
 11
105.2489170456999
 21
324.7004279191899
 31
0.0
  0
LINE
  5
257
330
53
100
AcDbEntity
  8
1
  6
Continuous
 62
     7
100
AcDbLine
 10
74.2489170457001
 20
205.8199115044248
 30
0.0
 11
74.2489170457001
 21
204.3199115044248
 31
0.0
  0
LINE
  5
258
330
53
100
AcDbEntity
  8
1
  6
Continuous
 62
     7
100
AcDbLine
 10
91.2489170457001
 20
209.8199115044248
 30
0.0
 11
77.2489170456999
 21
209.8199115044248
 31
0.0
  0
LINE
  5
259
330
53
100
AcDbEntity
  8
1
  6
Continuous
 62
     7
100
AcDbLine
 10
74.2489170457001
 20
209.8199115044248
 30
0.0
 11
74.2489170457001
 21
207.8199115044248
 31
0.0
  0
LINE
  5
25A
330
53
100
AcDbEntity
  8
1
  6
Continuous
 62
     7
100
AcDbLine
 10
97.2489170457001
 20
207.8199115044248
 30
0.0
 11
97.24891704570001
 21
205.8199115044248
 31
0.0
  0
LINE
  5
25B
330
53
100
AcDbEntity
  8
1
  6
Continuous
 62
     7
100
AcDbLine
 10
85.2489170457001
 20
205.8199115044248
 30
0.0
 11
85.2489170457001
 21
207.8199115044248
 31
0.0
  0
LINE
  5
25C
330
53
100
AcDbEntity
  8
1
  6
Continuous
 62
     7
100
AcDbLine
 10
91.2489170457001
 20
212.8199115044248
 30
0.0
 11
77.2489170456999
 21
212.8199115044248
 31
0.0
  0
LINE
  5
25D
330
53
100
AcDbEntity
  8
1
  6
Continuous
 62
     7
100
AcDbLine
 10
105.2489170457002
 20
212.8199115044248
 30
0.0
 11
91.2489170457001
 21
212.8199115044248
 31
0.0
  0
LINE
  5
25E
330
53
100
AcDbEntity
  8
1
  6
Continuous
 62
     7
100
AcDbLine
 10
77.2489170456999
 20
212.8199115044248
 30
0.0
 11
77.2489170456999
 21
209.8199115044248
 31
0.0
  0
LINE
  5
25F
330
53
100
AcDbEntity
  8
1
  6
Continuous
 62
     7
100
AcDbLine
 10
77.2489170456999
 20
209.8199115044248
 30
0.0
 11
74.2489170457001
 21
209.8199115044248
 31
0.0
  0
LINE
  5
260
330
53
100
AcDbEntity
  8
1
  6
Continuous
 62
     7
100
AcDbLine
 10
74.2489170457001
 20
205.8199115044248
 30
0.0
 11
91.2489170457001
 21
205.8199115044248
 31
0.0
  0
LINE
  5
261
330
53
100
AcDbEntity
  8
1
  6
Continuous
 62
     7
100
AcDbLine
 10
91.2489170457001
 20
207.8199115044248
 30
0.0
 11
74.2489170457001
 21
207.8199115044248
 31
0.0
  0
LINE
  5
262
330
53
100
AcDbEntity
  8
1
  6
Continuous
 62
     7
100
AcDbLine
 10
108.2489170457001
 20
204.3199115044248
 30
0.0
 11
108.2489170457001
 21
205.8199115044248
 31
0.0
  0
LINE
  5
263
330
53
100
AcDbEntity
  8
1
  6
Continuous
 62
     7
100
AcDbLine
 10
108.2489170457001
 20
207.8199115044248
 30
0.0
 11
108.2489170457001
 21
209.8199115044248
 31
0.0
  0
LINE
  5
264
330
53
100
AcDbEntity
  8
1
  6
Continuous
 62
     7
100
AcDbLine
 10
105.2489170457003
 20
209.8199115044248
 30
0.0
 11
105.2489170457002
 21
212.8199115044248
 31
0.0
  0
LINE
  5
265
330
53
100
AcDbEntity
  8
1
  6
Continuous
 62
     7
100
AcDbLine
 10
108.2489170457001
 20
209.8199115044248
 30
0.0
 11
105.2489170457003
 21
209.8199115044248
 31
0.0
  0
LINE
  5
266
330
53
100
AcDbEntity
  8
1
  6
Continuous
 62
     7
100
AcDbLine
 10
91.2489170457001
 20
205.8199115044248
 30
0.0
 11
108.2489170457001
 21
205.8199115044248
 31
0.0
  0
LINE
  5
267
330
53
100
AcDbEntity
  8
1
  6
Continuous
 62
     7
100
AcDbLine
 10
108.2489170457001
 20
207.8199115044248
 30
0.0
 11
91.2489170457001
 21
207.8199115044248
 31
0.0
  0
LINE
  5
268
330
53
100
AcDbEntity
  8
1
  6
Continuous
 62
     7
100
AcDbLine
 10
105.2489170457003
 20
209.8199115044248
 30
0.0
 11
91.2489170457001
 21
209.8199115044248
 31
0.0
  0
LINE
  5
269
330
53
100
AcDbEntity
  8
1
  6
Continuous
 62
     7
100
AcDbLine
 10
77.2489170456999
 20
324.7004279191899
 30
0.0
 11
77.2489170456999
 21
318.9277281465066
 31
0.0
  0
LINE
  5
26A
330
53
100
AcDbEntity
  8
1
  6
LONG_DASHED
 62
     3
100
AcDbLine
 10
97.2489170456999
 20
343.094348111967
 30
0.0
 11
97.2489170456999
 21
344.1563075245964
 31
0.0
  0
LINE
  5
26B
330
53
100
AcDbEntity
  8
1
  6
LONG_DASHED
 62
     3
100
AcDbLine
 10
85.2489170456999
 20
343.094348111967
 30
0.0
 11
85.2489170456999
 21
344.1563075245964
 31
0.0
  0
LINE
  5
26C
330
53
100
AcDbEntity
  8
1
  6
Continuous
 62
     7
100
AcDbLine
 10
223.2489170457003
 20
204.3199115044248
 30
0.0
 11
223.2489170457003
 21
205.8199115044248
 31
0.0
  0
LINE
  5
26D
330
53
100
AcDbEntity
  8
1
  6
Continuous
 62
     7
100
AcDbLine
 10
223.2489170457003
 20
207.8199115044248
 30
0.0
 11
222.9489170457003
 21
207.8199115044248
 31
0.0
  0
LINE
  5
26E
330
53
100
AcDbEntity
  8
1
  6
Continuous
 62
     7
100
AcDbLine
 10
206.2489170457002
 20
205.8199115044248
 30
0.0
 11
215.8889170457002
 21
205.8199115044248
 31
0.0
  0
LINE
  5
26F
330
53
100
AcDbEntity
  8
1
  6
Continuous
 62
     7
100
AcDbLine
 10
223.2489170457003
 20
209.8199115044248
 30
0.0
 11
206.2489170457002
 21
209.8199115044248
 31
0.0
  0
LINE
  5
270
330
53
100
AcDbEntity
  8
1
  6
Continuous
 62
     7
100
AcDbLine
 10
223.2489170457003
 20
207.8199115044248
 30
0.0
 11
223.2489170457003
 21
209.8199115044248
 31
0.0
  0
LINE
  5
271
330
53
100
AcDbEntity
  8
1
  6
Continuous
 62
     7
100
AcDbLine
 10
223.2489170457003
 20
209.8199115044248
 30
0.0
 11
220.2489170457005
 21
212.8199115044248
 31
0.0
  0
LINE
  5
272
330
53
100
AcDbEntity
  8
1
  6
Continuous
 62
     7
100
AcDbLine
 10
222.9489170457003
 20
206.1199115044249
 30
0.0
 11
222.9489170457003
 21
207.519911504425
 31
0.0
  0
LINE
  5
273
330
53
100
AcDbEntity
  8
1
  6
Continuous
 62
     7
100
AcDbLine
 10
222.9489170457003
 20
207.8199115044248
 30
0.0
 11
222.9489170457003
 21
207.519911504425
 31
0.0
  0
LINE
  5
274
330
53
100
AcDbEntity
  8
1
  6
Continuous
 62
     7
100
AcDbLine
 10
222.9489170457003
 20
205.8199115044248
 30
0.0
 11
222.9489170457003
 21
206.1199115044249
 31
0.0
  0
LINE
  5
275
330
53
100
AcDbEntity
  8
1
  6
Continuous
 62
     7
100
AcDbLine
 10
215.8889170457002
 20
209.8199115044248
 30
0.0
 11
215.8889170457002
 21
207.8199115044248
 31
0.0
  0
LINE
  5
276
330
53
100
AcDbEntity
  8
1
  6
Continuous
 62
     7
100
AcDbLine
 10
220.2489170457005
 20
212.8199115044248
 30
0.0
 11
206.2489170457002
 21
212.8199115044248
 31
0.0
  0
LINE
  5
277
330
53
100
AcDbEntity
  8
1
  6
Continuous
 62
     2
100
AcDbLine
 10
221.8338456627972
 20
205.8199115044248
 30
0.0
 11
214.8657610155075
 21
207.8199115044248
 31
0.0
  0
LINE
  5
278
330
53
100
AcDbEntity
  8
1
  6
Continuous
 62
     2
100
AcDbLine
 10
214.8657610155075
 20
205.8199115044248
 30
0.0
 11
221.8338456627972
 21
207.8199115044248
 31
0.0
  0
LINE
  5
279
330
53
100
AcDbEntity
  8
1
  6
Continuous
 62
     7
100
AcDbLine
 10
221.8338456627972
 20
207.8199115044248
 30
0.0
 11
221.8338456627972
 21
205.8199115044248
 31
0.0
  0
LINE
  5
27A
330
53
100
AcDbEntity
  8
1
  6
Continuous
 62
     7
100
AcDbLine
 10
214.8657610155075
 20
205.8199115044248
 30
0.0
 11
214.8657610155075
 21
207.8199115044248
 31
0.0
  0
LINE
  5
27B
330
53
100
AcDbEntity
  8
1
  6
Continuous
 62
     2
100
AcDbLine
 10
197.6320730758934
 20
207.8199115044248
 30
0.0
 11
190.6639884286035
 21
205.8199115044248
 31
0.0
  0
LINE
  5
27C
330
53
100
AcDbEntity
  8
1
  6
Continuous
 62
     2
100
AcDbLine
 10
190.6639884286035
 20
207.8199115044248
 30
0.0
 11
197.6320730758934
 21
205.8199115044248
 31
0.0
  0
LINE
  5
27D
330
53
100
AcDbEntity
  8
1
  6
Continuous
 62
     7
100
AcDbLine
 10
197.6320730758934
 20
207.8199115044248
 30
0.0
 11
197.6320730758934
 21
205.8199115044248
 31
0.0
  0
LINE
  5
27E
330
53
100
AcDbEntity
  8
1
  6
Continuous
 62
     7
100
AcDbLine
 10
190.6639884286035
 20
205.8199115044248
 30
0.0
 11
190.6639884286035
 21
207.8199115044248
 31
0.0
  0
ARC
  5
27F
330
53
100
AcDbEntity
  8
1
  6
Continuous
 62
     7
100
AcDbCircle
 10
206.2489170457002
 20
187.5875115044245
 30
0.0
 40
24.2324000000003
100
AcDbArc
 50
90.0
 51
113.4416229976187
  0
ARC
  5
280
330
53
100
AcDbEntity
  8
1
  6
Continuous
 62
     7
100
AcDbCircle
 10
206.2489170457002
 20
187.5875115044245
 30
0.0
 40
24.23240000000027
100
AcDbArc
 50
66.55837700238133
 51
90.0
  0
ARC
  5
281
330
53
100
AcDbEntity
  8
1
  6
LONG_DASHED
 62
     3
100
AcDbCircle
 10
91.2489170456999
 20
328.5713789074997
 30
0.0
 40
16.69999999999999
100
AcDbArc
 50
63.30834791204467
 51
90.0
  0
ARC
  5
282
330
53
100
AcDbEntity
  8
1
  6
Continuous
 62
     7
100
AcDbCircle
 10
91.2489170456999
 20
328.5713789074997
 30
0.0
 40
14.00000000000009
100
AcDbArc
 50
82.79983016710921
 51
90.0
  0
ARC
  5
283
330
53
100
AcDbEntity
  8
1
  6
Continuous
 62
     7
100
AcDbCircle
 10
91.2489170456999
 20
328.5713789074997
 30
0.0
 40
14.00000000000037
100
AcDbArc
 50
-37.91296771129888
 51
-22.08703228870139
  0
ARC
  5
284
330
53
100
AcDbEntity
  8
1
  6
LONG_DASHED
 62
     3
100
AcDbCircle
 10
91.2489170456999
 20
328.5713789074997
 30
0.0
 40
16.70000000000013
100
AcDbArc
 50
-56.69165208795461
 51
-3.30834791204562
  0
ARC
  5
285
330
53
100
AcDbEntity
  8
1
  6
Continuous
 62
     7
100
AcDbCircle
 10
91.2489170456999
 20
328.5713789074997
 30
0.0
 40
17.00000000000011
100
AcDbArc
 50
-57.81453993232335
 51
-2.1854600676767
  0
ARC
  5
286
330
53
100
AcDbEntity
  8
1
  6
Continuous
 62
     7
100
AcDbCircle
 10
91.2489170456999
 20
328.5713789074997
 30
0.0
 40
16.99999999999986
100
AcDbArc
 50
-177.8145399323233
 51
-122.1854600676758
  0
ARC
  5
287
330
53
100
AcDbEntity
  8
1
  6
LONG_DASHED
 62
     3
100
AcDbCircle
 10
91.2489170456999
 20
328.5713789074997
 30
0.0
 40
16.69999999999983
100
AcDbArc
 50
-176.6916520879543
 51
-123.3083479120448
  0
ARC
  5
288
330
53
100
AcDbEntity
  8
1
  6
Continuous
 62
     7
100
AcDbCircle
 10
91.2489170456999
 20
328.5713789074997
 30
0.0
 40
14.00000000000013
100
AcDbArc
 50
-157.9129677112979
 51
-142.0870322887012
  0
ARC
  5
289
330
53
100
AcDbEntity
  8
1
  6
Continuous
 62
     7
100
AcDbCircle
 10
91.2489170456999
 20
328.5713789074997
 30
0.0
 40
14.0
100
AcDbArc
 50
90.0
 51
97.91296771129821
  0
ARC
  5
28A
330
53
100
AcDbEntity
  8
1
  6
LONG_DASHED
 62
     3
100
AcDbCircle
 10
91.2489170456999
 20
328.5713789074997
 30
0.0
 40
16.69999999999988
100
AcDbArc
 50
90.0
 51
116.6916520879547
  0
ARC
  5
28B
330
53
100
AcDbEntity
  8
1
  6
Continuous
 62
     7
100
AcDbCircle
 10
91.2489170456999
 20
328.5713789074997
 30
0.0
 40
16.99999999999991
100
AcDbArc
 50
62.1854600676756
 51
117.8145399323235
  0
ENDBLK
  5
55
330
53
100
AcDbEntity
  8
0
100
AcDbBlockEnd
  0
BLOCK
  5
57
330
56
100
AcDbEntity
  8
0
100
AcDbBlockBegin
  2
32-136
 70
     0
 71
     0
 10
187.2489170457002
 20
171.6199115044247
 30
0.0
  3
32-136
  1

  0
LINE
  5
28C
330
56
100
AcDbEntity
  8
1
  6
Continuous
 62
     7
100
AcDbLine
 10
189.2489170457002
 20
192.3199115044248
 30
0.0
 11
223.2489170457002
 21
192.3199115044248
 31
0.0
  0
LINE
  5
28D
330
56
100
AcDbEntity
  8
1
  6
Continuous
 62
     7
100
AcDbLine
 10
189.2489170457002
 20
204.3199115044248
 30
0.0
 11
190.7489170457002
 21
204.3199115044248
 31
0.0
  0
LINE
  5
28E
330
56
100
AcDbEntity
  8
1
  6
Continuous
 62
     7
100
AcDbLine
 10
187.2489170457002
 20
202.3199115044248
 30
0.0
 11
189.2489170457002
 21
204.3199115044248
 31
0.0
  0
LINE
  5
28F
330
56
100
AcDbEntity
  8
1
  6
Continuous
 62
     7
100
AcDbLine
 10
187.2489170457002
 20
194.3199115044248
 30
0.0
 11
187.2489170457002
 21
202.3199115044248
 31
0.0
  0
LINE
  5
290
330
56
100
AcDbEntity
  8
1
  6
Continuous
 62
     7
100
AcDbLine
 10
189.2489170457002
 20
192.3199115044248
 30
0.0
 11
187.2489170457002
 21
194.3199115044248
 31
0.0
  0
LINE
  5
291
330
56
100
AcDbEntity
  8
1
  6
Continuous
 62
     7
100
AcDbLine
 10
190.7489170457002
 20
204.3199115044248
 30
0.0
 11
223.2489170457002
 21
204.3199115044248
 31
0.0
  0
LINE
  5
292
330
56
100
AcDbEntity
  8
1
  6
Continuous
 62
     7
100
AcDbLine
 10
223.2489170457002
 20
204.3199115044248
 30
0.0
 11
225.2489170457002
 21
202.3199115044248
 31
0.0
  0
LINE
  5
293
330
56
100
AcDbEntity
  8
1
  6
Continuous
 62
     7
100
AcDbLine
 10
225.2489170457002
 20
202.3199115044248
 30
0.0
 11
225.2489170457002
 21
194.3199115044248
 31
0.0
  0
LINE
  5
294
330
56
100
AcDbEntity
  8
1
  6
Continuous
 62
     7
100
AcDbLine
 10
225.2489170457002
 20
194.3199115044248
 30
0.0
 11
223.2489170457002
 21
192.3199115044248
 31
0.0
  0
LINE
  5
295
330
56
100
AcDbEntity
  8
1
  6
Continuous
 62
     7
100
AcDbLine
 10
92.40044781735051
 20
347.5364514589543
 30
0.0
 11
99.19819722899152
 21
343.6117690062598
 31
0.0
  0
LINE
  5
296
330
56
100
AcDbEntity
  8
1
  6
Continuous
 62
     7
100
AcDbLine
 10
74.2489170456999
 20
320.0860975332609
 30
0.0
 11
74.2489170456999
 21
327.9354624386501
 31
0.0
  0
LINE
  5
297
330
56
100
AcDbEntity
  8
1
  6
Continuous
 62
     7
100
AcDbLine
 10
107.0973862740495
 20
318.0915877302833
 30
0.0
 11
101.9112462419259
 21
315.0973683866818
 31
0.0
  0
LINE
  5
298
330
56
100
AcDbEntity
  8
1
  6
Continuous
 62
     7
100
AcDbLine
 10
195.769125868484
 20
202.3199115044248
 30
0.0
 11
195.769125868484
 21
194.3199115044248
 31
0.0
  0
LINE
  5
299
330
56
100
AcDbEntity
  8
1
  6
Continuous
 62
     7
100
AcDbLine
 10
197.7636356714617
 20
194.3199115044248
 30
0.0
 11
197.7636356714617
 21
202.3199115044248
 31
0.0
  0
LINE
  5
29A
330
56
100
AcDbEntity
  8
1
  6
Continuous
 62
     7
100
AcDbLine
 10
187.2838444942456
 20
202.3199115044248
 30
0.0
 11
187.2838444942456
 21
194.3199115044248
 31
0.0
  0
LINE
  5
29B
330
56
100
AcDbEntity
  8
1
  6
Continuous
 62
     7
100
AcDbLine
 10
195.769125868484
 20
194.3199115044248
 30
0.0
 11
197.7636356714617
 21
194.3199115044248
 31
0.0
  0
LINE
  5
29C
330
56
100
AcDbEntity
  8
1
  6
Continuous
 62
     7
100
AcDbLine
 10
197.7636356714617
 20
202.3199115044248
 30
0.0
 11
195.769125868484
 21
202.3199115044248
 31
0.0
  0
LINE
  5
29D
330
56
100
AcDbEntity
  8
1
  6
Continuous
 62
     7
100
AcDbLine
 10
216.7287082229163
 20
194.3199115044248
 30
0.0
 11
216.7287082229163
 21
202.3199115044248
 31
0.0
  0
LINE
  5
29E
330
56
100
AcDbEntity
  8
1
  6
Continuous
 62
     7
100
AcDbLine
 10
214.7341984199386
 20
202.3199115044248
 30
0.0
 11
214.7341984199386
 21
194.3199115044248
 31
0.0
  0
LINE
  5
29F
330
56
100
AcDbEntity
  8
1
  6
Continuous
 62
     7
100
AcDbLine
 10
214.7341984199386
 20
194.3199115044248
 30
0.0
 11
216.7287082229163
 21
194.3199115044248
 31
0.0
  0
LINE
  5
2A0
330
56
100
AcDbEntity
  8
1
  6
Continuous
 62
     7
100
AcDbLine
 10
216.7287082229163
 20
202.3199115044248
 30
0.0
 11
214.7341984199386
 21
202.3199115044248
 31
0.0
  0
LINE
  5
2A1
330
56
100
AcDbEntity
  8
1
  6
Continuous
 62
     7
100
AcDbLine
 10
225.2139895971547
 20
194.3199115044248
 30
0.0
 11
225.2139895971547
 21
202.3199115044248
 31
0.0
  0
LINE
  5
2A2
330
56
100
AcDbEntity
  8
1
  6
Continuous
 62
     7
100
AcDbLine
 10
187.2489170457002
 20
202.3199115044248
 30
0.0
 11
187.2838444942456
 21
202.3199115044248
 31
0.0
  0
LINE
  5
2A3
330
56
100
AcDbEntity
  8
1
  6
Continuous
 62
     7
100
AcDbLine
 10
187.2489170457002
 20
194.3199115044248
 30
0.0
 11
187.2838444942456
 21
194.3199115044248
 31
0.0
  0
LINE
  5
2A4
330
56
100
AcDbEntity
  8
1
  6
Continuous
 62
     7
100
AcDbLine
 10
225.2139895971547
 20
194.3199115044248
 30
0.0
 11
225.2489170457002
 21
194.3199115044248
 31
0.0
  0
LINE
  5
2A5
330
56
100
AcDbEntity
  8
1
  6
Continuous
 62
     7
100
AcDbLine
 10
225.2139895971547
 20
202.3199115044248
 30
0.0
 11
225.2489170457002
 21
202.3199115044248
 31
0.0
  0
LINE
  5
2A6
330
56
100
AcDbEntity
  8
1
  6
Continuous
 62
     7
100
AcDbLine
 10
74.2489170457001
 20
192.3199115044248
 30
0.0
 11
108.2489170457001
 21
192.3199115044248
 31
0.0
  0
LINE
  5
2A7
330
56
100
AcDbEntity
  8
1
  6
Continuous
 62
     7
100
AcDbLine
 10
74.2489170457001
 20
204.3199115044248
 30
0.0
 11
75.7489170457001
 21
204.3199115044248
 31
0.0
  0
LINE
  5
2A8
330
56
100
AcDbEntity
  8
1
  6
Continuous
 62
     7
100
AcDbLine
 10
75.7489170457001
 20
204.3199115044248
 30
0.0
 11
108.2489170457001
 21
204.3199115044248
 31
0.0
  0
LINE
  5
2A9
330
56
100
AcDbEntity
  8
1
  6
Continuous
 62
     7
100
AcDbLine
 10
75.40044781735051
 20
194.3199115044248
 30
0.0
 11
75.40044781735051
 21
202.3199115044248
 31
0.0
  0
LINE
  5
2AA
330
56
100
AcDbEntity
  8
1
  6
Continuous
 62
     7
100
AcDbLine
 10
75.40044781735051
 20
202.3199115044248
 30
0.0
 11
74.2489170457001
 21
202.3199115044248
 31
0.0
  0
LINE
  5
2AB
330
56
100
AcDbEntity
  8
1
  6
Continuous
 62
     7
100
AcDbLine
 10
92.4004478173504
 20
194.3199115044248
 30
0.0
 11
92.4004478173504
 21
202.3199115044248
 31
0.0
  0
LINE
  5
2AC
330
56
100
AcDbEntity
  8
1
  6
Continuous
 62
     7
100
AcDbLine
 10
90.09738627404971
 20
202.3199115044248
 30
0.0
 11
90.09738627404971
 21
194.3199115044248
 31
0.0
  0
LINE
  5
2AD
330
56
100
AcDbEntity
  8
1
  6
Continuous
 62
     7
100
AcDbLine
 10
90.09738627404971
 20
194.3199115044248
 30
0.0
 11
92.4004478173504
 21
194.3199115044248
 31
0.0
  0
LINE
  5
2AE
330
56
100
AcDbEntity
  8
1
  6
Continuous
 62
     7
100
AcDbLine
 10
92.4004478173504
 20
202.3199115044248
 30
0.0
 11
90.09738627404971
 21
202.3199115044248
 31
0.0
  0
LINE
  5
2AF
330
56
100
AcDbEntity
  8
1
  6
Continuous
 62
     7
100
AcDbLine
 10
74.2489170457001
 20
204.3199115044248
 30
0.0
 11
74.2489170457001
 21
192.3199115044248
 31
0.0
  0
LINE
  5
2B0
330
56
100
AcDbEntity
  8
1
  6
Continuous
 62
     7
100
AcDbLine
 10
74.2489170457001
 20
194.3199115044248
 30
0.0
 11
75.40044781735051
 21
194.3199115044248
 31
0.0
  0
LINE
  5
2B1
330
56
100
AcDbEntity
  8
1
  6
Continuous
 62
     7
100
AcDbLine
 10
106.7489170457001
 20
204.3199115044248
 30
0.0
 11
108.2489170457001
 21
204.3199115044248
 31
0.0
  0
LINE
  5
2B2
330
56
100
AcDbEntity
  8
1
  6
Continuous
 62
     7
100
AcDbLine
 10
107.0973862740496
 20
202.3199115044248
 30
0.0
 11
107.0973862740496
 21
194.3199115044248
 31
0.0
  0
LINE
  5
2B3
330
56
100
AcDbEntity
  8
1
  6
Continuous
 62
     7
100
AcDbLine
 10
108.2489170457001
 20
202.3199115044248
 30
0.0
 11
107.0973862740496
 21
202.3199115044248
 31
0.0
  0
LINE
  5
2B4
330
56
100
AcDbEntity
  8
1
  6
Continuous
 62
     7
100
AcDbLine
 10
108.2489170457001
 20
192.3199115044248
 30
0.0
 11
108.2489170457001
 21
204.3199115044248
 31
0.0
  0
LINE
  5
2B5
330
56
100
AcDbEntity
  8
1
  6
Continuous
 62
     7
100
AcDbLine
 10
107.0973862740496
 20
194.3199115044248
 30
0.0
 11
108.2489170457001
 21
194.3199115044248
 31
0.0
  0
LINE
  5
2B6
330
56
100
AcDbEntity
  8
1
  6
Continuous
 62
     7
100
AcDbLine
 10
101.9112462419259
 20
315.0973683866818
 30
0.0
 11
100.2996368624086
 21
314.1669052775888
 31
0.0
  0
LINE
  5
2B7
330
56
100
AcDbEntity
  8
1
  6
Continuous
 62
     7
100
AcDbLine
 10
108.2489170456999
 20
327.9354624386501
 30
0.0
 11
108.2489170456999
 21
320.0860975332609
 31
0.0
  0
LINE
  5
2B8
330
56
100
AcDbEntity
  8
1
  6
Continuous
 62
     7
100
AcDbLine
 10
83.29963686240859
 20
343.6117690062598
 30
0.0
 11
90.09738627404951
 21
347.5364514589543
 31
0.0
  0
LINE
  5
2B9
330
56
100
AcDbEntity
  8
1
  6
Continuous
 62
     7
100
AcDbLine
 10
82.19819722899149
 20
314.1669052775888
 30
0.0
 11
75.40044781735051
 21
318.0915877302833
 31
0.0
  0
ARC
  5
2BA
330
56
100
AcDbEntity
  8
1
  6
Continuous
 62
     7
100
AcDbCircle
 10
91.2489170456999
 20
328.5713789074997
 30
0.0
 40
18.99999999999984
100
AcDbArc
 50
86.52535201660922
 51
90.0
  0
ARC
  5
2BB
330
56
100
AcDbEntity
  8
1
  6
Continuous
 62
     7
100
AcDbCircle
 10
91.2489170456999
 20
328.5713789074997
 30
0.0
 40
19.0
100
AcDbArc
 50
90.0
 51
93.47464798339011
  0
ARC
  5
2BC
330
56
100
AcDbEntity
  8
1
  6
Continuous
 62
     7
100
AcDbCircle
 10
91.2489170456999
 20
328.5713789074997
 30
0.0
 40
19.00000000000011
100
AcDbArc
 50
-153.4746479833897
 51
-146.5253520166089
  0
ARC
  5
2BD
330
56
100
AcDbEntity
  8
1
  6
Continuous
 62
     7
100
AcDbCircle
 10
91.2489170456999
 20
328.5713789074997
 30
0.0
 40
19.00000000000017
100
AcDbArc
 50
-33.47464798339074
 51
-26.52535201661033
  0
ARC
  5
2BE
330
56
100
AcDbEntity
  8
1
  6
Continuous
 62
     7
100
AcDbCircle
 10
191.5264851813648
 20
197.8199115044247
 30
0.0
 40
5.499999999999862
100
AcDbArc
 50
-140.4788036413578
 51
-39.52119635864202
  0
ARC
  5
2BF
330
56
100
AcDbEntity
  8
1
  6
Continuous
 62
     7
100
AcDbCircle
 10
191.5264851813648
 20
198.8199115044249
 30
0.0
 40
5.499999999999866
100
AcDbArc
 50
39.52119635864179
 51
140.478803641358
  0
ARC
  5
2C0
330
56
100
AcDbEntity
  8
1
  6
Continuous
 62
     7
100
AcDbCircle
 10
220.9713489100355
 20
197.8199115044247
 30
0.0
 40
5.499999999999862
100
AcDbArc
 50
-140.4788036413578
 51
-39.52119635864202
  0
ARC
  5
2C1
330
56
100
AcDbEntity
  8
1
  6
Continuous
 62
     7
100
AcDbCircle
 10
220.9713489100355
 20
198.8199115044249
 30
0.0
 40
5.499999999999866
100
AcDbArc
 50
39.52119635864179
 51
140.478803641358
  0
ARC
  5
2C2
330
56
100
AcDbEntity
  8
1
  6
Continuous
 62
     7
100
AcDbCircle
 10
206.2489170457002
 20
185.3199115044253
 30
0.0
 40
18.99999999999946
100
AcDbArc
 50
63.47464798339013
 51
116.5253520166102
  0
ARC
  5
2C3
330
56
100
AcDbEntity
  8
1
  6
Continuous
 62
     7
100
AcDbCircle
 10
206.2489170457002
 20
211.3199115044243
 30
0.0
 40
18.99999999999954
100
AcDbArc
 50
-116.5253520166102
 51
-63.47464798339017
  0
ARC
  5
2C4
330
56
100
AcDbEntity
  8
1
  6
Continuous
 62
     7
100
AcDbCircle
 10
82.7489170457001
 20
189.8199115044246
 30
0.0
 40
14.50000000000021
100
AcDbArc
 50
59.54968597864449
 51
120.4503140213554
  0
ARC
  5
2C5
330
56
100
AcDbEntity
  8
1
  6
Continuous
 62
     7
100
AcDbCircle
 10
82.7489170457001
 20
206.819911504425
 30
0.0
 40
14.5000000000002
100
AcDbArc
 50
-120.4503140213554
 51
-59.54968597864449
  0
ARC
  5
2C6
330
56
100
AcDbEntity
  8
1
  6
Continuous
 62
     7
100
AcDbCircle
 10
99.7489170457001
 20
206.819911504425
 30
0.0
 40
14.50000000000025
100
AcDbArc
 50
-120.4503140213558
 51
-59.54968597864487
  0
ARC
  5
2C7
330
56
100
AcDbEntity
  8
1
  6
Continuous
 62
     7
100
AcDbCircle
 10
99.7489170457001
 20
189.8199115044246
 30
0.0
 40
14.50000000000016
100
AcDbArc
 50
59.54968597864487
 51
120.4503140213558
  0
ARC
  5
2C8
330
56
100
AcDbEntity
  8
1
  6
Continuous
 62
     7
100
AcDbCircle
 10
91.2489170456999
 20
328.5713789074997
 30
0.0
 40
17.00000000000021
100
AcDbArc
 50
-57.81453993232355
 51
-50.65511274698867
  0
ARC
  5
2C9
330
56
100
AcDbEntity
  8
1
  6
Continuous
 62
     7
100
AcDbCircle
 10
91.2489170456999
 20
328.5713789074997
 30
0.0
 40
16.99999999999991
100
AcDbArc
 50
62.1854600676756
 51
90.0
  0
ARC
  5
2CA
330
56
100
AcDbEntity
  8
1
  6
Continuous
 62
     7
100
AcDbCircle
 10
91.2489170456999
 20
328.5713789074997
 30
0.0
 40
17.00000000000026
100
AcDbArc
 50
-50.65511274698867
 51
-2.1854600676767
  0
ARC
  5
2CB
330
56
100
AcDbEntity
  8
1
  6
Continuous
 62
     7
100
AcDbCircle
 10
91.2489170456999
 20
328.5713789074997
 30
0.0
 40
17.0
100
AcDbArc
 50
90.0
 51
117.8145399323235
  0
ARC
  5
2CC
330
56
100
AcDbEntity
  8
1
  6
Continuous
 62
     7
100
AcDbCircle
 10
91.2489170456999
 20
328.5713789074997
 30
0.0
 40
16.99999999999986
100
AcDbArc
 50
-177.8145399323233
 51
-122.1854600676756
  0
ENDBLK
  5
58
330
56
100
AcDbEntity
  8
0
100
AcDbBlockEnd
  0
BLOCK
  5
5A
330
59
100
AcDbEntity
  8
0
100
AcDbBlockBegin
  2
25X20_5X2
 70
     0
 71
     0
 10
638.2489170457
 20
-250.6800884955752
 30
0.0
  3
25X20_5X2
  1

  0
LINE
  5
2CD
330
59
100
AcDbEntity
  8
1
  6
Continuous
 62
     7
100
AcDbLine
 10
103.7489170457001
 20
190.3199115044248
 30
0.0
 11
103.7489170457001
 21
192.3199115044248
 31
0.0
  0
LINE
  5
2CE
330
59
100
AcDbEntity
  8
1
  6
Continuous
 62
     7
100
AcDbLine
 10
103.7489170457001
 20
192.3199115044248
 30
0.0
 11
78.7489170457001
 21
192.3199115044248
 31
0.0
  0
LINE
  5
2CF
330
59
100
AcDbEntity
  8
1
  6
Continuous
 62
     7
100
AcDbLine
 10
78.7489170457001
 20
192.3199115044248
 30
0.0
 11
78.7489170457001
 21
190.3199115044248
 31
0.0
  0
LINE
  5
2D0
330
59
100
AcDbEntity
  8
1
  6
Continuous
 62
     7
100
AcDbLine
 10
78.7489170457001
 20
190.3199115044248
 30
0.0
 11
103.7489170457001
 21
190.3199115044248
 31
0.0
  0
LINE
  5
2D1
330
59
100
AcDbEntity
  8
1
  6
Continuous
 62
     7
100
AcDbLine
 10
218.7489170457002
 20
190.3199115044248
 30
0.0
 11
218.7489170457002
 21
192.3199115044248
 31
0.0
  0
LINE
  5
2D2
330
59
100
AcDbEntity
  8
1
  6
Continuous
 62
     7
100
AcDbLine
 10
218.7489170457002
 20
192.3199115044248
 30
0.0
 11
193.7489170457002
 21
192.3199115044248
 31
0.0
  0
LINE
  5
2D3
330
59
100
AcDbEntity
  8
1
  6
Continuous
 62
     7
100
AcDbLine
 10
193.7489170457002
 20
192.3199115044248
 30
0.0
 11
193.7489170457002
 21
190.3199115044248
 31
0.0
  0
LINE
  5
2D4
330
59
100
AcDbEntity
  8
1
  6
Continuous
 62
     7
100
AcDbLine
 10
193.7489170457002
 20
190.3199115044248
 30
0.0
 11
218.7489170457002
 21
190.3199115044248
 31
0.0
  0
ENDBLK
  5
5B
330
59
100
AcDbEntity
  8
0
100
AcDbBlockEnd
  0
BLOCK
  5
2F7
330
2F0
100
AcDbEntity
  8
0
100
AcDbBlockBegin
  2
*D013
 70
     1
 71
     0
 10
0.0
 20
0.0
 30
0.0
  3
*D013
  1

  0
LINE
  5
2F1
330
2F0
100
AcDbEntity
  8
1
  6
Continuous
 62
     2
100
AcDbLine
 10
154.960831432842
 20
75.30817200979274
 30
0.0
 11
170.8415698591029
 21
73.35826251531054
 31
0.0
  0
LINE
  5
2F2
330
2F0
100
AcDbEntity
  8
1
  6
Continuous
 62
     2
100
AcDbLine
 10
162.5757909733512
 20
137.3270405427141
 30
0.0
 11
154.7780274177343
 21
73.81935278233075
 31
0.0
  0
LINE
  5
2F3
330
2F0
100
AcDbEntity
  8
1
  6
Continuous
 62
     2
100
AcDbLine
 10
178.4565293996121
 20
135.3771310482319
 30
0.0
 11
170.6587658439952
 21
71.86944328784855
 31
0.0
  0
SOLID
  5
2F4
330
2F0
100
AcDbEntity
  8
1
 62
     2
100
AcDbTrace
 10
160.2559318470117
 20
75.35438165104605
 30
0.0
 11
160.0874656109062
 21
73.9823342627855
 31
0.0
 12
154.960831432842
 22
75.30817200979274
 32
0.0
 13
154.960831432842
 23
75.30817200979274
 33
0.0
  0
SOLID
  5
2F5
330
2F0
100
AcDbEntity
  8
1
 62
     2
100
AcDbTrace
 10
165.5464694449332
 20
73.31205287405723
 30
0.0
 11
165.7149356810387
 21
74.68410026231778
 31
0.0
 12
170.8415698591029
 22
73.35826251531054
 32
0.0
 13
170.8415698591029
 23
73.35826251531054
 33
0.0
  0
MTEXT
  5
2F6
330
2F0
100
AcDbEntity
  8
1
 62
     7
100
AcDbMText
 10
154.4695756554319
 20
76.87975537290132
 30
0.0
 40
5.25
 41
0.0
 71
     7
 72
     1
  1
\C7;{\Fgdt;n}\C7;16
  7
CONVERTER_2
 11
0.9925461516413232
 21
-0.1218693434051395
 31
0.0
 73
     1
 44
0.60024009603842
  0
ENDBLK
  5
2F8
330
2F0
100
AcDbEntity
  8
0
100
AcDbBlockEnd
  0
BLOCK
  5
302
330
2FB
100
AcDbEntity
  8
0
100
AcDbBlockBegin
  2
*D114
 70
     1
 71
     0
 10
0.0
 20
0.0
 30
0.0
  3
*D114
  1

  0
LINE
  5
2FC
330
2FB
100
AcDbEntity
  8
1
  6
Continuous
 62
     2
100
AcDbLine
 10
130.5444377997112
 20
167.3199115044247
 30
0.0
 11
130.5444377997112
 21
111.5384320044405
 31
0.0
  0
LINE
  5
2FD
330
2FB
100
AcDbEntity
  8
1
  6
Continuous
 62
     2
100
AcDbLine
 10
166.897521917086
 20
167.3199115044247
 30
0.0
 11
129.0444377997112
 21
167.3199115044247
 31
0.0
  0
LINE
  5
2FE
330
2FB
100
AcDbEntity
  8
1
  6
Continuous
 62
     2
100
AcDbLine
 10
167.4694266013538
 20
111.5384320044405
 30
0.0
 11
129.0444377997112
 21
111.5384320044405
 31
0.0
  0
SOLID
  5
2FF
330
2FB
100
AcDbEntity
  8
1
 62
     2
100
AcDbTrace
 10
131.235613412045
 20
162.0699115044247
 30
0.0
 11
129.8532621873774
 21
162.0699115044247
 31
0.0
 12
130.5444377997112
 22
167.3199115044247
 32
0.0
 13
130.5444377997112
 23
167.3199115044247
 33
0.0
  0
SOLID
  5
300
330
2FB
100
AcDbEntity
  8
1
 62
     2
100
AcDbTrace
 10
129.8532621873774
 20
116.7884320044405
 30
0.0
 11
131.235613412045
 21
116.7884320044405
 31
0.0
 12
130.5444377997112
 22
111.5384320044405
 32
0.0
 13
130.5444377997112
 23
111.5384320044405
 33
0.0
  0
MTEXT
  5
301
330
2FB
100
AcDbEntity
  8
1
 62
     7
100
AcDbMText
 10
129.0444377997112
 20
135.4979461539843
 30
0.0
 40
5.25
 41
0.0
 71
     7
 72
     1
  1
56
  7
CONVERTER_2
 11
0.0
 21
1.0
 31
0.0
 73
     1
 44
0.60024009603842
  0
ENDBLK
  5
303
330
2FB
100
AcDbEntity
  8
0
100
AcDbBlockEnd
  0
BLOCK
  5
30D
330
306
100
AcDbEntity
  8
0
100
AcDbBlockBegin
  2
*D215
 70
     1
 71
     0
 10
0.0
 20
0.0
 30
0.0
  3
*D215
  1

  0
LINE
  5
307
330
306
100
AcDbEntity
  8
1
  6
Continuous
 62
     2
100
AcDbLine
 10
130.5444377997112
 20
167.3199115044248
 30
0.0
 11
130.5444377997112
 21
245.3199115044248
 31
0.0
  0
LINE
  5
308
330
306
100
AcDbEntity
  8
1
  6
Continuous
 62
     2
100
AcDbLine
 10
166.897521917086
 20
167.3199115044248
 30
0.0
 11
129.0444377997112
 21
167.3199115044248
 31
0.0
  0
LINE
  5
309
330
306
100
AcDbEntity
  8
1
  6
Continuous
 62
     2
100
AcDbLine
 10
206.2489170457001
 20
245.3199115044248
 30
0.0
 11
129.0444377997112
 21
245.3199115044248
 31
0.0
  0
SOLID
  5
30A
330
306
100
AcDbEntity
  8
1
 62
     2
100
AcDbTrace
 10
129.8532621873774
 20
172.5699115044248
 30
0.0
 11
131.235613412045
 21
172.5699115044248
 31
0.0
 12
130.5444377997112
 22
167.3199115044248
 32
0.0
 13
130.5444377997112
 23
167.3199115044248
 33
0.0
  0
SOLID
  5
30B
330
306
100
AcDbEntity
  8
1
 62
     2
100
AcDbTrace
 10
131.235613412045
 20
240.0699115044248
 30
0.0
 11
129.8532621873774
 21
240.0699115044248
 31
0.0
 12
130.5444377997112
 22
245.3199115044248
 32
0.0
 13
130.5444377997112
 23
245.3199115044248
 33
0.0
  0
MTEXT
  5
30C
330
306
100
AcDbEntity
  8
1
 62
     7
100
AcDbMText
 10
129.0444377997112
 20
190.5264361554876
 30
0.0
 40
5.25
 41
0.0
 71
     7
 72
     1
  1
78リフト3
  7
CONVERTER_1
 11
0.0
 21
1.0
 31
0.0
 73
     1
 44
0.60024009603842
  0
ENDBLK
  5
30E
330
306
100
AcDbEntity
  8
0
100
AcDbBlockEnd
  0
BLOCK
  5
318
330
311
100
AcDbEntity
  8
0
100
AcDbBlockBegin
  2
*D316
 70
     1
 71
     0
 10
0.0
 20
0.0
 30
0.0
  3
*D316
  1

  0
LINE
  5
312
330
311
100
AcDbEntity
  8
1
  6
Continuous
 62
     2
100
AcDbLine
 10
280.5180557221102
 20
190.3199115044248
 30
0.0
 11
280.5180557221102
 21
144.3199115044248
 31
0.0
  0
LINE
  5
313
330
311
100
AcDbEntity
  8
1
  6
Continuous
 62
     2
100
AcDbLine
 10
251.2489170457002
 20
190.3199115044248
 30
0.0
 11
282.0180557221102
 21
190.3199115044248
 31
0.0
  0
LINE
  5
314
330
311
100
AcDbEntity
  8
1
  6
Continuous
 62
     2
100
AcDbLine
 10
251.2489170457002
 20
144.3199115044248
 30
0.0
 11
282.0180557221102
 21
144.3199115044248
 31
0.0
  0
SOLID
  5
315
330
311
100
AcDbEntity
  8
1
 62
     2
100
AcDbTrace
 10
281.209231334444
 20
185.0699115044248
 30
0.0
 11
279.8268801097764
 21
185.0699115044248
 31
0.0
 12
280.5180557221102
 22
190.3199115044248
 32
0.0
 13
280.5180557221102
 23
190.3199115044248
 33
0.0
  0
SOLID
  5
316
330
311
100
AcDbEntity
  8
1
 62
     2
100
AcDbTrace
 10
279.8268801097764
 20
149.5699115044248
 30
0.0
 11
281.209231334444
 21
149.5699115044248
 31
0.0
 12
280.5180557221102
 22
144.3199115044248
 32
0.0
 13
280.5180557221102
 23
144.3199115044248
 33
0.0
  0
MTEXT
  5
317
330
311
100
AcDbEntity
  8
1
 62
     7
100
AcDbMText
 10
279.0180557221102
 20
157.9224115044248
 30
0.0
 40
5.25
 41
0.0
 71
     7
 72
     1
  1
\C7;{\Fgdt;n}\C7;46
  7
CONVERTER_2
 11
0.0
 21
1.0
 31
0.0
 73
     1
 44
0.60024009603842
  0
ENDBLK
  5
319
330
311
100
AcDbEntity
  8
0
100
AcDbBlockEnd
  0
BLOCK
  5
325
330
31C
100
AcDbEntity
  8
0
100
AcDbBlockBegin
  2
*D417
 70
     1
 71
     0
 10
0.0
 20
0.0
 30
0.0
  3
*D417
  1

  0
LINE
  5
31D
330
31C
100
AcDbEntity
  8
1
  6
Continuous
 62
     2
100
AcDbLine
 10
265.2489170457002
 20
100.3567344496437
 30
0.0
 11
275.7489170457002
 21
100.3567344496437
 31
0.0
  0
LINE
  5
31E
330
31C
100
AcDbEntity
  8
1
  6
Continuous
 62
     2
100
AcDbLine
 10
251.2489170457002
 20
100.3567344496437
 30
0.0
 11
265.2489170457002
 21
100.3567344496437
 31
0.0
  0
LINE
  5
31F
330
31C
100
AcDbEntity
  8
1
  6
Continuous
 62
     2
100
AcDbLine
 10
240.7489170457002
 20
100.3567344496437
 30
0.0
 11
251.2489170457002
 21
100.3567344496437
 31
0.0
  0
LINE
  5
320
330
31C
100
AcDbEntity
  8
1
  6
Continuous
 62
     2
100
AcDbLine
 10
251.2489170457002
 20
144.3199115044248
 30
0.0
 11
251.2489170457002
 21
98.8567344496437
 31
0.0
  0
LINE
  5
321
330
31C
100
AcDbEntity
  8
1
  6
Continuous
 62
     2
100
AcDbLine
 10
265.2489170457002
 20
157.8199115044248
 30
0.0
 11
265.2489170457002
 21
98.8567344496437
 31
0.0
  0
SOLID
  5
322
330
31C
100
AcDbEntity
  8
1
 62
     2
100
AcDbTrace
 10
245.9989170457002
 20
99.66555883730987
 30
0.0
 11
245.9989170457002
 21
101.0479100619775
 31
0.0
 12
251.2489170457002
 22
100.3567344496437
 32
0.0
 13
251.2489170457002
 23
100.3567344496437
 33
0.0
  0
SOLID
  5
323
330
31C
100
AcDbEntity
  8
1
 62
     2
100
AcDbTrace
 10
270.4989170457002
 20
101.0479100619775
 30
0.0
 11
270.4989170457002
 21
99.66555883730987
 31
0.0
 12
265.2489170457002
 22
100.3567344496437
 32
0.0
 13
265.2489170457002
 23
100.3567344496437
 33
0.0
  0
MTEXT
  5
324
330
31C
100
AcDbEntity
  8
1
 62
     7
100
AcDbMText
 10
255.1635804059152
 20
101.8567344496437
 30
0.0
 40
5.25
 41
0.0
 71
     7
 72
     1
  1
14
  7
CONVERTER_2
 11
0.9999999999970621
 21
2.424068405545307E-6
 31
0.0
 73
     1
 44
0.60024009603842
  0
ENDBLK
  5
326
330
31C
100
AcDbEntity
  8
0
100
AcDbBlockEnd
  0
BLOCK
  5
330
330
329
100
AcDbEntity
  8
0
100
AcDbBlockBegin
  2
*D518
 70
     1
 71
     0
 10
0.0
 20
0.0
 30
0.0
  3
*D518
  1

  0
LINE
  5
32A
330
329
100
AcDbEntity
  8
1
  6
Continuous
 62
     2
100
AcDbLine
 10
206.2489170457002
 20
100.3567344496437
 30
0.0
 11
251.2489170457002
 21
100.3567344496437
 31
0.0
  0
LINE
  5
32B
330
329
100
AcDbEntity
  8
1
  6
Continuous
 62
     2
100
AcDbLine
 10
206.2489170457002
 20
151.3199115044247
 30
0.0
 11
206.2489170457002
 21
98.8567344496437
 31
0.0
  0
LINE
  5
32C
330
329
100
AcDbEntity
  8
1
  6
Continuous
 62
     2
100
AcDbLine
 10
251.2489170457002
 20
144.3199115044248
 30
0.0
 11
251.2489170457002
 21
98.8567344496437
 31
0.0
  0
SOLID
  5
32D
330
329
100
AcDbEntity
  8
1
 62
     2
100
AcDbTrace
 10
211.4989170457002
 20
101.0479100619775
 30
0.0
 11
211.4989170457002
 21
99.66555883730987
 31
0.0
 12
206.2489170457002
 22
100.3567344496437
 32
0.0
 13
206.2489170457002
 23
100.3567344496437
 33
0.0
  0
SOLID
  5
32E
330
329
100
AcDbEntity
  8
1
 62
     2
100
AcDbTrace
 10
245.9989170457002
 20
99.66555883730987
 30
0.0
 11
245.9989170457002
 21
101.0479100619775
 31
0.0
 12
251.2489170457002
 22
100.3567344496437
 32
0.0
 13
251.2489170457002
 23
100.3567344496437
 33
0.0
  0
MTEXT
  5
32F
330
329
100
AcDbEntity
  8
1
 62
     7
100
AcDbMText
 10
221.8266516135272
 20
101.8567344496437
 30
0.0
 40
5.25
 41
0.0
 71
     7
 72
     1
  1
45
  7
CONVERTER_2
 11
0.9999999999970621
 21
2.424068405545307E-6
 31
0.0
 73
     1
 44
0.60024009603842
  0
ENDBLK
  5
331
330
329
100
AcDbEntity
  8
0
100
AcDbBlockEnd
  0
BLOCK
  5
33B
330
334
100
AcDbEntity
  8
0
100
AcDbBlockBegin
  2
*D619
 70
     1
 71
     0
 10
0.0
 20
0.0
 30
0.0
  3
*D619
  1

  0
LINE
  5
335
330
334
100
AcDbEntity
  8
1
  6
Continuous
 62
     2
100
AcDbLine
 10
167.4694266013528
 20
100.3567344496437
 30
0.0
 11
206.2489170457002
 21
100.3567344496437
 31
0.0
  0
LINE
  5
336
330
334
100
AcDbEntity
  8
1
  6
Continuous
 62
     2
100
AcDbLine
 10
167.4694266013528
 20
111.53843200444
 30
0.0
 11
167.4694266013528
 21
98.8567344496437
 31
0.0
  0
LINE
  5
337
330
334
100
AcDbEntity
  8
1
  6
Continuous
 62
     2
100
AcDbLine
 10
206.2489170457002
 20
151.3199115044247
 30
0.0
 11
206.2489170457002
 21
98.8567344496437
 31
0.0
  0
SOLID
  5
338
330
334
100
AcDbEntity
  8
1
 62
     2
100
AcDbTrace
 10
172.7194266013528
 20
101.0479100619775
 30
0.0
 11
172.7194266013528
 21
99.66555883730987
 31
0.0
 12
167.4694266013528
 22
100.3567344496437
 32
0.0
 13
167.4694266013528
 23
100.3567344496437
 33
0.0
  0
SOLID
  5
339
330
334
100
AcDbEntity
  8
1
 62
     2
100
AcDbTrace
 10
200.9989170457002
 20
99.66555883730987
 30
0.0
 11
200.9989170457002
 21
101.0479100619775
 31
0.0
 12
206.2489170457002
 22
100.3567344496437
 32
0.0
 13
206.2489170457002
 23
100.3567344496437
 33
0.0
  0
MTEXT
  5
33A
330
334
100
AcDbEntity
  8
1
 62
     7
100
AcDbMText
 10
185.0316451525672
 20
101.8567344496437
 30
0.0
 40
5.25
 41
0.0
 71
     7
 72
     1
  1
39
  7
CONVERTER_2
 11
0.9999999999970621
 21
2.424068405545307E-6
 31
0.0
 73
     1
 44
0.60024009603842
  0
ENDBLK
  5
33C
330
334
100
AcDbEntity
  8
0
100
AcDbBlockEnd
  0
BLOCK
  5
348
330
33F
100
AcDbEntity
  8
0
100
AcDbBlockBegin
  2
*D720
 70
     1
 71
     0
 10
0.0
 20
0.0
 30
0.0
  3
*D720
  1

  0
LINE
  5
340
330
33F
100
AcDbEntity
  8
1
  6
Continuous
 62
     2
100
AcDbLine
 10
167.4694266013527
 20
108.03843200444
 30
0.0
 11
167.4694266013527
 21
87.09510008222124
 31
0.0
  0
LINE
  5
341
330
33F
100
AcDbEntity
  8
1
  6
Continuous
 62
     2
100
AcDbLine
 10
167.2256879145424
 20
109.5533397011573
 30
0.0
 11
164.4905337893578
 21
87.27729697175029
 31
0.0
  0
LINE
  5
342
330
33F
100
AcDbEntity
  8
1
  6
Continuous
 62
     2
100
AcDbLine
 10
167.4694266013527
 20
87.09510008222124
 30
0.0
 11
167.4694266013527
 21
85.59510008222124
 31
0.0
  0
LINE
  5
343
330
33F
100
AcDbEntity
  8
1
  6
Continuous
 62
     2
100
AcDbLine
 10
164.4905337893578
 20
87.27729697175029
 30
0.0
 11
164.3077297742501
 21
85.7884777442883
 31
0.0
  0
ARC
  5
344
330
33F
100
AcDbEntity
  8
1
  6
Continuous
 62
     2
100
AcDbCircle
 10
167.4694266013527
 20
111.53843200444
 30
0.0
 40
24.44333192221876
100
AcDbArc
 50
-115.4591963608441
 51
-71.54080363915597
  0
SOLID
  5
345
330
33F
100
AcDbEntity
  8
1
 62
     2
100
AcDbTrace
 10
159.220984944221
 20
87.7989086048662
 30
0.0
 11
159.5355434917458
 21
89.14499471968917
 31
0.0
 12
164.4905337893578
 22
87.27729697175029
 32
0.0
 13
164.4905337893578
 23
87.27729697175029
 33
0.0
  0
SOLID
  5
346
330
33F
100
AcDbEntity
  8
1
 62
     2
100
AcDbTrace
 10
172.6150982508882
 20
88.34501488021832
 30
0.0
 11
172.7632654957196
 21
86.97062724352361
 31
0.0
 12
167.4694266013527
 22
87.09510008222124
 32
0.0
 13
167.4694266013527
 23
87.09510008222124
 33
0.0
  0
MTEXT
  5
347
330
33F
100
AcDbEntity
  8
1
 62
     7
100
AcDbMText
 10
157.253307894666
 20
90.71362577451343
 30
0.0
 40
5.25
 41
0.0
 71
     7
 72
     1
  1
7{\Fgdt;~}
  7
CONVERTER_2
 11
0.9981347984218669
 21
-0.06104853953485777
 31
0.0
 73
     1
 44
0.60024009603842
  0
ENDBLK
  5
349
330
33F
100
AcDbEntity
  8
0
100
AcDbBlockEnd
  0
ENDSEC
  0
SECTION
  2
ENTITIES
  0
INSERT
  5
5C
330
1F
100
AcDbEntity
  8
1
100
AcDbBlockReference
  2
_J__A4
 10
0.0
 20
0.0
 30
0.0
 41
1.5
 42
1.5
 43
1.5
  0
INSERT
  5
5D
330
1F
100
AcDbEntity
  8
0
100
AcDbBlockReference
  2
T30A-13
 10
-12.00717469802852
 20
133.1023684946001
 30
0.0
  0
INSERT
  5
5E
330
1F
100
AcDbEntity
  8
0
100
AcDbBlockReference
  2
21-1A
 10
492.4343177576918
 20
-451.2216830145655
 30
0.0
  0
INSERT
  5
5F
330
1F
100
AcDbEntity
  8
0
100
AcDbBlockReference
  2
42-1
 10
363.1446569590967
 20
-422.76973750516
 30
0.0
  0
INSERT
  5
60
330
1F
100
AcDbEntity
  8
0
100
AcDbBlockReference
  2
Y30VW-0-13
 10
76.2489170457001
 20
-569.6800884955752
 30
0.0
  0
INSERT
  5
61
330
1F
100
AcDbEntity
  8
1
100
AcDbBlockReference
  2
37-121
 10
317.9521689000102
 20
16.31239461253275
 30
0.0
  0
INSERT
  5
62
330
1F
100
AcDbEntity
  8
1
100
AcDbBlockReference
  2
36-106
 10
199.2489170457002
 20
-568.9800884955752
 30
0.0
  0
INSERT
  5
63
330
1F
100
AcDbEntity
  8
1
100
AcDbBlockReference
  2
32-137
 10
62.8592859328073
 20
595.394462208597
 30
0.0
  0
INSERT
  5
64
330
1F
100
AcDbEntity
  8
1
100
AcDbBlockReference
  2
32-136
 10
187.2489170457002
 20
171.6199115044247
 30
0.0
  0
INSERT
  5
65
330
1F
100
AcDbEntity
  8
1
100
AcDbBlockReference
  2
25X20_5X2
 10
638.2489170457
 20
-250.6800884955752
 30
0.0
  0
LINE
  5
2D5
330
1F
100
AcDbEntity
  8
1
  6
DASH_CENTER
 62
     2
100
AcDbLine
 10
167.4694266013527
 20
111.53843200444
 30
0.0
 11
167.4709674001405
 21
111.5509808035439
 31
0.0
  0
LINE
  5
2D6
330
1F
100
AcDbEntity
  8
1
  6
Continuous
 62
     2
100
AcDbLine
 10
167.4694266013527
 20
111.53843200444
 30
0.0
 11
167.4694266013527
 21
108.03843200444
 31
0.0
  0
LINE
  5
2D7
330
1F
100
AcDbEntity
  8
0
  6
DASH_CENTER
 62
     2
100
AcDbLine
 10
65.24891704570001
 20
167.3199115044246
 30
0.0
 11
117.2489170457
 21
167.3199115044246
 31
0.0
  0
LINE
  5
2D8
330
1F
100
AcDbEntity
  8
1
  6
DASH_CENTER
 62
     2
100
AcDbLine
 10
100.7489170457
 20
111.5509808035439
 30
0.0
 11
91.2489170457001
 21
111.5509808035439
 31
0.0
  0
LINE
  5
2D9
330
1F
100
AcDbEntity
  8
0
  6
DASH_CENTER
 62
     2
100
AcDbLine
 10
91.2489170457001
 20
111.5509808035439
 30
0.0
 11
91.2489170457001
 21
107.6853466006039
 31
0.0
  0
LINE
  5
2DA
330
1F
100
AcDbEntity
  8
1
  6
DASH_CENTER
 62
     2
100
AcDbLine
 10
91.2489170457001
 20
111.5509808035439
 30
0.0
 11
81.7489170457001
 21
111.5509808035439
 31
0.0
  0
LINE
  5
2DB
330
1F
100
AcDbEntity
  8
1
  6
DASH_CENTER
 62
     2
100
AcDbLine
 10
167.2256879145424
 20
109.5533397011573
 30
0.0
 11
167.4694266013527
 21
111.53843200444
 31
0.0
  0
LINE
  5
2DC
330
1F
100
AcDbEntity
  8
1
  6
DASH_CENTER
 62
     2
100
AcDbLine
 10
77.84965853076841
 20
293.5713789074997
 30
0.0
 11
103.1221097987037
 21
293.5713789074997
 31
0.0
  0
LINE
  5
2DD
330
1F
100
AcDbEntity
  8
1
  6
DASH_CENTER
 62
     2
100
AcDbLine
 10
91.2489170457001
 20
272.09466066214
 30
0.0
 11
91.2489170457001
 21
390.5713789074997
 31
0.0
  0
LINE
  5
2DE
330
1F
100
AcDbEntity
  8
1
  6
DASH_CENTER
 62
     2
100
AcDbLine
 10
69.24891704570001
 20
328.5713789074997
 30
0.0
 11
114.7489170457
 21
328.5713789074997
 31
0.0
  0
LINE
  5
2DF
330
1F
100
AcDbEntity
  8
1
  6
DASH_CENTER
 62
     2
100
AcDbLine
 10
268.2489170457002
 20
167.3199115044248
 30
0.0
 11
166.897521917086
 21
167.3199115044248
 31
0.0
  0
LINE
  5
2E0
330
1F
100
AcDbEntity
  8
1
  6
DASH_CENTER
 62
     2
100
AcDbLine
 10
206.2489170457002
 20
167.1199115044247
 30
0.0
 11
206.2489170457002
 21
151.3199115044247
 31
0.0
  0
LINE
  5
2E1
330
1F
100
AcDbEntity
  8
1
  6
DASH_CENTER
 62
     2
100
AcDbLine
 10
206.2489170457001
 20
248.3199115044248
 30
0.0
 11
206.2489170457001
 21
245.3199115044248
 31
0.0
  0
LINE
  5
2E2
330
1F
100
AcDbEntity
  8
1
  6
DASH_CENTER
 62
     2
100
AcDbLine
 10
167.4709674001405
 20
111.5509808035439
 30
0.0
 11
175.2073503207606
 21
174.5587634085389
 31
0.0
  0
LINE
  5
2E3
330
1F
100
AcDbEntity
  8
1
  6
DASH_CENTER
 62
     2
100
AcDbLine
 10
206.2489170457002
 20
167.240473039242
 30
0.0
 11
206.2489170457001
 21
245.3199115044248
 31
0.0
  0
LINE
  5
2E4
330
1F
100
AcDbEntity
  8
0
  6
DASH_CENTER
 62
     2
100
AcDbLine
 10
91.2489170457001
 20
248.4249087934838
 30
0.0
 11
91.2489170457001
 21
111.5509808035439
 31
0.0
  0
SOLID
  5
2E5
330
1F
100
AcDbEntity
  8
1
 62
     2
100
AcDbTrace
 10
158.600893850362
 20
155.7382123267842
 30
0.0
 11
159.7980451278768
 21
156.429387939118
 31
0.0
 12
161.8244694891194
 22
151.5371667630828
 32
0.0
 13
161.8244694891194
 23
151.5371667630828
 33
0.0
  0
LEADER
  5
2E6
330
1F
100
AcDbEntity
  8
1
  6
Continuous
 62
     2
100
AcDbLeader
  3
Standard
 71
     0
 76
     3
 10
161.8244694891194
 20
151.5371667630828
 30
0.0
 10
149.4391758211171
 20
172.989124662724
 30
0.0
 10
133.6677473571166
 20
172.989124662724
 30
0.0
  0
SOLID
  5
2E7
330
1F
100
AcDbEntity
  8
1
 62
     2
100
AcDbTrace
 10
103.7753414069428
 20
386.065007539884
 30
0.0
 11
104.9724926844575
 21
385.3738319275502
 31
0.0
 12
101.7489170457001
 22
381.1727863638488
 32
0.0
 13
101.7489170457001
 23
381.1727863638488
 33
0.0
  0
LEADER
  5
2E8
330
1F
100
AcDbEntity
  8
1
  6
Continuous
 62
     2
100
AcDbLeader
  3
Standard
 71
     0
 76
     3
 10
101.7489170457001
 20
381.1727863638488
 30
0.0
 10
107.8104621179857
 20
391.6716904014162
 30
0.0
 10
128.5740441806046
 20
391.6716904014162
 30
0.0
  0
MTEXT
  5
2EA
330
1F
100
AcDbEntity
  8
1
 62
     7
100
AcDbMText
 10
118.0814938376606
 20
396.1716904014162
 30
0.0
 40
5.25
 41
0.0
 71
     5
 72
     1
  1
PJ1/2
  7
CONVERTER_2
 73
     1
 44
0.7202881152461
  0
MTEXT
  5
2EB
330
1F
100
AcDbEntity
  8
1
 62
     7
100
AcDbMText
 10
141.6146111723511
 20
177.489124662724
 30
0.0
 40
5.25
 41
0.0
 71
     5
 72
     1
  1
G1/2
  7
CONVERTER_2
 73
     1
 44
0.7202881152461
  0
MTEXT
  5
2EC
330
1F
100
AcDbEntity
  8
0
 62
     7
100
AcDbMText
 10
85.5
 20
34.12500000000001
 30
0.0
 40
5.25
 41
0.0
 71
     5
 72
     1
  1
カップリング横水栓
  7
CONVERTER_1
 73
     1
 44
0.7202881152461
  0
MTEXT
  5
2ED
330
1F
100
AcDbEntity
  8
0
 62
     7
100
AcDbMText
 10
85.50000000000001
 20
21.375
 30
0.0
 40
5.25
 41
0.0
 71
     5
 72
     1
  1
Y30VW-13
  7
CONVERTER_2
 73
     1
 44
0.90036014405762
  0
MTEXT
  5
2EE
330
1F
100
AcDbEntity
  8
0
 62
     7
100
AcDbMText
 10
127.875
 20
25.5
 30
0.0
 40
5.25
 41
0.0
 71
     5
 72
     1
  1
1
  7
CONVERTER_2
 73
     1
 44
0.7202881152461
  0
MTEXT
  5
2EF
330
1F
100
AcDbEntity
  8
0
 62
     7
100
AcDbMText
 10
140.625
 20
25.5
 30
0.0
 40
5.25
 41
0.0
 71
     5
 72
     1
  1
1,5
  7
CONVERTER_2
 73
     1
 44
0.7202881152461
  0
DIMENSION
  5
2FA
330
1F
100
AcDbEntity
  8
1
100
AcDbDimension
  2
*D013
 10
154.960831432842
 20
75.30817200979274
 30
0.0
 11
163.3353050475022
 21
78.43589397424154
 31
0.0
 70
     1
  1
<>
 71
     5
 42
0.0
 53
-6.99999999999954
  3
ME10_DIM_0
100
AcDbAlignedDimension
 13
178.4565293996121
 23
135.3771310482319
 33
0.0
 14
162.5757909733512
 24
137.3270405427141
 34
0.0
  0
DIMENSION
  5
305
330
1F
100
AcDbEntity
  8
1
100
AcDbDimension
  2
*D114
 10
130.5444377997112
 20
167.3199115044247
 30
0.0
 11
126.4194377997112
 21
139.4354461539843
 31
0.0
  1
56
 71
     5
 42
0.0
 53
90.0
  3
ME10_DIM_1
100
AcDbAlignedDimension
 13
167.4694266013538
 23
111.5384320044406
 33
0.0
 14
166.897521917086
 24
167.3199115044248
 34
0.0
 50
90.0
100
AcDbRotatedDimension
  0
DIMENSION
  5
310
330
1F
100
AcDbEntity
  8
1
100
AcDbDimension
  2
*D215
 10
130.5444377997112
 20
167.3199115044248
 30
0.0
 11
126.4194377997112
 21
204.7014361554876
 31
0.0
  1
78リフト3
 71
     5
 42
0.0
 53
90.0
  3
ME10_DIM_2
100
AcDbAlignedDimension
 13
206.2489170457001
 23
245.3199115044248
 33
0.0
 14
166.897521917086
 24
167.3199115044248
 34
0.0
 50
90.0
100
AcDbRotatedDimension
  0
DIMENSION
  5
31B
330
1F
100
AcDbEntity
  8
1
100
AcDbDimension
  2
*D316
 10
280.5180557221102
 20
190.3199115044248
 30
0.0
 11
276.3930557221102
 21
167.3199115044248
 31
0.0
  1
<>
 71
     5
 42
0.0
 53
90.0
  3
ME10_DIM_3
100
AcDbAlignedDimension
 13
251.2489170457002
 23
144.3199115044248
 33
0.0
 14
251.2489170457002
 24
190.3199115044248
 34
0.0
 50
90.0
100
AcDbRotatedDimension
  0
DIMENSION
  5
328
330
1F
100
AcDbEntity
  8
1
100
AcDbDimension
  2
*D417
 10
251.2489170457002
 20
100.3567344496437
 30
0.0
 11
258.3135804059152
 21
104.4817344496437
 31
0.0
  1
<>
 71
     5
 42
0.0
 53
0.00013888888889
  3
ME10_DIM_4
100
AcDbAlignedDimension
 13
265.2489170457002
 23
157.8199115044248
 33
0.0
 14
251.2489170457002
 24
144.3199115044248
 34
0.0
100
AcDbRotatedDimension
  0
DIMENSION
  5
333
330
1F
100
AcDbEntity
  8
1
100
AcDbDimension
  2
*D518
 10
206.2489170457002
 20
100.3567344496437
 30
0.0
 11
225.7641516135272
 21
104.4817344496437
 31
0.0
  1
<>
 71
     5
 42
0.0
 53
0.00013888888889
  3
ME10_DIM_5
100
AcDbAlignedDimension
 13
251.2489170457002
 23
144.3199115044248
 33
0.0
 14
206.2489170457002
 24
151.3199115044247
 34
0.0
100
AcDbRotatedDimension
  0
DIMENSION
  5
33E
330
1F
100
AcDbEntity
  8
1
100
AcDbDimension
  2
*D619
 10
167.4694266013528
 20
100.3567344496437
 30
0.0
 11
188.9691451525672
 21
104.4817344496437
 31
0.0
  1
39
 71
     5
 42
0.0
 53
0.00013888888889
  3
ME10_DIM_6
100
AcDbAlignedDimension
 13
206.2489170457002
 23
151.3199115044247
 33
0.0
 14
167.4694266013527
 24
111.53843200444
 34
0.0
100
AcDbRotatedDimension
  0
DIMENSION
  5
34B
330
1F
100
AcDbEntity
  8
1
100
AcDbDimension
  2
*D720
 10
165.9771968861352
 20
87.14069182349741
 30
0.0
 11
161.3016227586932
 21
92.17886569060103
 31
0.0
 70
     5
  1
<>
 71
     5
 42
0.0
  3
ME10_DIM_7
100
AcDb3PointAngularDimension
 13
167.2256879145424
 23
109.5533397011573
 33
0.0
 14
167.4694266013527
 24
108.03843200444
 34
0.0
 15
167.4694266013527
 25
111.53843200444
 35
0.0
  0
ENDSEC
  0
SECTION
  2
OBJECTS
  0
DICTIONARY
  5
C
330
0
100
AcDbDictionary
281
     1
  3
ACAD_GROUP
350
D
  3
ACAD_LAYOUT
350
1A
  3
ACAD_MLINESTYLE
350
17
  3
ACAD_PLOTSETTINGS
350
19
  3
ACAD_PLOTSTYLENAME
350
E
  3
ACAD_TABLESTYLE
350
2A
  3
AcDbVariableDictionary
350
2C
  0
DICTIONARY
  5
D
102
{ACAD_REACTORS
330
C
102
}
330
C
100
AcDbDictionary
281
     1
  0
DICTIONARY
  5
1A
102
{ACAD_REACTORS
330
C
102
}
330
C
100
AcDbDictionary
281
     1
  3
Layout1
350
1E
  3
Layout2
350
26
  3
Model
350
22
  0
DICTIONARY
  5
17
102
{ACAD_REACTORS
330
C
102
}
330
C
100
AcDbDictionary
281
     1
  3
Standard
350
18
  0
DICTIONARY
  5
19
102
{ACAD_REACTORS
330
C
102
}
330
C
100
AcDbDictionary
281
     1
  0
ACDBDICTIONARYWDFLT
  5
E
102
{ACAD_REACTORS
330
C
102
}
330
C
100
AcDbDictionary
281
     1
  3
Normal
350
F
100
AcDbDictionaryWithDefault
340
F
  0
DICTIONARY
  5
2A
102
{ACAD_REACTORS
330
C
102
}
330
C
100
AcDbDictionary
281
     1
  3
Standard
350
2B
  0
DICTIONARY
  5
2C
102
{ACAD_REACTORS
330
C
102
}
330
C
100
AcDbDictionary
281
     1
  3
CTABLESTYLE
350
2D
  0
LAYOUT
  5
1E
102
{ACAD_REACTORS
330
1A
102
}
330
1A
100
AcDbPlotSettings
  1

  2

  4

  6

 40
0.0
 41
0.0
 42
0.0
 43
0.0
 44
0.0
 45
0.0
 46
0.0
 47
0.0
 48
0.0
 49
0.0
140
0.0
141
0.0
142
1.0
143
1.0
 70
   688
 72
     0
 73
     0
 74
     5
  7

 75
    16
147
1.0
148
0.0
149
0.0
100
AcDbLayout
  1
Layout1
 70
     1
 71
     1
 10
0.0
 20
0.0
 11
12.0
 21
9.0
 12
0.0
 22
0.0
 32
0.0
 14
1.00000000000000E+20
 24
1.00000000000000E+20
 34
1.00000000000000E+20
 15
-1.00000000000000E+20
 25
-1.00000000000000E+20
 35
-1.00000000000000E+20
146
0.0
 13
0.0
 23
0.0
 33
0.0
 16
1.0
 26
0.0
 36
0.0
 17
0.0
 27
1.0
 37
0.0
 76
     0
330
1B
  0
LAYOUT
  5
26
102
{ACAD_REACTORS
330
1A
102
}
330
1A
100
AcDbPlotSettings
  1

  2

  4

  6

 40
0.0
 41
0.0
 42
0.0
 43
0.0
 44
0.0
 45
0.0
 46
0.0
 47
0.0
 48
0.0
 49
0.0
140
0.0
141
0.0
142
1.0
143
1.0
 70
   688
 72
     0
 73
     0
 74
     5
  7

 75
    16
147
1.0
148
0.0
149
0.0
100
AcDbLayout
  1
Layout2
 70
     1
 71
     2
 10
0.0
 20
0.0
 11
0.0
 21
0.0
 12
0.0
 22
0.0
 32
0.0
 14
0.0
 24
0.0
 34
0.0
 15
0.0
 25
0.0
 35
0.0
146
0.0
 13
0.0
 23
0.0
 33
0.0
 16
1.0
 26
0.0
 36
0.0
 17
0.0
 27
1.0
 37
0.0
 76
     0
330
23
  0
LAYOUT
  5
22
102
{ACAD_REACTORS
330
1A
102
}
330
1A
100
AcDbPlotSettings
  1

  2

  4

  6

 40
0.0
 41
0.0
 42
0.0
 43
0.0
 44
0.0
 45
0.0
 46
0.0
 47
0.0
 48
0.0
 49
0.0
140
0.0
141
0.0
142
1.0
143
1.0
 70
  1712
 72
     0
 73
     0
 74
     0
  7

 75
     0
147
1.0
148
0.0
149
0.0
100
AcDbLayout
  1
Model
 70
     1
 71
     0
 10
0.0
 20
0.0
 11
0.0
 21
0.0
 12
0.0
 22
0.0
 32
0.0
 14
0.0
 24
0.0
 34
0.0
 15
315.0
 25
445.5
 35
0.0
146
0.0
 13
0.0
 23
0.0
 33
0.0
 16
1.0
 26
0.0
 36
0.0
 17
0.0
 27
1.0
 37
0.0
 76
     0
330
1F
  0
MLINESTYLE
  5
18
102
{ACAD_REACTORS
330
17
102
}
330
17
100
AcDbMlineStyle
  2
Standard
 70
     0
  3

 62
   256
 51
90.0
 52
90.0
 71
     2
 49
0.5
 62
   256
  6
BYLAYER
 49
-0.5
 62
   256
  6
BYLAYER
  0
ACDBPLACEHOLDER
  5
F
102
{ACAD_REACTORS
330
E
102
}
330
E
  0
TABLESTYLE
  5
2B
102
{ACAD_REACTORS
330
2A
102
}
330
2A
100
AcDbTableStyle
  3
Standard
 70
     0
 71
     0
 40
0.06
 41
0.06
280
     0
281
     0
  7
Standard
140
0.18
170
     2
 62
     0
 63
     7
283
     0
274
    -2
284
     1
 64
     0
275
    -2
285
     1
 65
     0
276
    -2
286
     1
 66
     0
277
    -2
287
     1
 67
     0
278
    -2
288
     1
 68
     0
279
    -2
289
     1
 69
     0
  7
Standard
140
0.25
170
     5
 62
     0
 63
     7
283
     0
274
    -2
284
     1
 64
     0
275
    -2
285
     1
 65
     0
276
    -2
286
     1
 66
     0
277
    -2
287
     1
 67
     0
278
    -2
288
     1
 68
     0
279
    -2
289
     1
 69
     0
  7
Standard
140
0.18
170
     5
 62
     0
 63
     7
283
     0
274
    -2
284
     1
 64
     0
275
    -2
285
     1
 65
     0
276
    -2
286
     1
 66
     0
277
    -2
287
     1
 67
     0
278
    -2
288
     1
 68
     0
279
    -2
289
     1
 69
     0
  0
DICTIONARYVAR
  5
2D
102
{ACAD_REACTORS
330
2C
102
}
330
2C
100
DictionaryVariables
280
     0
  1
Standard
  0
ENDSEC
  0
EOF
