  0
SECTION
  2
HEADER
  9
$ACADVER
  1
AC1015
  9
$ACADMAINTVER
 70
     6
  9
$DWGCODEPAGE
  3
ANSI_932
  9
$INSBASE
 10
0.0
 20
0.0
 30
0.0
  9
$EXTMIN
 10
0.0
 20
0.0
 30
0.0
  9
$EXTMAX
 10
315.00000000315
 20
445.500000004455
 30
0.0
  9
$LIMMIN
 10
0.0
 20
0.0
  9
$LIMMAX
 10
12.0
 20
9.0
  9
$ORTHOMODE
 70
     0
  9
$REGENMODE
 70
     1
  9
$FILLMODE
 70
     1
  9
$QTEXTMODE
 70
     0
  9
$MIRRTEXT
 70
     1
  9
$LTSCALE
 40
1.0
  9
$ATTMODE
 70
     1
  9
$TEXTSIZE
 40
0.2
  9
$TRACEWID
 40
0.05
  9
$TEXTSTYLE
  7
Standard
  9
$CLAYER
  8
0
  9
$CELTYPE
  6
ByLayer
  9
$CECOLOR
 62
   256
  9
$CELTSCALE
 40
1.0
  9
$DISPSILH
 70
     0
  9
$DIMSCALE
 40
1.0
  9
$DIMASZ
 40
0.18
  9
$DIMEXO
 40
0.0625
  9
$DIMDLI
 40
0.38
  9
$DIMRND
 40
0.0
  9
$DIMDLE
 40
0.0
  9
$DIMEXE
 40
0.18
  9
$DIMTP
 40
0.0
  9
$DIMTM
 40
0.0
  9
$DIMTXT
 40
0.18
  9
$DIMCEN
 40
0.09
  9
$DIMTSZ
 40
0.0
  9
$DIMTOL
 70
     0
  9
$DIMLIM
 70
     0
  9
$DIMTIH
 70
     1
  9
$DIMTOH
 70
     1
  9
$DIMSE1
 70
     0
  9
$DIMSE2
 70
     0
  9
$DIMTAD
 70
     0
  9
$DIMZIN
 70
     0
  9
$DIMBLK
  1

  9
$DIMASO
 70
     1
  9
$DIMSHO
 70
     1
  9
$DIMPOST
  1

  9
$DIMAPOST
  1

  9
$DIMALT
 70
     0
  9
$DIMALTD
 70
     2
  9
$DIMALTF
 40
25.4
  9
$DIMLFAC
 40
1.0
  9
$DIMTOFL
 70
     0
  9
$DIMTVP
 40
0.0
  9
$DIMTIX
 70
     0
  9
$DIMSOXD
 70
     0
  9
$DIMSAH
 70
     0
  9
$DIMBLK1
  1

  9
$DIMBLK2
  1

  9
$DIMSTYLE
  2
Standard
  9
$DIMCLRD
 70
     0
  9
$DIMCLRE
 70
     0
  9
$DIMCLRT
 70
     0
  9
$DIMTFAC
 40
1.0
  9
$DIMGAP
 40
0.09
  9
$DIMJUST
 70
     0
  9
$DIMSD1
 70
     0
  9
$DIMSD2
 70
     0
  9
$DIMTOLJ
 70
     1
  9
$DIMTZIN
 70
     0
  9
$DIMALTZ
 70
     0
  9
$DIMALTTZ
 70
     0
  9
$DIMUPT
 70
     0
  9
$DIMDEC
 70
     4
  9
$DIMTDEC
 70
     4
  9
$DIMALTU
 70
     2
  9
$DIMALTTD
 70
     2
  9
$DIMTXSTY
  7
Standard
  9
$DIMAUNIT
 70
     0
  9
$DIMADEC
 70
     0
  9
$DIMALTRND
 40
0.0
  9
$DIMAZIN
 70
     0
  9
$DIMDSEP
 70
    46
  9
$DIMATFIT
 70
     3
  9
$DIMFRAC
 70
     0
  9
$DIMLDRBLK
  1

  9
$DIMLUNIT
 70
     2
  9
$DIMLWD
 70
    -2
  9
$DIMLWE
 70
    -2
  9
$DIMTMOVE
 70
     0
  9
$LUNITS
 70
     2
  9
$LUPREC
 70
     4
  9
$SKETCHINC
 40
0.1
  9
$FILLETRAD
 40
0.5
  9
$AUNITS
 70
     0
  9
$AUPREC
 70
     0
  9
$MENU
  1
.
  9
$ELEVATION
 40
0.0
  9
$PELEVATION
 40
0.0
  9
$THICKNESS
 40
0.0
  9
$LIMCHECK
 70
     0
  9
$CHAMFERA
 40
0.5
  9
$CHAMFERB
 40
0.5
  9
$CHAMFERC
 40
1.0
  9
$CHAMFERD
 40
0.0
  9
$SKPOLY
 70
     0
  9
$TDCREATE
 40
2456673.491566771
  9
$TDUCREATE
 40
2456673.116566771
  9
$TDUPDATE
 40
2456673.491567847
  9
$TDUUPDATE
 40
2456673.116567847
  9
$TDINDWG
 40
0.0000000116
  9
$TDUSRTIMER
 40
0.0000000116
  9
$USRTIMER
 70
     1
  9
$ANGBASE
 50
0.0
  9
$ANGDIR
 70
     0
  9
$PDMODE
 70
     0
  9
$PDSIZE
 40
0.0
  9
$PLINEWID
 40
0.0
  9
$SPLFRAME
 70
     0
  9
$SPLINETYPE
 70
     6
  9
$SPLINESEGS
 70
     8
  9
$HANDSEED
  5
431
  9
$SURFTAB1
 70
     6
  9
$SURFTAB2
 70
     6
  9
$SURFTYPE
 70
     6
  9
$SURFU
 70
     6
  9
$SURFV
 70
     6
  9
$UCSBASE
  2

  9
$UCSNAME
  2

  9
$UCSORG
 10
0.0
 20
0.0
 30
0.0
  9
$UCSXDIR
 10
1.0
 20
0.0
 30
0.0
  9
$UCSYDIR
 10
0.0
 20
1.0
 30
0.0
  9
$UCSORTHOREF
  2

  9
$UCSORTHOVIEW
 70
     0
  9
$UCSORGTOP
 10
0.0
 20
0.0
 30
0.0
  9
$UCSORGBOTTOM
 10
0.0
 20
0.0
 30
0.0
  9
$UCSORGLEFT
 10
0.0
 20
0.0
 30
0.0
  9
$UCSORGRIGHT
 10
0.0
 20
0.0
 30
0.0
  9
$UCSORGFRONT
 10
0.0
 20
0.0
 30
0.0
  9
$UCSORGBACK
 10
0.0
 20
0.0
 30
0.0
  9
$PUCSBASE
  2

  9
$PUCSNAME
  2

  9
$PUCSORG
 10
0.0
 20
0.0
 30
0.0
  9
$PUCSXDIR
 10
1.0
 20
0.0
 30
0.0
  9
$PUCSYDIR
 10
0.0
 20
1.0
 30
0.0
  9
$PUCSORTHOREF
  2

  9
$PUCSORTHOVIEW
 70
     0
  9
$PUCSORGTOP
 10
0.0
 20
0.0
 30
0.0
  9
$PUCSORGBOTTOM
 10
0.0
 20
0.0
 30
0.0
  9
$PUCSORGLEFT
 10
0.0
 20
0.0
 30
0.0
  9
$PUCSORGRIGHT
 10
0.0
 20
0.0
 30
0.0
  9
$PUCSORGFRONT
 10
0.0
 20
0.0
 30
0.0
  9
$PUCSORGBACK
 10
0.0
 20
0.0
 30
0.0
  9
$USERI1
 70
     0
  9
$USERI2
 70
     0
  9
$USERI3
 70
     0
  9
$USERI4
 70
     0
  9
$USERI5
 70
     0
  9
$USERR1
 40
18.1
  9
$USERR2
 40
0.0
  9
$USERR3
 40
0.0
  9
$USERR4
 40
0.0
  9
$USERR5
 40
0.0
  9
$WORLDVIEW
 70
     1
  9
$SHADEDGE
 70
     3
  9
$SHADEDIF
 70
    70
  9
$TILEMODE
 70
     1
  9
$MAXACTVP
 70
    64
  9
$PINSBASE
 10
0.0
 20
0.0
 30
0.0
  9
$PLIMCHECK
 70
     0
  9
$PEXTMIN
 10
1.00000000000000E+20
 20
1.00000000000000E+20
 30
1.00000000000000E+20
  9
$PEXTMAX
 10
-1.00000000000000E+20
 20
-1.00000000000000E+20
 30
-1.00000000000000E+20
  9
$PLIMMIN
 10
0.0
 20
0.0
  9
$PLIMMAX
 10
12.0
 20
9.0
  9
$UNITMODE
 70
     0
  9
$VISRETAIN
 70
     1
  9
$PLINEGEN
 70
     0
  9
$PSLTSCALE
 70
     1
  9
$TREEDEPTH
 70
  3020
  9
$CMLSTYLE
  2
Standard
  9
$CMLJUST
 70
     0
  9
$CMLSCALE
 40
1.0
  9
$PROXYGRAPHICS
 70
     1
  9
$MEASUREMENT
 70
     1
  9
$CELWEIGHT
370
    -1
  9
$ENDCAPS
280
     0
  9
$JOINSTYLE
280
     0
  9
$LWDISPLAY
290
     0
  9
$INSUNITS
 70
     4
  9
$HYPERLINKBASE
  1

  9
$STYLESHEET
  1

  9
$XEDIT
290
     1
  9
$CEPSNTYPE
380
     0
  9
$PSTYLEMODE
290
     1
  9
$FINGERPRINTGUID
  2
{D90E28CE-6B2F-4835-9B77-F5100E178865}
  9
$VERSIONGUID
  2
{FAEB1C32-E019-11D5-929B-00C0DF256EC4}
  9
$EXTNAMES
290
     1
  9
$PSVPSCALE
 40
0.0
  9
$OLESTARTUP
290
     0
  0
ENDSEC
  0
SECTION
  2
CLASSES
  0
CLASS
  1
ACDBDICTIONARYWDFLT
  2
AcDbDictionaryWithDefault
  3
ObjectDBX Classes
 90
        0
280
     0
281
     0
  0
CLASS
  1
VISUALSTYLE
  2
AcDbVisualStyle
  3
ObjectDBX Classes
 90
     4095
280
     0
281
     0
  0
CLASS
  1
MATERIAL
  2
AcDbMaterial
  3
ObjectDBX Classes
 90
     1153
280
     0
281
     0
  0
CLASS
  1
DICTIONARYVAR
  2
AcDbDictionaryVar
  3
ObjectDBX Classes
 90
        0
280
     0
281
     0
  0
CLASS
  1
ACDBPLACEHOLDER
  2
AcDbPlaceHolder
  3
ObjectDBX Classes
 90
        0
280
     0
281
     0
  0
CLASS
  1
LAYOUT
  2
AcDbLayout
  3
ObjectDBX Classes
 90
        0
280
     0
281
     0
  0
ENDSEC
  0
SECTION
  2
TABLES
  0
TABLE
  2
VPORT
  5
8
330
0
100
AcDbSymbolTable
 70
     1
  0
VPORT
  5
29
330
8
100
AcDbSymbolTableRecord
100
AcDbViewportTableRecord
  2
*Active
 70
     0
 10
0.0
 20
0.0
 11
1.0
 21
1.0
 12
157.500000001575
 22
222.7500000022275
 13
0.0
 23
0.0
 14
0.5
 24
0.5
 15
0.5
 25
0.5
 16
0.0
 26
0.0
 36
1.0
 17
0.0
 27
0.0
 37
0.0
 40
490.0500000049005
 41
1.60267857142857
 42
50.0
 43
0.0
 44
0.0
 50
0.0
 51
0.0
 71
     0
 72
   100
 73
     1
 74
     3
 75
     0
 76
     0
 77
     0
 78
     0
281
     0
 65
     1
110
0.0
120
0.0
130
0.0
111
1.0
121
0.0
131
0.0
112
0.0
122
1.0
132
0.0
 79
     0
146
0.0
  0
ENDTAB
  0
TABLE
  2
LTYPE
  5
5
330
0
100
AcDbSymbolTable
 70
     8
  0
LTYPE
  5
14
330
5
100
AcDbSymbolTableRecord
100
AcDbLinetypeTableRecord
  2
ByBlock
 70
     0
  3

 72
    65
 73
     0
 40
0.0
  0
LTYPE
  5
15
330
5
100
AcDbSymbolTableRecord
100
AcDbLinetypeTableRecord
  2
ByLayer
 70
     0
  3

 72
    65
 73
     0
 40
0.0
  0
LTYPE
  5
16
330
5
100
AcDbSymbolTableRecord
100
AcDbLinetypeTableRecord
  2
Continuous
 70
     0
  3
Solid line
 72
    65
 73
     0
 40
0.0
  0
LTYPE
  5
3F
330
5
100
AcDbSymbolTableRecord
100
AcDbLinetypeTableRecord
  2
DASHED
 70
     0
  3
Dashed
 72
    65
 73
     2
 40
15.0
 49
7.0
 74
     0
 49
-8.0
 74
     0
  0
LTYPE
  5
40
330
5
100
AcDbSymbolTableRecord
100
AcDbLinetypeTableRecord
  2
DOTTED
 70
     0
  3
Dotted
 72
    65
 73
     2
 40
1.0
 49
0.0
 74
     0
 49
-1.0
 74
     0
  0
LTYPE
  5
41
330
5
100
AcDbSymbolTableRecord
100
AcDbLinetypeTableRecord
  2
DOT_CENTER
 70
     0
  3
Dot_Center
 72
    65
 73
     4
 40
14.0
 49
12.0
 74
     0
 49
-1.0
 74
     0
 49
0.0
 74
     0
 49
-1.0
 74
     0
  0
LTYPE
  5
42
330
5
100
AcDbSymbolTableRecord
100
AcDbLinetypeTableRecord
  2
LONG_DASHED
 70
     0
  3
Long_Dashed
 72
    65
 73
     2
 40
15.0
 49
10.0
 74
     0
 49
-5.0
 74
     0
  0
LTYPE
  5
43
330
5
100
AcDbSymbolTableRecord
100
AcDbLinetypeTableRecord
  2
DASH_CENTER
 70
     0
  3
Dash_Center
 72
    65
 73
     4
 40
14.0
 49
11.0
 74
     0
 49
-1.0
 74
     0
 49
1.0
 74
     0
 49
-1.0
 74
     0
  0
LTYPE
  5
44
330
5
100
AcDbSymbolTableRecord
100
AcDbLinetypeTableRecord
  2
PHANTOM
 70
     0
  3
Phantom
 72
    65
 73
     6
 40
13.0
 49
10.0
 74
     0
 49
-1.0
 74
     0
 49
0.0
 74
     0
 49
-1.0
 74
     0
 49
0.0
 74
     0
 49
-1.0
 74
     0
  0
LTYPE
  5
45
330
5
100
AcDbSymbolTableRecord
100
AcDbLinetypeTableRecord
  2
CENTER_DASH_DASH
 70
     0
  3
Center_Dash_Dash
 72
    65
 73
     6
 40
14.0
 49
9.0
 74
     0
 49
-1.0
 74
     0
 49
1.0
 74
     0
 49
-1.0
 74
     0
 49
1.0
 74
     0
 49
-1.0
 74
     0
  0
ENDTAB
  0
TABLE
  2
LAYER
  5
2
330
0
100
AcDbSymbolTable
 70
     3
  0
LAYER
  5
10
330
2
100
AcDbSymbolTableRecord
100
AcDbLayerTableRecord
  2
0
 70
     0
 62
     7
  6
Continuous
370
    -3
390
F
  0
LAYER
  5
46
330
2
100
AcDbSymbolTableRecord
100
AcDbLayerTableRecord
  2
1
 70
     0
 62
     7
  6
Continuous
370
    -3
390
F
  0
LAYER
  5
47
330
2
100
AcDbSymbolTableRecord
100
AcDbLayerTableRecord
  2
中心線
 70
     0
 62
     7
  6
Continuous
370
    -3
390
F
  0
ENDTAB
  0
TABLE
  2
STYLE
  5
3
330
0
100
AcDbSymbolTable
 70
     3
  0
STYLE
  5
11
330
3
100
AcDbSymbolTableRecord
100
AcDbTextStyleTableRecord
  2
Standard
 70
     0
 40
0.0
 41
1.0
 50
0.0
 71
     0
 42
0.2
  3
txt
  4

  0
STYLE
  5
320
330
3
100
AcDbSymbolTableRecord
100
AcDbTextStyleTableRecord
  2
CONVERTER_11
 70
     0
 40
0.0
 41
0.89
 50
0.0
 71
     0
 42
0.2
  3
MS Mincho.ttf
  4

1001
ACAD
1000
MS Mincho
1071
    32785
  0
STYLE
  5
3AC
330
3
100
AcDbSymbolTableRecord
100
AcDbTextStyleTableRecord
  2
CONVERTER_12
 70
     0
 40
0.0
 41
0.9
 50
0.0
 71
     0
 42
0.2
  3
txt.shx
  4

  0
ENDTAB
  0
TABLE
  2
VIEW
  5
6
330
0
100
AcDbSymbolTable
 70
     0
  0
ENDTAB
  0
TABLE
  2
UCS
  5
7
330
0
100
AcDbSymbolTable
 70
     0
  0
ENDTAB
  0
TABLE
  2
APPID
  5
9
330
0
100
AcDbSymbolTable
 70
     1
  0
APPID
  5
12
330
9
100
AcDbSymbolTableRecord
100
AcDbRegAppTableRecord
  2
ACAD
 70
     0
  0
ENDTAB
  0
TABLE
  2
DIMSTYLE
  5
A
330
0
100
AcDbSymbolTable
 70
     8
100
AcDbDimStyleTable
  0
DIMSTYLE
105
27
330
A
100
AcDbSymbolTableRecord
100
AcDbDimStyleTableRecord
  2
Standard
 70
     0
178
     0
340
11
  0
DIMSTYLE
105
3BF
102
{ACAD_REACTORS
330
3C0
102
}
330
A
100
AcDbSymbolTableRecord
100
AcDbDimStyleTableRecord
  2
ME10_DIM_10
 70
     0
 41
5.2500000000525
 42
0.0
 44
1.500000000015
 73
     0
 74
     0
 77
     1
 78
     8
140
5.2500000000525
147
1.500000000015
172
     1
173
     1
174
     1
175
     1
176
     2
177
     2
271
     2
178
     7
271
     2
340
320
  0
DIMSTYLE
105
3CB
102
{ACAD_REACTORS
330
3CC
102
}
330
A
100
AcDbSymbolTableRecord
100
AcDbDimStyleTableRecord
  2
ME10_DIM_11
 70
     0
 41
5.2500000000525
 42
0.0
 44
1.500000000015
 73
     0
 74
     0
 77
     1
 78
     8
140
5.2500000000525
147
1.500000000015
172
     1
173
     1
174
     1
175
     1
176
     2
177
     2
271
     2
178
     7
271
     2
340
320
  0
DIMSTYLE
105
3D6
102
{ACAD_REACTORS
330
3D7
102
}
330
A
100
AcDbSymbolTableRecord
100
AcDbDimStyleTableRecord
  2
ME10_DIM_12
 70
     0
 41
5.2500000000525
 42
0.0
 44
1.500000000015
 73
     0
 74
     0
 77
     1
 78
     8
140
5.2500000000525
147
1.500000000015
172
     1
173
     1
174
     1
175
     1
176
     2
177
     2
271
     2
178
     7
271
     2
340
320
  0
DIMSTYLE
105
3E2
102
{ACAD_REACTORS
330
3E3
102
}
330
A
100
AcDbSymbolTableRecord
100
AcDbDimStyleTableRecord
  2
ME10_DIM_13
 70
     0
 41
5.2500000000525
 42
0.0
 44
1.500000000015
 73
     0
 74
     0
 77
     1
 78
     8
140
5.2500000000525
147
1.500000000015
172
     1
173
     1
174
     1
175
     1
176
     2
177
     2
271
     2
178
     7
271
     2
340
3AC
  0
DIMSTYLE
105
3EE
102
{ACAD_REACTORS
330
3EF
102
}
330
A
100
AcDbSymbolTableRecord
100
AcDbDimStyleTableRecord
  2
ME10_DIM_14
 70
     0
  3
{\Fgdt;n}<>
 41
5.2500000000525
 42
0.0
 44
1.500000000015
 73
     0
 74
     0
 77
     1
 78
     8
140
5.2500000000525
147
1.500000000015
172
     1
173
     1
174
     1
175
     1
176
     2
177
     2
271
     2
178
     7
271
     2
340
3AC
  0
DIMSTYLE
105
3F9
102
{ACAD_REACTORS
330
3FA
102
}
330
A
100
AcDbSymbolTableRecord
100
AcDbDimStyleTableRecord
  2
ME10_DIM_15
 70
     0
  3
{\Fgdt;n}<>
 41
5.2500000000525
 42
0.0
 44
1.500000000015
 73
     0
 74
     0
 77
     1
 78
     8
140
5.2500000000525
147
1.500000000015
172
     1
173
     1
174
     1
175
     1
176
     2
177
     2
271
     2
178
     7
271
     2
340
3AC
  0
DIMSTYLE
105
404
102
{ACAD_REACTORS
330
405
102
}
330
A
100
AcDbSymbolTableRecord
100
AcDbDimStyleTableRecord
  2
ME10_DIM_16
 70
     0
 41
5.2500000000525
 42
0.0
 44
1.500000000015
 73
     0
 74
     0
 77
     1
 78
     8
140
5.2500000000525
147
1.500000000015
172
     1
173
     1
174
     1
175
     1
176
     2
177
     2
271
     2
178
     7
271
     2
340
3AC
  0
ENDTAB
  0
TABLE
  2
BLOCK_RECORD
  5
1
330
0
100
AcDbSymbolTable
 70
    20
  0
BLOCK_RECORD
  5
1F
330
1
100
AcDbSymbolTableRecord
100
AcDbBlockTableRecord
  2
*Model_Space
340
22
  0
BLOCK_RECORD
  5
1B
330
1
100
AcDbSymbolTableRecord
100
AcDbBlockTableRecord
  2
*Paper_Space
340
1E
  0
BLOCK_RECORD
  5
23
330
1
100
AcDbSymbolTableRecord
100
AcDbBlockTableRecord
  2
*Paper_Space0
340
26
  0
BLOCK_RECORD
  5
48
330
1
100
AcDbSymbolTableRecord
100
AcDbBlockTableRecord
  2
81-93AK
340
0
102
{BLKREFS
331
4F
102
}
  0
BLOCK_RECORD
  5
4B
330
1
100
AcDbSymbolTableRecord
100
AcDbBlockTableRecord
  2
T3360-H1AK
340
0
102
{BLKREFS
331
50
102
}
  0
BLOCK_RECORD
  5
4E
330
1
100
AcDbSymbolTableRecord
100
AcDbBlockTableRecord
  2
T3360F
340
0
102
{BLKREFS
331
6E
102
}
  0
BLOCK_RECORD
  5
53
330
1
100
AcDbSymbolTableRecord
100
AcDbBlockTableRecord
  2
84-35-I
340
0
102
{BLKREFS
331
6F
102
}
  0
BLOCK_RECORD
  5
56
330
1
100
AcDbSymbolTableRecord
100
AcDbBlockTableRecord
  2
92-53
340
0
102
{BLKREFS
331
70
102
}
  0
BLOCK_RECORD
  5
59
330
1
100
AcDbSymbolTableRecord
100
AcDbBlockTableRecord
  2
開示A4
340
0
102
{BLKREFS
331
71
102
}
  0
BLOCK_RECORD
  5
5C
330
1
100
AcDbSymbolTableRecord
100
AcDbBlockTableRecord
  2
台
340
0
102
{BLKREFS
331
72
102
}
  0
BLOCK_RECORD
  5
5F
330
1
100
AcDbSymbolTableRecord
100
AcDbBlockTableRecord
  2
98-153
340
0
102
{BLKREFS
331
73
102
}
  0
BLOCK_RECORD
  5
62
330
1
100
AcDbSymbolTableRecord
100
AcDbBlockTableRecord
  2
32-25
340
0
102
{BLKREFS
331
74
102
}
  0
BLOCK_RECORD
  5
65
330
1
100
AcDbSymbolTableRecord
100
AcDbBlockTableRecord
  2
73-1-21_5
340
0
102
{BLKREFS
331
75
102
}
  0
BLOCK_RECORD
  5
68
330
1
100
AcDbSymbolTableRecord
100
AcDbBlockTableRecord
  2
89-107
340
0
102
{BLKREFS
331
76
102
}
  0
BLOCK_RECORD
  5
6B
330
1
100
AcDbSymbolTableRecord
100
AcDbBlockTableRecord
  2
Y5050-0A
340
0
102
{BLKREFS
331
77
102
}
  0
BLOCK_RECORD
  5
3B4
330
1
100
AcDbSymbolTableRecord
100
AcDbBlockTableRecord
  2
*D13
340
0
  0
BLOCK_RECORD
  5
3C1
330
1
100
AcDbSymbolTableRecord
100
AcDbBlockTableRecord
  2
*D14
340
0
  0
BLOCK_RECORD
  5
3CD
330
1
100
AcDbSymbolTableRecord
100
AcDbBlockTableRecord
  2
*D15
340
0
  0
BLOCK_RECORD
  5
3D8
330
1
100
AcDbSymbolTableRecord
100
AcDbBlockTableRecord
  2
*D16
340
0
  0
BLOCK_RECORD
  5
3E4
330
1
100
AcDbSymbolTableRecord
100
AcDbBlockTableRecord
  2
*D17
340
0
  0
BLOCK_RECORD
  5
3F0
330
1
100
AcDbSymbolTableRecord
100
AcDbBlockTableRecord
  2
*D18
340
0
  0
BLOCK_RECORD
  5
3FB
330
1
100
AcDbSymbolTableRecord
100
AcDbBlockTableRecord
  2
*D19
340
0
  0
ENDTAB
  0
ENDSEC
  0
SECTION
  2
BLOCKS
  0
BLOCK
  5
20
330
1F
100
AcDbEntity
  8
0
100
AcDbBlockBegin
  2
*Model_Space
 70
     0
 10
0.0
 20
0.0
 30
0.0
  3
*Model_Space
  1

  0
ENDBLK
  5
21
330
1F
100
AcDbEntity
  8
0
100
AcDbBlockEnd
  0
BLOCK
  5
1C
330
1B
100
AcDbEntity
 67
     1
  8
0
100
AcDbBlockBegin
  2
*Paper_Space
 70
     0
 10
0.0
 20
0.0
 30
0.0
  3
*Paper_Space
  1

  0
ENDBLK
  5
1D
330
1B
100
AcDbEntity
 67
     1
  8
0
100
AcDbBlockEnd
  0
BLOCK
  5
24
330
23
100
AcDbEntity
  8
0
100
AcDbBlockBegin
  2
*Paper_Space0
 70
     0
 10
0.0
 20
0.0
 30
0.0
  3
*Paper_Space0
  1

  0
ENDBLK
  5
25
330
23
100
AcDbEntity
  8
0
100
AcDbBlockEnd
  0
BLOCK
  5
49
330
48
100
AcDbEntity
  8
0
100
AcDbBlockBegin
  2
81-93AK
 70
     0
 10
242.5521155686933
 20
277.4197952320267
 30
0.0
  3
81-93AK
  1

  0
LINE
  5
78
330
48
100
AcDbEntity
  8
0
  6
Continuous
 62
     7
100
AcDbLine
 10
238.4003823762117
 20
259.6331675067468
 30
0.0
 11
238.4003823762117
 21
262.9618618445789
 31
0.0
  0
LINE
  5
79
330
48
100
AcDbEntity
  8
0
  6
Continuous
 62
     7
100
AcDbLine
 10
237.6003823762118
 20
253.4118618445788
 30
0.0
 11
230.8960163762118
 21
253.4118618445788
 31
0.0
  0
LINE
  5
7A
330
48
100
AcDbEntity
  8
0
  6
Continuous
 62
     7
100
AcDbLine
 10
237.6003823762118
 20
253.4118618445788
 30
0.0
 11
237.521495594293
 21
253.6118618445788
 31
0.0
  0
LINE
  5
7B
330
48
100
AcDbEntity
  8
0
  6
Continuous
 62
     7
100
AcDbLine
 10
241.4003823762117
 20
256.9618618445789
 30
0.0
 11
237.6003823762118
 21
253.4118618445788
 31
0.0
  0
LINE
  5
7C
330
48
100
AcDbEntity
  8
0
  6
Continuous
 62
     7
100
AcDbLine
 10
241.3379299604368
 20
257.1772150024237
 30
0.0
 11
237.521495594293
 21
253.6118618445788
 31
0.0
  0
LINE
  5
7D
330
48
100
AcDbEntity
  8
0
  6
Continuous
 62
     7
100
AcDbLine
 10
240.1070342524862
 20
257.806328878622
 30
0.0
 11
237.0087315118207
 21
254.911861844579
 31
0.0
  0
LINE
  5
7E
330
48
100
AcDbEntity
  8
0
  6
Continuous
 62
     7
100
AcDbLine
 10
239.4243735019765
 20
258.5370643298719
 30
0.0
 11
236.6142976022263
 21
255.911861844579
 31
0.0
  0
LINE
  5
7F
330
48
100
AcDbEntity
  8
0
  6
Continuous
 62
     7
100
AcDbLine
 10
240.1070342524862
 20
257.806328878622
 30
0.0
 11
239.4243735019765
 21
258.5370643298719
 31
0.0
  0
LINE
  5
80
330
48
100
AcDbEntity
  8
0
  6
Continuous
 62
     7
100
AcDbLine
 10
233.6560432802696
 20
257.2118618445788
 30
0.0
 11
230.8960163762118
 21
257.2118618445791
 31
0.0
  0
LINE
  5
81
330
48
100
AcDbEntity
  8
0
  6
Continuous
 62
     7
100
AcDbLine
 10
233.6560432802696
 20
257.411861844579
 30
0.0
 11
230.8960163762118
 21
257.4118618445791
 31
0.0
  0
LINE
  5
82
330
48
100
AcDbEntity
  8
0
  6
Continuous
 62
     7
100
AcDbLine
 10
238.4003823762117
 20
259.6331675067468
 30
0.0
 11
237.7520077833286
 21
259.0274491370797
 31
0.0
  0
LINE
  5
83
330
48
100
AcDbEntity
  8
0
  6
Continuous
 62
     7
100
AcDbLine
 10
238.6003823762118
 20
259.546312749954
 30
0.0
 11
237.8308945652476
 21
258.8274491370796
 31
0.0
  0
LINE
  5
84
330
48
100
AcDbEntity
  8
0
  6
Continuous
 62
     7
100
AcDbLine
 10
238.6003823762118
 20
259.546312749954
 30
0.0
 11
238.4003823762117
 21
259.6331675067468
 31
0.0
  0
LINE
  5
85
330
48
100
AcDbEntity
  8
0
  6
Continuous
 62
     7
100
AcDbLine
 10
238.6003823762118
 20
261.9618618445789
 30
0.0
 11
238.6003823762118
 21
259.546312749954
 31
0.0
  0
LINE
  5
86
330
48
100
AcDbEntity
  8
0
  6
Continuous
 62
     7
100
AcDbLine
 10
239.9503823762119
 20
261.9618618445789
 30
0.0
 11
238.4003823762117
 21
261.9618618445789
 31
0.0
  0
LINE
  5
87
330
48
100
AcDbEntity
  8
0
  6
PHANTOM
 62
     4
100
AcDbLine
 10
241.3962336115432
 20
259.6949546455119
 30
0.0
 11
236.8115145570235
 21
255.411861844579
 31
0.0
  0
LINE
  5
88
330
48
100
AcDbEntity
  8
0
  6
Continuous
 62
     7
100
AcDbLine
 10
230.8960163762118
 20
253.6118618445788
 30
0.0
 11
237.521495594293
 21
253.6118618445788
 31
0.0
  0
LINE
  5
89
330
48
100
AcDbEntity
  8
0
  6
Continuous
 62
     7
100
AcDbLine
 10
230.8960163762118
 20
254.911861844579
 30
0.0
 11
237.0087315118207
 21
254.911861844579
 31
0.0
  0
LINE
  5
8A
330
48
100
AcDbEntity
  8
0
  6
Continuous
 62
     7
100
AcDbLine
 10
230.8960163762118
 20
255.911861844579
 30
0.0
 11
236.6142976022263
 21
255.911861844579
 31
0.0
  0
LINE
  5
8B
330
48
100
AcDbEntity
  8
0
  6
Continuous
 62
     7
100
AcDbLine
 10
233.6560433762118
 20
258.111861844579
 30
0.0
 11
230.8960163762118
 21
258.111861844579
 31
0.0
  0
LINE
  5
8C
330
48
100
AcDbEntity
  8
0
  6
Continuous
 62
     7
100
AcDbLine
 10
241.4003823762117
 20
256.9618618445789
 30
0.0
 11
241.4003823762117
 21
256.003922844579
 31
0.0
  0
LINE
  5
8D
330
48
100
AcDbEntity
  8
0
  6
Continuous
 62
     7
100
AcDbLine
 10
238.4003823762117
 20
260.591106844579
 30
0.0
 11
237.2741453762118
 21
259.538963844579
 31
0.0
  0
LINE
  5
8E
330
48
100
AcDbEntity
  8
0
  6
Continuous
 62
     7
100
AcDbLine
 10
241.4003823762117
 20
256.003922844579
 30
0.0
 11
237.8764853762118
 21
252.7118618445789
 31
0.0
  0
LINE
  5
8F
330
48
100
AcDbEntity
  8
0
  6
Continuous
 62
     7
100
AcDbLine
 10
238.4003823762117
 20
262.9618618445789
 30
0.0
 11
239.6503823762117
 21
262.9618618445789
 31
0.0
  0
LINE
  5
90
330
48
100
AcDbEntity
  8
0
  6
Continuous
 62
     7
100
AcDbLine
 10
239.9503823762119
 20
262.661861844579
 30
0.0
 11
239.9503823762119
 21
261.9618618445789
 31
0.0
  0
LINE
  5
91
330
48
100
AcDbEntity
  8
0
  6
Continuous
 62
     7
100
AcDbLine
 10
241.4003823762117
 20
256.9618618445789
 30
0.0
 11
239.9503823762119
 21
261.9618618445789
 31
0.0
  0
LINE
  5
92
330
48
100
AcDbEntity
  8
0
  6
Continuous
 62
     7
100
AcDbLine
 10
238.4003823762117
 20
260.591106844579
 30
0.0
 11
238.4003823762117
 21
262.9618618445789
 31
0.0
  0
LINE
  5
93
330
48
100
AcDbEntity
  8
0
  6
Continuous
 62
     7
100
AcDbLine
 10
230.8960163762118
 20
252.7118618445789
 30
0.0
 11
237.8764853762118
 21
252.7118618445789
 31
0.0
  0
LINE
  5
94
330
48
100
AcDbEntity
  8
1
  6
PHANTOM
 62
     4
100
AcDbLine
 10
236.8115145570235
 20
255.411861844579
 30
0.0
 11
227.639600494511
 21
255.411861844579
 31
0.0
  0
ARC
  5
95
330
48
100
AcDbEntity
  8
1
  6
Continuous
 62
     7
100
AcDbCircle
 10
233.6560432802696
 20
263.411861844579
 30
0.0
 40
6.200000000000216
100
AcDbArc
 50
270.0
 51
313.051914993489
  0
ARC
  5
96
330
48
100
AcDbEntity
  8
0
  6
Continuous
 62
     7
100
AcDbCircle
 10
239.6503823762117
 20
262.661861844579
 30
0.0
 40
0.3000000000002103
100
AcDbArc
 50
0.0
 51
90.0
  0
ARC
  5
97
330
48
100
AcDbEntity
  8
0
  6
Continuous
 62
     7
100
AcDbCircle
 10
233.6560433762118
 20
263.411861844579
 30
0.0
 40
5.300000000000011
100
AcDbArc
 50
270.0
 51
313.0519149999991
  0
ARC
  5
98
330
48
100
AcDbEntity
  8
1
  6
Continuous
 62
     7
100
AcDbCircle
 10
233.6560432802696
 20
263.411861844579
 30
0.0
 40
6.0
100
AcDbArc
 50
270.0
 51
313.0519149934881
  0
ENDBLK
  5
4A
330
48
100
AcDbEntity
  8
0
100
AcDbBlockEnd
  0
BLOCK
  5
4C
330
4B
100
AcDbEntity
  8
0
100
AcDbBlockBegin
  2
T3360-H1AK
 70
     0
 10
430.8960163762116
 20
248.1197952320266
 30
0.0
  3
T3360-H1AK
  1

  0
LINE
  5
1D7
330
4B
100
AcDbEntity
  8
0
  6
Continuous
 62
     7
100
AcDbLine
 10
187.8651532429633
 20
239.061861844579
 30
0.0
 11
175.8960163762118
 21
239.061861844579
 31
0.0
  0
LINE
  5
1D8
330
4B
100
AcDbEntity
  8
0
  6
Continuous
 62
     7
100
AcDbLine
 10
185.8960163762118
 20
237.411861844579
 30
0.0
 11
175.8960163762118
 21
237.411861844579
 31
0.0
  0
LINE
  5
1D9
330
4B
100
AcDbEntity
  8
0
  6
Continuous
 62
     7
100
AcDbLine
 10
185.8960163762118
 20
242.6779548445793
 30
0.0
 11
175.8960163762118
 21
242.6779548445793
 31
0.0
  0
LINE
  5
1DA
330
4B
100
AcDbEntity
  8
0
  6
Continuous
 62
     7
100
AcDbLine
 10
187.8960163762118
 20
242.244599844579
 30
0.0
 11
175.8960163762118
 21
242.244599844579
 31
0.0
  0
LINE
  5
1DB
330
4B
100
AcDbEntity
  8
0
  6
Continuous
 62
     7
100
AcDbLine
 10
187.8960163762118
 20
245.4202998445791
 30
0.0
 11
175.8960163762118
 21
245.4202998445791
 31
0.0
  0
LINE
  5
1DC
330
4B
100
AcDbEntity
  8
0
  6
Continuous
 62
     7
100
AcDbLine
 10
185.8960163762118
 20
273.411861844579
 30
0.0
 11
175.8960163762118
 21
273.411861844579
 31
0.0
  0
LINE
  5
1DD
330
4B
100
AcDbEntity
  8
0
  6
Continuous
 62
     7
100
AcDbLine
 10
187.8660772516249
 20
271.7566228446445
 30
0.0
 11
175.8960173762117
 21
271.7629128445789
 31
0.0
  0
LINE
  5
1DE
330
4B
100
AcDbEntity
  8
0
  6
Continuous
 62
     7
100
AcDbLine
 10
185.8960163762118
 20
268.145768844579
 30
0.0
 11
175.8960163762118
 21
268.145768844579
 31
0.0
  0
LINE
  5
1DF
330
4B
100
AcDbEntity
  8
0
  6
Continuous
 62
     7
100
AcDbLine
 10
187.8960163762118
 20
268.579123844579
 30
0.0
 11
175.8960163762118
 21
268.579123844579
 31
0.0
  0
LINE
  5
1E0
330
4B
100
AcDbEntity
  8
0
  6
Continuous
 62
     7
100
AcDbLine
 10
187.8960163762118
 20
265.403423844579
 30
0.0
 11
175.8960163762118
 21
265.403423844579
 31
0.0
  0
LINE
  5
1E1
330
4B
100
AcDbEntity
  8
0
  6
Continuous
 62
     7
100
AcDbLine
 10
187.8960163762118
 20
257.631658844579
 30
0.0
 11
175.8960163762118
 21
257.631658844579
 31
0.0
  0
LINE
  5
1E2
330
4B
100
AcDbEntity
  8
0
  6
Continuous
 62
     7
100
AcDbLine
 10
187.8960163762118
 20
253.1920648445791
 30
0.0
 11
175.8960163762118
 21
253.1920648445791
 31
0.0
  0
LINE
  5
1E3
330
4B
100
AcDbEntity
  8
0
  6
Continuous
 62
     7
100
AcDbLine
 10
175.8960163762118
 20
255.411861844579
 30
0.0
 11
175.8960163762118
 21
237.411861844579
 31
0.0
  0
LINE
  5
1E4
330
4B
100
AcDbEntity
  8
0
  6
Continuous
 62
     7
100
AcDbLine
 10
175.8960163762118
 20
255.411861844579
 30
0.0
 11
175.8960163762118
 21
273.411861844579
 31
0.0
  0
LINE
  5
284
330
4B
100
AcDbEntity
  8
0
  6
Continuous
 62
     7
100
AcDbLine
 10
187.8960163762118
 20
256.411861844579
 30
0.0
 11
194.3960163762118
 21
256.4118618445788
 31
0.0
  0
LINE
  5
285
330
4B
100
AcDbEntity
  8
0
  6
Continuous
 62
     7
100
AcDbLine
 10
187.8960163762118
 20
254.411861844579
 30
0.0
 11
194.3960163762118
 21
254.411861844579
 31
0.0
  0
LINE
  5
286
330
4B
100
AcDbEntity
  8
0
  6
Continuous
 62
     7
100
AcDbLine
 10
187.8960163762118
 20
271.411861844579
 30
0.0
 11
187.8960163762118
 21
255.411861844579
 31
0.0
  0
LINE
  5
287
330
4B
100
AcDbEntity
  8
0
  6
Continuous
 62
     7
100
AcDbLine
 10
187.8960163762118
 20
239.411861844579
 30
0.0
 11
187.8960163762118
 21
255.411861844579
 31
0.0
  0
LINE
  5
288
330
4B
100
AcDbEntity
  8
0
  6
Continuous
 62
     7
100
AcDbLine
 10
210.8960163762118
 20
234.661861844579
 30
0.0
 11
210.8960163762117
 21
264.1118618445791
 31
0.0
  0
LINE
  5
289
330
4B
100
AcDbEntity
  8
0
  6
Continuous
 62
     7
100
AcDbLine
 10
207.8960163762118
 20
264.911861844579
 30
0.0
 11
188.3960163762118
 21
264.911861844579
 31
0.0
  0
LINE
  5
28A
330
4B
100
AcDbEntity
  8
0
  6
Continuous
 62
     7
100
AcDbLine
 10
201.8960163762118
 20
256.4118618445788
 30
0.0
 11
208.4048873762118
 21
256.4118618445788
 31
0.0
  0
LINE
  5
28B
330
4B
100
AcDbEntity
  8
0
  6
Continuous
 62
     7
100
AcDbLine
 10
208.3960163762118
 20
254.411861844579
 30
0.0
 11
201.8960163762118
 21
254.411861844579
 31
0.0
  0
LINE
  5
28C
330
4B
100
AcDbEntity
  8
0
  6
Continuous
 62
     7
100
AcDbLine
 10
209.6460163762118
 20
277.411861844579
 30
0.0
 11
208.8960163762118
 21
277.411861844579
 31
0.0
  0
LINE
  5
28D
330
4B
100
AcDbEntity
  8
0
  6
Continuous
 62
     7
100
AcDbLine
 10
212.4675902514666
 20
263.811861844579
 30
0.0
 11
211.1960163762117
 21
263.811861844579
 31
0.0
  0
LINE
  5
28E
330
4B
100
AcDbEntity
  8
0
  6
Continuous
 62
     7
100
AcDbLine
 10
216.8960163762118
 20
262.2118618445791
 30
0.0
 11
218.4960163762118
 21
263.811861844579
 31
0.0
  0
LINE
  5
28F
330
4B
100
AcDbEntity
  8
0
  6
Continuous
 62
     7
100
AcDbLine
 10
214.8960163762118
 20
262.2118618445791
 30
0.0
 11
216.8960163762118
 21
262.2118618445791
 31
0.0
  0
LINE
  5
290
330
4B
100
AcDbEntity
  8
0
  6
Continuous
 62
     7
100
AcDbLine
 10
214.8960163762118
 20
262.2118618445791
 30
0.0
 11
213.8818045110338
 21
263.2260747097558
 31
0.0
  0
LINE
  5
291
330
4B
100
AcDbEntity
  8
0
  6
Continuous
 62
     7
100
AcDbLine
 10
214.8960163762118
 20
248.611861844579
 30
0.0
 11
216.8960163762118
 21
248.611861844579
 31
0.0
  0
LINE
  5
292
330
4B
100
AcDbEntity
  8
0
  6
Continuous
 62
     7
100
AcDbLine
 10
214.8960163762118
 20
255.411861844579
 30
0.0
 11
214.8960163762118
 21
248.611861844579
 31
0.0
  0
LINE
  5
293
330
4B
100
AcDbEntity
  8
0
  6
Continuous
 62
     7
100
AcDbLine
 10
216.8960163762118
 20
255.411861844579
 30
0.0
 11
216.8960163762118
 21
248.611861844579
 31
0.0
  0
LINE
  5
294
330
4B
100
AcDbEntity
  8
0
  6
Continuous
 62
     7
100
AcDbLine
 10
214.8960163762118
 20
255.411861844579
 30
0.0
 11
214.8960163762118
 21
262.2118618445791
 31
0.0
  0
LINE
  5
295
330
4B
100
AcDbEntity
  8
0
  6
Continuous
 62
     7
100
AcDbLine
 10
216.8960163762118
 20
255.411861844579
 30
0.0
 11
216.8960163762118
 21
262.2118618445791
 31
0.0
  0
LINE
  5
296
330
4B
100
AcDbEntity
  8
0
  6
Continuous
 62
     7
100
AcDbLine
 10
213.3460163762118
 20
255.411861844579
 30
0.0
 11
213.3460163762118
 21
263.311861844579
 31
0.0
  0
LINE
  5
297
330
4B
100
AcDbEntity
  8
0
  6
Continuous
 62
     7
100
AcDbLine
 10
218.4960163762118
 20
255.411861844579
 30
0.0
 11
218.4960163762118
 21
263.811861844579
 31
0.0
  0
LINE
  5
298
330
4B
100
AcDbEntity
  8
0
  6
Continuous
 62
     7
100
AcDbLine
 10
219.3960163762117
 20
263.811861844579
 30
0.0
 11
219.8960163762118
 21
263.2618618445791
 31
0.0
  0
LINE
  5
299
330
4B
100
AcDbEntity
  8
0
  6
Continuous
 62
     7
100
AcDbLine
 10
219.8960163762118
 20
255.411861844579
 30
0.0
 11
219.8960163762118
 21
263.2618618445791
 31
0.0
  0
LINE
  5
29A
330
4B
100
AcDbEntity
  8
0
  6
Continuous
 62
     7
100
AcDbLine
 10
219.3960163762117
 20
255.411861844579
 30
0.0
 11
219.3960163762117
 21
263.811861844579
 31
0.0
  0
LINE
  5
29B
330
4B
100
AcDbEntity
  8
0
  6
Continuous
 62
     7
100
AcDbLine
 10
219.3960163762117
 20
263.811861844579
 30
0.0
 11
218.4960163762118
 21
263.811861844579
 31
0.0
  0
LINE
  5
29C
330
4B
100
AcDbEntity
  8
0
  6
Continuous
 62
     7
100
AcDbLine
 10
219.3960163762117
 20
247.0118618445791
 30
0.0
 11
219.8960163762118
 21
247.561861844579
 31
0.0
  0
LINE
  5
29D
330
4B
100
AcDbEntity
  8
0
  6
Continuous
 62
     7
100
AcDbLine
 10
219.3960163762117
 20
247.0118618445791
 30
0.0
 11
218.4960163762118
 21
247.0118618445791
 31
0.0
  0
LINE
  5
29E
330
4B
100
AcDbEntity
  8
0
  6
Continuous
 62
     7
100
AcDbLine
 10
219.8960163762118
 20
255.411861844579
 30
0.0
 11
219.8960163762118
 21
247.561861844579
 31
0.0
  0
LINE
  5
29F
330
4B
100
AcDbEntity
  8
0
  6
Continuous
 62
     7
100
AcDbLine
 10
219.3960163762117
 20
255.411861844579
 30
0.0
 11
219.3960163762117
 21
247.0118618445791
 31
0.0
  0
LINE
  5
2A0
330
4B
100
AcDbEntity
  8
0
  6
Continuous
 62
     7
100
AcDbLine
 10
219.8960163762118
 20
255.411861844579
 30
0.0
 11
219.8960163762118
 21
247.561861844579
 31
0.0
  0
LINE
  5
2A1
330
4B
100
AcDbEntity
  8
0
  6
Continuous
 62
     7
100
AcDbLine
 10
218.4960163762118
 20
255.411861844579
 30
0.0
 11
218.4960163762118
 21
247.0118618445791
 31
0.0
  0
LINE
  5
2A2
330
4B
100
AcDbEntity
  8
0
  6
Continuous
 62
     7
100
AcDbLine
 10
213.3460163762118
 20
255.411861844579
 30
0.0
 11
213.3460163762118
 21
247.5118618445791
 31
0.0
  0
LINE
  5
2A3
330
4B
100
AcDbEntity
  8
0
  6
Continuous
 62
     7
100
AcDbLine
 10
214.8960163762118
 20
248.611861844579
 30
0.0
 11
213.8818045110351
 21
247.5976489794036
 31
0.0
  0
LINE
  5
2A4
330
4B
100
AcDbEntity
  8
0
  6
Continuous
 62
     7
100
AcDbLine
 10
216.8960163762118
 20
248.611861844579
 30
0.0
 11
218.4960163762118
 21
247.0118618445791
 31
0.0
  0
LINE
  5
2A5
330
4B
100
AcDbEntity
  8
0
  6
Continuous
 62
     7
100
AcDbLine
 10
208.3960163762118
 20
255.411861844579
 30
0.0
 11
208.3960163762118
 21
276.911861844579
 31
0.0
  0
LINE
  5
2A6
330
4B
100
AcDbEntity
  8
0
  6
Continuous
 62
     7
100
AcDbLine
 10
210.8960163762118
 20
276.161861844579
 30
0.0
 11
210.8960163762117
 21
264.1118618445791
 31
0.0
  0
LINE
  5
2A7
330
4B
100
AcDbEntity
  8
0
  6
Continuous
 62
     7
100
AcDbLine
 10
219.8960163762118
 20
263.2618618445791
 30
0.0
 11
229.8960163762118
 21
263.2618618445791
 31
0.0
  0
LINE
  5
2A8
330
4B
100
AcDbEntity
  8
0
  6
Continuous
 62
     7
100
AcDbLine
 10
230.8960163762118
 20
255.411861844579
 30
0.0
 11
230.8960163762118
 21
262.2618618445791
 31
0.0
  0
LINE
  5
2A9
330
4B
100
AcDbEntity
  8
0
  6
Continuous
 62
     7
100
AcDbLine
 10
219.8960163762118
 20
247.561861844579
 30
0.0
 11
229.8960163762118
 21
247.561861844579
 31
0.0
  0
LINE
  5
2AA
330
4B
100
AcDbEntity
  8
0
  6
Continuous
 62
     7
100
AcDbLine
 10
230.8960163762118
 20
255.411861844579
 30
0.0
 11
230.8960163762118
 21
248.561861844579
 31
0.0
  0
LINE
  5
2AB
330
4B
100
AcDbEntity
  8
0
  6
Continuous
 62
     7
100
AcDbLine
 10
212.4675902514641
 20
247.0118618445791
 30
0.0
 11
211.1960163762117
 21
247.0118618445791
 31
0.0
  0
LINE
  5
2AC
330
4B
100
AcDbEntity
  8
0
  6
Continuous
 62
     7
100
AcDbLine
 10
209.6460163762118
 20
233.411861844579
 30
0.0
 11
208.8960163762118
 21
233.411861844579
 31
0.0
  0
LINE
  5
2AD
330
4B
100
AcDbEntity
  8
0
  6
Continuous
 62
     7
100
AcDbLine
 10
208.3960163762118
 20
255.411861844579
 30
0.0
 11
208.3960163762118
 21
233.911861844579
 31
0.0
  0
LINE
  5
2AE
330
4B
100
AcDbEntity
  8
0
  6
Continuous
 62
     7
100
AcDbLine
 10
207.8960163762118
 20
245.911861844579
 30
0.0
 11
188.3960163762118
 21
245.911861844579
 31
0.0
  0
ARC
  5
2AF
330
4B
100
AcDbEntity
  8
0
  6
Continuous
 62
     7
100
AcDbCircle
 10
185.8960163762118
 20
239.411861844579
 30
0.0
 40
1.999999999999962
100
AcDbArc
 50
349.9213418922123
 51
0.0
  0
ARC
  5
2B0
330
4B
100
AcDbEntity
  8
0
  6
Continuous
 62
     7
100
AcDbCircle
 10
188.3960163762118
 20
245.411861844579
 30
0.0
 40
0.5
100
AcDbArc
 50
90.0
 51
180.0
  0
ARC
  5
2B1
330
4B
100
AcDbEntity
  8
0
  6
Continuous
 62
     7
100
AcDbCircle
 10
188.3960163762118
 20
265.411861844579
 30
0.0
 40
0.5
100
AcDbArc
 50
180.0
 51
270.0
  0
ARC
  5
2B2
330
4B
100
AcDbEntity
  8
0
  6
Continuous
 62
     7
100
AcDbCircle
 10
194.3960163762118
 20
271.4118618445788
 30
0.0
 40
6.5
100
AcDbArc
 50
179.9999999999985
 51
270.0
  0
ARC
  5
2B3
330
4B
100
AcDbEntity
  8
0
  6
Continuous
 62
     7
100
AcDbCircle
 10
194.3960163762118
 20
239.411861844579
 30
0.0
 40
6.5
100
AcDbArc
 50
90.0
 51
180.0
  0
ARC
  5
2B4
330
4B
100
AcDbEntity
  8
0
  6
Continuous
 62
     7
100
AcDbCircle
 10
185.8960163762118
 20
271.411861844579
 30
0.0
 40
1.999999999999879
100
AcDbArc
 50
9.92625529494077
 51
90.0
  0
ARC
  5
2B5
330
4B
100
AcDbEntity
  8
0
  6
Continuous
 62
     7
100
AcDbCircle
 10
201.8960163762118
 20
271.411861844579
 30
0.0
 40
6.5
100
AcDbArc
 50
270.0
 51
0.0
  0
ARC
  5
2B6
330
4B
100
AcDbEntity
  8
0
  6
Continuous
 62
     7
100
AcDbCircle
 10
208.8960163762118
 20
276.911861844579
 30
0.0
 40
0.5
100
AcDbArc
 50
90.0
 51
180.0
  0
ARC
  5
2B7
330
4B
100
AcDbEntity
  8
0
  6
Continuous
 62
     7
100
AcDbCircle
 10
209.6460163762118
 20
276.161861844579
 30
0.0
 40
1.25
100
AcDbArc
 50
0.0
 51
90.0
  0
ARC
  5
2B8
330
4B
100
AcDbEntity
  8
0
  6
Continuous
 62
     7
100
AcDbCircle
 10
207.8960163762118
 20
265.411861844579
 30
0.0
 40
0.5
100
AcDbArc
 50
270.0
 51
0.0
  0
ARC
  5
2B9
330
4B
100
AcDbEntity
  8
0
  6
Continuous
 62
     7
100
AcDbCircle
 10
211.1960163762117
 20
264.1118618445791
 30
0.0
 40
0.3000000000000114
100
AcDbArc
 50
180.0
 51
270.0
  0
ARC
  5
2BA
330
4B
100
AcDbEntity
  8
0
  6
Continuous
 62
     7
100
AcDbCircle
 10
207.8960163762118
 20
245.411861844579
 30
0.0
 40
0.5
100
AcDbArc
 50
0.0
 51
90.0
  0
ARC
  5
2BB
330
4B
100
AcDbEntity
  8
0
  6
Continuous
 62
     7
100
AcDbCircle
 10
211.1960163762117
 20
246.7118618445791
 30
0.0
 40
0.3000000000000114
100
AcDbArc
 50
90.0
 51
180.0
  0
ARC
  5
2BC
330
4B
100
AcDbEntity
  8
0
  6
Continuous
 62
     7
100
AcDbCircle
 10
209.6460163762118
 20
234.661861844579
 30
0.0
 40
1.25
100
AcDbArc
 50
270.0
 51
0.0
  0
ARC
  5
2BD
330
4B
100
AcDbEntity
  8
0
  6
Continuous
 62
     7
100
AcDbCircle
 10
201.8960163762118
 20
239.411861844579
 30
0.0
 40
6.5
100
AcDbArc
 50
359.9999999999983
 51
90.0
  0
ARC
  5
2BE
330
4B
100
AcDbEntity
  8
0
  6
Continuous
 62
     7
100
AcDbCircle
 10
185.8960163762118
 20
271.411861844579
 30
0.0
 40
2.0
100
AcDbArc
 50
0.0
 51
9.92625529494077
  0
ARC
  5
2BF
330
4B
100
AcDbEntity
  8
0
  6
Continuous
 62
     7
100
AcDbCircle
 10
185.8960163762118
 20
239.411861844579
 30
0.0
 40
2.0
100
AcDbArc
 50
270.0
 51
349.9213418922123
  0
ARC
  5
2C0
330
4B
100
AcDbEntity
  8
0
  6
Continuous
 62
     7
100
AcDbCircle
 10
208.8960163762118
 20
233.911861844579
 30
0.0
 40
0.5
100
AcDbArc
 50
180.0
 51
270.0
  0
ARC
  5
2C1
330
4B
100
AcDbEntity
  8
1
  6
Continuous
 62
     7
100
AcDbCircle
 10
212.4675902514666
 20
261.8118618445828
 30
0.0
 40
1.999999999996019
100
AcDbArc
 50
44.99997175359303
 51
90.0
  0
ARC
  5
2C2
330
4B
100
AcDbEntity
  8
1
  6
Continuous
 62
     7
100
AcDbCircle
 10
212.4675902514641
 20
249.0118618445805
 30
0.0
 40
2.000000000001393
100
AcDbArc
 50
270.0
 51
315.0000282464052
  0
ARC
  5
2C3
330
4B
100
AcDbEntity
  8
1
  6
Continuous
 62
     7
100
AcDbCircle
 10
229.8960163762118
 20
262.2618618445791
 30
0.0
 40
1.0
100
AcDbArc
 50
0.0
 51
90.0
  0
ARC
  5
2C4
330
4B
100
AcDbEntity
  8
1
  6
Continuous
 62
     7
100
AcDbCircle
 10
229.8960163762118
 20
248.561861844579
 30
0.0
 40
1.0
100
AcDbArc
 50
270.0
 51
0.0
  0
LWPOLYLINE
  5
2C5
330
4B
100
AcDbEntity
  8
0
  6
Continuous
 62
     7
100
AcDbPolyline
 90
      160
 70
     0
 43
0.0
 10
187.8963293762117
 20
242.2445498445791
 10
187.8523293762117
 20
242.247549844579
 10
187.8093293762117
 20
242.251549844579
 10
187.7653293762118
 20
242.2545498445791
 10
187.7223293762118
 20
242.258549844579
 10
187.6793293762117
 20
242.261549844579
 10
187.6353293762118
 20
242.265549844579
 10
187.5923293762118
 20
242.2685498445791
 10
187.5493293762118
 20
242.2725498445791
 10
187.5063293762117
 20
242.2755498445791
 10
187.4643293762117
 20
242.279549844579
 10
187.4213293762118
 20
242.283549844579
 10
187.3793293762117
 20
242.2875498445792
 10
187.3373293762117
 20
242.2915498445791
 10
187.2953293762116
 20
242.295549844579
 10
187.2533293762117
 20
242.299549844579
 10
187.2113293762118
 20
242.303549844579
 10
187.1703293762116
 20
242.307549844579
 10
187.1293293762117
 20
242.312549844579
 10
187.0893293762117
 20
242.3165498445791
 10
187.0483293762118
 20
242.3215498445791
 10
187.0083293762118
 20
242.325549844579
 10
186.9693293762118
 20
242.330549844579
 10
186.9303293762117
 20
242.335549844579
 10
186.8913293762116
 20
242.341549844579
 10
186.8523293762117
 20
242.346549844579
 10
186.8143293762117
 20
242.351549844579
 10
186.7773293762118
 20
242.357549844579
 10
186.7403293762118
 20
242.3635498445789
 10
186.7033293762117
 20
242.3695498445791
 10
186.6673293762117
 20
242.375549844579
 10
186.6313293762117
 20
242.3815498445791
 10
186.5963293762118
 20
242.3885498445792
 10
186.5623293762117
 20
242.395549844579
 10
186.5283293762118
 20
242.402549844579
 10
186.4943293762117
 20
242.409549844579
 10
186.4613293762118
 20
242.4175498445791
 10
186.4293293762117
 20
242.424549844579
 10
186.3983293762117
 20
242.432549844579
 10
186.3673293762116
 20
242.4405498445789
 10
186.3363293762118
 20
242.449549844579
 10
186.3073293762118
 20
242.457549844579
 10
186.2783293762118
 20
242.466549844579
 10
186.2493293762118
 20
242.4755498445791
 10
186.2223293762118
 20
242.485549844579
 10
186.1953293762117
 20
242.495549844579
 10
186.1693293762118
 20
242.505549844579
 10
186.1443293762118
 20
242.515549844579
 10
186.1193293762117
 20
242.526549844579
 10
186.0963293762118
 20
242.5375498445792
 10
186.0733293762118
 20
242.548549844579
 10
186.0513293762117
 20
242.559549844579
 10
186.0303293762117
 20
242.5715498445791
 10
186.0103293762118
 20
242.584549844579
 10
185.9903293762118
 20
242.596549844579
 10
185.9723293762118
 20
242.609549844579
 10
185.9543293762117
 20
242.622549844579
 10
185.9383293762117
 20
242.636549844579
 10
185.9223293762118
 20
242.6505498445791
 10
185.9083293762117
 20
242.664549844579
 10
185.8943293762118
 20
242.6795498445791
 10
185.8823293762117
 20
242.6945498445792
 10
185.8703293762117
 20
242.710549844579
 10
185.8593293762117
 20
242.726549844579
 10
185.8503293762117
 20
242.7425498445792
 10
185.8413293762117
 20
242.759549844579
 10
185.8333293762117
 20
242.776549844579
 10
185.8273293762118
 20
242.793549844579
 10
185.8213293762117
 20
242.8115498445792
 10
185.8163293762118
 20
242.8295498445791
 10
185.8123293762117
 20
242.847549844579
 10
185.8093293762117
 20
242.866549844579
 10
185.8073293762118
 20
242.885549844579
 10
185.8053293762117
 20
242.904549844579
 10
185.8053293762117
 20
242.924549844579
 10
185.8053293762117
 20
242.9445498445792
 10
185.8073293762118
 20
242.9655498445791
 10
185.8093293762117
 20
242.985549844579
 10
185.8123293762117
 20
243.007549844579
 10
185.8163293762118
 20
243.0285498445791
 10
185.8203293762117
 20
243.0505498445792
 10
185.8263293762118
 20
243.072549844579
 10
185.8323293762118
 20
243.0945498445791
 10
185.8393293762117
 20
243.116549844579
 10
185.8473293762118
 20
243.139549844579
 10
185.8563293762118
 20
243.163549844579
 10
185.8653293762118
 20
243.1865498445792
 10
185.8753293762118
 20
243.210549844579
 10
185.8863293762117
 20
243.234549844579
 10
185.8973293762117
 20
243.258549844579
 10
185.9103293762117
 20
243.283549844579
 10
185.9223293762118
 20
243.307549844579
 10
185.9363293762117
 20
243.3335498445791
 10
185.9503293762118
 20
243.3585498445791
 10
185.9653293762117
 20
243.384549844579
 10
185.9813293762118
 20
243.409549844579
 10
185.9973293762117
 20
243.4365498445792
 10
186.0143293762117
 20
243.462549844579
 10
186.0323293762117
 20
243.4885498445789
 10
186.0503293762117
 20
243.515549844579
 10
186.0693293762116
 20
243.5425498445791
 10
186.0883293762117
 20
243.5705498445791
 10
186.1083293762117
 20
243.597549844579
 10
186.1293293762117
 20
243.625549844579
 10
186.1503293762117
 20
243.6535498445791
 10
186.1723293762118
 20
243.681549844579
 10
186.1943293762116
 20
243.709549844579
 10
186.2173293762118
 20
243.7385498445789
 10
186.2403293762118
 20
243.7675498445789
 10
186.2643293762117
 20
243.7965498445791
 10
186.2893293762118
 20
243.825549844579
 10
186.3143293762117
 20
243.854549844579
 10
186.3393293762117
 20
243.884549844579
 10
186.3653293762118
 20
243.914549844579
 10
186.3913293762116
 20
243.9445498445792
 10
186.4183293762117
 20
243.9745498445791
 10
186.4453293762117
 20
244.0045498445791
 10
186.4733293762117
 20
244.034549844579
 10
186.5013293762117
 20
244.0655498445789
 10
186.5293293762118
 20
244.096549844579
 10
186.5583293762118
 20
244.127549844579
 10
186.5883293762117
 20
244.158549844579
 10
186.6173293762116
 20
244.189549844579
 10
186.6473293762117
 20
244.2205498445791
 10
186.6783293762117
 20
244.252549844579
 10
186.7093293762117
 20
244.283549844579
 10
186.7403293762118
 20
244.3155498445789
 10
186.7713293762117
 20
244.347549844579
 10
186.8033293762117
 20
244.3795498445791
 10
186.8353293762118
 20
244.4115498445789
 10
186.8683293762117
 20
244.443549844579
 10
186.9003293762117
 20
244.476549844579
 10
186.9333293762118
 20
244.508549844579
 10
186.9673293762118
 20
244.5415498445791
 10
187.0003293762118
 20
244.5735498445791
 10
187.0343293762118
 20
244.606549844579
 10
187.0683293762118
 20
244.639549844579
 10
187.1023293762117
 20
244.6725498445791
 10
187.1373293762117
 20
244.705549844579
 10
187.1723293762118
 20
244.7385498445789
 10
187.2073293762118
 20
244.7715498445792
 10
187.2423293762116
 20
244.8045498445791
 10
187.2773293762118
 20
244.8385498445792
 10
187.3133293762117
 20
244.871549844579
 10
187.3483293762117
 20
244.905549844579
 10
187.3843293762118
 20
244.938549844579
 10
187.4203293762116
 20
244.972549844579
 10
187.4563293762117
 20
245.005549844579
 10
187.4923293762116
 20
245.039549844579
 10
187.5293293762118
 20
245.0735498445791
 10
187.5653293762117
 20
245.106549844579
 10
187.6023293762117
 20
245.140549844579
 10
187.6383293762117
 20
245.174549844579
 10
187.6753293762117
 20
245.2085498445791
 10
187.7123293762117
 20
245.2425498445792
 10
187.7483293762118
 20
245.276549844579
 10
187.7853293762117
 20
245.3105498445791
 10
187.8223293762116
 20
245.343549844579
 10
187.8593293762117
 20
245.377549844579
 10
187.8963293762117
 20
245.4115498445789
  0
LWPOLYLINE
  5
2C6
330
4B
100
AcDbEntity
  8
0
  6
Continuous
 62
     7
100
AcDbPolyline
 90
      160
 70
     0
 43
0.0
 10
187.8963293762117
 20
268.579549844579
 10
187.8523293762117
 20
268.575549844579
 10
187.8093293762117
 20
268.572549844579
 10
187.7653293762118
 20
268.568549844579
 10
187.7223293762118
 20
268.5655498445789
 10
187.6793293762117
 20
268.5615498445792
 10
187.6353293762118
 20
268.558549844579
 10
187.5923293762118
 20
268.5545498445791
 10
187.5493293762118
 20
268.551549844579
 10
187.5063293762117
 20
268.5475498445791
 10
187.4643293762117
 20
268.543549844579
 10
187.4213293762118
 20
268.540549844579
 10
187.3793293762117
 20
268.5365498445789
 10
187.3373293762117
 20
268.532549844579
 10
187.2953293762116
 20
268.5285498445791
 10
187.2533293762117
 20
268.524549844579
 10
187.2113293762118
 20
268.520549844579
 10
187.1703293762116
 20
268.5155498445791
 10
187.1293293762117
 20
268.511549844579
 10
187.0893293762117
 20
268.507549844579
 10
187.0483293762118
 20
268.502549844579
 10
187.0083293762118
 20
268.4975498445788
 10
186.9693293762118
 20
268.492549844579
 10
186.9303293762117
 20
268.4875498445789
 10
186.8913293762116
 20
268.482549844579
 10
186.8523293762117
 20
268.4775498445791
 10
186.8143293762117
 20
268.471549844579
 10
186.7773293762118
 20
268.466549844579
 10
186.7403293762118
 20
268.460549844579
 10
186.7033293762117
 20
268.454549844579
 10
186.6673293762117
 20
268.4485498445791
 10
186.6313293762117
 20
268.4415498445791
 10
186.5963293762118
 20
268.4355498445789
 10
186.5623293762117
 20
268.428549844579
 10
186.5283293762118
 20
268.4215498445791
 10
186.4943293762117
 20
268.414549844579
 10
186.4613293762118
 20
268.406549844579
 10
186.4293293762117
 20
268.3985498445791
 10
186.3983293762117
 20
268.3915498445789
 10
186.3673293762116
 20
268.382549844579
 10
186.3363293762118
 20
268.3745498445791
 10
186.3073293762118
 20
268.365549844579
 10
186.2783293762118
 20
268.356549844579
 10
186.2493293762118
 20
268.347549844579
 10
186.2223293762118
 20
268.338549844579
 10
186.1953293762117
 20
268.328549844579
 10
186.1693293762118
 20
268.318549844579
 10
186.1443293762118
 20
268.308549844579
 10
186.1193293762117
 20
268.2975498445791
 10
186.0963293762118
 20
268.2865498445789
 10
186.0733293762118
 20
268.2755498445791
 10
186.0513293762117
 20
268.2635498445792
 10
186.0303293762117
 20
268.251549844579
 10
186.0103293762118
 20
268.2395498445792
 10
185.9903293762118
 20
268.226549844579
 10
185.9723293762118
 20
268.213549844579
 10
185.9543293762117
 20
268.200549844579
 10
185.9383293762117
 20
268.187549844579
 10
185.9223293762118
 20
268.173549844579
 10
185.9083293762117
 20
268.158549844579
 10
185.8943293762118
 20
268.1435498445791
 10
185.8823293762117
 20
268.128549844579
 10
185.8703293762117
 20
268.1135498445789
 10
185.8593293762117
 20
268.097549844579
 10
185.8503293762117
 20
268.081549844579
 10
185.8413293762117
 20
268.0645498445789
 10
185.8333293762117
 20
268.0475498445791
 10
185.8273293762118
 20
268.030549844579
 10
185.8213293762117
 20
268.0125498445789
 10
185.8163293762118
 20
267.9945498445791
 10
185.8123293762117
 20
267.9755498445791
 10
185.8093293762117
 20
267.9575498445791
 10
185.8073293762118
 20
267.9385498445791
 10
185.8053293762117
 20
267.918549844579
 10
185.8053293762117
 20
267.8985498445791
 10
185.8053293762117
 20
267.878549844579
 10
185.8073293762118
 20
267.858549844579
 10
185.8093293762117
 20
267.837549844579
 10
185.8123293762117
 20
267.8165498445791
 10
185.8163293762118
 20
267.7955498445788
 10
185.8203293762117
 20
267.7735498445791
 10
185.8263293762118
 20
267.751549844579
 10
185.8323293762118
 20
267.729549844579
 10
185.8393293762117
 20
267.706549844579
 10
185.8473293762118
 20
267.683549844579
 10
185.8563293762118
 20
267.6605498445791
 10
185.8653293762118
 20
267.6375498445789
 10
185.8753293762118
 20
267.6135498445789
 10
185.8863293762117
 20
267.5895498445789
 10
185.8973293762117
 20
267.5655498445789
 10
185.9103293762117
 20
267.540549844579
 10
185.9223293762118
 20
267.5155498445791
 10
185.9363293762117
 20
267.490549844579
 10
185.9503293762118
 20
267.4655498445791
 10
185.9653293762117
 20
267.4395498445789
 10
185.9813293762118
 20
267.413549844579
 10
185.9973293762117
 20
267.3875498445789
 10
186.0143293762117
 20
267.3615498445791
 10
186.0323293762117
 20
267.334549844579
 10
186.0503293762117
 20
267.307549844579
 10
186.0693293762116
 20
267.280549844579
 10
186.0883293762117
 20
267.253549844579
 10
186.1083293762117
 20
267.2255498445791
 10
186.1293293762117
 20
267.1985498445791
 10
186.1503293762117
 20
267.1705498445788
 10
186.1723293762118
 20
267.1425498445789
 10
186.1943293762116
 20
267.1135498445789
 10
186.2173293762118
 20
267.085549844579
 10
186.2403293762118
 20
267.056549844579
 10
186.2643293762117
 20
267.027549844579
 10
186.2893293762118
 20
266.9985498445791
 10
186.3143293762117
 20
266.9685498445789
 10
186.3393293762117
 20
266.9395498445789
 10
186.3653293762118
 20
266.9095498445791
 10
186.3913293762116
 20
266.8795498445791
 10
186.4183293762117
 20
266.8495498445791
 10
186.4453293762117
 20
266.819549844579
 10
186.4733293762117
 20
266.788549844579
 10
186.5013293762117
 20
266.758549844579
 10
186.5293293762118
 20
266.7275498445791
 10
186.5583293762118
 20
266.6965498445791
 10
186.5883293762117
 20
266.665549844579
 10
186.6173293762116
 20
266.634549844579
 10
186.6473293762117
 20
266.6025498445791
 10
186.6783293762117
 20
266.5715498445791
 10
186.7093293762117
 20
266.539549844579
 10
186.7403293762118
 20
266.508549844579
 10
186.7713293762117
 20
266.476549844579
 10
186.8033293762117
 20
266.444549844579
 10
186.8353293762118
 20
266.4125498445792
 10
186.8683293762117
 20
266.3795498445791
 10
186.9003293762117
 20
266.347549844579
 10
186.9333293762118
 20
266.3155498445789
 10
186.9673293762118
 20
266.282549844579
 10
187.0003293762118
 20
266.2495498445791
 10
187.0343293762118
 20
266.2175498445791
 10
187.0683293762118
 20
266.184549844579
 10
187.1023293762117
 20
266.1515498445788
 10
187.1373293762117
 20
266.1185498445789
 10
187.1723293762118
 20
266.085549844579
 10
187.2073293762118
 20
266.051549844579
 10
187.2423293762116
 20
266.0185498445791
 10
187.2773293762118
 20
265.985549844579
 10
187.3133293762117
 20
265.9515498445791
 10
187.3483293762117
 20
265.918549844579
 10
187.3843293762118
 20
265.884549844579
 10
187.4203293762116
 20
265.851549844579
 10
187.4563293762117
 20
265.817549844579
 10
187.4923293762116
 20
265.7845498445791
 10
187.5293293762118
 20
265.750549844579
 10
187.5653293762117
 20
265.716549844579
 10
187.6023293762117
 20
265.682549844579
 10
187.6383293762117
 20
265.649549844579
 10
187.6753293762117
 20
265.615549844579
 10
187.7123293762117
 20
265.581549844579
 10
187.7483293762118
 20
265.5475498445791
 10
187.7853293762117
 20
265.5135498445792
 10
187.8223293762116
 20
265.479549844579
 10
187.8593293762117
 20
265.4455498445791
 10
187.8963293762117
 20
265.4115498445789
  0
LWPOLYLINE
  5
2C7
330
4B
100
AcDbEntity
  8
0
  6
Continuous
 62
     7
100
AcDbPolyline
 90
      160
 70
     0
 43
0.0
 10
187.8963293762117
 20
253.192549844579
 10
187.8583293762117
 20
253.2195498445791
 10
187.8203293762117
 20
253.247549844579
 10
187.7833293762117
 20
253.2755498445791
 10
187.7453293762117
 20
253.303549844579
 10
187.7073293762118
 20
253.331549844579
 10
187.6703293762116
 20
253.359549844579
 10
187.6323293762117
 20
253.3875498445789
 10
187.5953293762118
 20
253.415549844579
 10
187.5583293762118
 20
253.443549844579
 10
187.5203293762118
 20
253.471549844579
 10
187.4833293762117
 20
253.4995498445791
 10
187.4463293762117
 20
253.527549844579
 10
187.4093293762118
 20
253.555549844579
 10
187.3733293762118
 20
253.582549844579
 10
187.3363293762118
 20
253.610549844579
 10
187.3003293762117
 20
253.6385498445792
 10
187.2643293762117
 20
253.6665498445789
 10
187.2283293762117
 20
253.694549844579
 10
187.1923293762118
 20
253.722549844579
 10
187.1573293762117
 20
253.750549844579
 10
187.1223293762117
 20
253.7785498445791
 10
187.0873293762117
 20
253.806549844579
 10
187.0523293762117
 20
253.834549844579
 10
187.0183293762118
 20
253.8625498445789
 10
186.9833293762117
 20
253.890549844579
 10
186.9503293762118
 20
253.9175498445791
 10
186.9163293762117
 20
253.9455498445791
 10
186.8833293762118
 20
253.973549844579
 10
186.8503293762117
 20
254.001549844579
 10
186.8173293762118
 20
254.029549844579
 10
186.7853293762117
 20
254.057549844579
 10
186.7533293762117
 20
254.085549844579
 10
186.7223293762118
 20
254.1135498445789
 10
186.6913293762118
 20
254.141549844579
 10
186.6603293762117
 20
254.169549844579
 10
186.6303293762118
 20
254.197549844579
 10
186.6003293762117
 20
254.2255498445791
 10
186.5713293762117
 20
254.253549844579
 10
186.5423293762117
 20
254.280549844579
 10
186.5143293762117
 20
254.308549844579
 10
186.4863293762118
 20
254.336549844579
 10
186.4583293762117
 20
254.3645498445792
 10
186.4313293762118
 20
254.3925498445789
 10
186.4053293762117
 20
254.420549844579
 10
186.3793293762117
 20
254.4485498445791
 10
186.3543293762118
 20
254.476549844579
 10
186.3293293762117
 20
254.5045498445791
 10
186.3043293762117
 20
254.532549844579
 10
186.2813293762117
 20
254.5605498445789
 10
186.2583293762118
 20
254.588549844579
 10
186.2353293762117
 20
254.616549844579
 10
186.2133293762117
 20
254.6435498445791
 10
186.1923293762118
 20
254.6715498445791
 10
186.1713293762118
 20
254.699549844579
 10
186.1513293762117
 20
254.7275498445791
 10
186.1323293762117
 20
254.755549844579
 10
186.1133293762117
 20
254.783549844579
 10
186.0953293762118
 20
254.8115498445792
 10
186.0783293762117
 20
254.8395498445789
 10
186.0613293762117
 20
254.867549844579
 10
186.0463293762118
 20
254.895549844579
 10
186.0303293762117
 20
254.923549844579
 10
186.0163293762116
 20
254.9515498445791
 10
186.0023293762117
 20
254.979549844579
 10
185.9893293762118
 20
255.0065498445791
 10
185.9773293762117
 20
255.034549844579
 10
185.9663293762117
 20
255.062549844579
 10
185.9553293762117
 20
255.0905498445791
 10
185.9463293762117
 20
255.1185498445791
 10
185.9373293762117
 20
255.146549844579
 10
185.9293293762117
 20
255.174549844579
 10
185.9223293762118
 20
255.202549844579
 10
185.9153293762116
 20
255.230549844579
 10
185.9103293762117
 20
255.258549844579
 10
185.9053293762117
 20
255.2865498445789
 10
185.9013293762117
 20
255.314549844579
 10
185.8993293762117
 20
255.342549844579
 10
185.8973293762117
 20
255.3695498445791
 10
185.8963293762117
 20
255.3975498445791
 10
185.8963293762117
 20
255.425549844579
 10
185.8973293762117
 20
255.453549844579
 10
185.8993293762117
 20
255.481549844579
 10
185.9013293762117
 20
255.509549844579
 10
185.9053293762117
 20
255.5375498445792
 10
185.9103293762117
 20
255.5655498445789
 10
185.9153293762116
 20
255.593549844579
 10
185.9223293762118
 20
255.621549844579
 10
185.9293293762117
 20
255.649549844579
 10
185.9373293762117
 20
255.6775498445791
 10
185.9463293762117
 20
255.704549844579
 10
185.9553293762117
 20
255.732549844579
 10
185.9663293762117
 20
255.760549844579
 10
185.9773293762117
 20
255.788549844579
 10
185.9893293762118
 20
255.8165498445791
 10
186.0023293762117
 20
255.8445498445791
 10
186.0163293762116
 20
255.872549844579
 10
186.0303293762117
 20
255.9005498445791
 10
186.0463293762118
 20
255.928549844579
 10
186.0613293762117
 20
255.956549844579
 10
186.0783293762117
 20
255.984549844579
 10
186.0953293762118
 20
256.0125498445789
 10
186.1133293762117
 20
256.040549844579
 10
186.1323293762117
 20
256.067549844579
 10
186.1513293762117
 20
256.0955498445791
 10
186.1713293762118
 20
256.1235498445791
 10
186.1923293762118
 20
256.151549844579
 10
186.2133293762117
 20
256.1795498445791
 10
186.2353293762117
 20
256.207549844579
 10
186.2583293762118
 20
256.235549844579
 10
186.2813293762117
 20
256.2635498445792
 10
186.3043293762117
 20
256.2915498445789
 10
186.3293293762117
 20
256.319549844579
 10
186.3543293762118
 20
256.347549844579
 10
186.3793293762117
 20
256.375549844579
 10
186.4053293762117
 20
256.4035498445791
 10
186.4313293762118
 20
256.430549844579
 10
186.4583293762117
 20
256.4585498445791
 10
186.4863293762118
 20
256.486549844579
 10
186.5143293762117
 20
256.514549844579
 10
186.5423293762117
 20
256.5425498445791
 10
186.5713293762117
 20
256.5705498445791
 10
186.6003293762117
 20
256.598549844579
 10
186.6303293762118
 20
256.626549844579
 10
186.6603293762117
 20
256.654549844579
 10
186.6913293762118
 20
256.682549844579
 10
186.7223293762118
 20
256.710549844579
 10
186.7533293762117
 20
256.7385498445789
 10
186.7853293762117
 20
256.766549844579
 10
186.8173293762118
 20
256.793549844579
 10
186.8503293762117
 20
256.8215498445791
 10
186.8833293762118
 20
256.8495498445791
 10
186.9163293762117
 20
256.877549844579
 10
186.9503293762118
 20
256.905549844579
 10
186.9833293762117
 20
256.933549844579
 10
187.0183293762118
 20
256.961549844579
 10
187.0523293762117
 20
256.9895498445792
 10
187.0873293762117
 20
257.0175498445789
 10
187.1223293762117
 20
257.045549844579
 10
187.1573293762117
 20
257.0735498445791
 10
187.1923293762118
 20
257.101549844579
 10
187.2283293762117
 20
257.1295498445791
 10
187.2643293762117
 20
257.156549844579
 10
187.3003293762117
 20
257.184549844579
 10
187.3363293762118
 20
257.212549844579
 10
187.3733293762118
 20
257.240549844579
 10
187.4093293762118
 20
257.2685498445791
 10
187.4463293762117
 20
257.2965498445791
 10
187.4833293762117
 20
257.324549844579
 10
187.5203293762118
 20
257.3525498445791
 10
187.5583293762118
 20
257.380549844579
 10
187.5953293762118
 20
257.408549844579
 10
187.6323293762117
 20
257.4365498445792
 10
187.6703293762116
 20
257.4645498445789
 10
187.7073293762118
 20
257.491549844579
 10
187.7453293762117
 20
257.519549844579
 10
187.7833293762117
 20
257.5475498445791
 10
187.8203293762117
 20
257.575549844579
 10
187.8583293762117
 20
257.603549844579
 10
187.8963293762117
 20
257.6315498445791
  0
ENDBLK
  5
4D
330
4B
100
AcDbEntity
  8
0
100
AcDbBlockEnd
  0
BLOCK
  5
51
330
4E
100
AcDbEntity
  8
0
100
AcDbBlockBegin
  2
T3360F
 70
     0
 10
805.2847786781658
 20
890.99432286693
 30
0.0
  3
T3360F
  1

  0
INSERT
  5
4F
330
4E
100
AcDbEntity
  8
1
100
AcDbBlockReference
  2
81-93AK
 10
242.5521155686933
 20
277.4197952320266
 30
0.0
 41
1.0
 42
1.0
 43
1.0
  0
INSERT
  5
50
330
4E
100
AcDbEntity
  8
1
100
AcDbBlockReference
  2
T3360-H1AK
 10
430.8960163762115
 20
248.1197952320266
 30
0.0
 41
1.0
 42
1.0
 43
1.0
  0
LINE
  5
2C8
330
4E
100
AcDbEntity
  8
中心線
  6
PHANTOM
 62
     4
100
AcDbLine
 10
175.8960163762118
 20
255.411861844579
 30
0.0
 11
236.8115145570235
 21
255.411861844579
 31
0.0
  0
LINE
  5
2C9
330
4E
100
AcDbEntity
  8
1
  6
PHANTOM
 62
     4
100
AcDbLine
 10
236.8115145570235
 20
255.411861844579
 30
0.0
 11
242.7580300491806
 21
260.9671592122522
 31
0.0
  0
ENDBLK
  5
52
330
4E
100
AcDbEntity
  8
0
100
AcDbBlockEnd
  0
BLOCK
  5
54
330
53
100
AcDbEntity
  8
0
100
AcDbBlockBegin
  2
84-35-I
 70
     0
 10
282.3225056409658
 20
314.1814792239683
 30
0.0
  3
84-35-I
  1

  0
LINE
  5
2CA
330
53
100
AcDbEntity
  8
1
  6
Continuous
 62
     7
100
AcDbLine
 10
143.0582751320069
 20
315.4140101236009
 30
0.0
 11
160.6582751320069
 21
315.414010123601
 31
0.0
  0
LINE
  5
2CB
330
53
100
AcDbEntity
  8
1
  6
Continuous
 62
     7
100
AcDbLine
 10
160.6582751320069
 20
315.414010123601
 30
0.0
 11
161.8582751320071
 21
315.4140101236009
 31
0.0
  0
LINE
  5
2CC
330
53
100
AcDbEntity
  8
1
  6
Continuous
 62
     7
100
AcDbLine
 10
161.8582751320068
 20
316.2889905862448
 30
0.0
 11
161.8582751320071
 21
315.4140101236009
 31
0.0
  0
LINE
  5
2CD
330
53
100
AcDbEntity
  8
1
  6
Continuous
 62
     7
100
AcDbLine
 10
141.8582751320071
 20
315.4140101236009
 30
0.0
 11
143.0582751320069
 21
315.4140101236009
 31
0.0
  0
LINE
  5
2CE
330
53
100
AcDbEntity
  8
1
  6
Continuous
 62
     7
100
AcDbLine
 10
141.8582751320071
 20
315.4140101236009
 30
0.0
 11
141.8582751320068
 21
316.2889905862448
 31
0.0
  0
ARC
  5
2CF
330
53
100
AcDbEntity
  8
1
  6
Continuous
 62
     7
100
AcDbCircle
 10
151.8582751320068
 20
-83.58598987639914
 30
0.0
 40
400.0000000000001
100
AcDbArc
 50
90.0
 51
91.43254373756652
  0
ARC
  5
2D0
330
53
100
AcDbEntity
  8
1
  6
Continuous
 62
     7
100
AcDbCircle
 10
151.8582751320068
 20
-83.58598987639914
 30
0.0
 40
399.9999999999998
100
AcDbArc
 50
88.5674562624335
 51
90.0
  0
ENDBLK
  5
55
330
53
100
AcDbEntity
  8
0
100
AcDbBlockEnd
  0
BLOCK
  5
57
330
56
100
AcDbEntity
  8
0
100
AcDbBlockBegin
  2
92-53
 70
     0
 10
-147.9303845399957
 20
24.72786513709875
 30
0.0
  3
92-53
  1

  0
LINE
  5
2D1
330
56
100
AcDbEntity
  8
1
  6
Continuous
 62
     7
100
AcDbLine
 10
133.3582751320067
 20
209.411861844579
 30
0.0
 11
133.3582751320067
 21
207.911861844579
 31
0.0
  0
LINE
  5
2D2
330
56
100
AcDbEntity
  8
1
  6
Continuous
 62
     7
100
AcDbLine
 10
133.3582751320067
 20
209.411861844579
 30
0.0
 11
170.3582751320064
 21
209.411861844579
 31
0.0
  0
LINE
  5
2D3
330
56
100
AcDbEntity
  8
1
  6
Continuous
 62
     7
100
AcDbLine
 10
133.3582751320067
 20
207.911861844579
 30
0.0
 11
170.3582751320064
 21
207.911861844579
 31
0.0
  0
LINE
  5
2D4
330
56
100
AcDbEntity
  8
1
  6
Continuous
 62
     7
100
AcDbLine
 10
170.3582751320064
 20
207.911861844579
 30
0.0
 11
170.3582751320064
 21
209.411861844579
 31
0.0
  0
ENDBLK
  5
58
330
56
100
AcDbEntity
  8
0
100
AcDbBlockEnd
  0
BLOCK
  5
5A
330
59
100
AcDbEntity
  8
0
100
AcDbBlockBegin
  2
開示A4
 70
     0
 10
0.0
 20
0.0
 30
0.0
  3
開示A4
  1

  0
POINT
  5
2D5
330
59
100
AcDbEntity
  8
1
 62
     4
100
AcDbPoint
 10
34.0
 20
34.00000000000001
 30
0.0
  0
POINT
  5
2D6
330
59
100
AcDbEntity
  8
1
 62
     4
100
AcDbPoint
 10
57.0
 20
12.25
 30
0.0
  0
POINT
  5
2D7
330
59
100
AcDbEntity
  8
1
 62
     4
100
AcDbPoint
 10
57.0
 20
20.75000000000001
 30
0.0
  0
POINT
  5
2D8
330
59
100
AcDbEntity
  8
1
 62
     4
100
AcDbPoint
 10
57.0
 20
24.75000000000001
 30
0.0
  0
POINT
  5
2D9
330
59
100
AcDbEntity
  8
1
 62
     4
100
AcDbPoint
 10
57.0
 20
16.25
 30
0.0
  0
POINT
  5
2DA
330
59
100
AcDbEntity
  8
1
 62
     4
100
AcDbPoint
 10
157.5
 20
19.00000000000001
 30
0.0
  0
POINT
  5
2DB
330
59
100
AcDbEntity
  8
1
 62
     4
100
AcDbPoint
 10
47.5
 20
282.0000000000003
 30
0.0
  0
POINT
  5
2DC
330
59
100
AcDbEntity
  8
1
 62
     4
100
AcDbPoint
 10
57.0
 20
22.75000000000001
 30
0.0
  0
POINT
  5
2DD
330
59
100
AcDbEntity
  8
1
 62
     4
100
AcDbPoint
 10
57.0
 20
14.25
 30
0.0
  0
POINT
  5
2DE
330
59
100
AcDbEntity
  8
1
 62
     4
100
AcDbPoint
 10
157.5
 20
12.5
 30
0.0
  0
POINT
  5
2DF
330
59
100
AcDbEntity
  8
1
 62
     4
100
AcDbPoint
 10
163.25
 20
12.5
 30
0.0
  0
POINT
  5
2E0
330
59
100
AcDbEntity
  8
1
 62
     4
100
AcDbPoint
 10
151.75
 20
12.5
 30
0.0
  0
POINT
  5
2E1
330
59
100
AcDbEntity
  8
1
 62
     4
100
AcDbPoint
 10
134.75
 20
12.5
 30
0.0
  0
POINT
  5
2E2
330
59
100
AcDbEntity
  8
1
 62
     4
100
AcDbPoint
 10
146.25
 20
12.5
 30
0.0
  0
POINT
  5
2E3
330
59
100
AcDbEntity
  8
1
 62
     4
100
AcDbPoint
 10
140.5
 20
12.5
 30
0.0
  0
POINT
  5
2E4
330
59
100
AcDbEntity
  8
1
 62
     4
100
AcDbPoint
 10
140.5
 20
19.00000000000001
 30
0.0
  0
POINT
  5
2E5
330
59
100
AcDbEntity
  8
1
 62
     4
100
AcDbPoint
 10
117.75
 20
12.5
 30
0.0
  0
POINT
  5
2E6
330
59
100
AcDbEntity
  8
1
 62
     4
100
AcDbPoint
 10
129.25
 20
12.5
 30
0.0
  0
POINT
  5
2E7
330
59
100
AcDbEntity
  8
1
 62
     4
100
AcDbPoint
 10
123.5
 20
12.5
 30
0.0
  0
POINT
  5
2E8
330
59
100
AcDbEntity
  8
1
 62
     4
100
AcDbPoint
 10
123.5
 20
19.00000000000001
 30
0.0
  0
POINT
  5
2E9
330
59
100
AcDbEntity
  8
1
 62
     4
100
AcDbPoint
 10
100.75
 20
12.5
 30
0.0
  0
POINT
  5
2EA
330
59
100
AcDbEntity
  8
1
 62
     4
100
AcDbPoint
 10
112.25
 20
12.5
 30
0.0
  0
POINT
  5
2EB
330
59
100
AcDbEntity
  8
1
 62
     4
100
AcDbPoint
 10
106.5
 20
12.5
 30
0.0
  0
POINT
  5
2EC
330
59
100
AcDbEntity
  8
1
 62
     4
100
AcDbPoint
 10
106.5
 20
19.00000000000001
 30
0.0
  0
POINT
  5
2ED
330
59
100
AcDbEntity
  8
1
 62
     4
100
AcDbPoint
 10
85.25
 20
17.0
 30
0.0
  0
POINT
  5
2EE
330
59
100
AcDbEntity
  8
1
 62
     4
100
AcDbPoint
 10
93.75
 20
17.0
 30
0.0
  0
LINE
  5
2EF
330
59
100
AcDbEntity
  8
1
  6
Continuous
 62
     2
100
AcDbLine
 10
81.0
 20
27.00000000000001
 30
0.0
 11
81.0
 21
10.0
 31
0.0
  0
LINE
  5
2F0
330
59
100
AcDbEntity
  8
1
  6
DOT_CENTER
 62
     2
100
AcDbLine
 10
187.0
 20
26.50000000000001
 30
0.0
 11
187.0
 21
20.50000000000001
 31
0.0
  0
LINE
  5
2F1
330
59
100
AcDbEntity
  8
1
  6
DOT_CENTER
 62
     2
100
AcDbLine
 10
184.0
 20
23.50000000000001
 30
0.0
 11
197.0
 21
23.50000000000001
 31
0.0
  0
LINE
  5
2F2
330
59
100
AcDbEntity
  8
1
  6
Continuous
 62
     7
100
AcDbLine
 10
196.0
 20
21.50000000000001
 30
0.0
 11
191.0
 21
22.30000000000001
 31
0.0
  0
LINE
  5
2F3
330
59
100
AcDbEntity
  8
1
  6
Continuous
 62
     7
100
AcDbLine
 10
196.0
 20
25.50000000000001
 30
0.0
 11
196.0
 21
21.50000000000001
 31
0.0
  0
LINE
  5
2F4
330
59
100
AcDbEntity
  8
1
  6
Continuous
 62
     7
100
AcDbLine
 10
191.0
 20
24.70000000000001
 30
0.0
 11
196.0
 21
25.50000000000001
 31
0.0
  0
LINE
  5
2F5
330
59
100
AcDbEntity
  8
1
  6
Continuous
 62
     7
100
AcDbLine
 10
191.0
 20
24.70000000000001
 30
0.0
 11
191.0
 21
22.30000000000001
 31
0.0
  0
LINE
  5
2F6
330
59
100
AcDbEntity
  8
1
  6
Continuous
 62
     2
100
AcDbLine
 10
33.0
 20
27.0
 30
0.0
 11
33.0
 21
10.0
 31
0.0
  0
LINE
  5
2F7
330
59
100
AcDbEntity
  8
1
  6
Continuous
 62
     2
100
AcDbLine
 10
25.0
 20
18.50000000000001
 30
0.0
 11
81.0
 21
18.50000000000001
 31
0.0
  0
LINE
  5
2F8
330
59
100
AcDbEntity
  8
1
  6
Continuous
 62
     7
100
AcDbLine
 10
200.0
 20
287.0000000000003
 30
0.0
 11
105.0
 21
287.0000000000003
 31
0.0
  0
LINE
  5
2F9
330
59
100
AcDbEntity
  8
1
  6
Continuous
 62
     7
100
AcDbLine
 10
200.0
 20
10.0
 30
0.0
 11
200.0
 21
148.5
 31
0.0
  0
LINE
  5
2FA
330
59
100
AcDbEntity
  8
1
  6
Continuous
 62
     7
100
AcDbLine
 10
25.0
 20
10.0
 30
0.0
 11
105.0
 21
10.0
 31
0.0
  0
LINE
  5
2FB
330
59
100
AcDbEntity
  8
1
  6
PHANTOM
 62
     4
100
AcDbLine
 10
0.0
 20
297.0
 30
0.0
 11
0.0
 21
0.0
 31
0.0
  0
LINE
  5
2FC
330
59
100
AcDbEntity
  8
1
  6
PHANTOM
 62
     4
100
AcDbLine
 10
210.0
 20
297.0
 30
0.0
 11
0.0
 21
297.0
 31
0.0
  0
LINE
  5
2FD
330
59
100
AcDbEntity
  8
1
  6
PHANTOM
 62
     4
100
AcDbLine
 10
210.0
 20
0.0
 30
0.0
 11
210.0
 21
297.0
 31
0.0
  0
LINE
  5
2FE
330
59
100
AcDbEntity
  8
1
  6
PHANTOM
 62
     4
100
AcDbLine
 10
0.0
 20
0.0
 30
0.0
 11
210.0
 21
0.0
 31
0.0
  0
LINE
  5
2FF
330
59
100
AcDbEntity
  8
1
  6
Continuous
 62
     7
100
AcDbLine
 10
25.0
 20
41.0
 30
0.0
 11
200.0
 21
41.0
 31
0.0
  0
LINE
  5
300
330
59
100
AcDbEntity
  8
1
  6
Continuous
 62
     7
100
AcDbLine
 10
200.0
 20
27.00000000000001
 30
0.0
 11
25.0
 21
27.00000000000001
 31
0.0
  0
LINE
  5
301
330
59
100
AcDbEntity
  8
1
  6
Continuous
 62
     2
100
AcDbLine
 10
33.0
 20
41.00000000000001
 30
0.0
 11
33.0
 21
27.0
 31
0.0
  0
LINE
  5
302
330
59
100
AcDbEntity
  8
1
  6
Continuous
 62
     2
100
AcDbLine
 10
55.0
 20
287.0000000000003
 30
0.0
 11
55.0
 21
277.0000000000003
 31
0.0
  0
LINE
  5
303
330
59
100
AcDbEntity
  8
1
  6
Continuous
 62
     2
100
AcDbLine
 10
40.0
 20
287.0000000000003
 30
0.0
 11
40.0
 21
277.0000000000003
 31
0.0
  0
LINE
  5
304
330
59
100
AcDbEntity
  8
1
  6
Continuous
 62
     7
100
AcDbLine
 10
25.0
 20
10.0
 30
0.0
 11
25.0
 21
148.5
 31
0.0
  0
LINE
  5
305
330
59
100
AcDbEntity
  8
1
  6
Continuous
 62
     2
100
AcDbLine
 10
55.0
 20
277.0000000000003
 30
0.0
 11
25.0
 21
277.0000000000003
 31
0.0
  0
LINE
  5
306
330
59
100
AcDbEntity
  8
1
  6
Continuous
 62
     2
100
AcDbLine
 10
166.0
 20
27.00000000000001
 30
0.0
 11
166.0
 21
10.0
 31
0.0
  0
LINE
  5
307
330
59
100
AcDbEntity
  8
1
  6
Continuous
 62
     2
100
AcDbLine
 10
132.0
 20
27.00000000000001
 30
0.0
 11
132.0
 21
9.99999999999999
 31
0.0
  0
LINE
  5
308
330
59
100
AcDbEntity
  8
1
  6
Continuous
 62
     2
100
AcDbLine
 10
149.0
 20
27.00000000000001
 30
0.0
 11
149.0
 21
10.0
 31
0.0
  0
LINE
  5
309
330
59
100
AcDbEntity
  8
1
  6
Continuous
 62
     2
100
AcDbLine
 10
115.0
 20
27.00000000000001
 30
0.0
 11
115.0
 21
9.99999999999999
 31
0.0
  0
LINE
  5
30A
330
59
100
AcDbEntity
  8
1
  6
Continuous
 62
     2
100
AcDbLine
 10
98.0
 20
27.00000000000001
 30
0.0
 11
98.0
 21
9.99999999999999
 31
0.0
  0
LINE
  5
30B
330
59
100
AcDbEntity
  8
1
  6
Continuous
 62
     2
100
AcDbLine
 10
166.0
 20
20.00000000000001
 30
0.0
 11
200.0
 21
20.00000000000001
 31
0.0
  0
LINE
  5
30C
330
59
100
AcDbEntity
  8
1
  6
Continuous
 62
     2
100
AcDbLine
 10
105.0
 20
287.0000000000003
 30
0.0
 11
105.0
 21
292.0000000000003
 31
0.0
  0
LINE
  5
30D
330
59
100
AcDbEntity
  8
1
  6
Continuous
 62
     7
100
AcDbLine
 10
105.0
 20
287.0000000000003
 30
0.0
 11
25.0
 21
287.0000000000003
 31
0.0
  0
LINE
  5
30E
330
59
100
AcDbEntity
  8
1
  6
Continuous
 62
     2
100
AcDbLine
 10
25.0
 20
148.5
 30
0.0
 11
20.0
 21
148.5
 31
0.0
  0
LINE
  5
30F
330
59
100
AcDbEntity
  8
1
  6
Continuous
 62
     7
100
AcDbLine
 10
25.0
 20
148.5
 30
0.0
 11
25.0
 21
287.0000000000003
 31
0.0
  0
LINE
  5
310
330
59
100
AcDbEntity
  8
1
  6
Continuous
 62
     2
100
AcDbLine
 10
200.0
 20
148.5
 30
0.0
 11
205.0
 21
148.5
 31
0.0
  0
LINE
  5
311
330
59
100
AcDbEntity
  8
1
  6
Continuous
 62
     7
100
AcDbLine
 10
200.0
 20
148.5
 30
0.0
 11
200.0
 21
287.0000000000003
 31
0.0
  0
LINE
  5
312
330
59
100
AcDbEntity
  8
1
  6
Continuous
 62
     2
100
AcDbLine
 10
105.0
 20
10.0
 30
0.0
 11
105.0
 21
5.0
 31
0.0
  0
LINE
  5
313
330
59
100
AcDbEntity
  8
1
  6
Continuous
 62
     7
100
AcDbLine
 10
105.0
 20
10.0
 30
0.0
 11
200.0
 21
10.0
 31
0.0
  0
CIRCLE
  5
314
330
59
100
AcDbEntity
  8
1
  6
DOT_CENTER
 62
     7
100
AcDbCircle
 10
89.5
 20
18.0
 30
0.0
 40
0.1000000000000227
  0
CIRCLE
  5
315
330
59
100
AcDbEntity
  8
1
  6
DOT_CENTER
 62
     7
100
AcDbCircle
 10
89.5
 20
16.0
 30
0.0
 40
0.1000000000000227
  0
CIRCLE
  5
316
330
59
100
AcDbEntity
  8
1
  6
Continuous
 62
     7
100
AcDbCircle
 10
187.0
 20
23.50000000000001
 30
0.0
 40
2.0
  0
CIRCLE
  5
317
330
59
100
AcDbEntity
  8
1
  6
Continuous
 62
     7
100
AcDbCircle
 10
187.0
 20
23.50000000000001
 30
0.0
 40
1.200000000000102
  0
CIRCLE
  5
318
330
59
100
AcDbEntity
  8
1
  6
Continuous
 62
     7
100
AcDbCircle
 10
154.5
 20
12.5
 30
0.0
 40
0.3000000000000114
  0
CIRCLE
  5
319
330
59
100
AcDbEntity
  8
1
  6
Continuous
 62
     7
100
AcDbCircle
 10
160.5
 20
12.5
 30
0.0
 40
0.3000000000000114
  0
CIRCLE
  5
31A
330
59
100
AcDbEntity
  8
1
  6
Continuous
 62
     7
100
AcDbCircle
 10
143.5
 20
12.5
 30
0.0
 40
0.3000000000000114
  0
CIRCLE
  5
31B
330
59
100
AcDbEntity
  8
1
  6
Continuous
 62
     7
100
AcDbCircle
 10
137.5
 20
12.5
 30
0.0
 40
0.3000000000000114
  0
CIRCLE
  5
31C
330
59
100
AcDbEntity
  8
1
  6
Continuous
 62
     7
100
AcDbCircle
 10
126.5
 20
12.5
 30
0.0
 40
0.2999999999999972
  0
CIRCLE
  5
31D
330
59
100
AcDbEntity
  8
1
  6
Continuous
 62
     7
100
AcDbCircle
 10
120.5
 20
12.5
 30
0.0
 40
0.2999999999999972
  0
CIRCLE
  5
31E
330
59
100
AcDbEntity
  8
1
  6
Continuous
 62
     7
100
AcDbCircle
 10
109.5
 20
12.5
 30
0.0
 40
0.2999999999999972
  0
CIRCLE
  5
31F
330
59
100
AcDbEntity
  8
1
  6
Continuous
 62
     7
100
AcDbCircle
 10
103.5
 20
12.5
 30
0.0
 40
0.2999999999999972
  0
MTEXT
  5
321
330
59
100
AcDbEntity
  8
1
 62
   250
100
AcDbMText
 10
25.0
 20
5.0
 30
0.0
 40
3.5
 41
0.0
 71
     4
 72
     1
  1
備考欄の文字列 原点位置=4
  7
CONVERTER_11
 73
     1
 44
0.54545454545455
  0
MTEXT
  5
322
330
59
100
AcDbEntity
  8
1
 62
     2
100
AcDbMText
 10
89.5
 20
24.00000000000001
 30
0.0
 40
3.5
 41
0.0
 71
     5
 72
     1
  1
尺度
  7
CONVERTER_11
 73
     1
 44
0.54545454545455
  0
MTEXT
  5
323
330
59
100
AcDbEntity
  8
1
 62
     2
100
AcDbMText
 10
135.5
 20
25.00000000000001
 30
0.0
 40
3.0
 41
0.0
 71
     5
 72
     1
  1
製図
  7
CONVERTER_11
 73
     1
 44
0.59090909090909
  0
MTEXT
  5
324
330
59
100
AcDbEntity
  8
1
 62
     2
100
AcDbMText
 10
152.5
 20
25.00000000000001
 30
0.0
 40
3.0
 41
0.0
 71
     5
 72
     1
  1
設計
  7
CONVERTER_11
 73
     1
 44
0.59090909090909
  0
MTEXT
  5
325
330
59
100
AcDbEntity
  8
1
 62
     2
100
AcDbMText
 10
118.5
 20
25.00000000000001
 30
0.0
 40
3.0
 41
0.0
 71
     5
 72
     1
  1
検図
  7
CONVERTER_11
 73
     1
 44
0.59090909090909
  0
MTEXT
  5
326
330
59
100
AcDbEntity
  8
1
 62
     2
100
AcDbMText
 10
175.0
 20
23.50000000000001
 30
0.0
 40
3.5
 41
0.0
 71
     5
 72
     1
  1
第三角法
  7
CONVERTER_11
 73
     1
 44
0.54545454545455
  0
MTEXT
  5
327
330
59
100
AcDbEntity
  8
1
 62
     2
100
AcDbMText
 10
101.5
 20
25.00000000000001
 30
0.0
 40
3.0
 41
0.0
 71
     5
 72
     1
  1
承認
  7
CONVERTER_11
 73
     1
 44
0.59090909090909
  0
MTEXT
  5
328
330
59
100
AcDbEntity
  8
1
 62
     2
100
AcDbMText
 10
29.0
 20
14.25
 30
0.0
 40
3.5
 41
0.0
 71
     5
 72
     1
  1
品番
  7
CONVERTER_11
 73
     1
 44
0.72727272727273
  0
MTEXT
  5
329
330
59
100
AcDbEntity
  8
1
 62
     2
100
AcDbMText
 10
29.0
 20
22.75
 30
0.0
 40
3.5
 41
0.0
 71
     5
 72
     1
  1
品名
  7
CONVERTER_11
 73
     1
 44
0.72727272727273
  0
MTEXT
  5
32A
330
59
100
AcDbEntity
  8
1
 62
     2
100
AcDbMText
 10
29.0
 20
34.00000000000001
 30
0.0
 40
3.5
 41
0.0
 71
     5
 72
     1
  1
備考
  7
CONVERTER_11
 73
     1
 44
0.45454545454545
  0
MTEXT
  5
32B
330
59
100
AcDbEntity
  8
1
 62
     2
100
AcDbMText
 10
32.5
 20
282.0000000000003
 30
0.0
 40
5.0
 41
0.0
 71
     5
 72
     1
  1
図番
  7
CONVERTER_11
 73
     1
 44
0.45454545454545
  0
MTEXT
  5
32C
330
59
100
AcDbEntity
  8
1
 62
     7
100
AcDbMText
 10
171.5
 20
15.0
 30
0.0
 40
2.5
 41
0.0
 71
     5
 72
     1
  1
株式会社
  7
CONVERTER_11
 73
     1
 44
1.0
  0
MTEXT
  5
32D
330
59
100
AcDbEntity
  8
1
 62
     7
100
AcDbMText
 10
188.5
 20
15.0
 30
0.0
 40
3.0
 41
0.0
 71
     5
 72
     1
  1
三栄水栓製作所
  7
CONVERTER_11
 73
     1
 44
1.0
  0
ENDBLK
  5
5B
330
59
100
AcDbEntity
  8
0
100
AcDbBlockEnd
  0
BLOCK
  5
5D
330
5C
100
AcDbEntity
  8
0
100
AcDbBlockBegin
  2
台
 70
     0
 10
121.8582751320068
 20
209.911861844579
 30
0.0
  3
台
  1

  0
LINE
  5
32E
102
{ACAD_REACTORS
330
337
102
}
330
5C
100
AcDbEntity
  8
1
  6
Continuous
 62
     2
100
AcDbLine
 10
111.8582751320068
 20
220.411861844579
 30
0.0
 11
141.3582751320068
 21
220.411861844579
 31
0.0
  0
LINE
  5
32F
102
{ACAD_REACTORS
330
337
102
}
330
5C
100
AcDbEntity
  8
1
  6
Continuous
 62
     2
100
AcDbLine
 10
111.8582751320068
 20
209.411861844579
 30
0.0
 11
141.3582751320068
 21
209.411861844579
 31
0.0
  0
LINE
  5
330
102
{ACAD_REACTORS
330
336
102
}
330
5C
100
AcDbEntity
  8
1
  6
PHANTOM
 62
     4
100
AcDbLine
 10
191.8582751320068
 20
220.411861844579
 30
0.0
 11
191.8582751320068
 21
209.411861844579
 31
0.0
  0
LINE
  5
331
102
{ACAD_REACTORS
330
337
102
}
330
5C
100
AcDbEntity
  8
1
  6
PHANTOM
 62
     4
100
AcDbLine
 10
111.8582751320068
 20
220.411861844579
 30
0.0
 11
111.8582751320068
 21
209.411861844579
 31
0.0
  0
LINE
  5
332
102
{ACAD_REACTORS
330
336
102
}
330
5C
100
AcDbEntity
  8
1
  6
PHANTOM
 62
     4
100
AcDbLine
 10
162.3582751320068
 20
220.411861844579
 30
0.0
 11
162.3582751320068
 21
209.411861844579
 31
0.0
  0
LINE
  5
333
102
{ACAD_REACTORS
330
337
102
}
330
5C
100
AcDbEntity
  8
1
  6
PHANTOM
 62
     4
100
AcDbLine
 10
141.3582751320068
 20
220.411861844579
 30
0.0
 11
141.3582751320068
 21
209.411861844579
 31
0.0
  0
LINE
  5
334
102
{ACAD_REACTORS
330
336
102
}
330
5C
100
AcDbEntity
  8
1
  6
Continuous
 62
     2
100
AcDbLine
 10
162.3582751320068
 20
220.411861844579
 30
0.0
 11
191.8582751320068
 21
220.411861844579
 31
0.0
  0
LINE
  5
335
102
{ACAD_REACTORS
330
336
102
}
330
5C
100
AcDbEntity
  8
1
  6
Continuous
 62
     2
100
AcDbLine
 10
162.3582751320068
 20
209.411861844579
 30
0.0
 11
191.8582751320068
 21
209.411861844579
 31
0.0
  0
HATCH
  5
336
330
5C
100
AcDbEntity
  8
1
  6
Continuous
 62
     2
100
AcDbHatch
 10
0.0
 20
0.0
 30
0.0
210
0.0
220
0.0
230
1.0
  2
CUSTOM0
 70
     0
 71
     1
 91
        1
 92
        1
 93
        4
 72
     1
 10
191.8582751320068
 20
220.411861844579
 11
191.8582751320068
 21
209.411861844579
 72
     1
 10
191.8582751320068
 20
209.411861844579
 11
162.3582751320068
 21
209.411861844579
 72
     1
 10
162.3582751320068
 20
209.411861844579
 11
162.3582751320068
 21
220.411861844579
 72
     1
 10
162.3582751320068
 20
220.411861844579
 11
191.8582751320068
 21
220.411861844579
 97
        4
330
330
330
335
330
332
330
334
 75
     1
 76
     2
 52
45.0
 41
3.0
 77
     0
 78
     1
 53
45.0
 43
0.0
 44
0.0
 45
-8.48528137423857
 46
0.0000000000000007
 79
     0
 98
        1
 10
0.0
 20
0.0
  0
HATCH
  5
337
330
5C
100
AcDbEntity
  8
1
  6
Continuous
 62
     2
100
AcDbHatch
 10
0.0
 20
0.0
 30
0.0
210
0.0
220
0.0
230
1.0
  2
CUSTOM1
 70
     0
 71
     1
 91
        1
 92
        1
 93
        4
 72
     1
 10
141.3582751320068
 20
220.411861844579
 11
141.3582751320068
 21
209.411861844579
 72
     1
 10
141.3582751320068
 20
209.411861844579
 11
111.8582751320068
 21
209.411861844579
 72
     1
 10
111.8582751320068
 20
209.411861844579
 11
111.8582751320068
 21
220.411861844579
 72
     1
 10
111.8582751320068
 20
220.411861844579
 11
141.3582751320068
 21
220.411861844579
 97
        4
330
333
330
32F
330
331
330
32E
 75
     1
 76
     2
 52
45.0
 41
3.0
 77
     0
 78
     1
 53
45.0
 43
0.0
 44
0.0
 45
-8.48528137423857
 46
0.0000000000000007
 79
     0
 98
        1
 10
0.0
 20
0.0
  0
ENDBLK
  5
5E
330
5C
100
AcDbEntity
  8
0
100
AcDbBlockEnd
  0
BLOCK
  5
60
330
5F
100
AcDbEntity
  8
0
100
AcDbBlockBegin
  2
98-153
 70
     0
 10
133.3582751320067
 20
221.411861844579
 30
0.0
  3
98-153
  1

  0
LINE
  5
338
330
5F
100
AcDbEntity
  8
1
  6
Continuous
 62
     7
100
AcDbLine
 10
134.858275132007
 20
222.411861844579
 30
0.0
 11
134.8582751320068
 21
220.411861844579
 31
0.0
  0
LINE
  5
339
330
5F
100
AcDbEntity
  8
1
  6
Continuous
 62
     7
100
AcDbLine
 10
141.3582751320067
 20
220.411861844579
 30
0.0
 11
162.3362751320069
 21
220.411861844579
 31
0.0
  0
LINE
  5
33A
330
5F
100
AcDbEntity
  8
1
  6
Continuous
 62
     7
100
AcDbLine
 10
162.358275132007
 20
220.4118618445791
 30
0.0
 11
168.8582751320068
 21
220.411861844579
 31
0.0
  0
LINE
  5
33B
330
5F
100
AcDbEntity
  8
1
  6
Continuous
 62
     7
100
AcDbLine
 10
168.8582751320068
 20
220.411861844579
 30
0.0
 11
168.8582751320068
 21
222.411861844579
 31
0.0
  0
LINE
  5
33C
330
5F
100
AcDbEntity
  8
1
  6
Continuous
 62
     7
100
AcDbLine
 10
134.8582751320068
 20
220.411861844579
 30
0.0
 11
141.3582751320067
 21
220.411861844579
 31
0.0
  0
ENDBLK
  5
61
330
5F
100
AcDbEntity
  8
0
100
AcDbBlockEnd
  0
BLOCK
  5
63
330
62
100
AcDbEntity
  8
0
100
AcDbBlockBegin
  2
32-25
 70
     0
 10
670.8836162626109
 20
246.419984001824
 30
0.0
  3
32-25
  1

  0
LINE
  5
33D
330
62
100
AcDbEntity
  8
1
  6
Continuous
 62
     7
100
AcDbLine
 10
165.7082706807654
 20
205.4118618445787
 30
0.0
 11
141.5082751320069
 21
205.4118618445787
 31
0.0
  0
LINE
  5
33E
330
62
100
AcDbEntity
  8
1
  6
Continuous
 62
     7
100
AcDbLine
 10
165.7082706807654
 20
200.4799572726541
 30
0.0
 11
163.8582751320068
 21
199.4118618445787
 31
0.0
  0
LINE
  5
33F
330
62
100
AcDbEntity
  8
1
  6
Continuous
 62
     7
100
AcDbLine
 10
163.8582751320068
 20
199.4118618445787
 30
0.0
 11
151.8582751320068
 21
199.4118618445787
 31
0.0
  0
LINE
  5
340
330
62
100
AcDbEntity
  8
1
  6
Continuous
 62
     7
100
AcDbLine
 10
165.7082706807654
 20
205.4118618445787
 30
0.0
 11
165.7082706807654
 21
200.4799572726541
 31
0.0
  0
LINE
  5
341
330
62
100
AcDbEntity
  8
1
  6
Continuous
 62
     7
100
AcDbLine
 10
165.7082706807654
 20
200.4799572726541
 30
0.0
 11
163.8582751320068
 21
199.4118618445787
 31
0.0
  0
LINE
  5
342
330
62
100
AcDbEntity
  8
1
  6
Continuous
 62
     7
100
AcDbLine
 10
158.7928892740749
 20
199.9898049405565
 30
0.0
 11
158.7736565386973
 21
199.9898049405565
 31
0.0
  0
LINE
  5
343
330
62
100
AcDbEntity
  8
1
  6
Continuous
 62
     7
100
AcDbLine
 10
158.7928892740749
 20
199.9898049405565
 30
0.0
 11
158.7928892740749
 21
205.4118618445787
 31
0.0
  0
LINE
  5
344
330
62
100
AcDbEntity
  8
1
  6
Continuous
 62
     7
100
AcDbLine
 10
151.8582751320068
 20
199.4118618445787
 30
0.0
 11
139.8582751320068
 21
199.4118618445787
 31
0.0
  0
LINE
  5
345
330
62
100
AcDbEntity
  8
1
  6
Continuous
 62
     7
100
AcDbLine
 10
144.9236609899388
 20
205.4118618445787
 30
0.0
 11
144.9236609899388
 21
199.9898049405565
 31
0.0
  0
LINE
  5
346
330
62
100
AcDbEntity
  8
1
  6
DASH_CENTER
 62
     2
100
AcDbLine
 10
151.8582751320068
 20
192.4230461107168
 30
0.0
 11
151.8582751320068
 21
194.4230461107168
 31
0.0
  0
LINE
  5
347
330
62
100
AcDbEntity
  8
1
  6
Continuous
 62
     7
100
AcDbLine
 10
144.9428937253163
 20
199.9898049405565
 30
0.0
 11
144.9236609899388
 21
199.9898049405565
 31
0.0
  0
LINE
  5
348
330
62
100
AcDbEntity
  8
1
  6
Continuous
 62
     7
100
AcDbLine
 10
139.8582751320068
 20
199.4118618445787
 30
0.0
 11
138.0082795832482
 21
200.4799572726541
 31
0.0
  0
LINE
  5
349
330
62
100
AcDbEntity
  8
1
  6
Continuous
 62
     7
100
AcDbLine
 10
163.0589181704019
 20
199.4118618445787
 30
0.0
 11
151.8582751320068
 21
199.4118618445787
 31
0.0
  0
LINE
  5
34A
330
62
100
AcDbEntity
  8
1
  6
DOT_CENTER
 62
     2
100
AcDbLine
 10
151.8582751320068
 20
204.2498618445787
 30
0.0
 11
151.8582751320068
 21
199.4118618445787
 31
0.0
  0
LINE
  5
34B
330
62
100
AcDbEntity
  8
1
  6
Continuous
 62
     7
100
AcDbLine
 10
162.2082751320068
 20
205.4118618445787
 30
0.0
 11
138.0082795832482
 21
205.4118618445787
 31
0.0
  0
LINE
  5
34C
330
62
100
AcDbEntity
  8
1
  6
Continuous
 62
     7
100
AcDbLine
 10
138.0082795832482
 20
200.4799572726541
 30
0.0
 11
138.0082795832482
 21
205.4118618445787
 31
0.0
  0
LINE
  5
34D
330
62
100
AcDbEntity
  8
1
  6
DOT_CENTER
 62
     2
100
AcDbLine
 10
151.8582751320068
 20
202.4230461107168
 30
0.0
 11
151.8582751320068
 21
199.2610461107167
 31
0.0
  0
ARC
  5
34E
330
62
100
AcDbEntity
  8
1
  6
Continuous
 62
     7
100
AcDbCircle
 10
161.762350604872
 20
207.1231321747393
 30
0.0
 40
7.72671068599269
100
AcDbArc
 50
247.3990156293957
 51
300.7095096765607
  0
ARC
  5
34F
330
62
100
AcDbEntity
  8
1
  6
Continuous
 62
     7
100
AcDbCircle
 10
151.8582751320068
 20
241.0738511972809
 30
0.0
 40
41.6619893527022
100
AcDbArc
 50
260.4453781890443
 51
270.0
  0
ARC
  5
350
330
62
100
AcDbEntity
  8
1
  6
Continuous
 62
     7
100
AcDbCircle
 10
141.9541996591416
 20
207.1231321747393
 30
0.0
 40
7.726710685992679
100
AcDbArc
 50
239.2904903234392
 51
292.6009843706049
  0
ENDBLK
  5
64
330
62
100
AcDbEntity
  8
0
100
AcDbBlockEnd
  0
BLOCK
  5
66
330
65
100
AcDbEntity
  8
0
100
AcDbBlockBegin
  2
73-1-21_5
 70
     0
 10
750.7374069954079
 20
235.5390084450376
 30
0.0
  3
73-1-21_5
  1

  0
LINE
  5
351
330
65
100
AcDbEntity
  8
1
  6
Continuous
 62
     7
100
AcDbLine
 10
130.3582751320067
 20
207.911861844579
 30
0.0
 11
130.3582751320067
 21
206.911861844579
 31
0.0
  0
LINE
  5
352
330
65
100
AcDbEntity
  8
1
  6
Continuous
 62
     7
100
AcDbLine
 10
130.3582751320067
 20
206.911861844579
 30
0.0
 11
133.5951081251557
 21
206.911861844579
 31
0.0
  0
LINE
  5
353
330
65
100
AcDbEntity
  8
1
  6
Continuous
 62
     7
100
AcDbLine
 10
151.8582751320068
 20
207.911861844579
 30
0.0
 11
130.3582751320067
 21
207.911861844579
 31
0.0
  0
LINE
  5
354
330
65
100
AcDbEntity
  8
1
  6
Continuous
 62
     7
100
AcDbLine
 10
173.358275132007
 20
207.911861844579
 30
0.0
 11
151.8582751320068
 21
207.911861844579
 31
0.0
  0
LINE
  5
355
330
65
100
AcDbEntity
  8
1
  6
Continuous
 62
     7
100
AcDbLine
 10
170.1214421388581
 20
206.911861844579
 30
0.0
 11
173.358275132007
 21
206.911861844579
 31
0.0
  0
LINE
  5
356
330
65
100
AcDbEntity
  8
1
  6
Continuous
 62
     7
100
AcDbLine
 10
173.358275132007
 20
206.911861844579
 30
0.0
 11
173.358275132007
 21
207.911861844579
 31
0.0
  0
LINE
  5
357
330
65
100
AcDbEntity
  8
1
  6
Continuous
 62
     7
100
AcDbLine
 10
133.5951081251557
 20
206.911861844579
 30
0.0
 11
139.4891069007156
 21
206.911861844579
 31
0.0
  0
LINE
  5
358
330
65
100
AcDbEntity
  8
1
  6
Continuous
 62
     7
100
AcDbLine
 10
140.1962136819022
 20
206.911861844579
 30
0.0
 11
146.9772919450775
 21
206.911861844579
 31
0.0
  0
LINE
  5
359
330
65
100
AcDbEntity
  8
1
  6
Continuous
 62
     7
100
AcDbLine
 10
147.9432177713666
 20
206.911861844579
 30
0.0
 11
155.7733324926472
 21
206.911861844579
 31
0.0
  0
LINE
  5
35A
330
65
100
AcDbEntity
  8
1
  6
Continuous
 62
     7
100
AcDbLine
 10
156.7392583189363
 20
206.911861844579
 30
0.0
 11
163.5203365821116
 21
206.911861844579
 31
0.0
  0
LINE
  5
35B
330
65
100
AcDbEntity
  8
1
  6
Continuous
 62
     7
100
AcDbLine
 10
164.2274433632982
 20
206.911861844579
 30
0.0
 11
170.1214421388581
 21
206.911861844579
 31
0.0
  0
ARC
  5
35C
330
65
100
AcDbEntity
  8
1
  6
Continuous
 62
     7
100
AcDbCircle
 10
140.1334565404666
 20
215.411861844579
 30
0.0
 40
9.999999999999966
100
AcDbArc
 50
244.1580672368333
 51
270.0
  0
ARC
  5
35D
330
65
100
AcDbEntity
  8
1
  6
Continuous
 62
     7
100
AcDbCircle
 10
163.5830937235471
 20
215.411861844579
 30
0.0
 40
10.0
100
AcDbArc
 50
270.0
 51
295.8419327631672
  0
SPLINE
  5
35E
330
65
100
AcDbEntity
  8
1
  6
Continuous
 62
     7
100
AcDbSpline
210
0.0
220
0.0
230
1.0
 70
     8
 71
     3
 72
    31
 73
    27
 74
    25
 42
0.000000001
 43
0.0000000001
 44
0.00000001
 40
0.0
 40
0.0
 40
0.0
 40
0.0
 40
0.2709659657161894
 40
0.5252266825988189
 40
1.065749191989457
 40
1.674599338716112
 40
2.320394603574361
 40
2.934363293921447
 40
3.290221355350062
 40
3.646480797917826
 40
4.682658411629508
 40
5.750236623409132
 40
6.775822658069064
 40
7.208802824113963
 40
7.646130372373206
 40
8.81635862148792
 40
10.01163910374889
 40
11.17461240969551
 40
11.65874765828529
 40
12.14501675838384
 40
13.08086599532713
 40
14.04099014818388
 40
14.98716394131835
 40
15.89608035491241
 40
16.14448976460338
 40
16.39628796371029
 40
16.39628796371029
 40
16.39628796371029
 40
16.39628796371029
 10
166.8243377847684
 20
205.9517171873554
 30
0.0
 10
166.7409412320094
 20
205.9174179050585
 30
0.0
 10
166.5792895887343
 20
205.8509339057572
 30
0.0
 10
166.2325704578054
 20
205.753767611685
 30
0.0
 10
165.7524260602124
 20
205.8855495166794
 30
0.0
 10
165.2782883943649
 20
206.2525880128778
 30
0.0
 10
164.7998160523233
 20
206.6475357639816
 30
0.0
 10
164.3192964715193
 20
206.9197141092546
 30
0.0
 10
163.8734228724479
 20
206.9679736558534
 30
0.0
 10
163.2908412553688
 20
206.8946199169766
 30
0.0
 10
162.5500972208192
 20
206.4868212916966
 30
0.0
 10
161.7531786665718
 20
205.8308578842202
 30
0.0
 10
160.9905629458214
 20
205.4125067473487
 30
0.0
 10
160.3549820632827
 20
205.3548498493233
 30
0.0
 10
159.6741587250655
 20
205.4231936348712
 30
0.0
 10
158.8071885604371
 20
205.8284032357941
 30
0.0
 10
157.8466137244244
 20
206.4912265959425
 30
0.0
 10
156.9699414786901
 20
206.9070790526527
 30
0.0
 10
156.2565819813564
 20
206.9735950973422
 30
0.0
 10
155.6197348046415
 20
206.913814885622
 30
0.0
 10
154.8725888633142
 20
206.6091250235552
 30
0.0
 10
154.0700474140629
 20
206.1076725585704
 30
0.0
 10
153.2644055437226
 20
205.6261316152692
 30
0.0
 10
152.5792735602708
 20
205.4105381581421
 30
0.0
 10
152.108730552211
 20
205.4023634126955
 30
0.0
 10
151.9421364841429
 20
205.408681437567
 30
0.0
 10
151.8582751320068
 20
205.411861844579
 30
0.0
 11
166.8243377847684
 21
205.9517171873554
 31
0.0
 11
166.5716942104391
 21
205.8537693348611
 31
0.0
 11
166.3243377847684
 21
205.7949194512391
 31
0.0
 11
165.7956144865942
 21
205.9072415513269
 31
0.0
 11
165.2904281547759
 21
206.2470727886121
 31
0.0
 11
164.7779730325863
 21
206.6400629555458
 31
0.0
 11
164.2274433632982
 21
206.911861844579
 31
0.0
 11
163.8740920854061
 21
206.954026218692
 31
0.0
 11
163.5203365821116
 21
206.911861844579
 31
0.0
 11
162.5832601710656
 21
206.4696493987558
 31
0.0
 11
161.7167688018989
 21
205.8460181421118
 31
0.0
 11
160.7876105678824
 21
205.411861844579
 31
0.0
 11
160.3567823055192
 21
205.3687476562905
 31
0.0
 11
159.921585164098
 21
205.411861844579
 31
0.0
 11
158.8364064296353
 21
205.8498358955742
 31
0.0
 11
157.815891644955
 21
206.4721260241622
 31
0.0
 11
156.7392583189363
 21
206.911861844579
 31
0.0
 11
156.2573672783709
 21
206.9584232464628
 31
0.0
 11
155.7733324926472
 21
206.911861844579
 31
0.0
 11
154.8946422002329
 21
206.589810350463
 31
0.0
 11
154.0642693255286
 21
206.1078152491888
 31
0.0
 11
153.2346636942235
 21
205.6528434456097
 31
0.0
 11
152.358275132007
 21
205.411861844579
 31
0.0
 11
152.1099702319788
 21
205.4046569255863
 31
0.0
 11
151.8582751320068
 21
205.411861844579
 31
0.0
  0
SPLINE
  5
35F
330
65
100
AcDbEntity
  8
1
  6
Continuous
 62
     7
100
AcDbSpline
210
0.0
220
0.0
230
1.0
 70
     8
 71
     3
 72
    31
 73
    27
 74
    25
 42
0.000000001
 43
0.0000000001
 44
0.00000001
 40
0.0
 40
0.0
 40
0.0
 40
0.0
 40
0.2709659657161894
 40
0.5252266825988189
 40
1.065749191989457
 40
1.674599338716136
 40
2.320394603574362
 40
2.934363293921449
 40
3.290221355350063
 40
3.646480797917855
 40
4.682658411629513
 40
5.750236623409159
 40
6.775822658069091
 40
7.208802824113905
 40
7.646130372373091
 40
8.81635862148791
 40
10.01163910374883
 40
11.17461240969551
 40
11.65874765828528
 40
12.14501675838383
 40
13.08086599532718
 40
14.04099014818395
 40
14.98716394131837
 40
15.89608035491243
 40
16.14448976460337
 40
16.3962879637101
 40
16.3962879637101
 40
16.3962879637101
 40
16.3962879637101
 10
136.8922124792454
 20
205.9517171873554
 30
0.0
 10
136.9756090320043
 20
205.9174179050585
 30
0.0
 10
137.1372606752795
 20
205.8509339057571
 30
0.0
 10
137.4839798062084
 20
205.753767611685
 30
0.0
 10
137.9641242038014
 20
205.8855495166793
 30
0.0
 10
138.4382618696489
 20
206.2525880128779
 30
0.0
 10
138.9167342116905
 20
206.6475357639817
 30
0.0
 10
139.3972537924946
 20
206.9197141092545
 30
0.0
 10
139.8431273915659
 20
206.9679736558534
 30
0.0
 10
140.425709008645
 20
206.8946199169766
 30
0.0
 10
141.1664530431946
 20
206.4868212916967
 30
0.0
 10
141.963371597442
 20
205.8308578842201
 30
0.0
 10
142.7259873181925
 20
205.4125067473487
 30
0.0
 10
143.3615682007311
 20
205.3548498493233
 30
0.0
 10
144.0423915389482
 20
205.4231936348713
 30
0.0
 10
144.9093617035766
 20
205.828403235794
 30
0.0
 10
145.8699365395893
 20
206.4912265959426
 30
0.0
 10
146.7466087853238
 20
206.9070790526526
 30
0.0
 10
147.4599682826573
 20
206.9735950973423
 30
0.0
 10
148.0968154593724
 20
206.9138148856219
 30
0.0
 10
148.8439614006997
 20
206.6091250235552
 30
0.0
 10
149.646502849951
 20
206.1076725585704
 30
0.0
 10
150.4521447202913
 20
205.6261316152693
 30
0.0
 10
151.1372767037429
 20
205.410538158142
 30
0.0
 10
151.6078197118027
 20
205.4023634126955
 30
0.0
 10
151.7744137798707
 20
205.408681437567
 30
0.0
 10
151.8582751320068
 20
205.411861844579
 30
0.0
 11
136.8922124792454
 21
205.9517171873554
 31
0.0
 11
137.1448560535747
 21
205.8537693348611
 31
0.0
 11
137.3922124792454
 21
205.7949194512391
 31
0.0
 11
137.9209357774196
 21
205.9072415513269
 31
0.0
 11
138.4261221092379
 21
206.2470727886121
 31
0.0
 11
138.9385772314275
 21
206.6400629555458
 31
0.0
 11
139.4891069007156
 21
206.911861844579
 31
0.0
 11
139.8424581786076
 21
206.954026218692
 31
0.0
 11
140.1962136819022
 21
206.911861844579
 31
0.0
 11
141.1332900929482
 21
206.4696493987558
 31
0.0
 11
141.9997814621149
 21
205.8460181421118
 31
0.0
 11
142.9289396961314
 21
205.411861844579
 31
0.0
 11
143.3597679584946
 21
205.3687476562905
 31
0.0
 11
143.7949650999157
 21
205.411861844579
 31
0.0
 11
144.8801438343785
 21
205.8498358955742
 31
0.0
 11
145.9006586190588
 21
206.4721260241622
 31
0.0
 11
146.9772919450775
 21
206.911861844579
 31
0.0
 11
147.4591829856429
 21
206.9584232464628
 31
0.0
 11
147.9432177713666
 21
206.911861844579
 31
0.0
 11
148.821908063781
 21
206.589810350463
 31
0.0
 11
149.6522809384853
 21
206.1078152491888
 31
0.0
 11
150.4818865697904
 21
205.6528434456097
 31
0.0
 11
151.3582751320068
 21
205.411861844579
 31
0.0
 11
151.606580032035
 21
205.4046569255863
 31
0.0
 11
151.8582751320068
 21
205.411861844579
 31
0.0
  0
ARC
  5
360
330
65
100
AcDbEntity
  8
1
  6
Continuous
 62
     7
100
AcDbCircle
 10
133.5951081251557
 20
201.911861844579
 30
0.0
 40
4.999999999999989
100
AcDbArc
 50
64.15806723683313
 51
90.0
  0
ARC
  5
361
330
65
100
AcDbEntity
  8
1
  6
Continuous
 62
     7
100
AcDbCircle
 10
170.1214421388581
 20
201.911861844579
 30
0.0
 40
5.0
100
AcDbArc
 50
90.0
 51
115.8419327631669
  0
ENDBLK
  5
67
330
65
100
AcDbEntity
  8
0
100
AcDbBlockEnd
  0
BLOCK
  5
69
330
68
100
AcDbEntity
  8
0
100
AcDbBlockBegin
  2
89-107
 70
     0
 10
125.2665448270852
 20
456.225112089597
 30
0.0
  3
89-107
  1

  0
LINE
  5
362
330
68
100
AcDbEntity
  8
1
  6
Continuous
 62
     7
100
AcDbLine
 10
140.8582751319718
 20
315.4140101236449
 30
0.0
 11
162.8582751320507
 21
315.4140101236449
 31
0.0
  0
LINE
  5
363
330
68
100
AcDbEntity
  8
1
  6
Continuous
 62
     7
100
AcDbLine
 10
130.8582751320068
 20
275.1460609311698
 30
0.0
 11
130.8582751319938
 21
286.4140101236151
 31
0.0
  0
LINE
  5
364
330
68
100
AcDbEntity
  8
1
  6
PHANTOM
 62
     4
100
AcDbLine
 10
151.8582751320068
 20
318.414010123626
 30
0.0
 11
151.8582751320068
 21
270.414010123626
 31
0.0
  0
LINE
  5
365
330
68
100
AcDbEntity
  8
1
  6
Continuous
 62
     7
100
AcDbLine
 10
130.8582751320068
 20
275.1460609311698
 30
0.0
 11
133.8582751320068
 21
273.4140101236009
 31
0.0
  0
LINE
  5
366
330
68
100
AcDbEntity
  8
1
  6
Continuous
 62
     7
100
AcDbLine
 10
133.8582751320068
 20
273.4140101236009
 30
0.0
 11
169.8582751320068
 21
273.4140101236009
 31
0.0
  0
LINE
  5
367
330
68
100
AcDbEntity
  8
1
  6
Continuous
 62
     7
100
AcDbLine
 10
172.8582751320068
 20
275.1460609311698
 30
0.0
 11
169.8582751320068
 21
273.4140101236009
 31
0.0
  0
LINE
  5
368
330
68
100
AcDbEntity
  8
1
  6
Continuous
 62
     7
100
AcDbLine
 10
130.8582751320068
 20
275.1460609311698
 30
0.0
 11
172.8582751320068
 21
275.1460609311698
 31
0.0
  0
LINE
  5
369
330
68
100
AcDbEntity
  8
1
  6
Continuous
 62
     7
100
AcDbLine
 10
130.8582751319938
 20
286.4140101236151
 30
0.0
 11
130.8582751319718
 21
305.4140101236333
 31
0.0
  0
LINE
  5
36A
330
68
100
AcDbEntity
  8
1
  6
Continuous
 62
     7
100
AcDbLine
 10
172.8582751320507
 20
305.4140101236449
 30
0.0
 11
172.8582751320068
 21
275.1460609311698
 31
0.0
  0
SPLINE
  5
36B
330
68
100
AcDbEntity
  8
1
  6
Continuous
 62
     7
100
AcDbSpline
210
0.0
220
0.0
230
1.0
 70
    11
 71
     3
 72
    15
 73
    11
 74
     9
 42
0.000000001
 43
0.0000000001
 44
0.00000001
 40
0.0
 40
0.0
 40
0.0
 40
0.0
 40
4.471657546519708
 40
6.749422778751892
 40
10.01562429102751
 40
14.43217456826557
 40
26.12928005304167
 40
33.75297112683355
 40
39.81849680097926
 40
53.55771225588568
 40
53.55771225588568
 40
53.55771225588568
 40
53.55771225588568
 10
167.9396050139358
 20
305.9140101236454
 30
0.0
 10
167.8075831609376
 20
307.2858106945673
 30
0.0
 10
167.6083122420283
 20
309.3563766805279
 30
0.0
 10
169.1253795109593
 20
313.6259078495867
 30
0.0
 10
172.0830832202979
 20
309.4578314581519
 30
0.0
 10
173.4375101751883
 20
303.722478753361
 30
0.0
 10
172.7007505802828
 20
297.4210279601675
 30
0.0
 10
172.5116862317849
 20
283.072715356067
 30
0.0
 10
167.9815049002904
 20
296.3568541393113
 30
0.0
 10
167.9567667213898
 20
301.9995099103273
 30
0.0
 10
167.9396050139358
 20
305.9140101236454
 30
0.0
 11
167.9396050139358
 21
305.9140101236454
 31
0.0
 11
168.0797497136901
 21
310.3834710264277
 31
0.0
 11
169.1117988539036
 21
312.4140101236455
 31
0.0
 11
171.4262135316288
 21
310.1093285658417
 31
0.0
 11
172.8065104401278
 21
305.9140101236456
 31
0.0
 11
172.7413786412907
 21
294.217085970892
 31
0.0
 11
171.8304619742381
 21
286.6480109663181
 31
0.0
 11
169.5534185272717
 21
292.2699034275431
 31
0.0
 11
167.9396050139358
 21
305.9140101236454
 31
0.0
  0
SPLINE
  5
36C
330
68
100
AcDbEntity
  8
1
  6
Continuous
 62
     7
100
AcDbSpline
210
0.0
220
0.0
230
1.0
 70
    11
 71
     3
 72
    15
 73
    11
 74
     9
 42
0.000000001
 43
0.0000000001
 44
0.00000001
 40
0.0
 40
0.0
 40
0.0
 40
0.0
 40
4.471657546519706
 40
6.749422778751877
 40
10.0156242910274
 40
14.43217456826546
 40
26.12928005304156
 40
33.75297112683342
 40
39.81849680097913
 40
53.55771225588555
 40
53.55771225588555
 40
53.55771225588555
 40
53.55771225588555
 10
135.7769452500777
 20
305.9140101236454
 30
0.0
 10
135.908967103076
 20
307.2858106945673
 30
0.0
 10
136.1082380219854
 20
309.3563766805278
 30
0.0
 10
134.5911707530544
 20
313.6259078495867
 30
0.0
 10
131.6334670437159
 20
309.4578314581519
 30
0.0
 10
130.2790400888254
 20
303.7224787533609
 30
0.0
 10
131.0157996837311
 20
297.4210279601675
 30
0.0
 10
131.2048640322286
 20
283.072715356067
 30
0.0
 10
135.7350453637233
 20
296.3568541393113
 30
0.0
 10
135.7597835426237
 20
301.9995099103272
 30
0.0
 10
135.7769452500777
 20
305.9140101236454
 30
0.0
 11
135.7769452500777
 21
305.9140101236454
 31
0.0
 11
135.6368005503235
 21
310.3834710264277
 31
0.0
 11
134.6047514101101
 21
312.4140101236455
 31
0.0
 11
132.290336732385
 21
310.1093285658417
 31
0.0
 11
130.910039823886
 21
305.9140101236456
 31
0.0
 11
130.975171622723
 21
294.217085970892
 31
0.0
 11
131.8860882897755
 21
286.6480109663181
 31
0.0
 11
134.1631317367418
 21
292.2699034275431
 31
0.0
 11
135.7769452500777
 21
305.9140101236454
 31
0.0
  0
SPLINE
  5
36D
330
68
100
AcDbEntity
  8
1
  6
Continuous
 62
     7
100
AcDbSpline
210
0.0
220
0.0
230
1.0
 70
    11
 71
     3
 72
   216
 73
   212
 74
   210
 42
0.000000001
 43
0.0000000001
 44
0.00000001
 40
0.0
 40
0.0
 40
0.0
 40
0.0
 40
0.4396513171641341
 40
0.8792242290739173
 40
1.318662920119785
 40
1.799992437762924
 40
2.281232808975729
 40
2.675460884790447
 40
3.069639134365751
 40
3.412943607671108
 40
3.756225674267786
 40
4.067253627657506
 40
4.378270137171212
 40
4.667925257648586
 40
4.957569681567932
 40
5.232715099403511
 40
5.507866851630653
 40
5.773100207819787
 40
6.03830408305891
 40
6.296731737399234
 40
6.555222842908987
 40
6.809321339100707
 40
7.063295069418981
 40
7.314296594249527
 40
7.565430929052372
 40
7.815709401972123
 40
8.065906794342116
 40
8.316068313627525
 40
8.566230490608845
 40
8.817277444938371
 40
9.068348887881013
 40
9.319285169165576
 40
9.570220022589227
 40
9.82129767932489
 40
10.0723787505282
 40
10.32361644159171
 40
10.57485238281661
 40
10.82626288873818
 40
11.07767409464056
 40
11.32927628573707
 40
11.5808782260713
 40
11.83269051210685
 40
12.08450288369344
 40
12.33654638333367
 40
12.58858985594634
 40
12.84088757738543
 40
13.09318530838304
 40
13.34576284063111
 40
13.59834037106589
 40
13.85122613013171
 40
14.10411189113644
 40
14.35733759759083
 40
14.61056330511127
 40
14.86416449244388
 40
15.11776568144822
 40
15.37178232362619
 40
15.62579896772016
 40
15.88027623025164
 40
16.13475349516301
 40
16.38974264958938
 40
16.64473180694001
 40
16.90029135071218
 40
17.15585089812352
 40
17.41204793896482
 40
17.6682449843711
 40
17.9251569678178
 40
18.18206895704821
 40
18.43978584500153
 40
18.69750274036252
 40
18.95612979012797
 40
19.21475684949617
 40
19.47441820408812
 40
19.73407957129522
 40
19.99492296361266
 40
20.2557663727554
 40
20.5179693869855
 40
20.78017242402713
 40
21.0439509786243
 40
21.30772956479682
 40
21.57334963873372
 40
21.838969757145
 40
22.10676397557853
 40
22.37455825911622
 40
22.64494998888844
 40
22.91534181327312
 40
23.18888125953002
 40
23.46242086315259
 40
23.73984125758007
 40
24.01726185966456
 40
24.29957062204959
 40
24.5818799352684
 40
24.87051635445293
 40
25.15915291931288
 40
25.45627490447998
 40
25.75340094566621
 40
26.06248441612362
 40
26.37155974969443
 40
26.69869725650841
 40
27.0258953031281
 40
27.38387723785647
 40
27.74163599954454
 40
28.16409778717127
 40
28.58811681517883
 40
29.4789136165295
 40
30.36390134784774
 40
31.24888907914051
 40
32.13968588043002
 40
32.56370490840213
 40
32.98616669599162
 40
33.3439254576474
 40
33.70190739234337
 40
34.0291054389338
 40
34.35624294571908
 40
34.66531827926359
 40
34.97440174969538
 40
35.27152779085749
 40
35.56864977600112
 40
35.85728634083856
 40
36.14592276000118
 40
36.42823207319916
 40
36.71054083556417
 40
36.98796143762961
 40
37.26538183203841
 40
37.53892143564285
 40
37.8124608818819
 40
38.08285270624971
 40
38.35324443600557
 40
38.62103871952745
 40
38.88883293794537
 40
39.15445305634131
 40
39.4200731302632
 40
39.68385171642147
 40
39.94763027100468
 40
40.20983330803266
 40
40.47203632224924
 40
40.73287973137885
 40
40.99372312368327
 40
41.25338449087758
 40
41.51304584545686
 40
41.77167290481252
 40
42.03029995456551
 40
42.28801684991414
 40
42.54573373785502
 40
42.80264572707294
 40
43.05955771050731
 40
43.315754755901
 40
43.57195179672976
 40
43.82751134412832
 40
44.0830708878875
 40
44.33806004522496
 40
44.59304919963768
 40
44.84752646453492
 40
45.10200372705191
 40
45.35602037113075
 40
45.61003701329319
 40
45.86363820228127
 40
46.1172393895968
 40
46.37046509709937
 40
46.62369080353496
 40
46.87657656451985
 40
47.12946232356447
 40
47.38203985397683
 40
47.63461738620089
 40
47.886915117173
 40
48.1392128385849
 40
48.3912563111685
 40
48.6432998107773
 40
48.8951121823304
 40
49.14692446832974
 40
49.39852640862493
 40
49.65012859967928
 40
49.90153980553609
 40
50.1529503114084
 40
50.40418625258019
 40
50.65542394358602
 40
50.90650501472678
 40
51.15758267139493
 40
51.40851752474632
 40
51.65945380595112
 40
51.91052524880519
 40
52.16157220304108
 40
52.41173437992784
 40
52.66189589911816
 40
52.91209329139215
 40
53.16237176421232
 40
53.41350609890915
 40
53.66450762363067
 40
53.91848135383924
 40
54.17257984992086
 40
54.43107095531555
 40
54.6894986095379
 40
54.95470248465362
 40
55.21993584071723
 40
55.49508759281119
 40
55.77023301051105
 40
56.05987743428491
 40
56.34953255461415
 40
56.66054906396625
 40
56.97157701719163
 40
57.31485908360349
 40
57.65816355671959
 40
58.05234180607106
 40
58.44656988164935
 40
58.92781025254161
 40
59.40913976978014
 40
60.068225942675
 40
60.72759637186009
 40
62.45469293081833
 40
64.1899951264045
 40
65.92529732258616
 40
67.652393872106
 40
67.652393872106
 40
67.652393872106
 40
67.652393872106
 10
148.4427006803685
 20
311.9140101236454
 30
0.0
 10
148.3037785636789
 20
311.8672488239194
 30
0.0
 10
148.0259591030685
 20
311.7737345692739
 30
0.0
 10
147.6190355601576
 20
311.6067158438583
 30
0.0
 10
147.2092093955613
 20
311.4121423301884
 30
0.0
 10
146.8008546812183
 20
311.1840401169883
 30
0.0
 10
146.4227403330366
 20
310.9350928862348
 30
0.0
 10
146.0865209294087
 20
310.6775741276017
 30
0.0
 10
145.8027688400146
 20
310.4285339447547
 30
0.0
 10
145.5478888916198
 20
310.1736292349939
 30
0.0
 10
145.3274711246441
 20
309.9243454729011
 30
0.0
 10
145.1289048999166
 20
309.6709324024537
 30
0.0
 10
144.9550922511911
 20
309.4214468937444
 30
0.0
 10
144.7987924963734
 20
309.1690156401712
 30
0.0
 10
144.6614294923283
 20
308.919370894423
 30
0.0
 10
144.5387043736673
 20
308.6676046344199
 30
0.0
 10
144.4311555059404
 20
308.4178337297104
 30
0.0
 10
144.3361299963209
 20
308.1665885795703
 30
0.0
 10
144.2539442341118
 20
307.9167171832331
 30
0.0
 10
144.1831947870386
 20
307.6657164987523
 30
0.0
 10
144.1231504738998
 20
307.4157654657046
 30
0.0
 10
144.0722323238014
 20
307.1653099333871
 30
0.0
 10
144.0327161037646
 20
306.9152767195283
 30
0.0
 10
144.0065117148289
 20
306.6645176755248
 30
0.0
 10
143.9887102385696
 20
306.4143316843884
 30
0.0
 10
143.9744049655729
 20
306.1641921766178
 30
0.0
 10
143.9668534148356
 20
305.9140418163977
 30
0.0
 10
143.9693023283302
 20
305.6638118627421
 30
0.0
 10
143.9817915574111
 20
305.4135903806922
 30
0.0
 10
144.0044171524413
 20
305.1638196260965
 30
0.0
 10
144.0301016755878
 20
304.9141207040857
 30
0.0
 10
144.051728770843
 20
304.6640646798999
 30
0.0
 10
144.0723716548591
 20
304.4139332016016
 30
0.0
 10
144.095109933887
 20
304.1639306952513
 30
0.0
 10
144.1191373379117
 20
303.9139506124995
 30
0.0
 10
144.1436393278034
 20
303.6639633658269
 30
0.0
 10
144.1688531756516
 20
303.4139363027451
 30
0.0
 10
144.1950055178926
 20
303.1639473863655
 30
0.0
 10
144.2220568790364
 20
302.9139314728636
 30
0.0
 10
144.2499549085746
 20
302.6639444080906
 30
0.0
 10
144.2787371540298
 20
302.4139229815598
 30
0.0
 10
144.3084261951611
 20
302.1639370355547
 30
0.0
 10
144.3390421496489
 20
301.9139146202441
 30
0.0
 10
144.370587591134
 20
301.6639300850728
 30
0.0
 10
144.4030909077722
 20
301.4139051210355
 30
0.0
 10
144.4365600326163
 20
301.1639220864993
 30
0.0
 10
144.4710252089084
 20
300.9138947033902
 30
0.0
 10
144.5064928260857
 20
300.6639133209392
 30
0.0
 10
144.542997249406
 20
300.413883121254
 30
0.0
 10
144.5805450500434
 20
300.1639035535671
 30
0.0
 10
144.6191747538379
 20
299.9138702334781
 30
0.0
 10
144.6588924985579
 20
299.6638926667978
 30
0.0
 10
144.6997417234385
 20
299.413855829293
 30
0.0
 10
144.7417281112255
 20
299.1638804758666
 30
0.0
 10
144.7849007197079
 20
298.913839670304
 30
0.0
 10
144.8292645535731
 20
298.663866772642
 30
0.0
 10
144.8748751837009
 20
298.4138214667862
 30
0.0
 10
144.9217367147261
 20
298.1638513029843
 30
0.0
 10
144.9699122933532
 20
297.9138008697465
 30
0.0
 10
145.0194048351987
 20
297.6638337597186
 30
0.0
 10
145.0702863539915
 20
297.4137774539183
 30
0.0
 10
145.1225582208097
 20
297.1638137670677
 30
0.0
 10
145.1763028911713
 20
296.9137506972476
 30
0.0
 10
145.2315197460941
 20
296.6637908617901
 30
0.0
 10
145.2883036204187
 20
296.4137199529277
 30
0.0
 10
145.3466513449949
 20
296.1637644673261
 30
0.0
 10
145.4066725385268
 20
295.9136844117263
 30
0.0
 10
145.4683607723198
 20
295.6637338587425
 30
0.0
 10
145.5318434622702
 20
295.4136430502466
 30
0.0
 10
145.5971100149565
 20
295.1636981142573
 30
0.0
 10
145.6643094605371
 20
294.9135945588524
 30
0.0
 10
145.7334258758395
 20
294.6636560471994
 30
0.0
 10
145.80463479875
 20
294.4135372395159
 30
0.0
 10
145.8779134622873
 20
294.1636061087617
 30
0.0
 10
145.953470270278
 20
293.9134688582718
 30
0.0
 10
146.0312736226642
 20
293.6635462462722
 30
0.0
 10
146.1115731763905
 20
293.413386427599
 30
0.0
 10
146.1943258518867
 20
293.1634736918676
 30
0.0
 10
146.2798338152993
 20
292.9132858775159
 30
0.0
 10
146.3680389373949
 20
292.6633846399251
 30
0.0
 10
146.4593112979588
 20
292.4131615456049
 30
0.0
 10
146.5535728213097
 20
292.1632737383063
 30
0.0
 10
146.6512830780106
 20
291.9130053581967
 30
0.0
 10
146.7523372123095
 20
291.6631332677077
 30
0.0
 10
146.8573152927148
 20
291.4128054801552
 30
0.0
 10
146.9660759102424
 20
291.1629517315077
 30
0.0
 10
147.0793657615433
 20
290.9125439389007
 30
0.0
 10
147.1969926694775
 20
290.6627114636449
 30
0.0
 10
147.3199407697125
 20
290.4121924471909
 30
0.0
 10
147.4479454129144
 20
290.1623837626238
 30
0.0
 10
147.5823441434482
 20
289.9117036619909
 30
0.0
 10
147.7227671076445
 20
289.6619208482306
 30
0.0
 10
147.8710993400476
 20
289.4109955303502
 30
0.0
 10
148.0268088052514
 20
289.1612314659031
 30
0.0
 10
148.1927105332859
 20
288.9099033785056
 30
0.0
 10
148.3680273860238
 20
288.6601512778977
 30
0.0
 10
148.5572203243312
 20
288.4081023586334
 30
0.0
 10
148.7590733480945
 20
288.158228599237
 30
0.0
 10
148.9818145554786
 20
287.9046140103039
 30
0.0
 10
149.2235839559028
 20
287.654567549477
 30
0.0
 10
149.5020709038313
 20
287.3966396537942
 30
0.0
 10
149.8143254548813
 20
287.1436272814835
 30
0.0
 10
150.2960937408688
 20
286.8209901553863
 30
0.0
 10
150.9697181278167
 20
286.5143305231645
 30
0.0
 10
151.8582751300409
 20
286.3640140261374
 30
0.0
 10
152.7468321322584
 20
286.5143305230887
 30
0.0
 10
153.4204565191857
 20
286.8209901552632
 30
0.0
 10
153.9022248051416
 20
287.1436272813276
 30
0.0
 10
154.2144793561643
 20
287.3966396536166
 30
0.0
 10
154.4929663040637
 20
287.654567549281
 30
0.0
 10
154.7347357044594
 20
287.904614010092
 30
0.0
 10
154.957476911814
 20
288.158228599011
 30
0.0
 10
155.159329935548
 20
288.408102358395
 30
0.0
 10
155.3485228738259
 20
288.6601512776478
 30
0.0
 10
155.5238397265342
 20
288.9099033782456
 30
0.0
 10
155.6897414545385
 20
289.1612314656337
 30
0.0
 10
155.8454509197119
 20
289.4109955300723
 30
0.0
 10
155.9937831520835
 20
289.661920847945
 30
0.0
 10
156.1342061162482
 20
289.9117036616981
 30
0.0
 10
156.2686048467496
 20
290.1623837623246
 30
0.0
 10
156.3966094899193
 20
290.4121924468859
 30
0.0
 10
156.519557590122
 20
290.6627114633343
 30
0.0
 10
156.6371844980233
 20
290.912543938585
 30
0.0
 10
156.75047434929
 20
291.1629517311874
 30
0.0
 10
156.8592349667831
 20
291.4128054798309
 30
0.0
 10
156.9642130471537
 20
291.6631332673792
 30
0.0
 10
157.0652671814182
 20
291.9130053578647
 30
0.0
 10
157.162977438084
 20
292.1632737379708
 30
0.0
 10
157.2572389613988
 20
292.4131615452664
 30
0.0
 10
157.3485113219254
 20
292.663384639584
 30
0.0
 10
157.4367164439833
 20
292.9132858771722
 30
0.0
 10
157.5222244073585
 20
293.1634736915215
 30
0.0
 10
157.6049770828176
 20
293.4133864272504
 30
0.0
 10
157.6852766365053
 20
293.6635462459217
 30
0.0
 10
157.7630799888525
 20
293.9134688579192
 30
0.0
 10
157.8386367968038
 20
294.1636061084074
 30
0.0
 10
157.9119154603012
 20
294.4135372391596
 30
0.0
 10
157.9831243831712
 20
294.6636560468414
 30
0.0
 10
158.0522407984322
 20
294.9135945584927
 30
0.0
 10
158.1194402439712
 20
295.1636981138958
 30
0.0
 10
158.1847067966147
 20
295.4136430498834
 30
0.0
 10
158.2481894865222
 20
295.6637338583774
 30
0.0
 10
158.3098777202713
 20
295.9136844113591
 30
0.0
 10
158.3698989137586
 20
296.1637644669569
 30
0.0
 10
158.4282466382897
 20
296.4137199525564
 30
0.0
 10
158.4850305125694
 20
296.6637908614159
 30
0.0
 10
158.5402473674464
 20
296.9137506968708
 30
0.0
 10
158.5939920377611
 20
297.163813766688
 30
0.0
 10
158.6462639045315
 20
297.4137774535351
 30
0.0
 10
158.6971454232766
 20
297.6638337593316
 30
0.0
 10
158.7466379650733
 20
297.9138008693552
 30
0.0
 10
158.7948135436508
 20
298.1638513025883
 30
0.0
 10
158.8416750746255
 20
298.4138214663847
 30
0.0
 10
158.8872857047024
 20
298.6638667722347
 30
0.0
 10
158.9316495385163
 20
298.9138396698898
 30
0.0
 10
158.9748221469465
 20
299.163880475445
 30
0.0
 10
159.0168085346808
 20
299.4138558288628
 30
0.0
 10
159.0576577595083
 20
299.6638926663583
 30
0.0
 10
159.0973755041746
 20
299.9138702330279
 30
0.0
 10
159.1360052079155
 20
300.163903553105
 30
0.0
 10
159.1735530084981
 20
300.4138831207788
 30
0.0
 10
159.2100574317622
 20
300.6639133204494
 30
0.0
 10
159.2455250488831
 20
300.9138947028842
 30
0.0
 10
159.2799902251196
 20
301.1639220859752
 30
0.0
 10
159.3134593499082
 20
301.4139051204913
 30
0.0
 10
159.3459626664906
 20
301.6639300845063
 30
0.0
 10
159.3775081079196
 20
301.9139146196531
 30
0.0
 10
159.4081240623518
 20
302.1639370349366
 30
0.0
 10
159.4378131034277
 20
302.4139229809118
 30
0.0
 10
159.4665953488285
 20
302.6639444074093
 30
0.0
 10
159.494493378313
 20
302.9139314721458
 30
0.0
 10
159.5215447394044
 20
303.1639473856076
 30
0.0
 10
159.5476970815952
 20
303.4139363019427
 30
0.0
 10
159.5729109293953
 20
303.6639633649759
 30
0.0
 10
159.5974129192422
 20
303.9139506115947
 30
0.0
 10
159.6214403232254
 20
304.163930694288
 30
0.0
 10
159.6441786022158
 20
304.4139332005735
 30
0.0
 10
159.6648214861989
 20
304.6640646788014
 30
0.0
 10
159.6864485814298
 20
304.9141207029086
 30
0.0
 10
159.7121331045682
 20
305.1638196248326
 30
0.0
 10
159.7347586995985
 20
305.4135903793357
 30
0.0
 10
159.7472479286789
 20
305.663811861291
 30
0.0
 10
159.749696842173
 20
305.9140418148515
 30
0.0
 10
159.7421452914362
 20
306.1641921749747
 30
0.0
 10
159.7278400184463
 20
306.4143316826447
 30
0.0
 10
159.7100385422064
 20
306.6645176736776
 30
0.0
 10
159.683834153297
 20
306.9152767175749
 30
0.0
 10
159.6443179332842
 20
307.1653099313266
 30
0.0
 10
159.5933997832122
 20
307.4157654635355
 30
0.0
 10
159.5333554701073
 20
307.6657164964737
 30
0.0
 10
159.4626060230759
 20
307.9167171808423
 30
0.0
 10
159.3804202609149
 20
308.1665885770681
 30
0.0
 10
159.2853947513516
 20
308.4178337270875
 30
0.0
 10
159.1778458836902
 20
308.667604631704
 30
0.0
 10
159.0551207651034
 20
308.9193708915051
 30
0.0
 10
158.9177577611508
 20
309.1690156374714
 30
0.0
 10
158.7614580064104
 20
309.4214468896382
 30
0.0
 10
158.5876453578892
 20
309.6709324033902
 30
0.0
 10
158.389079132935
 20
309.9243454535249
 30
0.0
 10
158.1686613675814
 20
310.1736292984866
 30
0.0
 10
157.9137814134845
 20
310.4285336767218
 30
0.0
 10
157.6300293494176
 20
310.6775752751071
 30
0.0
 10
157.2938098426534
 20
310.9350882062626
 30
0.0
 10
156.9156959643515
 20
311.1840618977415
 30
0.0
 10
156.4433637885177
 20
311.4477848463478
 30
0.0
 10
155.8968629854356
 20
311.6973588742964
 30
0.0
 10
154.9413371454007
 20
312.0423443456324
 30
0.0
 10
153.5920257188376
 20
312.3421019681198
 30
0.0
 10
151.8594999760828
 20
312.4468565952437
 30
0.0
 10
150.1196366996299
 20
312.3548430557935
 30
0.0
 10
149.0007954949525
 20
312.0607220841018
 30
0.0
 10
148.4427006803686
 20
311.9140101236454
 30
0.0
 11
148.4427006803685
 21
311.9140101236454
 31
0.0
 11
148.0275599667269
 21
311.7692638755443
 31
0.0
 11
147.6206033925807
 21
311.6030992271613
 31
0.0
 11
147.2239276136484
 21
311.4140101236454
 31
0.0
 11
146.803857198192
 21
311.1790229959059
 31
0.0
 11
146.4021602077844
 21
310.9140101236454
 31
0.0
 11
146.0892842416463
 21
310.6741676641266
 31
0.0
 11
145.7931515916375
 21
310.4140101236454
 31
0.0
 11
145.5504392678052
 21
310.1712166123352
 31
0.0
 11
145.3230906383509
 21
309.9140101236454
 31
0.0
 11
145.1312433315897
 21
309.6691979536121
 31
0.0
 11
144.9534500793228
 21
309.4140101236454
 31
0.0
 11
144.8009330210571
 21
309.1677609902524
 31
0.0
 11
144.6612749029655
 21
308.9140101236454
 31
0.0
 11
144.5406636975627
 21
308.6667088134142
 31
0.0
 11
144.4317974543936
 21
308.4140101236454
 31
0.0
 11
144.3379534817685
 21
308.1659334379153
 31
0.0
 11
144.2550816582216
 21
307.9140101236454
 31
0.0
 11
144.1848260326294
 21
307.6653155326832
 31
0.0
 11
144.1243013022109
 21
307.4140101236454
 31
0.0
 11
144.0740496060914
 21
307.1649301911266
 31
0.0
 11
144.0347841580646
 21
306.9140101236454
 31
0.0
 11
144.0078961766473
 21
306.6644529119547
 31
0.0
 11
143.989271894458
 21
306.4140101236454
 31
0.0
 11
143.9755264362778
 21
306.1641093906041
 31
0.0
 11
143.96851988183
 21
305.9140101236454
 31
0.0
 11
143.9709732766323
 21
305.6638606351861
 31
0.0
 11
143.9834567323979
 21
305.4140101236454
 31
0.0
 11
144.0049223920159
 21
305.1638825587316
 31
0.0
 11
144.029430260965
 21
304.9140101236454
 31
0.0
 11
144.0515647789611
 21
304.6640519664005
 31
0.0
 11
144.0727160798706
 21
304.4140101236455
 31
0.0
 11
144.0953231154458
 21
304.1639523070296
 31
0.0
 11
144.1192105447473
 21
303.9140101236455
 31
0.0
 11
144.1437562185552
 21
303.6639743515935
 31
0.0
 11
144.1690026620148
 21
303.4140101236454
 31
0.0
 11
144.1951531774727
 21
303.1639633419679
 31
0.0
 11
144.2221898766467
 21
302.9140101236454
 31
0.0
 11
144.2500997779914
 21
302.6639607285841
 31
0.0
 11
144.2788787889205
 21
302.4140101236454
 31
0.0
 11
144.3085777402332
 21
302.1639553302721
 31
0.0
 11
144.3391859771685
 21
301.9140101236455
 31
0.0
 11
144.3707438121744
 21
301.6639500733363
 31
0.0
 11
144.4032389446627
 21
301.4140101236455
 31
0.0
 11
144.4367220459587
 21
301.1639440880243
 31
0.0
 11
144.4711772127241
 21
300.9140101236454
 31
0.0
 11
144.5066609720742
 21
300.6639375089524
 31
0.0
 11
144.5431535871458
 21
300.4140101236454
 31
0.0
 11
144.5807199422672
 21
300.1639301842225
 31
0.0
 11
144.6193356313171
 21
299.9140101236455
 31
0.0
 11
144.6590747538922
 21
299.6639220180768
 31
0.0
 11
144.6999073875519
 21
299.4140101236455
 31
0.0
 11
144.741918434421
 21
299.1639128742442
 31
0.0
 11
144.7850713984928
 21
298.9140101236455
 31
0.0
 11
144.8294637296876
 21
298.6639025959
 31
0.0
 11
144.8750510940306
 21
298.4140101236455
 31
0.0
 11
144.9219456293493
 21
298.1638909926236
 31
0.0
 11
144.9700936269793
 21
297.9140101236454
 31
0.0
 11
145.0196244912955
 21
297.6638778339358
 31
0.0
 11
145.0704732643464
 21
297.4140101236455
 31
0.0
 11
145.1227897616149
 21
297.1638628379784
 31
0.0
 11
145.1764954727966
 21
296.9140101236456
 31
0.0
 11
145.2317644830316
 21
296.6638456572574
 31
0.0
 11
145.2885018800414
 21
296.4140101236454
 31
0.0
 11
145.3469107929092
 21
296.1638258592807
 31
0.0
 11
145.4068763533488
 21
295.9140101236454
 31
0.0
 11
145.4686366941611
 21
295.6638029002516
 31
0.0
 11
145.5320525195454
 21
295.4140101236455
 31
0.0
 11
145.5974044791751
 21
295.163776088706
 31
0.0
 11
145.6645231690751
 21
294.9140101236455
 31
0.0
 11
145.733741331014
 21
294.6637445344702
 31
0.0
 11
145.8048521576773
 21
294.4140101236455
 31
0.0
 11
145.8782528355277
 21
294.1637070757106
 31
0.0
 11
145.9536896714978
 21
293.9140101236454
 31
0.0
 11
146.0316404513582
 21
293.6636621726072
 31
0.0
 11
146.1117921018808
 21
293.4140101236454
 31
0.0
 11
146.1947244632469
 21
293.1636077488524
 31
0.0
 11
146.280048363841
 21
292.9140101236455
 31
0.0
 11
146.3684746976485
 21
292.6635409495625
 31
0.0
 11
146.4595154260078
 21
292.4140101236455
 31
0.0
 11
146.5540524904756
 21
292.1634577601237
 31
0.0
 11
146.6514673504767
 21
291.9140101236455
 31
0.0
 11
146.7528694580724
 21
291.6633523886712
 31
0.0
 11
146.857464742689
 21
291.4140101236454
 31
0.0
 11
146.9666720902786
 21
291.1632162164445
 31
0.0
 11
147.0794561231022
 21
290.9140101236454
 31
0.0
 11
147.1976680084181
 21
290.6630359707678
 31
0.0
 11
147.3199313223118
 21
290.4140101236454
 31
0.0
 11
147.4487210481952
 21
290.1627902123629
 31
0.0
 11
147.5821639790178
 21
289.9140101236454
 31
0.0
 11
147.7236731133338
 21
289.6624427422467
 31
0.0
 11
147.8706163016361
 21
289.4140101236454
 31
0.0
 11
148.0278912365171
 21
289.1619266673703
 31
0.0
 11
148.1916632478588
 21
288.9140101236454
 31
0.0
 11
148.3693577014909
 21
288.661112371857
 31
0.0
 11
148.5550134063664
 21
288.4140101236454
 31
0.0
 11
148.760779914032
 21
288.1596892776826
 31
0.0
 11
148.9768824706775
 21
287.9140101236455
 31
0.0
 11
149.2259377068106
 21
287.6568670604387
 31
0.0
 11
149.4886387533022
 21
287.4140101236455
 31
0.0
 11
149.817720240266
 21
287.1490962943266
 31
0.0
 11
150.1706035474608
 21
286.9140101236454
 31
0.0
 11
150.9838868494586
 21
286.5505693276644
 31
0.0
 11
151.8582751320066
 21
286.4140101236454
 31
0.0
 11
152.7326634145544
 21
286.5505693276644
 31
0.0
 11
153.545946716552
 21
286.9140101236454
 31
0.0
 11
153.8988300237472
 21
287.1490962943265
 31
0.0
 11
154.2279115107114
 21
287.4140101236455
 31
0.0
 11
154.4906125572029
 21
287.6568670604387
 31
0.0
 11
154.7396677933358
 21
287.9140101236455
 31
0.0
 11
154.9557703499811
 21
288.1596892776826
 31
0.0
 11
155.1615368576467
 21
288.4140101236454
 31
0.0
 11
155.3471925625225
 21
288.6611123718571
 31
0.0
 11
155.5248870161549
 21
288.9140101236454
 31
0.0
 11
155.688659027497
 21
289.1619266673703
 31
0.0
 11
155.8459339623782
 21
289.4140101236455
 31
0.0
 11
155.9928771506803
 21
289.6624427422467
 31
0.0
 11
156.134386284996
 21
289.9140101236454
 31
0.0
 11
156.2678292158183
 21
290.1627902123629
 31
0.0
 11
156.3966189417019
 21
290.4140101236454
 31
0.0
 11
156.518882255596
 21
290.6630359707679
 31
0.0
 11
156.637094140912
 21
290.9140101236454
 31
0.0
 11
156.7498781737353
 21
291.1632162164446
 31
0.0
 11
156.8590855213243
 21
291.4140101236454
 31
0.0
 11
156.9636808059409
 21
291.6633523886712
 31
0.0
 11
157.065082913537
 21
291.9140101236454
 31
0.0
 11
157.1624977735385
 21
292.1634577601236
 31
0.0
 11
157.257034838006
 21
292.4140101236455
 31
0.0
 11
157.3480755663645
 21
292.6635409495625
 31
0.0
 11
157.4365019001714
 21
292.9140101236455
 31
0.0
 11
157.5218258007656
 21
293.1636077488524
 31
0.0
 11
157.6047581621322
 21
293.4140101236454
 31
0.0
 11
157.684909812655
 21
293.6636621726072
 31
0.0
 11
157.7628605925154
 21
293.9140101236454
 31
0.0
 11
157.8382974284856
 21
294.1637070757106
 31
0.0
 11
157.9116981063364
 21
294.4140101236454
 31
0.0
 11
157.9828089329997
 21
294.6637445344701
 31
0.0
 11
158.0520270949386
 21
294.9140101236455
 31
0.0
 11
158.1191457848387
 21
295.163776088706
 31
0.0
 11
158.1844977444683
 21
295.4140101236454
 31
0.0
 11
158.2479135698526
 21
295.6638029002516
 31
0.0
 11
158.3096739106648
 21
295.9140101236454
 31
0.0
 11
158.3696394711041
 21
296.1638258592806
 31
0.0
 11
158.4280483839719
 21
296.4140101236454
 31
0.0
 11
158.4847857809821
 21
296.6638456572572
 31
0.0
 11
158.5400547912175
 21
296.9140101236454
 31
0.0
 11
158.5937605023993
 21
297.1638628379782
 31
0.0
 11
158.6460769996676
 21
297.4140101236454
 31
0.0
 11
158.6969257727187
 21
297.6638778339358
 31
0.0
 11
158.746456637035
 21
297.9140101236454
 31
0.0
 11
158.7946046346648
 21
298.1638909926236
 31
0.0
 11
158.8414991699832
 21
298.4140101236455
 31
0.0
 11
158.8870865343261
 21
298.6639025958999
 31
0.0
 11
158.9314788655209
 21
298.9140101236455
 31
0.0
 11
158.9746318295925
 21
299.1639128742443
 31
0.0
 11
159.0166428764616
 21
299.4140101236455
 31
0.0
 11
159.0574755101213
 21
299.6639220180768
 31
0.0
 11
159.0972146326967
 21
299.9140101236455
 31
0.0
 11
159.135830321747
 21
300.1639301842225
 31
0.0
 11
159.1733966768683
 21
300.4140101236454
 31
0.0
 11
159.2098892919391
 21
300.6639375089524
 31
0.0
 11
159.2453730512885
 21
300.9140101236454
 31
0.0
 11
159.279828218054
 21
301.1639440880243
 31
0.0
 11
159.3133113193506
 21
301.4140101236454
 31
0.0
 11
159.3458064518391
 21
301.6639500733363
 31
0.0
 11
159.3773642868451
 21
301.9140101236454
 31
0.0
 11
159.4079725237804
 21
302.1639553302721
 31
0.0
 11
159.4376714750932
 21
302.4140101236454
 31
0.0
 11
159.4664504860224
 21
302.6639607285841
 31
0.0
 11
159.494360387367
 21
302.9140101236454
 31
0.0
 11
159.521397086541
 21
303.1639633419678
 31
0.0
 11
159.547547601999
 21
303.4140101236454
 31
0.0
 11
159.5727940454589
 21
303.6639743515935
 31
0.0
 11
159.597339719267
 21
303.9140101236454
 31
0.0
 11
159.6212271485684
 21
304.1639523070297
 31
0.0
 11
159.6438341841433
 21
304.4140101236455
 31
0.0
 11
159.6649854850527
 21
304.6640519664007
 31
0.0
 11
159.687120003049
 21
304.9140101236456
 31
0.0
 11
159.7116278719987
 21
305.1638825587317
 31
0.0
 11
159.7330935316172
 21
305.4140101236454
 31
0.0
 11
159.7455769873824
 21
305.6638606351862
 31
0.0
 11
159.7480303821842
 21
305.9140101236454
 31
0.0
 11
159.7410238277364
 21
306.164109390604
 31
0.0
 11
159.7272783695564
 21
306.4140101236454
 31
0.0
 11
159.7086540873673
 21
306.6644529119546
 31
0.0
 11
159.6817661059498
 21
306.9140101236454
 31
0.0
 11
159.6425006579227
 21
307.1649301911266
 31
0.0
 11
159.592248961803
 21
307.4140101236455
 31
0.0
 11
159.5317242313843
 21
307.6653155326832
 31
0.0
 11
159.4614686057921
 21
307.9140101236454
 31
0.0
 11
159.3785967822452
 21
308.1659334379152
 31
0.0
 11
159.28475280962
 21
308.4140101236454
 31
0.0
 11
159.1758865664509
 21
308.6667088134142
 31
0.0
 11
159.0552753610484
 21
308.9140101236454
 31
0.0
 11
158.915617242957
 21
309.1677609902525
 31
0.0
 11
158.7631001846916
 21
309.4140101236454
 31
0.0
 11
158.5853069324245
 21
309.669197953612
 31
0.0
 11
158.3934596256631
 21
309.9140101236454
 31
0.0
 11
158.1661109962089
 21
310.1712166123353
 31
0.0
 11
157.9233986723769
 21
310.4140101236455
 31
0.0
 11
157.6272660223683
 21
310.6741676641267
 31
0.0
 11
157.3143900562302
 21
310.9140101236454
 31
0.0
 11
156.9126930658223
 21
311.179022995906
 31
0.0
 11
156.4926226503655
 21
311.4140101236454
 31
0.0
 11
155.8936226427793
 21
311.6889529798162
 31
0.0
 11
155.2738495836452
 21
311.9140101236454
 31
0.0
 11
153.5895746365001
 21
312.2962148146124
 31
0.0
 11
151.8582751320072
 21
312.4140101236454
 31
0.0
 11
150.1269756275141
 21
312.2962148146123
 31
0.0
 11
148.4427006803686
 21
311.9140101236454
 31
0.0
  0
ARC
  5
36E
330
68
100
AcDbEntity
  8
1
  6
Continuous
 62
     7
100
AcDbCircle
 10
162.8582751320507
 20
305.4140101236449
 30
0.0
 40
10.0
100
AcDbArc
 50
0.0
 51
90.0
  0
ARC
  5
36F
330
68
100
AcDbEntity
  8
1
  6
Continuous
 62
     7
100
AcDbCircle
 10
140.8582751319718
 20
305.4140101236449
 30
0.0
 40
9.99999999999974
100
AcDbArc
 50
135.5729959991887
 51
180.0000000000664
  0
ARC
  5
370
330
68
100
AcDbEntity
  8
1
  6
Continuous
 62
     7
100
AcDbCircle
 10
140.8582751319718
 20
305.4140101236449
 30
0.0
 40
10.0
100
AcDbArc
 50
90.0
 51
135.5729959991887
  0
ENDBLK
  5
6A
330
68
100
AcDbEntity
  8
0
100
AcDbBlockEnd
  0
BLOCK
  5
6C
330
6B
100
AcDbEntity
  8
0
100
AcDbBlockBegin
  2
Y5050-0A
 70
     0
 10
207.8582751320068
 20
150.4118618445813
 30
0.0
  3
Y5050-0A
  1

  0
LINE
  5
371
330
6B
100
AcDbEntity
  8
1
  6
Continuous
 62
     7
100
AcDbLine
 10
163.8582751320054
 20
271.911861844579
 30
0.0
 11
163.8582751320068
 21
273.4140101236009
 31
0.0
  0
LINE
  5
372
330
6B
100
AcDbEntity
  8
1
  6
Continuous
 62
     7
100
AcDbLine
 10
139.8582751320068
 20
273.4140101236009
 30
0.0
 11
139.8582751320082
 21
229.9118618445791
 31
0.0
  0
LINE
  5
373
330
6B
100
AcDbEntity
  8
1
  6
Continuous
 62
     7
100
AcDbLine
 10
162.3362751320069
 20
209.411861844579
 30
0.0
 11
162.3362751320069
 21
220.411861844579
 31
0.0
  0
LINE
  5
374
330
6B
100
AcDbEntity
  8
1
  6
PHANTOM
 62
     4
100
AcDbLine
 10
151.8582751320068
 20
209.911861844579
 30
0.0
 11
151.8582751320068
 21
166.4118618445813
 31
0.0
  0
LINE
  5
375
330
6B
100
AcDbEntity
  8
1
  6
Continuous
 62
     2
100
AcDbLine
 10
142.5422751320068
 20
209.411861844579
 30
0.0
 11
142.5422751320068
 21
219.4118618445812
 31
0.0
  0
LINE
  5
376
330
6B
100
AcDbEntity
  8
1
  6
Continuous
 62
     7
100
AcDbLine
 10
141.3802751320067
 20
199.4177659496864
 30
0.0
 11
141.3802751320067
 21
167.5738618445811
 31
0.0
  0
LINE
  5
377
330
6B
100
AcDbEntity
  8
1
  6
Continuous
 62
     2
100
AcDbLine
 10
161.1742751320068
 20
199.4118618445787
 30
0.0
 11
161.1742751320068
 21
166.4118618445813
 31
0.0
  0
LINE
  5
378
330
6B
100
AcDbEntity
  8
1
  6
Continuous
 62
     7
100
AcDbLine
 10
141.3802751320067
 20
220.411861844579
 30
0.0
 11
141.3802751320067
 21
209.411861844579
 31
0.0
  0
LINE
  5
379
330
6B
100
AcDbEntity
  8
1
  6
Continuous
 62
     2
100
AcDbLine
 10
161.7516254011952
 20
220.411861844579
 30
0.0
 11
161.1742751320068
 21
219.4118618445812
 31
0.0
  0
LINE
  5
37A
330
6B
100
AcDbEntity
  8
1
  6
Continuous
 62
     7
100
AcDbLine
 10
173.3582751320054
 20
246.0918618445793
 30
0.0
 11
173.3582751320054
 21
264.7318618445787
 31
0.0
  0
LINE
  5
37B
330
6B
100
AcDbEntity
  8
1
  6
Continuous
 62
     2
100
AcDbLine
 10
175.8960163762116
 20
246.0918618445792
 30
0.0
 11
173.3582751320054
 21
246.0918618445793
 31
0.0
  0
LINE
  5
37C
330
6B
100
AcDbEntity
  8
1
  6
Continuous
 62
     7
100
AcDbLine
 10
175.8960163762116
 20
244.931861844579
 30
0.0
 11
171.3490961952257
 21
244.931861844579
 31
0.0
  0
LINE
  5
37D
330
6B
100
AcDbEntity
  8
1
  6
Continuous
 62
     7
100
AcDbLine
 10
134.1082751320068
 20
222.411861844579
 30
0.0
 11
168.8582751320068
 21
222.411861844579
 31
0.0
  0
LINE
  5
37E
330
6B
100
AcDbEntity
  8
1
  6
Continuous
 62
     7
100
AcDbLine
 10
171.8582751320068
 20
225.4118618445791
 30
0.0
 11
171.8582751320068
 21
222.4118618445789
 31
0.0
  0
LINE
  5
37F
330
6B
100
AcDbEntity
  8
1
  6
Continuous
 62
     7
100
AcDbLine
 10
132.3582751320068
 20
225.9118618445791
 30
0.0
 11
135.8582751320082
 21
225.9118618445791
 31
0.0
  0
LINE
  5
380
330
6B
100
AcDbEntity
  8
1
  6
Continuous
 62
     7
100
AcDbLine
 10
171.8582751320068
 20
222.4118618445789
 30
0.0
 11
168.8582751320068
 21
222.411861844579
 31
0.0
  0
LINE
  5
381
330
6B
100
AcDbEntity
  8
1
  6
Continuous
 62
     7
100
AcDbLine
 10
167.8582751320054
 20
225.9118618445791
 30
0.0
 11
171.3582751320068
 21
225.9118618445791
 31
0.0
  0
LINE
  5
382
330
6B
100
AcDbEntity
  8
1
  6
Continuous
 62
     7
100
AcDbLine
 10
131.8582751320068
 20
222.4118618445789
 30
0.0
 11
134.1082751320068
 21
222.411861844579
 31
0.0
  0
LINE
  5
383
330
6B
100
AcDbEntity
  8
1
  6
Continuous
 62
     7
100
AcDbLine
 10
162.3362751320069
 20
167.5738618445811
 30
0.0
 11
162.3362751320069
 21
199.4177659496864
 31
0.0
  0
LINE
  5
384
330
6B
100
AcDbEntity
  8
1
  6
Continuous
 62
     7
100
AcDbLine
 10
141.3802751320067
 20
219.4118618445812
 30
0.0
 11
162.3362751320069
 21
219.4118618445812
 31
0.0
  0
LINE
  5
385
330
6B
100
AcDbEntity
  8
1
  6
Continuous
 62
     2
100
AcDbLine
 10
161.1742751320068
 20
219.4118618445812
 30
0.0
 11
161.1742751320068
 21
209.411861844579
 31
0.0
  0
LINE
  5
386
330
6B
100
AcDbEntity
  8
1
  6
Continuous
 62
     7
100
AcDbLine
 10
161.1742751320068
 20
166.4118618445813
 30
0.0
 11
162.3362751320069
 21
167.5738618445811
 31
0.0
  0
LINE
  5
387
330
6B
100
AcDbEntity
  8
1
  6
Continuous
 62
     7
100
AcDbLine
 10
141.3802751320067
 20
167.5738618445811
 30
0.0
 11
142.5422751320068
 21
166.4118618445813
 31
0.0
  0
LINE
  5
388
330
6B
100
AcDbEntity
  8
1
  6
Continuous
 62
     2
100
AcDbLine
 10
142.5422751320068
 20
166.4118618445813
 30
0.0
 11
142.5422751320068
 21
199.41883303314
 31
0.0
  0
LINE
  5
389
330
6B
100
AcDbEntity
  8
1
  6
Continuous
 62
     2
100
AcDbLine
 10
142.5422751320068
 20
219.4118618445812
 30
0.0
 11
141.9649248628184
 21
220.411861844579
 31
0.0
  0
LINE
  5
38A
330
6B
100
AcDbEntity
  8
1
  6
Continuous
 62
     7
100
AcDbLine
 10
142.5422751320068
 20
166.4118618445813
 30
0.0
 11
145.3582751320068
 21
166.4118618445813
 31
0.0
  0
LINE
  5
38B
330
6B
100
AcDbEntity
  8
1
  6
Continuous
 62
     7
100
AcDbLine
 10
145.3582751320068
 20
166.4118618445813
 30
0.0
 11
161.1742751320068
 21
166.4118618445813
 31
0.0
  0
LINE
  5
38C
330
6B
100
AcDbEntity
  8
1
  6
PHANTOM
 62
     4
100
AcDbLine
 10
151.8582751320068
 20
283.411861844579
 30
0.0
 11
151.8582751320068
 21
209.911861844579
 31
0.0
  0
LINE
  5
38D
330
6B
100
AcDbEntity
  8
1
  6
Continuous
 62
     7
100
AcDbLine
 10
171.3144551790743
 20
265.911861844579
 30
0.0
 11
169.8582751320054
 21
265.911861844579
 31
0.0
  0
LINE
  5
38E
330
6B
100
AcDbEntity
  8
1
  6
Continuous
 62
     2
100
AcDbLine
 10
173.3582751320054
 20
264.7318618445787
 30
0.0
 11
175.8960163762116
 21
264.7318618445787
 31
0.0
  0
LINE
  5
38F
330
6B
100
AcDbEntity
  8
1
  6
Continuous
 62
     7
100
AcDbLine
 10
171.3490961952257
 20
265.8918618445791
 30
0.0
 11
175.8960163762116
 21
265.8918618445791
 31
0.0
  0
LINE
  5
390
330
6B
100
AcDbEntity
  8
1
  6
Continuous
 62
     7
100
AcDbLine
 10
173.3582751320054
 20
264.7318618445787
 30
0.0
 11
173.3582751320054
 21
265.8918618445791
 31
0.0
  0
LINE
  5
391
330
6B
100
AcDbEntity
  8
1
  6
Continuous
 62
     7
100
AcDbLine
 10
171.3144551790743
 20
265.911861844579
 30
0.0
 11
171.3490961952257
 21
265.8918618445791
 31
0.0
  0
LINE
  5
392
330
6B
100
AcDbEntity
  8
1
  6
Continuous
 62
     2
100
AcDbLine
 10
171.3490961952257
 20
265.8918618445791
 30
0.0
 11
173.3582751320054
 21
264.7318618445787
 31
0.0
  0
LINE
  5
393
330
6B
100
AcDbEntity
  8
1
  6
Continuous
 62
     7
100
AcDbLine
 10
173.3582751320054
 20
244.931861844579
 30
0.0
 11
173.3582751320054
 21
246.0918618445793
 31
0.0
  0
LINE
  5
394
330
6B
100
AcDbEntity
  8
1
  6
Continuous
 62
     7
100
AcDbLine
 10
171.3490961952257
 20
244.931861844579
 30
0.0
 11
171.3144551790745
 21
244.911861844579
 31
0.0
  0
LINE
  5
395
330
6B
100
AcDbEntity
  8
1
  6
Continuous
 62
     2
100
AcDbLine
 10
173.3582751320054
 20
246.0918618445793
 30
0.0
 11
171.3490961952257
 21
244.931861844579
 31
0.0
  0
LINE
  5
396
330
6B
100
AcDbEntity
  8
1
  6
PHANTOM
 62
     4
100
AcDbLine
 10
182.3582751320055
 20
255.411861844579
 30
0.0
 11
157.108275131995
 21
255.411861844579
 31
0.0
  0
LINE
  5
397
330
6B
100
AcDbEntity
  8
1
  6
Continuous
 62
     7
100
AcDbLine
 10
169.8582751320054
 20
244.911861844579
 30
0.0
 11
171.3144551790745
 21
244.911861844579
 31
0.0
  0
LINE
  5
398
330
6B
100
AcDbEntity
  8
1
  6
Continuous
 62
     7
100
AcDbLine
 10
163.8582751320054
 20
229.9118618445791
 30
0.0
 11
163.8582751320054
 21
238.9118618445791
 31
0.0
  0
LINE
  5
399
330
6B
100
AcDbEntity
  8
1
  6
Continuous
 62
     7
100
AcDbLine
 10
131.8582751320068
 20
222.4118618445789
 30
0.0
 11
131.8582751320068
 21
225.4118618445791
 31
0.0
  0
LINE
  5
39A
330
6B
100
AcDbEntity
  8
1
  6
Continuous
 62
     7
100
AcDbLine
 10
167.8582751320054
 20
225.9118618445791
 30
0.0
 11
135.8582751320082
 21
225.9118618445791
 31
0.0
  0
LINE
  5
39B
330
6B
100
AcDbEntity
  8
1
  6
Continuous
 62
     7
100
AcDbLine
 10
141.3802751320067
 20
167.5738618445811
 30
0.0
 11
162.3362751320069
 21
167.5738618445811
 31
0.0
  0
ARC
  5
39C
330
6B
100
AcDbEntity
  8
1
  6
Continuous
 62
     7
100
AcDbCircle
 10
135.8582751320082
 20
229.9118618445791
 30
0.0
 40
4.0
100
AcDbArc
 50
270.0
 51
0.0
  0
ARC
  5
39D
330
6B
100
AcDbEntity
  8
1
  6
Continuous
 62
     7
100
AcDbCircle
 10
132.3582751320068
 20
225.4118618445791
 30
0.0
 40
0.5
100
AcDbArc
 50
90.0
 51
180.0
  0
ARC
  5
39E
330
6B
100
AcDbEntity
  8
1
  6
Continuous
 62
     7
100
AcDbCircle
 10
171.3582751320068
 20
225.4118618445791
 30
0.0
 40
0.5
100
AcDbArc
 50
0.0
 51
90.0
  0
ARC
  5
39F
330
6B
100
AcDbEntity
  8
1
  6
Continuous
 62
     7
100
AcDbCircle
 10
167.8582751320054
 20
229.9118618445791
 30
0.0
 40
4.0
100
AcDbArc
 50
180.0
 51
270.0
  0
ARC
  5
3A0
330
6B
100
AcDbEntity
  8
1
  6
Continuous
 62
     7
100
AcDbCircle
 10
169.8582751320054
 20
271.911861844579
 30
0.0
 40
6.0
100
AcDbArc
 50
180.0
 51
270.0
  0
ARC
  5
3A1
330
6B
100
AcDbEntity
  8
1
  6
Continuous
 62
     7
100
AcDbCircle
 10
169.8582751320054
 20
238.911861844579
 30
0.0
 40
6.0
100
AcDbArc
 50
90.0
 51
179.9999999999989
  0
ENDBLK
  5
6D
330
6B
100
AcDbEntity
  8
0
100
AcDbBlockEnd
  0
BLOCK
  5
3BD
330
3B4
100
AcDbEntity
  8
0
100
AcDbBlockBegin
  2
*D13
 70
     1
 10
0.0
 20
0.0
 30
0.0
  3
*D13
  1

  0
LINE
  5
3B5
330
3B4
100
AcDbEntity
  8
1
  6
Continuous
 62
     2
100
AcDbLine
 10
96.8582751320068
 20
209.411861844579
 30
0.0
 11
96.8582751320068
 21
198.911861844474
 31
0.0
  0
LINE
  5
3B6
330
3B4
100
AcDbEntity
  8
1
  6
Continuous
 62
     2
100
AcDbLine
 10
96.8582751320068
 20
220.411861844579
 30
0.0
 11
96.8582751320068
 21
209.411861844579
 31
0.0
  0
LINE
  5
3B7
330
3B4
100
AcDbEntity
  8
1
  6
Continuous
 62
     2
100
AcDbLine
 10
96.8582751320068
 20
265.571360589521
 30
0.0
 11
96.8582751320068
 21
220.411861844579
 31
0.0
  0
LINE
  5
3B8
330
3B4
100
AcDbEntity
  8
1
  6
Continuous
 62
     2
100
AcDbLine
 10
111.8582751320068
 20
209.411861844579
 30
0.0
 11
95.35827513199179
 21
209.411861844579
 31
0.0
  0
LINE
  5
3B9
330
3B4
100
AcDbEntity
  8
1
  6
Continuous
 62
     2
100
AcDbLine
 10
111.8582751320068
 20
220.411861844579
 30
0.0
 11
95.35827513199179
 21
220.411861844579
 31
0.0
  0
SOLID
  5
3BA
330
3B4
100
AcDbEntity
  8
1
 62
     2
100
AcDbTrace
 10
96.16709951966605
 20
225.6618618446315
 30
0.0
 11
97.54945074434754
 21
225.6618618446315
 31
0.0
 12
96.8582751320068
 22
220.411861844579
 32
0.0
 13
96.8582751320068
 23
220.411861844579
 33
0.0
  0
SOLID
  5
3BB
330
3B4
100
AcDbEntity
  8
1
 62
     2
100
AcDbTrace
 10
97.54945074434754
 20
204.1618618445265
 30
0.0
 11
96.16709951966605
 21
204.1618618445265
 31
0.0
 12
96.8582751320068
 22
209.411861844579
 32
0.0
 13
96.8582751320068
 23
209.411861844579
 33
0.0
  0
MTEXT
  5
3BC
330
3B4
100
AcDbEntity
  8
1
 62
     7
100
AcDbMText
 10
95.35827513199179
 20
231.971360589185
 30
0.0
 40
5.2500000000525
 41
0.0
 71
     7
 72
     1
  1
最大30最小5
  7
CONVERTER_11
 11
0.0
 21
1.0
 31
0.0
 73
     1
 44
0.45454545454545
  0
ENDBLK
  5
3BE
330
3B4
100
AcDbEntity
  8
0
100
AcDbBlockEnd
  0
BLOCK
  5
3C9
330
3C1
100
AcDbEntity
  8
0
100
AcDbBlockBegin
  2
*D14
 70
     1
 10
0.0
 20
0.0
 30
0.0
  3
*D14
  1

  0
LINE
  5
3C2
330
3C1
100
AcDbEntity
  8
1
  6
Continuous
 62
     2
100
AcDbLine
 10
119.0005832590471
 20
181.472260948453
 30
0.0
 11
146.7005743565643
 21
181.472260948453
 31
0.0
  0
LINE
  5
3C3
330
3C1
100
AcDbEntity
  8
1
  6
Continuous
 62
     2
100
AcDbLine
 10
67.78656025703782
 20
181.472260948453
 30
0.0
 11
119.0005832590471
 21
181.472260948453
 31
0.0
  0
LINE
  5
3C4
330
3C1
100
AcDbEntity
  8
1
  6
Continuous
 62
     2
100
AcDbLine
 10
138.0082795832482
 20
200.4799572726541
 30
0.0
 11
117.9399230872566
 21
180.4116007766625
 31
0.0
  0
LINE
  5
3C5
330
3C1
100
AcDbEntity
  8
1
  6
Continuous
 62
     2
100
AcDbLine
 10
165.7082706807654
 20
200.4799572726541
 30
0.0
 11
145.6399141847738
 21
180.4116007766625
 31
0.0
  0
SOLID
  5
3C6
330
3C1
100
AcDbEntity
  8
1
 62
     2
100
AcDbTrace
 10
124.2505832590996
 20
182.1634365607937
 30
0.0
 11
124.2505832590996
 21
180.7810853361122
 31
0.0
 12
119.0005832590471
 22
181.472260948453
 32
0.0
 13
119.0005832590471
 23
181.472260948453
 33
0.0
  0
SOLID
  5
3C7
330
3C1
100
AcDbEntity
  8
1
 62
     2
100
AcDbTrace
 10
141.4505743565118
 20
180.7810853361122
 30
0.0
 11
141.4505743565118
 21
182.1634365607937
 31
0.0
 12
146.7005743565643
 22
181.472260948453
 32
0.0
 13
146.7005743565643
 23
181.472260948453
 33
0.0
  0
MTEXT
  5
3C8
330
3C1
100
AcDbEntity
  8
1
 62
     7
100
AcDbMText
 10
67.78656025703782
 20
182.9722609484679
 30
0.0
 40
5.2500000000525
 41
0.0
 71
     7
 72
     1
  1
ロックナット対辺24
  7
CONVERTER_11
 11
0.9999999999970619
 21
2.424068405545306E-6
 31
0.0
 73
     1
 44
0.45454545454545
  0
ENDBLK
  5
3CA
330
3C1
100
AcDbEntity
  8
0
100
AcDbBlockEnd
  0
BLOCK
  5
3D4
330
3CD
100
AcDbEntity
  8
0
100
AcDbBlockBegin
  2
*D15
 70
     1
 10
0.0
 20
0.0
 30
0.0
  3
*D15
  1

  0
LINE
  5
3CE
330
3CD
100
AcDbEntity
  8
1
  6
Continuous
 62
     2
100
AcDbLine
 10
84.8582751320068
 20
222.4118618445789
 30
0.0
 11
84.8582751320068
 21
316.4140101236009
 31
0.0
  0
LINE
  5
3CF
330
3CD
100
AcDbEntity
  8
1
  6
Continuous
 62
     2
100
AcDbLine
 10
151.8582751320068
 20
316.4140101236009
 30
0.0
 11
83.35827513199179
 21
316.4140101236009
 31
0.0
  0
LINE
  5
3D0
330
3CD
100
AcDbEntity
  8
1
  6
Continuous
 62
     2
100
AcDbLine
 10
131.8582751320068
 20
222.4118618445789
 30
0.0
 11
83.35827513199179
 21
222.4118618445789
 31
0.0
  0
SOLID
  5
3D1
330
3CD
100
AcDbEntity
  8
1
 62
     2
100
AcDbTrace
 10
84.16709951966605
 20
227.6618618446314
 30
0.0
 11
85.54945074434754
 21
227.6618618446314
 31
0.0
 12
84.8582751320068
 22
222.4118618445789
 32
0.0
 13
84.8582751320068
 23
222.4118618445789
 33
0.0
  0
SOLID
  5
3D2
330
3CD
100
AcDbEntity
  8
1
 62
     2
100
AcDbTrace
 10
85.54945074434754
 20
311.1640101235484
 30
0.0
 11
84.16709951966605
 21
311.1640101235484
 31
0.0
 12
84.8582751320068
 22
316.4140101236009
 32
0.0
 13
84.8582751320068
 23
316.4140101236009
 33
0.0
  0
MTEXT
  5
3D3
330
3CD
100
AcDbEntity
  8
1
 62
     7
100
AcDbMText
 10
83.35827513199179
 20
255.2379359839482
 30
0.0
 40
5.2500000000525
 41
0.0
 71
     7
 72
     1
  1
94リフト6
  7
CONVERTER_11
 11
0.0
 21
1.0
 31
0.0
 73
     1
 44
0.45454545454545
  0
ENDBLK
  5
3D5
330
3CD
100
AcDbEntity
  8
0
100
AcDbBlockEnd
  0
BLOCK
  5
3E0
330
3D8
100
AcDbEntity
  8
0
100
AcDbBlockBegin
  2
*D16
 70
     1
 10
0.0
 20
0.0
 30
0.0
  3
*D16
  1

  0
LINE
  5
3D9
330
3D8
100
AcDbEntity
  8
1
  6
Continuous
 62
     2
100
AcDbLine
 10
84.8582751320068
 20
222.4118618445789
 30
0.0
 11
84.8582751320068
 21
188.2222609485205
 31
0.0
  0
LINE
  5
3DA
330
3D8
100
AcDbEntity
  8
1
  6
Continuous
 62
     2
100
AcDbLine
 10
84.8582751320068
 20
179.12731080223
 30
0.0
 11
84.8582751320068
 21
166.4118618445813
 31
0.0
  0
LINE
  5
3DB
330
3D8
100
AcDbEntity
  8
1
  6
Continuous
 62
     2
100
AcDbLine
 10
131.8582751320068
 20
222.4118618445789
 30
0.0
 11
83.35827513199179
 21
222.4118618445789
 31
0.0
  0
LINE
  5
3DC
330
3D8
100
AcDbEntity
  8
1
  6
Continuous
 62
     2
100
AcDbLine
 10
142.5422751320068
 20
166.4118618445813
 30
0.0
 11
83.35827513199179
 21
166.4118618445813
 31
0.0
  0
SOLID
  5
3DD
330
3D8
100
AcDbEntity
  8
1
 62
     2
100
AcDbTrace
 10
85.54945074434754
 20
217.1618618445264
 30
0.0
 11
84.16709951966605
 21
217.1618618445264
 31
0.0
 12
84.8582751320068
 22
222.4118618445789
 32
0.0
 13
84.8582751320068
 23
222.4118618445789
 33
0.0
  0
SOLID
  5
3DE
330
3D8
100
AcDbEntity
  8
1
 62
     2
100
AcDbTrace
 10
84.16709951966605
 20
171.6618618446338
 30
0.0
 11
85.54945074434754
 21
171.6618618446338
 31
0.0
 12
84.8582751320068
 22
166.4118618445813
 32
0.0
 13
84.8582751320068
 23
166.4118618445813
 33
0.0
  0
MTEXT
  5
3DF
330
3D8
100
AcDbEntity
  8
1
 62
     7
100
AcDbMText
 10
83.35827513199179
 20
196.7900740531306
 30
0.0
 40
5.2500000000525
 41
0.0
 71
     7
 72
     1
  1
56
  7
CONVERTER_12
 11
0.0
 21
1.0
 31
0.0
 73
     1
 44
0.60024009603842
  0
ENDBLK
  5
3E1
330
3D8
100
AcDbEntity
  8
0
100
AcDbBlockEnd
  0
BLOCK
  5
3EC
330
3E4
100
AcDbEntity
  8
0
100
AcDbBlockBegin
  2
*D17
 70
     1
 10
0.0
 20
0.0
 30
0.0
  3
*D17
  1

  0
LINE
  5
3E5
330
3E4
100
AcDbEntity
  8
1
  6
Continuous
 62
     2
100
AcDbLine
 10
256.4003823762118
 20
300.0801260846237
 30
0.0
 11
256.4003823762118
 21
263.2618618445791
 31
0.0
  0
LINE
  5
3E6
330
3E4
100
AcDbEntity
  8
1
  6
Continuous
 62
     2
100
AcDbLine
 10
256.4003823762118
 20
263.2618618445791
 30
0.0
 11
256.4003823762118
 21
247.561861844579
 31
0.0
  0
LINE
  5
3E7
330
3E4
100
AcDbEntity
  8
1
  6
Continuous
 62
     2
100
AcDbLine
 10
229.8960163762118
 20
247.561861844579
 30
0.0
 11
257.9003823762268
 21
247.561861844579
 31
0.0
  0
LINE
  5
3E8
330
3E4
100
AcDbEntity
  8
1
  6
Continuous
 62
     2
100
AcDbLine
 10
229.8960163762118
 20
263.2618618445791
 30
0.0
 11
257.9003823762268
 21
263.2618618445791
 31
0.0
  0
SOLID
  5
3E9
330
3E4
100
AcDbEntity
  8
1
 62
     2
100
AcDbTrace
 10
257.0915579885525
 20
258.0118618445265
 30
0.0
 11
255.709206763871
 21
258.0118618445265
 31
0.0
 12
256.4003823762118
 22
263.2618618445791
 32
0.0
 13
256.4003823762118
 23
263.2618618445791
 33
0.0
  0
SOLID
  5
3EA
330
3E4
100
AcDbEntity
  8
1
 62
     2
100
AcDbTrace
 10
255.709206763871
 20
252.8118618446315
 30
0.0
 11
257.0915579885525
 21
252.8118618446315
 31
0.0
 12
256.4003823762118
 22
247.561861844579
 32
0.0
 13
256.4003823762118
 23
247.561861844579
 33
0.0
  0
MTEXT
  5
3EB
330
3E4
100
AcDbEntity
  8
1
 62
     7
100
AcDbMText
 10
254.3753823761915
 20
282.9126260844521
 30
0.0
 40
5.2500000000525
 41
0.0
 71
     7
 72
     1
  1
\C7;{\Fgdt;n}\C7;15,7
  7
CONVERTER_12
 11
0.0
 21
1.0
 31
0.0
 73
     1
 44
0.60024009603842
  0
ENDBLK
  5
3ED
330
3E4
100
AcDbEntity
  8
0
100
AcDbBlockEnd
  0
BLOCK
  5
3F7
330
3F0
100
AcDbEntity
  8
0
100
AcDbBlockBegin
  2
*D18
 70
     1
 10
0.0
 20
0.0
 30
0.0
  3
*D18
  1

  0
LINE
  5
3F1
330
3F0
100
AcDbEntity
  8
1
  6
Continuous
 62
     2
100
AcDbLine
 10
268.4003823762118
 20
277.411861844579
 30
0.0
 11
268.4003823762118
 21
233.411861844579
 31
0.0
  0
LINE
  5
3F2
330
3F0
100
AcDbEntity
  8
1
  6
Continuous
 62
     2
100
AcDbLine
 10
209.6460163762118
 20
233.411861844579
 30
0.0
 11
269.9003823762268
 21
233.411861844579
 31
0.0
  0
LINE
  5
3F3
330
3F0
100
AcDbEntity
  8
1
  6
Continuous
 62
     2
100
AcDbLine
 10
209.6460163762118
 20
277.411861844579
 30
0.0
 11
269.9003823762268
 21
277.411861844579
 31
0.0
  0
SOLID
  5
3F4
330
3F0
100
AcDbEntity
  8
1
 62
     2
100
AcDbTrace
 10
269.0915579885525
 20
272.1618618445265
 30
0.0
 11
267.7092067638711
 21
272.1618618445265
 31
0.0
 12
268.4003823762118
 22
277.411861844579
 32
0.0
 13
268.4003823762118
 23
277.411861844579
 33
0.0
  0
SOLID
  5
3F5
330
3F0
100
AcDbEntity
  8
1
 62
     2
100
AcDbTrace
 10
267.7092067638711
 20
238.6618618446315
 30
0.0
 11
269.0915579885525
 21
238.6618618446315
 31
0.0
 12
268.4003823762118
 22
233.411861844579
 32
0.0
 13
268.4003823762118
 23
233.411861844579
 33
0.0
  0
MTEXT
  5
3F6
330
3F0
100
AcDbEntity
  8
1
 62
     7
100
AcDbMText
 10
266.9003823761968
 20
250.9114228445281
 30
0.0
 40
5.2500000000525
 41
0.0
 71
     7
 72
     1
  1
\C7;{\Fgdt;n}\C7;44
  7
CONVERTER_12
 11
0.0
 21
1.0
 31
0.0
 73
     1
 44
0.60024009603842
  0
ENDBLK
  5
3F8
330
3F0
100
AcDbEntity
  8
0
100
AcDbBlockEnd
  0
BLOCK
  5
402
330
3FB
100
AcDbEntity
  8
0
100
AcDbBlockBegin
  2
*D19
 70
     1
 10
0.0
 20
0.0
 30
0.0
  3
*D19
  1

  0
LINE
  5
3FC
330
3FB
100
AcDbEntity
  8
1
  6
Continuous
 62
     2
100
AcDbLine
 10
151.8582751320069
 20
331.4140101236009
 30
0.0
 11
241.4003823762118
 21
331.4140101236009
 31
0.0
  0
LINE
  5
3FD
330
3FB
100
AcDbEntity
  8
1
  6
Continuous
 62
     2
100
AcDbLine
 10
151.8582751320069
 20
319.4140101236009
 30
0.0
 11
151.8582751320069
 21
332.9140101236159
 31
0.0
  0
LINE
  5
3FE
330
3FB
100
AcDbEntity
  8
1
  6
Continuous
 62
     2
100
AcDbLine
 10
241.4003823762118
 20
256.9618618445789
 30
0.0
 11
241.4003823762118
 21
332.9140101236159
 31
0.0
  0
SOLID
  5
3FF
330
3FB
100
AcDbEntity
  8
1
 62
     2
100
AcDbTrace
 10
157.1082751320594
 20
332.1051857359416
 30
0.0
 11
157.1082751320594
 21
330.7228345112602
 31
0.0
 12
151.8582751320069
 22
331.4140101236009
 32
0.0
 13
151.8582751320069
 23
331.4140101236009
 33
0.0
  0
SOLID
  5
400
330
3FB
100
AcDbEntity
  8
1
 62
     2
100
AcDbTrace
 10
236.1503823761593
 20
330.7228345112602
 30
0.0
 11
236.1503823761593
 21
332.1051857359416
 31
0.0
 12
241.4003823762118
 22
331.4140101236009
 32
0.0
 13
241.4003823762118
 23
331.4140101236009
 33
0.0
  0
MTEXT
  5
401
330
3FB
100
AcDbEntity
  8
1
 62
     7
100
AcDbMText
 10
192.6918287540699
 20
332.9140101236159
 30
0.0
 40
5.2500000000525
 41
0.0
 71
     7
 72
     1
  1
90
  7
CONVERTER_12
 11
0.9999999999970619
 21
2.424068405545306E-6
 31
0.0
 73
     1
 44
0.60024009603842
  0
ENDBLK
  5
403
330
3FB
100
AcDbEntity
  8
0
100
AcDbBlockEnd
  0
ENDSEC
  0
SECTION
  2
ENTITIES
  0
INSERT
  5
6E
330
1F
100
AcDbEntity
  8
1
100
AcDbBlockReference
  2
T3360F
 10
805.2847786781657
 20
890.9943228669299
 30
0.0
 41
1.0
 42
1.0
 43
1.0
  0
INSERT
  5
6F
330
1F
100
AcDbEntity
  8
0
100
AcDbBlockReference
  2
84-35-I
 10
282.3225056409657
 20
314.1814792239683
 30
0.0
 41
1.0
 42
1.0
 43
1.0
  0
INSERT
  5
70
330
1F
100
AcDbEntity
  8
0
100
AcDbBlockReference
  2
92-53
 10
-147.9303845399957
 20
24.72786513709875
 30
0.0
 41
1.0
 42
1.0
 43
1.0
  0
INSERT
  5
71
330
1F
100
AcDbEntity
  8
1
100
AcDbBlockReference
  2
開示A4
 10
0.0
 20
0.0
 30
0.0
 41
1.500000000015
 42
1.500000000015
 43
1.500000000015
  0
INSERT
  5
72
330
1F
100
AcDbEntity
  8
1
100
AcDbBlockReference
  2
台
 10
121.8582751320068
 20
209.911861844579
 30
0.0
 41
1.0
 42
1.0
 43
1.0
  0
INSERT
  5
73
330
1F
100
AcDbEntity
  8
0
100
AcDbBlockReference
  2
98-153
 10
133.3582751320067
 20
221.411861844579
 30
0.0
 41
1.0
 42
1.0
 43
1.0
  0
INSERT
  5
74
330
1F
100
AcDbEntity
  8
1
100
AcDbBlockReference
  2
32-25
 10
670.8836162626108
 20
246.419984001824
 30
0.0
 41
1.0
 42
1.0
 43
1.0
  0
INSERT
  5
75
330
1F
100
AcDbEntity
  8
0
100
AcDbBlockReference
  2
73-1-21_5
 10
750.7374069954078
 20
235.5390084450376
 30
0.0
 41
1.0
 42
1.0
 43
1.0
  0
INSERT
  5
76
330
1F
100
AcDbEntity
  8
1
100
AcDbBlockReference
  2
89-107
 10
125.2665448270852
 20
456.225112089597
 30
0.0
 41
1.0
 42
1.0
 43
1.0
  0
INSERT
  5
77
330
1F
100
AcDbEntity
  8
1
100
AcDbBlockReference
  2
Y5050-0A
 10
207.8582751320068
 20
150.4118618445813
 30
0.0
 41
1.0
 42
1.0
 43
1.0
  0
LINE
  5
3A2
330
1F
100
AcDbEntity
  8
1
  6
DASH_CENTER
 62
     2
100
AcDbLine
 10
151.8582751320068
 20
319.4140101236009
 30
0.0
 11
151.8582751320068
 21
163.4118618445813
 31
0.0
  0
LINE
  5
3A3
330
1F
100
AcDbEntity
  8
1
  6
DASH_CENTER
 62
     2
100
AcDbLine
 10
151.8582751320068
 20
255.411861844579
 30
0.0
 11
244.8582751320068
 21
255.411861844579
 31
0.0
  0
SOLID
  5
3A4
330
1F
100
AcDbEntity
  8
1
 62
     2
100
AcDbTrace
 10
180.5624603853861
 20
195.2086465979663
 30
0.0
 11
179.3653091078594
 21
194.5174709856256
 31
0.0
 12
177.3388847465965
 22
199.4096921617097
 32
0.0
 13
177.3388847465965
 23
199.4096921617097
 33
0.0
  0
LEADER
  5
3A5
330
1F
100
AcDbEntity
  8
1
  6
Continuous
 62
     2
100
AcDbLeader
  3
Standard
 71
     0
 76
     3
 10
177.3388847465965
 20
199.4096921617097
 30
0.0
 10
183.9672343283505
 20
187.9290539157839
 30
0.0
 10
221.905485823053
 20
187.9290539157839
 30
0.0
  0
SOLID
  5
3A6
330
1F
100
AcDbEntity
  8
1
 62
     2
100
AcDbTrace
 10
165.5598507707965
 20
179.2108162808379
 30
0.0
 11
164.3626994932698
 21
178.5196406684971
 31
0.0
 12
162.3362751320069
 22
183.4118618445813
 32
0.0
 13
162.3362751320069
 23
183.4118618445813
 33
0.0
  0
LEADER
  5
3A7
330
1F
100
AcDbEntity
  8
1
  6
Continuous
 62
     2
100
AcDbLeader
  3
Standard
 71
     0
 76
     3
 10
162.3362751320069
 20
183.4118618445813
 30
0.0
 10
173.0172551120163
 20
164.911861844579
 30
0.0
 10
196.173815262989
 20
164.911861844579
 30
0.0
  0
SOLID
  5
3A8
330
1F
100
AcDbEntity
  8
1
 62
     2
100
AcDbTrace
 10
172.9908959033009
 20
240.0396406684949
 30
0.0
 11
171.7937446257742
 21
240.7308162808356
 31
0.0
 12
175.0173202645638
 22
244.931861844579
 32
0.0
 13
175.0173202645638
 23
244.931861844579
 33
0.0
  0
LEADER
  5
3A9
330
1F
100
AcDbEntity
  8
1
  6
Continuous
 62
     2
100
AcDbLeader
  3
Standard
 71
     0
 76
     3
 10
175.0173202645638
 20
244.931861844579
 30
0.0
 10
165.2417052707145
 20
228.0
 30
0.0
 10
188.8187057892993
 20
228.0
 30
0.0
  0
MTEXT
  5
3AA
330
1F
100
AcDbEntity
  8
0
 62
     7
100
AcDbMText
 10
202.9363600757015
 20
192.429053915784
 30
0.0
 40
5.2500000000525
 41
0.0
 71
     5
 72
     1
  1
取付穴径
  7
CONVERTER_11
 73
     1
 44
0.54545454545455
  0
MTEXT
  5
3AB
330
1F
100
AcDbEntity
  8
0
 62
     7
100
AcDbMText
 10
202.9363600757015
 20
183.429053915784
 30
0.0
 40
5.2500000000525
 41
0.0
 71
     5
 72
     1
  1
{\Fgdt;n}22～{\Fgdt;n}25
  7
CONVERTER_11
 73
     1
 44
0.54545454545455
  0
MTEXT
  5
3AD
330
1F
100
AcDbEntity
  8
1
 62
     7
100
AcDbMText
 10
178.5037680624185
 20
232.5
 30
0.0
 40
5.2500000000525
 41
0.0
 71
     5
 72
     1
  1
G1/2
  7
CONVERTER_12
 73
     1
 44
0.7202881152461
  0
MTEXT
  5
3AE
330
1F
100
AcDbEntity
  8
1
 62
     7
100
AcDbMText
 10
184.5955351875026
 20
169.411861844579
 30
0.0
 40
5.2500000000525
 41
0.0
 71
     5
 72
     1
  1
PJ1/2
  7
CONVERTER_12
 73
     1
 44
0.7202881152461
  0
MTEXT
  5
3AF
330
1F
100
AcDbEntity
  8
1
 62
     7
100
AcDbMText
 10
51.0
 20
51.00000000000001
 30
0.0
 40
5.2500000000525
 41
0.0
 71
     4
 72
     1
  1
JIS
  7
CONVERTER_12
 73
     1
 44
0.7202881152461
  0
MTEXT
  5
3B0
330
1F
100
AcDbEntity
  8
1
 62
     7
100
AcDbMText
 10
85.5
 20
34.12500000000001
 30
0.0
 40
5.2500000000525
 41
0.0
 71
     5
 72
     1
  1
食洗機用分岐止水栓
  7
CONVERTER_11
 73
     1
 44
1.0
  0
MTEXT
  5
3B1
330
1F
100
AcDbEntity
  8
1
 62
     7
100
AcDbMText
 10
85.5
 20
21.375
 30
0.0
 40
5.2500000000525
 41
0.0
 71
     5
 72
     1
  1
Y5050TV-13
  7
CONVERTER_12
 73
     1
 44
0.90036014405762
  0
MTEXT
  5
3B2
330
1F
100
AcDbEntity
  8
1
 62
     7
100
AcDbMText
 10
127.875
 20
25.5
 30
0.0
 40
5.2500000000525
 41
0.0
 71
     5
 72
     1
  1
1
  7
CONVERTER_12
 73
     1
 44
1.32052821128451
  0
MTEXT
  5
3B3
330
1F
100
AcDbEntity
  8
1
 62
     7
100
AcDbMText
 10
140.625
 20
25.5
 30
0.0
 40
5.2500000000525
 41
0.0
 71
     5
 72
     1
  1
1,5
  7
CONVERTER_12
 73
     1
 44
1.32052821128451
  0
DIMENSION
  5
3C0
330
1F
100
AcDbEntity
  8
1
100
AcDbDimension
  2
*D13
 10
96.8582751320068
 20
220.411861844579
 30
0.0
 11
92.73327513196554
 21
248.771360589353
 31
0.0
 70
    32
  1
最大30最小5
 71
     5
 42
-1.0
 53
90.0
  3
ME10_DIM_10
100
AcDbAlignedDimension
 13
111.8582751320068
 23
209.411861844579
 33
0.0
 14
111.8582751320068
 24
220.4118618445789
 34
0.0
 50
90.0
100
AcDbRotatedDimension
  0
DIMENSION
  5
3CC
330
1F
100
AcDbEntity
  8
1
100
AcDbDimension
  2
*D14
 10
119.0005832590471
 20
181.472260948453
 30
0.0
 11
92.7240602572872
 21
185.5972609484942
 31
0.0
 70
    33
  1
ロックナット対辺24
 71
     5
 42
-1.0
 52
45.0
 53
0.00013888888889
  3
ME10_DIM_11
100
AcDbAlignedDimension
 13
165.7082706807654
 23
200.4799572726541
 33
0.0
 14
138.0082795832482
 24
200.4799572726541
 34
0.0
  0
DIMENSION
  5
3D7
330
1F
100
AcDbEntity
  8
1
100
AcDbDimension
  2
*D15
 10
84.8582751320068
 20
222.4118618445789
 30
0.0
 11
80.73327513196554
 21
269.4129359840899
 31
0.0
 70
    32
  1
94リフト6
 71
     5
 42
-1.0
 53
90.0
  3
ME10_DIM_12
100
AcDbAlignedDimension
 13
151.8582751320068
 23
316.4140101236009
 33
0.0
 14
131.8582751320068
 24
222.4118618445789
 34
0.0
 50
90.0
100
AcDbRotatedDimension
  0
DIMENSION
  5
3E3
330
1F
100
AcDbEntity
  8
1
100
AcDbDimension
  2
*D16
 10
84.8582751320068
 20
222.4118618445789
 30
0.0
 11
80.73327513196554
 21
200.72757405317
 31
0.0
 70
    32
  1
<>
 71
     5
 42
-1.0
 53
90.0
  3
ME10_DIM_13
100
AcDbAlignedDimension
 13
142.5422751320068
 23
166.4118618445813
 33
0.0
 14
131.8582751320068
 24
222.4118618445789
 34
0.0
 50
90.0
100
AcDbRotatedDimension
  0
DIMENSION
  5
3EF
330
1F
100
AcDbEntity
  8
1
100
AcDbDimension
  2
*D17
 10
256.4003823762118
 20
263.2618618445791
 30
0.0
 11
252.0128823761679
 21
290.4988760845279
 31
0.0
 70
    32
  1
<>
 71
     5
 42
-1.0
 53
90.0
  3
ME10_DIM_14
100
AcDbAlignedDimension
 13
229.8960163762117
 23
247.5618618445789
 33
0.0
 14
229.8960163762117
 24
263.261861844579
 34
0.0
 50
90.0
100
AcDbRotatedDimension
  0
DIMENSION
  5
3FA
330
1F
100
AcDbEntity
  8
1
100
AcDbDimension
  2
*D18
 10
268.4003823762118
 20
277.411861844579
 30
0.0
 11
264.2753823761705
 21
256.003922844579
 31
0.0
 70
    32
  1
<>
 71
     5
 42
-1.0
 53
90.0
  3
ME10_DIM_15
100
AcDbAlignedDimension
 13
209.6460163762118
 23
233.4118618445789
 33
0.0
 14
209.6460163762118
 24
277.4118618445789
 34
0.0
 50
90.0
100
AcDbRotatedDimension
  0
DIMENSION
  5
405
330
1F
100
AcDbEntity
  8
1
100
AcDbDimension
  2
*D19
 10
151.8582751320069
 20
331.4140101236009
 30
0.0
 11
196.6293287541093
 21
335.5390101236422
 31
0.0
 70
    32
  1
90
 71
     5
 42
-1.0
 53
0.00013888888889
  3
ME10_DIM_16
100
AcDbAlignedDimension
 13
241.4003823762117
 23
256.9618618445788
 33
0.0
 14
151.8582751320068
 24
319.4140101236009
 34
0.0
100
AcDbRotatedDimension
  0
ENDSEC
  0
SECTION
  2
OBJECTS
  0
DICTIONARY
  5
C
330
0
100
AcDbDictionary
281
     1
  3
ACAD_GROUP
350
D
  3
ACAD_LAYOUT
350
1A
  3
ACAD_MATERIAL
350
3B
  3
ACAD_MLEADERSTYLE
350
408
  3
ACAD_MLINESTYLE
350
17
  3
ACAD_PLOTSETTINGS
350
19
  3
ACAD_PLOTSTYLENAME
350
E
  3
ACAD_VISUALSTYLE
350
2A
  3
AcDbVariableDictionary
350
406
  0
DICTIONARY
  5
D
102
{ACAD_REACTORS
330
C
102
}
330
C
100
AcDbDictionary
281
     1
  0
DICTIONARY
  5
1A
102
{ACAD_REACTORS
330
C
102
}
330
C
100
AcDbDictionary
281
     1
  3
Layout1
350
1E
  3
Layout2
350
26
  3
Model
350
22
  0
DICTIONARY
  5
3B
102
{ACAD_REACTORS
330
C
102
}
330
C
100
AcDbDictionary
281
     1
  3
ByBlock
350
3D
  3
ByLayer
350
3C
  3
Global
350
3E
  0
DICTIONARY
  5
408
102
{ACAD_REACTORS
330
C
102
}
330
C
100
AcDbDictionary
281
     1
  0
DICTIONARY
  5
17
102
{ACAD_REACTORS
330
C
102
}
330
C
100
AcDbDictionary
281
     1
  3
Standard
350
18
  0
DICTIONARY
  5
19
102
{ACAD_REACTORS
330
C
102
}
330
C
100
AcDbDictionary
281
     1
  0
ACDBDICTIONARYWDFLT
  5
E
102
{ACAD_REACTORS
330
C
102
}
330
C
100
AcDbDictionary
281
     1
  3
Normal
350
F
100
AcDbDictionaryWithDefault
340
F
  0
DICTIONARY
  5
2A
102
{ACAD_REACTORS
330
C
102
}
330
C
100
AcDbDictionary
281
     1
  3
2dWireframe
350
2F
  3
3D Hidden
350
31
  3
3dWireframe
350
30
  3
Basic
350
32
  3
Brighten
350
36
  3
ColorChange
350
3A
  3
Conceptual
350
34
  3
Dim
350
35
  3
Facepattern
350
39
  3
Flat
350
2B
  3
FlatWithEdges
350
2C
  3
Gouraud
350
2D
  3
GouraudWithEdges
350
2E
  3
Linepattern
350
38
  3
Realistic
350
33
  3
Thicken
350
37
  0
DICTIONARY
  5
406
102
{ACAD_REACTORS
330
C
102
}
330
C
100
AcDbDictionary
281
     1
  3
DIMASSOC
350
409
  3
HIDETEXT
350
40A
  0
LAYOUT
  5
1E
102
{ACAD_REACTORS
330
1A
102
}
330
1A
100
AcDbPlotSettings
  1

  2
none_device
  4

  6

 40
0.0
 41
0.0
 42
0.0
 43
0.0
 44
0.0
 45
0.0
 46
0.0
 47
0.0
 48
0.0
 49
0.0
140
0.0
141
0.0
142
1.0
143
1.0
 70
   688
 72
     0
 73
     0
 74
     5
  7

 75
    16
147
1.0
148
0.0
149
0.0
100
AcDbLayout
  1
Layout1
 70
     1
 71
     1
 10
0.0
 20
0.0
 11
12.0
 21
9.0
 12
0.0
 22
0.0
 32
0.0
 14
1.00000000000000E+20
 24
1.00000000000000E+20
 34
1.00000000000000E+20
 15
-1.00000000000000E+20
 25
-1.00000000000000E+20
 35
-1.00000000000000E+20
146
0.0
 13
0.0
 23
0.0
 33
0.0
 16
1.0
 26
0.0
 36
0.0
 17
0.0
 27
1.0
 37
0.0
 76
     0
330
1B
  0
LAYOUT
  5
26
102
{ACAD_REACTORS
330
1A
102
}
330
1A
100
AcDbPlotSettings
  1

  2
none_device
  4

  6

 40
0.0
 41
0.0
 42
0.0
 43
0.0
 44
0.0
 45
0.0
 46
0.0
 47
0.0
 48
0.0
 49
0.0
140
0.0
141
0.0
142
1.0
143
1.0
 70
   688
 72
     0
 73
     0
 74
     5
  7

 75
    16
147
1.0
148
0.0
149
0.0
100
AcDbLayout
  1
Layout2
 70
     1
 71
     2
 10
0.0
 20
0.0
 11
0.0
 21
0.0
 12
0.0
 22
0.0
 32
0.0
 14
0.0
 24
0.0
 34
0.0
 15
0.0
 25
0.0
 35
0.0
146
0.0
 13
0.0
 23
0.0
 33
0.0
 16
1.0
 26
0.0
 36
0.0
 17
0.0
 27
1.0
 37
0.0
 76
     0
330
23
  0
LAYOUT
  5
22
102
{ACAD_REACTORS
330
1A
102
}
330
1A
100
AcDbPlotSettings
  1

  2
none_device
  4

  6

 40
0.0
 41
0.0
 42
0.0
 43
0.0
 44
0.0
 45
0.0
 46
0.0
 47
0.0
 48
0.0
 49
0.0
140
0.0
141
0.0
142
1.0
143
1.0
 70
  1712
 72
     0
 73
     0
 74
     0
  7

 75
     0
147
1.0
148
0.0
149
0.0
100
AcDbLayout
  1
Model
 70
     1
 71
     0
 10
0.0
 20
0.0
 11
12.0
 21
9.0
 12
0.0
 22
0.0
 32
0.0
 14
0.0
 24
0.0
 34
0.0
 15
315.00000000315
 25
445.500000004455
 35
0.0
146
0.0
 13
0.0
 23
0.0
 33
0.0
 16
1.0
 26
0.0
 36
0.0
 17
0.0
 27
1.0
 37
0.0
 76
     0
330
1F
331
29
  0
MATERIAL
  5
3D
102
{ACAD_REACTORS
330
3B
102
}
102
{ACAD_XDICTIONARY
360
42D
102
}
330
3B
100
AcDbMaterial
  1
ByBlock
  0
MATERIAL
  5
3C
102
{ACAD_REACTORS
330
3B
102
}
102
{ACAD_XDICTIONARY
360
42B
102
}
330
3B
100
AcDbMaterial
  1
ByLayer
  0
MATERIAL
  5
3E
102
{ACAD_REACTORS
330
3B
102
}
102
{ACAD_XDICTIONARY
360
42F
102
}
330
3B
100
AcDbMaterial
  1
Global
  0
MLINESTYLE
  5
18
102
{ACAD_REACTORS
330
17
102
}
330
17
100
AcDbMlineStyle
  2
Standard
 70
     0
  3

 62
   256
 51
90.0
 52
90.0
 71
     2
 49
0.5
 62
   256
  6
BYLAYER
 49
-0.5
 62
   256
  6
BYLAYER
  0
ACDBPLACEHOLDER
  5
F
102
{ACAD_REACTORS
330
E
102
}
330
E
  0
VISUALSTYLE
  5
2F
102
{ACAD_REACTORS
330
2A
102
}
102
{ACAD_XDICTIONARY
360
413
102
}
330
2A
100
AcDbVisualStyle
  2
2dWireframe
 70
     4
 71
     0
 72
     2
 73
     0
 90
        0
 40
-0.6
 41
-30.0
 62
     5
 63
     7
 74
     1
 91
        4
 64
     7
 65
   257
 75
     1
175
     1
 42
1.0
 92
        0
 66
   257
 43
1.0
 76
     1
 77
     6
 78
     2
 67
     7
 79
     5
170
     0
171
     0
290
     0
174
     0
 93
        1
 44
0.0
173
     0
291
     0
 45
0.0
1001
ACAD
1000
AcDbSavedByObjectVersion
1070
     0
  0
VISUALSTYLE
  5
31
102
{ACAD_REACTORS
330
2A
102
}
102
{ACAD_XDICTIONARY
360
417
102
}
330
2A
100
AcDbVisualStyle
  2
3D Hidden
 70
     6
 71
     1
 72
     2
 73
     2
 90
        0
 40
-0.6
 41
-30.0
 62
     5
 63
     7
 74
     2
 91
        2
 64
     7
 65
   257
 75
     2
175
     1
 42
40.0
 92
        0
 66
   257
 43
1.0
 76
     1
 77
     6
 78
     2
 67
     7
 79
     3
170
     0
171
     0
290
     0
174
     0
 93
        1
 44
0.0
173
     0
291
     0
 45
0.0
1001
ACAD
1000
AcDbSavedByObjectVersion
1070
     0
  0
VISUALSTYLE
  5
30
102
{ACAD_REACTORS
330
2A
102
}
102
{ACAD_XDICTIONARY
360
415
102
}
330
2A
100
AcDbVisualStyle
  2
3dWireframe
 70
     5
 71
     0
 72
     2
 73
     0
 90
        0
 40
-0.6
 41
-30.0
 62
     5
 63
     7
 74
     1
 91
        4
 64
     7
 65
   257
 75
     1
175
     1
 42
1.0
 92
        0
 66
   257
 43
1.0
 76
     1
 77
     6
 78
     2
 67
     7
 79
     5
170
     0
171
     0
290
     0
174
     0
 93
        1
 44
0.0
173
     0
291
     0
 45
0.0
1001
ACAD
1000
AcDbSavedByObjectVersion
1070
     0
  0
VISUALSTYLE
  5
32
102
{ACAD_REACTORS
330
2A
102
}
102
{ACAD_XDICTIONARY
360
419
102
}
330
2A
100
AcDbVisualStyle
  2
Basic
 70
     7
 71
     1
 72
     0
 73
     1
 90
        0
 40
-0.6
 41
-30.0
 62
     5
 63
     7
 74
     0
 91
        4
 64
     7
 65
   257
 75
     1
175
     1
 42
1.0
 92
        8
 66
     7
 43
1.0
 76
     1
 77
     6
 78
     2
 67
     7
 79
     5
170
     0
171
     0
290
     0
174
     0
 93
        1
 44
0.0
173
     0
291
     1
 45
0.0
1001
ACAD
1000
AcDbSavedByObjectVersion
1070
     0
  0
VISUALSTYLE
  5
36
102
{ACAD_REACTORS
330
2A
102
}
102
{ACAD_XDICTIONARY
360
421
102
}
330
2A
100
AcDbVisualStyle
  2
Brighten
 70
    12
 71
     2
 72
     2
 73
     0
 90
        0
 40
-0.6
 41
-30.0
 62
     5
 63
     7
 74
     1
 91
        4
 64
     7
 65
   257
 75
     1
175
     1
 42
1.0
 92
        8
 66
     7
 43
1.0
 76
     1
 77
     6
 78
     2
 67
     7
 79
     5
170
     0
171
     0
290
     0
174
     0
 93
        1
 44
50.0
173
     0
291
     1
 45
0.0
1001
ACAD
1000
AcDbSavedByObjectVersion
1070
     0
  0
VISUALSTYLE
  5
3A
102
{ACAD_REACTORS
330
2A
102
}
102
{ACAD_XDICTIONARY
360
429
102
}
330
2A
100
AcDbVisualStyle
  2
ColorChange
 70
    16
 71
     2
 72
     2
 73
     3
 90
        0
 40
-0.6
 41
-30.0
 62
     5
 63
     8
 74
     1
 91
        4
 64
     7
 65
   257
 75
     1
175
     1
 42
1.0
 92
        8
 66
     8
 43
1.0
 76
     1
 77
     6
 78
     2
 67
     7
 79
     5
170
     0
171
     0
290
     0
174
     0
 93
        1
 44
0.0
173
     0
291
     1
 45
0.0
1001
ACAD
1000
AcDbSavedByObjectVersion
1070
     0
  0
VISUALSTYLE
  5
34
102
{ACAD_REACTORS
330
2A
102
}
102
{ACAD_XDICTIONARY
360
41D
102
}
330
2A
100
AcDbVisualStyle
  2
Conceptual
 70
     9
 71
     3
 72
     2
 73
     0
 90
        0
 40
-0.6
 41
-30.0
 62
     5
 63
     7
 74
     2
 91
        2
 64
     7
 65
   257
 75
     1
175
     1
 42
40.0
 92
        8
 66
     7
 43
1.0
 76
     1
 77
     6
 78
     2
 67
     7
 79
     3
170
     0
171
     0
290
     0
174
     0
 93
        1
 44
0.0
173
     0
291
     0
 45
0.0
1001
ACAD
1000
AcDbSavedByObjectVersion
1070
     0
  0
VISUALSTYLE
  5
35
102
{ACAD_REACTORS
330
2A
102
}
102
{ACAD_XDICTIONARY
360
41F
102
}
330
2A
100
AcDbVisualStyle
  2
Dim
 70
    11
 71
     2
 72
     2
 73
     0
 90
        0
 40
-0.6
 41
-30.0
 62
     5
 63
     7
 74
     1
 91
        4
 64
     7
 65
   257
 75
     1
175
     1
 42
1.0
 92
        8
 66
     7
 43
1.0
 76
     1
 77
     6
 78
     2
 67
     7
 79
     5
170
     0
171
     0
290
     0
174
     0
 93
        1
 44
-50.0
173
     0
291
     1
 45
0.0
1001
ACAD
1000
AcDbSavedByObjectVersion
1070
     0
  0
VISUALSTYLE
  5
39
102
{ACAD_REACTORS
330
2A
102
}
102
{ACAD_XDICTIONARY
360
427
102
}
330
2A
100
AcDbVisualStyle
  2
Facepattern
 70
    15
 71
     2
 72
     2
 73
     0
 90
        0
 40
-0.6
 41
-30.0
 62
     5
 63
     7
 74
     1
 91
        4
 64
     7
 65
   257
 75
     1
175
     1
 42
1.0
 92
        8
 66
     7
 43
1.0
 76
     1
 77
     6
 78
     2
 67
     7
 79
     5
170
     0
171
     0
290
     0
174
     0
 93
        1
 44
0.0
173
     0
291
     1
 45
0.0
1001
ACAD
1000
AcDbSavedByObjectVersion
1070
     0
  0
VISUALSTYLE
  5
2B
102
{ACAD_REACTORS
330
2A
102
}
102
{ACAD_XDICTIONARY
360
40B
102
}
330
2A
100
AcDbVisualStyle
  2
Flat
 70
     0
 71
     2
 72
     1
 73
     1
 90
        2
 40
-0.6
 41
30.0
 62
     5
 63
     7
 74
     0
 91
        4
 64
     7
 65
   257
 75
     1
175
     1
 42
1.0
 92
        8
 66
     7
 43
1.0
 76
     1
 77
     6
 78
     2
 67
     7
 79
     5
170
     0
171
     0
290
     0
174
     0
 93
       13
 44
0.0
173
     0
291
     1
 45
0.0
1001
ACAD
1000
AcDbSavedByObjectVersion
1070
     0
  0
VISUALSTYLE
  5
2C
102
{ACAD_REACTORS
330
2A
102
}
102
{ACAD_XDICTIONARY
360
40D
102
}
330
2A
100
AcDbVisualStyle
  2
FlatWithEdges
 70
     1
 71
     2
 72
     1
 73
     1
 90
        2
 40
-0.6
 41
30.0
 62
     5
 63
     7
 74
     1
 91
        4
 64
     7
 65
   257
 75
     1
175
     1
 42
1.0
 92
        0
 66
   257
 43
1.0
 76
     1
 77
     6
 78
     2
 67
     7
 79
     5
170
     0
171
     0
290
     0
174
     0
 93
       13
 44
0.0
173
     0
291
     1
 45
0.0
1001
ACAD
1000
AcDbSavedByObjectVersion
1070
     0
  0
VISUALSTYLE
  5
2D
102
{ACAD_REACTORS
330
2A
102
}
102
{ACAD_XDICTIONARY
360
40F
102
}
330
2A
100
AcDbVisualStyle
  2
Gouraud
 70
     2
 71
     2
 72
     2
 73
     1
 90
        2
 40
-0.6
 41
30.0
 62
     5
 63
     7
 74
     0
 91
        4
 64
     7
 65
   257
 75
     1
175
     1
 42
1.0
 92
        0
 66
     7
 43
1.0
 76
     1
 77
     6
 78
     2
 67
     7
 79
     5
170
     0
171
     0
290
     0
174
     0
 93
       13
 44
0.0
173
     0
291
     1
 45
0.0
1001
ACAD
1000
AcDbSavedByObjectVersion
1070
     0
  0
VISUALSTYLE
  5
2E
102
{ACAD_REACTORS
330
2A
102
}
102
{ACAD_XDICTIONARY
360
411
102
}
330
2A
100
AcDbVisualStyle
  2
GouraudWithEdges
 70
     3
 71
     2
 72
     2
 73
     1
 90
        2
 40
-0.6
 41
30.0
 62
     5
 63
     7
 74
     1
 91
        4
 64
     7
 65
   257
 75
     1
175
     1
 42
1.0
 92
        0
 66
   257
 43
1.0
 76
     1
 77
     6
 78
     2
 67
     7
 79
     5
170
     0
171
     0
290
     0
174
     0
 93
       13
 44
0.0
173
     0
291
     1
 45
0.0
1001
ACAD
1000
AcDbSavedByObjectVersion
1070
     0
  0
VISUALSTYLE
  5
38
102
{ACAD_REACTORS
330
2A
102
}
102
{ACAD_XDICTIONARY
360
425
102
}
330
2A
100
AcDbVisualStyle
  2
Linepattern
 70
    14
 71
     2
 72
     2
 73
     0
 90
        0
 40
-0.6
 41
-30.0
 62
     5
 63
     7
 74
     1
 91
        4
 64
     7
 65
   257
 75
     7
175
     7
 42
1.0
 92
        8
 66
     7
 43
1.0
 76
     1
 77
     6
 78
     2
 67
     7
 79
     5
170
     0
171
     0
290
     0
174
     0
 93
        1
 44
0.0
173
     0
291
     1
 45
0.0
1001
ACAD
1000
AcDbSavedByObjectVersion
1070
     0
  0
VISUALSTYLE
  5
33
102
{ACAD_REACTORS
330
2A
102
}
102
{ACAD_XDICTIONARY
360
41B
102
}
330
2A
100
AcDbVisualStyle
  2
Realistic
 70
     8
 71
     2
 72
     2
 73
     0
 90
        0
 40
-0.6
 41
-30.0
 62
     5
 63
     7
 74
     1
 91
        0
 64
     7
 65
   257
 75
     1
175
     1
 42
1.0
 92
        8
 66
     8
 43
1.0
 76
     1
 77
     6
 78
     2
 67
     7
 79
     5
170
     0
171
     0
290
     0
174
     0
 93
       13
 44
0.0
173
     0
291
     0
 45
0.0
1001
ACAD
1000
AcDbSavedByObjectVersion
1070
     0
  0
VISUALSTYLE
  5
37
102
{ACAD_REACTORS
330
2A
102
}
102
{ACAD_XDICTIONARY
360
423
102
}
330
2A
100
AcDbVisualStyle
  2
Thicken
 70
    13
 71
     2
 72
     2
 73
     0
 90
        0
 40
-0.6
 41
-30.0
 62
     5
 63
     7
 74
     1
 91
        4
 64
     7
 65
   257
 75
     1
175
     1
 42
1.0
 92
       12
 66
     7
 43
1.0
 76
     1
 77
     6
 78
     2
 67
     7
 79
     5
170
     0
171
     0
290
     0
174
     0
 93
        1
 44
0.0
173
     0
291
     1
 45
0.0
1001
ACAD
1000
AcDbSavedByObjectVersion
1070
     0
  0
DICTIONARYVAR
  5
409
102
{ACAD_REACTORS
330
406
102
}
330
406
100
DictionaryVariables
280
     0
  1
2
  0
DICTIONARYVAR
  5
40A
102
{ACAD_REACTORS
330
406
102
}
330
406
100
DictionaryVariables
280
     0
  1
1
  0
DICTIONARY
  5
42D
330
3D
100
AcDbDictionary
280
     1
281
     1
  3
ACAD_XREC_ROUNDTRIP
360
42E
  0
DICTIONARY
  5
42B
330
3C
100
AcDbDictionary
280
     1
281
     1
  3
ACAD_XREC_ROUNDTRIP
360
42C
  0
DICTIONARY
  5
42F
330
3E
100
AcDbDictionary
280
     1
281
     1
  3
ACAD_XREC_ROUNDTRIP
360
430
  0
DICTIONARY
  5
413
330
2F
100
AcDbDictionary
280
     1
281
     1
  3
ACAD_XREC_ROUNDTRIP
360
414
  0
DICTIONARY
  5
417
330
31
100
AcDbDictionary
280
     1
281
     1
  3
ACAD_XREC_ROUNDTRIP
360
418
  0
DICTIONARY
  5
415
330
30
100
AcDbDictionary
280
     1
281
     1
  3
ACAD_XREC_ROUNDTRIP
360
416
  0
DICTIONARY
  5
419
330
32
100
AcDbDictionary
280
     1
281
     1
  3
ACAD_XREC_ROUNDTRIP
360
41A
  0
DICTIONARY
  5
421
330
36
100
AcDbDictionary
280
     1
281
     1
  3
ACAD_XREC_ROUNDTRIP
360
422
  0
DICTIONARY
  5
429
330
3A
100
AcDbDictionary
280
     1
281
     1
  3
ACAD_XREC_ROUNDTRIP
360
42A
  0
DICTIONARY
  5
41D
330
34
100
AcDbDictionary
280
     1
281
     1
  3
ACAD_XREC_ROUNDTRIP
360
41E
  0
DICTIONARY
  5
41F
330
35
100
AcDbDictionary
280
     1
281
     1
  3
ACAD_XREC_ROUNDTRIP
360
420
  0
DICTIONARY
  5
427
330
39
100
AcDbDictionary
280
     1
281
     1
  3
ACAD_XREC_ROUNDTRIP
360
428
  0
DICTIONARY
  5
40B
330
2B
100
AcDbDictionary
280
     1
281
     1
  3
ACAD_XREC_ROUNDTRIP
360
40C
  0
DICTIONARY
  5
40D
330
2C
100
AcDbDictionary
280
     1
281
     1
  3
ACAD_XREC_ROUNDTRIP
360
40E
  0
DICTIONARY
  5
40F
330
2D
100
AcDbDictionary
280
     1
281
     1
  3
ACAD_XREC_ROUNDTRIP
360
410
  0
DICTIONARY
  5
411
330
2E
100
AcDbDictionary
280
     1
281
     1
  3
ACAD_XREC_ROUNDTRIP
360
412
  0
DICTIONARY
  5
425
330
38
100
AcDbDictionary
280
     1
281
     1
  3
ACAD_XREC_ROUNDTRIP
360
426
  0
DICTIONARY
  5
41B
330
33
100
AcDbDictionary
280
     1
281
     1
  3
ACAD_XREC_ROUNDTRIP
360
41C
  0
DICTIONARY
  5
423
330
37
100
AcDbDictionary
280
     1
281
     1
  3
ACAD_XREC_ROUNDTRIP
360
424
  0
XRECORD
  5
42E
102
{ACAD_REACTORS
330
42D
102
}
330
42D
100
AcDbXrecord
280
     1
102
MATERIAL
148
0.0
149
0.0
149
0.0
 93
        0
 94
      127
282
     0
 72
     1
 77
     1
171
     1
175
     1
179
     1
273
     0
  0
XRECORD
  5
42C
102
{ACAD_REACTORS
330
42B
102
}
330
42B
100
AcDbXrecord
280
     1
102
MATERIAL
148
0.0
149
0.0
149
0.0
 93
        0
 94
      127
282
     0
 72
     1
 77
     1
171
     1
175
     1
179
     1
273
     0
  0
XRECORD
  5
430
102
{ACAD_REACTORS
330
42F
102
}
330
42F
100
AcDbXrecord
280
     1
102
MATERIAL
148
0.0
149
0.0
149
0.0
 93
        0
 94
      127
282
     0
 72
     1
 77
     1
171
     1
175
     1
179
     1
273
     0
  0
XRECORD
  5
414
102
{ACAD_REACTORS
330
413
102
}
330
413
100
AcDbXrecord
280
     1
102
RTVSPropertyOp0
 70
     1
102
RTVSPropertyOp1
 70
     1
102
RTVSPropertyOp2
 70
     1
102
RTVSPropertyOp3
 70
     1
102
RTVSPropertyOp4
 70
     1
102
RTVSPropertyOp5
 70
     1
102
RTVSPropertyOp6
 70
     1
102
RTVSPropertyOp7
 70
     1
102
RTVSPropertyOp8
 70
     1
102
RTVSPropertyOp9
 70
     1
102
RTVSPropertyOp10
 70
     1
102
RTVSPropertyOp11
 70
     1
102
RTVSPropertyOp12
 70
     1
102
RTVSPropertyOp13
 70
     1
102
RTVSPropertyOp14
 70
     1
102
RTVSPropertyOp15
 70
     1
102
RTVSPropertyOp16
 70
     1
102
RTVSPropertyOp17
 70
     1
102
RTVSPropertyOp18
 70
     1
102
RTVSPropertyOp19
 70
     1
102
RTVSPropertyOp20
 70
     1
102
RTVSPropertyOp21
 70
     1
102
RTVSPropertyOp22
 70
     1
102
RTVSPropertyOp23
 70
     1
102
RTVSPropertyOp24
 70
     1
102
RTVSPropertyOp25
 70
     1
102
RTVSPropertyOp26
 70
     1
102
RTVSPropertyOp27
 70
     1
102
RTVSPropertyOp28
 70
     1
102
RTVSPropertyOp29
 70
     1
102
RTVSPropertyOp30
 70
     1
102
RTVSPropertyOp31
 70
     1
102
RTVSPropertyOp32
 70
     1
  0
XRECORD
  5
418
102
{ACAD_REACTORS
330
417
102
}
330
417
100
AcDbXrecord
280
     1
102
RTVSPropertyOp0
 70
     1
102
RTVSPropertyOp1
 70
     1
102
RTVSPropertyOp2
 70
     1
102
RTVSPropertyOp3
 70
     1
102
RTVSPropertyOp4
 70
     1
102
RTVSPropertyOp5
 70
     1
102
RTVSPropertyOp6
 70
     1
102
RTVSPropertyOp7
 70
     1
102
RTVSPropertyOp8
 70
     1
102
RTVSPropertyOp9
 70
     1
102
RTVSPropertyOp10
 70
     1
102
RTVSPropertyOp11
 70
     1
102
RTVSPropertyOp12
 70
     1
102
RTVSPropertyOp13
 70
     1
102
RTVSPropertyOp14
 70
     1
102
RTVSPropertyOp15
 70
     1
102
RTVSPropertyOp16
 70
     1
102
RTVSPropertyOp17
 70
     1
102
RTVSPropertyOp18
 70
     1
102
RTVSPropertyOp19
 70
     1
102
RTVSPropertyOp20
 70
     1
102
RTVSPropertyOp21
 70
     1
102
RTVSPropertyOp22
 70
     1
102
RTVSPropertyOp23
 70
     1
102
RTVSPropertyOp24
 70
     1
102
RTVSPropertyOp25
 70
     1
102
RTVSPropertyOp26
 70
     1
102
RTVSPropertyOp27
 70
     1
102
RTVSPropertyOp28
 70
     1
102
RTVSPropertyOp29
 70
     1
102
RTVSPropertyOp30
 70
     1
102
RTVSPropertyOp31
 70
     1
102
RTVSPropertyOp32
 70
     1
  0
XRECORD
  5
416
102
{ACAD_REACTORS
330
415
102
}
330
415
100
AcDbXrecord
280
     1
102
RTVSPropertyOp0
 70
     1
102
RTVSPropertyOp1
 70
     1
102
RTVSPropertyOp2
 70
     1
102
RTVSPropertyOp3
 70
     1
102
RTVSPropertyOp4
 70
     1
102
RTVSPropertyOp5
 70
     1
102
RTVSPropertyOp6
 70
     1
102
RTVSPropertyOp7
 70
     1
102
RTVSPropertyOp8
 70
     1
102
RTVSPropertyOp9
 70
     1
102
RTVSPropertyOp10
 70
     1
102
RTVSPropertyOp11
 70
     1
102
RTVSPropertyOp12
 70
     1
102
RTVSPropertyOp13
 70
     1
102
RTVSPropertyOp14
 70
     1
102
RTVSPropertyOp15
 70
     1
102
RTVSPropertyOp16
 70
     1
102
RTVSPropertyOp17
 70
     1
102
RTVSPropertyOp18
 70
     1
102
RTVSPropertyOp19
 70
     1
102
RTVSPropertyOp20
 70
     1
102
RTVSPropertyOp21
 70
     1
102
RTVSPropertyOp22
 70
     1
102
RTVSPropertyOp23
 70
     1
102
RTVSPropertyOp24
 70
     1
102
RTVSPropertyOp25
 70
     1
102
RTVSPropertyOp26
 70
     1
102
RTVSPropertyOp27
 70
     1
102
RTVSPropertyOp28
 70
     1
102
RTVSPropertyOp29
 70
     1
102
RTVSPropertyOp30
 70
     1
102
RTVSPropertyOp31
 70
     1
102
RTVSPropertyOp32
 70
     1
  0
XRECORD
  5
41A
102
{ACAD_REACTORS
330
419
102
}
330
419
100
AcDbXrecord
280
     1
102
RTVSPropertyOp0
 70
     1
102
RTVSPropertyOp1
 70
     1
102
RTVSPropertyOp2
 70
     1
102
RTVSPropertyOp3
 70
     1
102
RTVSPropertyOp4
 70
     1
102
RTVSPropertyOp5
 70
     1
102
RTVSPropertyOp6
 70
     1
102
RTVSPropertyOp7
 70
     1
102
RTVSPropertyOp8
 70
     1
102
RTVSPropertyOp9
 70
     1
102
RTVSPropertyOp10
 70
     1
102
RTVSPropertyOp11
 70
     1
102
RTVSPropertyOp12
 70
     1
102
RTVSPropertyOp13
 70
     1
102
RTVSPropertyOp14
 70
     1
102
RTVSPropertyOp15
 70
     1
102
RTVSPropertyOp16
 70
     1
102
RTVSPropertyOp17
 70
     1
102
RTVSPropertyOp18
 70
     1
102
RTVSPropertyOp19
 70
     1
102
RTVSPropertyOp20
 70
     1
102
RTVSPropertyOp21
 70
     1
102
RTVSPropertyOp22
 70
     1
102
RTVSPropertyOp23
 70
     1
102
RTVSPropertyOp24
 70
     1
102
RTVSPropertyOp25
 70
     1
102
RTVSPropertyOp26
 70
     1
102
RTVSPropertyOp27
 70
     1
102
RTVSPropertyOp28
 70
     1
102
RTVSPropertyOp29
 70
     1
102
RTVSPropertyOp30
 70
     1
102
RTVSPropertyOp31
 70
     1
102
RTVSPropertyOp32
 70
     1
  0
XRECORD
  5
422
102
{ACAD_REACTORS
330
421
102
}
330
421
100
AcDbXrecord
280
     1
102
RTVSPropertyOp0
 70
     1
102
RTVSPropertyOp1
 70
     1
102
RTVSPropertyOp2
 70
     1
102
RTVSPropertyOp3
 70
     1
102
RTVSPropertyOp4
 70
     1
102
RTVSPropertyOp5
 70
     1
102
RTVSPropertyOp6
 70
     1
102
RTVSPropertyOp7
 70
     1
102
RTVSPropertyOp8
 70
     1
102
RTVSPropertyOp9
 70
     1
102
RTVSPropertyOp10
 70
     1
102
RTVSPropertyOp11
 70
     1
102
RTVSPropertyOp12
 70
     1
102
RTVSPropertyOp13
 70
     1
102
RTVSPropertyOp14
 70
     1
102
RTVSPropertyOp15
 70
     1
102
RTVSPropertyOp16
 70
     1
102
RTVSPropertyOp17
 70
     1
102
RTVSPropertyOp18
 70
     1
102
RTVSPropertyOp19
 70
     1
102
RTVSPropertyOp20
 70
     1
102
RTVSPropertyOp21
 70
     1
102
RTVSPropertyOp22
 70
     1
102
RTVSPropertyOp23
 70
     1
102
RTVSPropertyOp24
 70
     1
102
RTVSPropertyOp25
 70
     1
102
RTVSPropertyOp26
 70
     1
102
RTVSPropertyOp27
 70
     1
102
RTVSPropertyOp28
 70
     1
102
RTVSPropertyOp29
 70
     1
102
RTVSPropertyOp30
 70
     1
102
RTVSPropertyOp31
 70
     1
102
RTVSPropertyOp32
 70
     1
  0
XRECORD
  5
42A
102
{ACAD_REACTORS
330
429
102
}
330
429
100
AcDbXrecord
280
     1
102
RTVSPropertyOp0
 70
     1
102
RTVSPropertyOp1
 70
     1
102
RTVSPropertyOp2
 70
     1
102
RTVSPropertyOp3
 70
     1
102
RTVSPropertyOp4
 70
     1
102
RTVSPropertyOp5
 70
     1
102
RTVSPropertyOp6
 70
     1
102
RTVSPropertyOp7
 70
     1
102
RTVSPropertyOp8
 70
     1
102
RTVSPropertyOp9
 70
     1
102
RTVSPropertyOp10
 70
     1
102
RTVSPropertyOp11
 70
     1
102
RTVSPropertyOp12
 70
     1
102
RTVSPropertyOp13
 70
     1
102
RTVSPropertyOp14
 70
     1
102
RTVSPropertyOp15
 70
     1
102
RTVSPropertyOp16
 70
     1
102
RTVSPropertyOp17
 70
     1
102
RTVSPropertyOp18
 70
     1
102
RTVSPropertyOp19
 70
     1
102
RTVSPropertyOp20
 70
     1
102
RTVSPropertyOp21
 70
     1
102
RTVSPropertyOp22
 70
     1
102
RTVSPropertyOp23
 70
     1
102
RTVSPropertyOp24
 70
     1
102
RTVSPropertyOp25
 70
     1
102
RTVSPropertyOp26
 70
     1
102
RTVSPropertyOp27
 70
     1
102
RTVSPropertyOp28
 70
     1
102
RTVSPropertyOp29
 70
     1
102
RTVSPropertyOp30
 70
     1
102
RTVSPropertyOp31
 70
     1
102
RTVSPropertyOp32
 70
     1
  0
XRECORD
  5
41E
102
{ACAD_REACTORS
330
41D
102
}
330
41D
100
AcDbXrecord
280
     1
102
RTVSPropertyOp0
 70
     1
102
RTVSPropertyOp1
 70
     1
102
RTVSPropertyOp2
 70
     1
102
RTVSPropertyOp3
 70
     1
102
RTVSPropertyOp4
 70
     1
102
RTVSPropertyOp5
 70
     1
102
RTVSPropertyOp6
 70
     1
102
RTVSPropertyOp7
 70
     1
102
RTVSPropertyOp8
 70
     1
102
RTVSPropertyOp9
 70
     1
102
RTVSPropertyOp10
 70
     1
102
RTVSPropertyOp11
 70
     1
102
RTVSPropertyOp12
 70
     1
102
RTVSPropertyOp13
 70
     1
102
RTVSPropertyOp14
 70
     1
102
RTVSPropertyOp15
 70
     1
102
RTVSPropertyOp16
 70
     1
102
RTVSPropertyOp17
 70
     1
102
RTVSPropertyOp18
 70
     1
102
RTVSPropertyOp19
 70
     1
102
RTVSPropertyOp20
 70
     1
102
RTVSPropertyOp21
 70
     1
102
RTVSPropertyOp22
 70
     1
102
RTVSPropertyOp23
 70
     1
102
RTVSPropertyOp24
 70
     1
102
RTVSPropertyOp25
 70
     1
102
RTVSPropertyOp26
 70
     1
102
RTVSPropertyOp27
 70
     1
102
RTVSPropertyOp28
 70
     1
102
RTVSPropertyOp29
 70
     1
102
RTVSPropertyOp30
 70
     1
102
RTVSPropertyOp31
 70
     1
102
RTVSPropertyOp32
 70
     1
  0
XRECORD
  5
420
102
{ACAD_REACTORS
330
41F
102
}
330
41F
100
AcDbXrecord
280
     1
102
RTVSPropertyOp0
 70
     1
102
RTVSPropertyOp1
 70
     1
102
RTVSPropertyOp2
 70
     1
102
RTVSPropertyOp3
 70
     1
102
RTVSPropertyOp4
 70
     1
102
RTVSPropertyOp5
 70
     1
102
RTVSPropertyOp6
 70
     1
102
RTVSPropertyOp7
 70
     1
102
RTVSPropertyOp8
 70
     1
102
RTVSPropertyOp9
 70
     1
102
RTVSPropertyOp10
 70
     1
102
RTVSPropertyOp11
 70
     1
102
RTVSPropertyOp12
 70
     1
102
RTVSPropertyOp13
 70
     1
102
RTVSPropertyOp14
 70
     1
102
RTVSPropertyOp15
 70
     1
102
RTVSPropertyOp16
 70
     1
102
RTVSPropertyOp17
 70
     1
102
RTVSPropertyOp18
 70
     1
102
RTVSPropertyOp19
 70
     1
102
RTVSPropertyOp20
 70
     1
102
RTVSPropertyOp21
 70
     1
102
RTVSPropertyOp22
 70
     1
102
RTVSPropertyOp23
 70
     1
102
RTVSPropertyOp24
 70
     1
102
RTVSPropertyOp25
 70
     1
102
RTVSPropertyOp26
 70
     1
102
RTVSPropertyOp27
 70
     1
102
RTVSPropertyOp28
 70
     1
102
RTVSPropertyOp29
 70
     1
102
RTVSPropertyOp30
 70
     1
102
RTVSPropertyOp31
 70
     1
102
RTVSPropertyOp32
 70
     1
  0
XRECORD
  5
428
102
{ACAD_REACTORS
330
427
102
}
330
427
100
AcDbXrecord
280
     1
102
RTVSPropertyOp0
 70
     1
102
RTVSPropertyOp1
 70
     1
102
RTVSPropertyOp2
 70
     1
102
RTVSPropertyOp3
 70
     1
102
RTVSPropertyOp4
 70
     1
102
RTVSPropertyOp5
 70
     1
102
RTVSPropertyOp6
 70
     1
102
RTVSPropertyOp7
 70
     1
102
RTVSPropertyOp8
 70
     1
102
RTVSPropertyOp9
 70
     1
102
RTVSPropertyOp10
 70
     1
102
RTVSPropertyOp11
 70
     1
102
RTVSPropertyOp12
 70
     1
102
RTVSPropertyOp13
 70
     1
102
RTVSPropertyOp14
 70
     1
102
RTVSPropertyOp15
 70
     1
102
RTVSPropertyOp16
 70
     1
102
RTVSPropertyOp17
 70
     1
102
RTVSPropertyOp18
 70
     1
102
RTVSPropertyOp19
 70
     1
102
RTVSPropertyOp20
 70
     1
102
RTVSPropertyOp21
 70
     1
102
RTVSPropertyOp22
 70
     1
102
RTVSPropertyOp23
 70
     1
102
RTVSPropertyOp24
 70
     1
102
RTVSPropertyOp25
 70
     1
102
RTVSPropertyOp26
 70
     1
102
RTVSPropertyOp27
 70
     1
102
RTVSPropertyOp28
 70
     1
102
RTVSPropertyOp29
 70
     1
102
RTVSPropertyOp30
 70
     1
102
RTVSPropertyOp31
 70
     1
102
RTVSPropertyOp32
 70
     1
  0
XRECORD
  5
40C
102
{ACAD_REACTORS
330
40B
102
}
330
40B
100
AcDbXrecord
280
     1
102
RTVSPropertyOp0
 70
     1
102
RTVSPropertyOp1
 70
     1
102
RTVSPropertyOp2
 70
     1
102
RTVSPropertyOp3
 70
     1
102
RTVSPropertyOp4
 70
     1
102
RTVSPropertyOp5
 70
     1
102
RTVSPropertyOp6
 70
     1
102
RTVSPropertyOp7
 70
     1
102
RTVSPropertyOp8
 70
     1
102
RTVSPropertyOp9
 70
     1
102
RTVSPropertyOp10
 70
     1
102
RTVSPropertyOp11
 70
     1
102
RTVSPropertyOp12
 70
     1
102
RTVSPropertyOp13
 70
     1
102
RTVSPropertyOp14
 70
     1
102
RTVSPropertyOp15
 70
     1
102
RTVSPropertyOp16
 70
     1
102
RTVSPropertyOp17
 70
     1
102
RTVSPropertyOp18
 70
     1
102
RTVSPropertyOp19
 70
     1
102
RTVSPropertyOp20
 70
     1
102
RTVSPropertyOp21
 70
     1
102
RTVSPropertyOp22
 70
     1
102
RTVSPropertyOp23
 70
     1
102
RTVSPropertyOp24
 70
     1
102
RTVSPropertyOp25
 70
     1
102
RTVSPropertyOp26
 70
     1
102
RTVSPropertyOp27
 70
     1
102
RTVSPropertyOp28
 70
     1
102
RTVSPropertyOp29
 70
     1
102
RTVSPropertyOp30
 70
     1
102
RTVSPropertyOp31
 70
     1
102
RTVSPropertyOp32
 70
     1
  0
XRECORD
  5
40E
102
{ACAD_REACTORS
330
40D
102
}
330
40D
100
AcDbXrecord
280
     1
102
RTVSPropertyOp0
 70
     1
102
RTVSPropertyOp1
 70
     1
102
RTVSPropertyOp2
 70
     1
102
RTVSPropertyOp3
 70
     1
102
RTVSPropertyOp4
 70
     1
102
RTVSPropertyOp5
 70
     1
102
RTVSPropertyOp6
 70
     1
102
RTVSPropertyOp7
 70
     1
102
RTVSPropertyOp8
 70
     1
102
RTVSPropertyOp9
 70
     1
102
RTVSPropertyOp10
 70
     1
102
RTVSPropertyOp11
 70
     1
102
RTVSPropertyOp12
 70
     1
102
RTVSPropertyOp13
 70
     1
102
RTVSPropertyOp14
 70
     1
102
RTVSPropertyOp15
 70
     1
102
RTVSPropertyOp16
 70
     1
102
RTVSPropertyOp17
 70
     1
102
RTVSPropertyOp18
 70
     1
102
RTVSPropertyOp19
 70
     1
102
RTVSPropertyOp20
 70
     1
102
RTVSPropertyOp21
 70
     1
102
RTVSPropertyOp22
 70
     1
102
RTVSPropertyOp23
 70
     1
102
RTVSPropertyOp24
 70
     1
102
RTVSPropertyOp25
 70
     1
102
RTVSPropertyOp26
 70
     1
102
RTVSPropertyOp27
 70
     1
102
RTVSPropertyOp28
 70
     1
102
RTVSPropertyOp29
 70
     1
102
RTVSPropertyOp30
 70
     1
102
RTVSPropertyOp31
 70
     1
102
RTVSPropertyOp32
 70
     1
  0
XRECORD
  5
410
102
{ACAD_REACTORS
330
40F
102
}
330
40F
100
AcDbXrecord
280
     1
102
RTVSPropertyOp0
 70
     1
102
RTVSPropertyOp1
 70
     1
102
RTVSPropertyOp2
 70
     1
102
RTVSPropertyOp3
 70
     1
102
RTVSPropertyOp4
 70
     1
102
RTVSPropertyOp5
 70
     1
102
RTVSPropertyOp6
 70
     1
102
RTVSPropertyOp7
 70
     1
102
RTVSPropertyOp8
 70
     1
102
RTVSPropertyOp9
 70
     1
102
RTVSPropertyOp10
 70
     1
102
RTVSPropertyOp11
 70
     1
102
RTVSPropertyOp12
 70
     1
102
RTVSPropertyOp13
 70
     1
102
RTVSPropertyOp14
 70
     1
102
RTVSPropertyOp15
 70
     1
102
RTVSPropertyOp16
 70
     1
102
RTVSPropertyOp17
 70
     1
102
RTVSPropertyOp18
 70
     1
102
RTVSPropertyOp19
 70
     1
102
RTVSPropertyOp20
 70
     1
102
RTVSPropertyOp21
 70
     1
102
RTVSPropertyOp22
 70
     1
102
RTVSPropertyOp23
 70
     1
102
RTVSPropertyOp24
 70
     1
102
RTVSPropertyOp25
 70
     1
102
RTVSPropertyOp26
 70
     1
102
RTVSPropertyOp27
 70
     1
102
RTVSPropertyOp28
 70
     1
102
RTVSPropertyOp29
 70
     1
102
RTVSPropertyOp30
 70
     1
102
RTVSPropertyOp31
 70
     1
102
RTVSPropertyOp32
 70
     1
  0
XRECORD
  5
412
102
{ACAD_REACTORS
330
411
102
}
330
411
100
AcDbXrecord
280
     1
102
RTVSPropertyOp0
 70
     1
102
RTVSPropertyOp1
 70
     1
102
RTVSPropertyOp2
 70
     1
102
RTVSPropertyOp3
 70
     1
102
RTVSPropertyOp4
 70
     1
102
RTVSPropertyOp5
 70
     1
102
RTVSPropertyOp6
 70
     1
102
RTVSPropertyOp7
 70
     1
102
RTVSPropertyOp8
 70
     1
102
RTVSPropertyOp9
 70
     1
102
RTVSPropertyOp10
 70
     1
102
RTVSPropertyOp11
 70
     1
102
RTVSPropertyOp12
 70
     1
102
RTVSPropertyOp13
 70
     1
102
RTVSPropertyOp14
 70
     1
102
RTVSPropertyOp15
 70
     1
102
RTVSPropertyOp16
 70
     1
102
RTVSPropertyOp17
 70
     1
102
RTVSPropertyOp18
 70
     1
102
RTVSPropertyOp19
 70
     1
102
RTVSPropertyOp20
 70
     1
102
RTVSPropertyOp21
 70
     1
102
RTVSPropertyOp22
 70
     1
102
RTVSPropertyOp23
 70
     1
102
RTVSPropertyOp24
 70
     1
102
RTVSPropertyOp25
 70
     1
102
RTVSPropertyOp26
 70
     1
102
RTVSPropertyOp27
 70
     1
102
RTVSPropertyOp28
 70
     1
102
RTVSPropertyOp29
 70
     1
102
RTVSPropertyOp30
 70
     1
102
RTVSPropertyOp31
 70
     1
102
RTVSPropertyOp32
 70
     1
  0
XRECORD
  5
426
102
{ACAD_REACTORS
330
425
102
}
330
425
100
AcDbXrecord
280
     1
102
RTVSPropertyOp0
 70
     1
102
RTVSPropertyOp1
 70
     1
102
RTVSPropertyOp2
 70
     1
102
RTVSPropertyOp3
 70
     1
102
RTVSPropertyOp4
 70
     1
102
RTVSPropertyOp5
 70
     1
102
RTVSPropertyOp6
 70
     1
102
RTVSPropertyOp7
 70
     1
102
RTVSPropertyOp8
 70
     1
102
RTVSPropertyOp9
 70
     1
102
RTVSPropertyOp10
 70
     1
102
RTVSPropertyOp11
 70
     1
102
RTVSPropertyOp12
 70
     1
102
RTVSPropertyOp13
 70
     1
102
RTVSPropertyOp14
 70
     1
102
RTVSPropertyOp15
 70
     1
102
RTVSPropertyOp16
 70
     1
102
RTVSPropertyOp17
 70
     1
102
RTVSPropertyOp18
 70
     1
102
RTVSPropertyOp19
 70
     1
102
RTVSPropertyOp20
 70
     1
102
RTVSPropertyOp21
 70
     1
102
RTVSPropertyOp22
 70
     1
102
RTVSPropertyOp23
 70
     1
102
RTVSPropertyOp24
 70
     1
102
RTVSPropertyOp25
 70
     1
102
RTVSPropertyOp26
 70
     1
102
RTVSPropertyOp27
 70
     1
102
RTVSPropertyOp28
 70
     1
102
RTVSPropertyOp29
 70
     1
102
RTVSPropertyOp30
 70
     1
102
RTVSPropertyOp31
 70
     1
102
RTVSPropertyOp32
 70
     1
  0
XRECORD
  5
41C
102
{ACAD_REACTORS
330
41B
102
}
330
41B
100
AcDbXrecord
280
     1
102
RTVSPropertyOp0
 70
     1
102
RTVSPropertyOp1
 70
     1
102
RTVSPropertyOp2
 70
     1
102
RTVSPropertyOp3
 70
     1
102
RTVSPropertyOp4
 70
     1
102
RTVSPropertyOp5
 70
     1
102
RTVSPropertyOp6
 70
     1
102
RTVSPropertyOp7
 70
     1
102
RTVSPropertyOp8
 70
     1
102
RTVSPropertyOp9
 70
     1
102
RTVSPropertyOp10
 70
     1
102
RTVSPropertyOp11
 70
     1
102
RTVSPropertyOp12
 70
     1
102
RTVSPropertyOp13
 70
     1
102
RTVSPropertyOp14
 70
     1
102
RTVSPropertyOp15
 70
     1
102
RTVSPropertyOp16
 70
     1
102
RTVSPropertyOp17
 70
     1
102
RTVSPropertyOp18
 70
     1
102
RTVSPropertyOp19
 70
     1
102
RTVSPropertyOp20
 70
     1
102
RTVSPropertyOp21
 70
     1
102
RTVSPropertyOp22
 70
     1
102
RTVSPropertyOp23
 70
     1
102
RTVSPropertyOp24
 70
     1
102
RTVSPropertyOp25
 70
     1
102
RTVSPropertyOp26
 70
     1
102
RTVSPropertyOp27
 70
     1
102
RTVSPropertyOp28
 70
     1
102
RTVSPropertyOp29
 70
     1
102
RTVSPropertyOp30
 70
     1
102
RTVSPropertyOp31
 70
     1
102
RTVSPropertyOp32
 70
     1
  0
XRECORD
  5
424
102
{ACAD_REACTORS
330
423
102
}
330
423
100
AcDbXrecord
280
     1
102
RTVSPropertyOp0
 70
     1
102
RTVSPropertyOp1
 70
     1
102
RTVSPropertyOp2
 70
     1
102
RTVSPropertyOp3
 70
     1
102
RTVSPropertyOp4
 70
     1
102
RTVSPropertyOp5
 70
     1
102
RTVSPropertyOp6
 70
     1
102
RTVSPropertyOp7
 70
     1
102
RTVSPropertyOp8
 70
     1
102
RTVSPropertyOp9
 70
     1
102
RTVSPropertyOp10
 70
     1
102
RTVSPropertyOp11
 70
     1
102
RTVSPropertyOp12
 70
     1
102
RTVSPropertyOp13
 70
     1
102
RTVSPropertyOp14
 70
     1
102
RTVSPropertyOp15
 70
     1
102
RTVSPropertyOp16
 70
     1
102
RTVSPropertyOp17
 70
     1
102
RTVSPropertyOp18
 70
     1
102
RTVSPropertyOp19
 70
     1
102
RTVSPropertyOp20
 70
     1
102
RTVSPropertyOp21
 70
     1
102
RTVSPropertyOp22
 70
     1
102
RTVSPropertyOp23
 70
     1
102
RTVSPropertyOp24
 70
     1
102
RTVSPropertyOp25
 70
     1
102
RTVSPropertyOp26
 70
     1
102
RTVSPropertyOp27
 70
     1
102
RTVSPropertyOp28
 70
     1
102
RTVSPropertyOp29
 70
     1
102
RTVSPropertyOp30
 70
     1
102
RTVSPropertyOp31
 70
     1
102
RTVSPropertyOp32
 70
     1
  0
ENDSEC
  0
EOF
