  0
SECTION
  2
HEADER
  9
$ACADVER
  1
AC1015
  9
$ACADMAINTVER
 70
     6
  9
$DWGCODEPAGE
  3
ANSI_932
  9
$INSBASE
 10
0.0
 20
0.0
 30
0.0
  9
$EXTMIN
 10
0.0
 20
0.0
 30
0.0
  9
$EXTMAX
 10
1050.0
 20
1485.0
 30
0.0
  9
$LIMMIN
 10
0.0
 20
0.0
  9
$LIMMAX
 10
12.0
 20
9.0
  9
$ORTHOMODE
 70
     0
  9
$REGENMODE
 70
     1
  9
$FILLMODE
 70
     1
  9
$QTEXTMODE
 70
     0
  9
$MIRRTEXT
 70
     1
  9
$LTSCALE
 40
1.0
  9
$ATTMODE
 70
     1
  9
$TEXTSIZE
 40
0.2
  9
$TRACEWID
 40
0.05
  9
$TEXTSTYLE
  7
Standard
  9
$CLAYER
  8
0
  9
$CELTYPE
  6
ByLayer
  9
$CECOLOR
 62
   256
  9
$CELTSCALE
 40
1.0
  9
$DISPSILH
 70
     0
  9
$DIMSCALE
 40
1.0
  9
$DIMASZ
 40
0.18
  9
$DIMEXO
 40
0.0625
  9
$DIMDLI
 40
0.38
  9
$DIMRND
 40
0.0
  9
$DIMDLE
 40
0.0
  9
$DIMEXE
 40
0.18
  9
$DIMTP
 40
0.0
  9
$DIMTM
 40
0.0
  9
$DIMTXT
 40
0.18
  9
$DIMCEN
 40
0.09
  9
$DIMTSZ
 40
0.0
  9
$DIMTOL
 70
     0
  9
$DIMLIM
 70
     0
  9
$DIMTIH
 70
     1
  9
$DIMTOH
 70
     1
  9
$DIMSE1
 70
     0
  9
$DIMSE2
 70
     0
  9
$DIMTAD
 70
     0
  9
$DIMZIN
 70
     0
  9
$DIMBLK
  1

  9
$DIMASO
 70
     1
  9
$DIMSHO
 70
     1
  9
$DIMPOST
  1

  9
$DIMAPOST
  1

  9
$DIMALT
 70
     0
  9
$DIMALTD
 70
     2
  9
$DIMALTF
 40
25.4
  9
$DIMLFAC
 40
1.0
  9
$DIMTOFL
 70
     0
  9
$DIMTVP
 40
0.0
  9
$DIMTIX
 70
     0
  9
$DIMSOXD
 70
     0
  9
$DIMSAH
 70
     0
  9
$DIMBLK1
  1

  9
$DIMBLK2
  1

  9
$DIMSTYLE
  2
Standard
  9
$DIMCLRD
 70
     0
  9
$DIMCLRE
 70
     0
  9
$DIMCLRT
 70
     0
  9
$DIMTFAC
 40
1.0
  9
$DIMGAP
 40
0.09
  9
$DIMJUST
 70
     0
  9
$DIMSD1
 70
     0
  9
$DIMSD2
 70
     0
  9
$DIMTOLJ
 70
     1
  9
$DIMTZIN
 70
     0
  9
$DIMALTZ
 70
     0
  9
$DIMALTTZ
 70
     0
  9
$DIMUPT
 70
     0
  9
$DIMDEC
 70
     4
  9
$DIMTDEC
 70
     4
  9
$DIMALTU
 70
     2
  9
$DIMALTTD
 70
     2
  9
$DIMTXSTY
  7
Standard
  9
$DIMAUNIT
 70
     0
  9
$DIMADEC
 70
     0
  9
$DIMALTRND
 40
0.0
  9
$DIMAZIN
 70
     0
  9
$DIMDSEP
 70
    46
  9
$DIMATFIT
 70
     3
  9
$DIMFRAC
 70
     0
  9
$DIMLDRBLK
  1

  9
$DIMLUNIT
 70
     2
  9
$DIMLWD
 70
    -2
  9
$DIMLWE
 70
    -2
  9
$DIMTMOVE
 70
     0
  9
$LUNITS
 70
     2
  9
$LUPREC
 70
     4
  9
$SKETCHINC
 40
0.1
  9
$FILLETRAD
 40
0.5
  9
$AUNITS
 70
     0
  9
$AUPREC
 70
     0
  9
$MENU
  1
.
  9
$ELEVATION
 40
0.0
  9
$PELEVATION
 40
0.0
  9
$THICKNESS
 40
0.0
  9
$LIMCHECK
 70
     0
  9
$CHAMFERA
 40
0.5
  9
$CHAMFERB
 40
0.5
  9
$CHAMFERC
 40
1.0
  9
$CHAMFERD
 40
0.0
  9
$SKPOLY
 70
     0
  9
$TDCREATE
 40
2457655.384015417
  9
$TDUCREATE
 40
2457655.009015417
  9
$TDUPDATE
 40
2457655.384016678
  9
$TDUUPDATE
 40
2457655.009016678
  9
$TDINDWG
 40
0.0000000116
  9
$TDUSRTIMER
 40
0.0000000116
  9
$USRTIMER
 70
     1
  9
$ANGBASE
 50
0.0
  9
$ANGDIR
 70
     0
  9
$PDMODE
 70
     0
  9
$PDSIZE
 40
0.0
  9
$PLINEWID
 40
0.0
  9
$SPLFRAME
 70
     0
  9
$SPLINETYPE
 70
     6
  9
$SPLINESEGS
 70
     8
  9
$HANDSEED
  5
46D
  9
$SURFTAB1
 70
     6
  9
$SURFTAB2
 70
     6
  9
$SURFTYPE
 70
     6
  9
$SURFU
 70
     6
  9
$SURFV
 70
     6
  9
$UCSBASE
  2

  9
$UCSNAME
  2

  9
$UCSORG
 10
0.0
 20
0.0
 30
0.0
  9
$UCSXDIR
 10
1.0
 20
0.0
 30
0.0
  9
$UCSYDIR
 10
0.0
 20
1.0
 30
0.0
  9
$UCSORTHOREF
  2

  9
$UCSORTHOVIEW
 70
     0
  9
$UCSORGTOP
 10
0.0
 20
0.0
 30
0.0
  9
$UCSORGBOTTOM
 10
0.0
 20
0.0
 30
0.0
  9
$UCSORGLEFT
 10
0.0
 20
0.0
 30
0.0
  9
$UCSORGRIGHT
 10
0.0
 20
0.0
 30
0.0
  9
$UCSORGFRONT
 10
0.0
 20
0.0
 30
0.0
  9
$UCSORGBACK
 10
0.0
 20
0.0
 30
0.0
  9
$PUCSBASE
  2

  9
$PUCSNAME
  2

  9
$PUCSORG
 10
0.0
 20
0.0
 30
0.0
  9
$PUCSXDIR
 10
1.0
 20
0.0
 30
0.0
  9
$PUCSYDIR
 10
0.0
 20
1.0
 30
0.0
  9
$PUCSORTHOREF
  2

  9
$PUCSORTHOVIEW
 70
     0
  9
$PUCSORGTOP
 10
0.0
 20
0.0
 30
0.0
  9
$PUCSORGBOTTOM
 10
0.0
 20
0.0
 30
0.0
  9
$PUCSORGLEFT
 10
0.0
 20
0.0
 30
0.0
  9
$PUCSORGRIGHT
 10
0.0
 20
0.0
 30
0.0
  9
$PUCSORGFRONT
 10
0.0
 20
0.0
 30
0.0
  9
$PUCSORGBACK
 10
0.0
 20
0.0
 30
0.0
  9
$USERI1
 70
     0
  9
$USERI2
 70
     0
  9
$USERI3
 70
     0
  9
$USERI4
 70
     0
  9
$USERI5
 70
     0
  9
$USERR1
 40
18.1
  9
$USERR2
 40
0.0
  9
$USERR3
 40
0.0
  9
$USERR4
 40
0.0
  9
$USERR5
 40
0.0
  9
$WORLDVIEW
 70
     1
  9
$SHADEDGE
 70
     3
  9
$SHADEDIF
 70
    70
  9
$TILEMODE
 70
     1
  9
$MAXACTVP
 70
    64
  9
$PINSBASE
 10
0.0
 20
0.0
 30
0.0
  9
$PLIMCHECK
 70
     0
  9
$PEXTMIN
 10
1.00000000000000E+20
 20
1.00000000000000E+20
 30
1.00000000000000E+20
  9
$PEXTMAX
 10
-1.00000000000000E+20
 20
-1.00000000000000E+20
 30
-1.00000000000000E+20
  9
$PLIMMIN
 10
0.0
 20
0.0
  9
$PLIMMAX
 10
12.0
 20
9.0
  9
$UNITMODE
 70
     0
  9
$VISRETAIN
 70
     1
  9
$PLINEGEN
 70
     0
  9
$PSLTSCALE
 70
     1
  9
$TREEDEPTH
 70
  3020
  9
$CMLSTYLE
  2
Standard
  9
$CMLJUST
 70
     0
  9
$CMLSCALE
 40
1.0
  9
$PROXYGRAPHICS
 70
     1
  9
$MEASUREMENT
 70
     1
  9
$CELWEIGHT
370
    -1
  9
$ENDCAPS
280
     0
  9
$JOINSTYLE
280
     0
  9
$LWDISPLAY
290
     0
  9
$INSUNITS
 70
     4
  9
$HYPERLINKBASE
  1

  9
$STYLESHEET
  1

  9
$XEDIT
290
     1
  9
$CEPSNTYPE
380
     0
  9
$PSTYLEMODE
290
     1
  9
$FINGERPRINTGUID
  2
{A0E62E93-4628-4CC6-96E3-2FF864BD22D1}
  9
$VERSIONGUID
  2
{FAEB1C32-E019-11D5-929B-00C0DF256EC4}
  9
$EXTNAMES
290
     1
  9
$PSVPSCALE
 40
0.0
  9
$OLESTARTUP
290
     0
  0
ENDSEC
  0
SECTION
  2
CLASSES
  0
CLASS
  1
ACDBDICTIONARYWDFLT
  2
AcDbDictionaryWithDefault
  3
ObjectDBX Classes
 90
        0
280
     0
281
     0
  0
CLASS
  1
VISUALSTYLE
  2
AcDbVisualStyle
  3
ObjectDBX Classes
 90
     4095
280
     0
281
     0
  0
CLASS
  1
MATERIAL
  2
AcDbMaterial
  3
ObjectDBX Classes
 90
     1153
280
     0
281
     0
  0
CLASS
  1
DICTIONARYVAR
  2
AcDbDictionaryVar
  3
ObjectDBX Classes
 90
        0
280
     0
281
     0
  0
CLASS
  1
ACDBPLACEHOLDER
  2
AcDbPlaceHolder
  3
ObjectDBX Classes
 90
        0
280
     0
281
     0
  0
CLASS
  1
LAYOUT
  2
AcDbLayout
  3
ObjectDBX Classes
 90
        0
280
     0
281
     0
  0
ENDSEC
  0
SECTION
  2
TABLES
  0
TABLE
  2
VPORT
  5
8
330
0
100
AcDbSymbolTable
 70
     1
  0
VPORT
  5
29
330
8
100
AcDbSymbolTableRecord
100
AcDbViewportTableRecord
  2
*Active
 70
     0
 10
0.0
 20
0.0
 11
1.0
 21
1.0
 12
525.0
 22
742.5
 13
0.0
 23
0.0
 14
0.5
 24
0.5
 15
0.5
 25
0.5
 16
0.0
 26
0.0
 36
1.0
 17
0.0
 27
0.0
 37
0.0
 40
1633.5
 41
1.60267857142857
 42
50.0
 43
0.0
 44
0.0
 50
0.0
 51
0.0
 71
     0
 72
   100
 73
     1
 74
     3
 75
     0
 76
     0
 77
     0
 78
     0
281
     0
 65
     1
110
0.0
120
0.0
130
0.0
111
1.0
121
0.0
131
0.0
112
0.0
122
1.0
132
0.0
 79
     0
146
0.0
  0
ENDTAB
  0
TABLE
  2
LTYPE
  5
5
330
0
100
AcDbSymbolTable
 70
     8
  0
LTYPE
  5
14
330
5
100
AcDbSymbolTableRecord
100
AcDbLinetypeTableRecord
  2
ByBlock
 70
     0
  3

 72
    65
 73
     0
 40
0.0
  0
LTYPE
  5
15
330
5
100
AcDbSymbolTableRecord
100
AcDbLinetypeTableRecord
  2
ByLayer
 70
     0
  3

 72
    65
 73
     0
 40
0.0
  0
LTYPE
  5
16
330
5
100
AcDbSymbolTableRecord
100
AcDbLinetypeTableRecord
  2
Continuous
 70
     0
  3
Solid line
 72
    65
 73
     0
 40
0.0
  0
LTYPE
  5
3F
330
5
100
AcDbSymbolTableRecord
100
AcDbLinetypeTableRecord
  2
DASHED
 70
     0
  3
Dashed
 72
    65
 73
     2
 40
15.0
 49
7.0
 74
     0
 49
-8.0
 74
     0
  0
LTYPE
  5
40
330
5
100
AcDbSymbolTableRecord
100
AcDbLinetypeTableRecord
  2
DOTTED
 70
     0
  3
Dotted
 72
    65
 73
     2
 40
1.0
 49
0.0
 74
     0
 49
-1.0
 74
     0
  0
LTYPE
  5
41
330
5
100
AcDbSymbolTableRecord
100
AcDbLinetypeTableRecord
  2
DOT_CENTER
 70
     0
  3
Dot_Center
 72
    65
 73
     4
 40
14.0
 49
12.0
 74
     0
 49
-1.0
 74
     0
 49
0.0
 74
     0
 49
-1.0
 74
     0
  0
LTYPE
  5
42
330
5
100
AcDbSymbolTableRecord
100
AcDbLinetypeTableRecord
  2
LONG_DASHED
 70
     0
  3
Long_Dashed
 72
    65
 73
     2
 40
15.0
 49
10.0
 74
     0
 49
-5.0
 74
     0
  0
LTYPE
  5
43
330
5
100
AcDbSymbolTableRecord
100
AcDbLinetypeTableRecord
  2
DASH_CENTER
 70
     0
  3
Dash_Center
 72
    65
 73
     4
 40
14.0
 49
11.0
 74
     0
 49
-1.0
 74
     0
 49
1.0
 74
     0
 49
-1.0
 74
     0
  0
LTYPE
  5
44
330
5
100
AcDbSymbolTableRecord
100
AcDbLinetypeTableRecord
  2
PHANTOM
 70
     0
  3
Phantom
 72
    65
 73
     6
 40
13.0
 49
10.0
 74
     0
 49
-1.0
 74
     0
 49
0.0
 74
     0
 49
-1.0
 74
     0
 49
0.0
 74
     0
 49
-1.0
 74
     0
  0
LTYPE
  5
45
330
5
100
AcDbSymbolTableRecord
100
AcDbLinetypeTableRecord
  2
CENTER_DASH_DASH
 70
     0
  3
Center_Dash_Dash
 72
    65
 73
     6
 40
14.0
 49
9.0
 74
     0
 49
-1.0
 74
     0
 49
1.0
 74
     0
 49
-1.0
 74
     0
 49
1.0
 74
     0
 49
-1.0
 74
     0
  0
ENDTAB
  0
TABLE
  2
LAYER
  5
2
330
0
100
AcDbSymbolTable
 70
     2
  0
LAYER
  5
10
330
2
100
AcDbSymbolTableRecord
100
AcDbLayerTableRecord
  2
0
 70
     0
 62
     7
  6
Continuous
370
    -3
390
F
  0
LAYER
  5
46
330
2
100
AcDbSymbolTableRecord
100
AcDbLayerTableRecord
  2
1
 70
     0
 62
     7
  6
Continuous
370
    -3
390
F
  0
ENDTAB
  0
TABLE
  2
STYLE
  5
3
330
0
100
AcDbSymbolTable
 70
     3
  0
STYLE
  5
11
330
3
100
AcDbSymbolTableRecord
100
AcDbTextStyleTableRecord
  2
Standard
 70
     0
 40
0.0
 41
1.0
 50
0.0
 71
     0
 42
0.2
  3
txt
  4

  0
STYLE
  5
1B1
330
3
100
AcDbSymbolTableRecord
100
AcDbTextStyleTableRecord
  2
CONVERTER_11
 70
     0
 40
0.0
 41
0.89
 50
0.0
 71
     0
 42
0.2
  3
MS Mincho.ttf
  4

1001
ACAD
1000
MS Mincho
1071
    32785
  0
STYLE
  5
3A0
330
3
100
AcDbSymbolTableRecord
100
AcDbTextStyleTableRecord
  2
CONVERTER_12
 70
     0
 40
0.0
 41
0.9
 50
0.0
 71
     0
 42
0.2
  3
txt.shx
  4

  0
ENDTAB
  0
TABLE
  2
VIEW
  5
6
330
0
100
AcDbSymbolTable
 70
     0
  0
ENDTAB
  0
TABLE
  2
UCS
  5
7
330
0
100
AcDbSymbolTable
 70
     0
  0
ENDTAB
  0
TABLE
  2
APPID
  5
9
330
0
100
AcDbSymbolTable
 70
     1
  0
APPID
  5
12
330
9
100
AcDbSymbolTableRecord
100
AcDbRegAppTableRecord
  2
ACAD
 70
     0
  0
ENDTAB
  0
TABLE
  2
DIMSTYLE
  5
A
330
0
100
AcDbSymbolTable
 70
    13
100
AcDbDimStyleTable
  0
DIMSTYLE
105
27
330
A
100
AcDbSymbolTableRecord
100
AcDbDimStyleTableRecord
  2
Standard
 70
     0
178
     0
340
11
  0
DIMSTYLE
105
3B7
102
{ACAD_REACTORS
330
3B8
102
}
330
A
100
AcDbSymbolTableRecord
100
AcDbDimStyleTableRecord
  2
ME10_DIM_10
 70
     0
 41
17.5
 42
0.0
 44
5.0
 73
     0
 74
     0
 77
     1
 78
     8
140
17.5
147
5.0
172
     1
173
     1
174
     1
175
     1
176
     2
177
     2
271
     2
178
     7
271
     2
340
1B1
  0
DIMSTYLE
105
3C2
102
{ACAD_REACTORS
330
3C3
102
}
330
A
100
AcDbSymbolTableRecord
100
AcDbDimStyleTableRecord
  2
ME10_DIM_11
 70
     0
 41
17.5
 42
0.0
 44
5.0
 73
     0
 74
     0
 77
     1
 78
     8
140
17.5
147
5.0
172
     1
173
     1
174
     1
175
     1
176
     2
177
     2
271
     2
178
     7
271
     2
340
3A0
  0
DIMSTYLE
105
3CF
102
{ACAD_REACTORS
330
3D0
102
}
330
A
100
AcDbSymbolTableRecord
100
AcDbDimStyleTableRecord
  2
ME10_DIM_12
 70
     0
  3
ロックナット対辺<>
 41
17.5
 42
0.0
 44
5.0
 73
     0
 74
     0
 77
     1
 78
     8
140
17.5
147
5.0
172
     1
173
     1
174
     1
175
     1
176
     2
177
     2
271
     2
178
     7
271
     2
340
1B1
  0
DIMSTYLE
105
3DC
102
{ACAD_REACTORS
330
3DD
102
}
330
A
100
AcDbSymbolTableRecord
100
AcDbDimStyleTableRecord
  2
ME10_DIM_13
 70
     0
 41
17.5
 42
0.0
 44
5.0
 73
     0
 74
     0
 77
     1
 78
     8
140
17.5
147
5.0
172
     1
173
     1
174
     1
175
     1
176
     2
177
     2
271
     2
178
     7
271
     2
340
3A0
  0
DIMSTYLE
105
3E9
102
{ACAD_REACTORS
330
3EA
102
}
330
A
100
AcDbSymbolTableRecord
100
AcDbDimStyleTableRecord
  2
ME10_DIM_14
 70
     0
  3
{\Fgdt;n}<>
 41
17.5
 42
0.0
 44
5.0
 73
     0
 74
     0
 77
     1
 78
     8
140
17.5
147
5.0
172
     1
173
     1
174
     1
175
     1
176
     2
177
     2
271
     2
178
     7
271
     2
340
3A0
  0
DIMSTYLE
105
3F6
102
{ACAD_REACTORS
330
3F7
102
}
330
A
100
AcDbSymbolTableRecord
100
AcDbDimStyleTableRecord
  2
ME10_DIM_15
 70
     0
  3
{\Fgdt;n}<>
 41
17.5
 42
0.0
 44
5.0
 73
     0
 74
     0
 77
     1
 78
     8
140
17.5
147
5.0
172
     1
173
     1
174
     1
175
     1
176
     2
177
     2
271
     2
178
     7
271
     2
340
3A0
  0
DIMSTYLE
105
401
102
{ACAD_REACTORS
330
402
102
}
330
A
100
AcDbSymbolTableRecord
100
AcDbDimStyleTableRecord
  2
ME10_DIM_16
 70
     0
 41
17.5
 42
0.0
 44
5.0
 73
     0
 74
     0
 77
     1
 78
     8
140
17.5
147
5.0
172
     1
173
     1
174
     1
175
     1
176
     2
177
     2
271
     2
178
     7
271
     2
340
3A0
  0
DIMSTYLE
105
40E
102
{ACAD_REACTORS
330
40F
102
}
330
A
100
AcDbSymbolTableRecord
100
AcDbDimStyleTableRecord
  2
ME10_DIM_17
 70
     0
 41
17.5
 42
0.0
 44
5.0
 73
     0
 74
     0
 77
     1
 78
     8
140
17.5
147
5.0
172
     1
173
     1
174
     1
175
     1
176
     2
177
     2
271
     2
178
     7
271
     2
340
3A0
  0
DIMSTYLE
105
419
102
{ACAD_REACTORS
330
41A
102
}
330
A
100
AcDbSymbolTableRecord
100
AcDbDimStyleTableRecord
  2
ME10_DIM_18
 70
     0
 41
17.5
 42
0.0
 44
5.0
 73
     0
 74
     0
 77
     1
 78
     8
140
17.5
147
5.0
172
     1
173
     1
174
     1
175
     1
176
     2
177
     2
271
     2
178
     7
271
     2
340
3A0
  0
DIMSTYLE
105
424
102
{ACAD_REACTORS
330
425
102
}
330
A
100
AcDbSymbolTableRecord
100
AcDbDimStyleTableRecord
  2
ME10_DIM_19
 70
     0
 41
17.5
 42
0.0
 44
5.0
 73
     0
 74
     0
 77
     1
 78
     8
140
17.5
147
5.0
172
     1
173
     1
174
     1
175
     1
176
     2
177
     2
271
     2
178
     7
271
     2
340
3A0
  0
DIMSTYLE
105
42F
102
{ACAD_REACTORS
330
430
102
}
330
A
100
AcDbSymbolTableRecord
100
AcDbDimStyleTableRecord
  2
ME10_DIM_20
 70
     0
 41
17.5
 42
0.0
 44
5.0
 73
     0
 74
     0
 77
     1
 78
     8
140
17.5
147
5.0
172
     1
173
     1
174
     1
175
     1
176
     2
177
     2
271
     2
178
     7
271
     2
340
1B1
  0
DIMSTYLE
105
43C
102
{ACAD_REACTORS
330
43D
102
}
330
A
100
AcDbSymbolTableRecord
100
AcDbDimStyleTableRecord
  2
ME10_DIM_21
 70
     0
 41
17.5
 42
0.0
 44
5.0
 73
     0
 74
     0
 77
     1
 78
     8
140
17.5
147
5.0
172
     1
173
     1
174
     1
175
     1
176
     2
177
     2
271
     2
178
     7
271
     2
340
3A0
  0
ENDTAB
  0
TABLE
  2
BLOCK_RECORD
  5
1
330
0
100
AcDbSymbolTable
 70
    32
  0
BLOCK_RECORD
  5
1F
330
1
100
AcDbSymbolTableRecord
100
AcDbBlockTableRecord
  2
*Model_Space
340
22
  0
BLOCK_RECORD
  5
1B
330
1
100
AcDbSymbolTableRecord
100
AcDbBlockTableRecord
  2
*Paper_Space
340
1E
  0
BLOCK_RECORD
  5
23
330
1
100
AcDbSymbolTableRecord
100
AcDbBlockTableRecord
  2
*Paper_Space0
340
26
  0
BLOCK_RECORD
  5
47
330
1
100
AcDbSymbolTableRecord
100
AcDbBlockTableRecord
  2
30-255A-M11
340
0
102
{BLKREFS
331
85
102
}
  0
BLOCK_RECORD
  5
4A
330
1
100
AcDbSymbolTableRecord
100
AcDbBlockTableRecord
  2
37-399-M1
340
0
102
{BLKREFS
331
86
102
}
  0
BLOCK_RECORD
  5
4D
330
1
100
AcDbSymbolTableRecord
100
AcDbBlockTableRecord
  2
92-64A
340
0
102
{BLKREFS
331
87
102
}
  0
BLOCK_RECORD
  5
50
330
1
100
AcDbSymbolTableRecord
100
AcDbBlockTableRecord
  2
98-126
340
0
102
{BLKREFS
331
88
102
}
  0
BLOCK_RECORD
  5
53
330
1
100
AcDbSymbolTableRecord
100
AcDbBlockTableRecord
  2
35-18
340
0
102
{BLKREFS
331
5A
102
}
  0
BLOCK_RECORD
  5
56
330
1
100
AcDbSymbolTableRecord
100
AcDbBlockTableRecord
  2
32-116-C2
340
0
102
{BLKREFS
331
5B
102
}
  0
BLOCK_RECORD
  5
59
330
1
100
AcDbSymbolTableRecord
100
AcDbBlockTableRecord
  2
T90-240
340
0
102
{BLKREFS
331
89
102
}
  0
BLOCK_RECORD
  5
5E
330
1
100
AcDbSymbolTableRecord
100
AcDbBlockTableRecord
  2
開示A4
340
0
102
{BLKREFS
331
8A
102
}
  0
BLOCK_RECORD
  5
61
330
1
100
AcDbSymbolTableRecord
100
AcDbBlockTableRecord
  2
30-360-M1
340
0
102
{BLKREFS
331
8B
102
}
  0
BLOCK_RECORD
  5
64
330
1
100
AcDbSymbolTableRecord
100
AcDbBlockTableRecord
  2
81-414-1-SH
340
0
102
{BLKREFS
331
8C
102
}
  0
BLOCK_RECORD
  5
67
330
1
100
AcDbSymbolTableRecord
100
AcDbBlockTableRecord
  2
レバー
340
0
102
{BLKREFS
331
6B
102
}
  0
BLOCK_RECORD
  5
6A
330
1
100
AcDbSymbolTableRecord
100
AcDbBlockTableRecord
  2
27-21-M1
340
0
102
{BLKREFS
331
8D
102
}
  0
BLOCK_RECORD
  5
6E
330
1
100
AcDbSymbolTableRecord
100
AcDbBlockTableRecord
  2
73-1-32_5-C2
340
0
102
{BLKREFS
331
8E
102
}
  0
BLOCK_RECORD
  5
71
330
1
100
AcDbSymbolTableRecord
100
AcDbBlockTableRecord
  2
32-33-32
340
0
102
{BLKREFS
331
8F
102
}
  0
BLOCK_RECORD
  5
74
330
1
100
AcDbSymbolTableRecord
100
AcDbBlockTableRecord
  2
35-338-M11
340
0
102
{BLKREFS
331
90
102
}
  0
BLOCK_RECORD
  5
77
330
1
100
AcDbSymbolTableRecord
100
AcDbBlockTableRecord
  2
37-398-M11
340
0
102
{BLKREFS
331
7B
102
}
  0
BLOCK_RECORD
  5
7A
330
1
100
AcDbSymbolTableRecord
100
AcDbBlockTableRecord
  2
新コラム洗面混合栓ノーマル130618
340
0
102
{BLKREFS
331
91
102
}
  0
BLOCK_RECORD
  5
7E
330
1
100
AcDbSymbolTableRecord
100
AcDbBlockTableRecord
  2
65-56-470-C2
340
0
102
{BLKREFS
331
82
102
}
  0
BLOCK_RECORD
  5
81
330
1
100
AcDbSymbolTableRecord
100
AcDbBlockTableRecord
  2
30-360X-470-C6
340
0
102
{BLKREFS
331
92
102
}
  0
BLOCK_RECORD
  5
3AC
330
1
100
AcDbSymbolTableRecord
100
AcDbBlockTableRecord
  2
*D20
340
0
  0
BLOCK_RECORD
  5
3B9
330
1
100
AcDbSymbolTableRecord
100
AcDbBlockTableRecord
  2
*D21
340
0
  0
BLOCK_RECORD
  5
3C4
330
1
100
AcDbSymbolTableRecord
100
AcDbBlockTableRecord
  2
*D22
340
0
  0
BLOCK_RECORD
  5
3D1
330
1
100
AcDbSymbolTableRecord
100
AcDbBlockTableRecord
  2
*D23
340
0
  0
BLOCK_RECORD
  5
3DE
330
1
100
AcDbSymbolTableRecord
100
AcDbBlockTableRecord
  2
*D24
340
0
  0
BLOCK_RECORD
  5
3EB
330
1
100
AcDbSymbolTableRecord
100
AcDbBlockTableRecord
  2
*D25
340
0
  0
BLOCK_RECORD
  5
3F8
330
1
100
AcDbSymbolTableRecord
100
AcDbBlockTableRecord
  2
*D26
340
0
  0
BLOCK_RECORD
  5
403
330
1
100
AcDbSymbolTableRecord
100
AcDbBlockTableRecord
  2
*D27
340
0
  0
BLOCK_RECORD
  5
410
330
1
100
AcDbSymbolTableRecord
100
AcDbBlockTableRecord
  2
*D28
340
0
  0
BLOCK_RECORD
  5
41B
330
1
100
AcDbSymbolTableRecord
100
AcDbBlockTableRecord
  2
*D29
340
0
  0
BLOCK_RECORD
  5
426
330
1
100
AcDbSymbolTableRecord
100
AcDbBlockTableRecord
  2
*D30
340
0
  0
BLOCK_RECORD
  5
431
330
1
100
AcDbSymbolTableRecord
100
AcDbBlockTableRecord
  2
*D31
340
0
  0
ENDTAB
  0
ENDSEC
  0
SECTION
  2
BLOCKS
  0
BLOCK
  5
20
330
1F
100
AcDbEntity
  8
0
100
AcDbBlockBegin
  2
*Model_Space
 70
     0
 10
0.0
 20
0.0
 30
0.0
  3
*Model_Space
  1

  0
ENDBLK
  5
21
330
1F
100
AcDbEntity
  8
0
100
AcDbBlockEnd
  0
BLOCK
  5
1C
330
1B
100
AcDbEntity
 67
     1
  8
0
100
AcDbBlockBegin
  2
*Paper_Space
 70
     0
 10
0.0
 20
0.0
 30
0.0
  3
*Paper_Space
  1

  0
ENDBLK
  5
1D
330
1B
100
AcDbEntity
 67
     1
  8
0
100
AcDbBlockEnd
  0
BLOCK
  5
24
330
23
100
AcDbEntity
  8
0
100
AcDbBlockBegin
  2
*Paper_Space0
 70
     0
 10
0.0
 20
0.0
 30
0.0
  3
*Paper_Space0
  1

  0
ENDBLK
  5
25
330
23
100
AcDbEntity
  8
0
100
AcDbBlockEnd
  0
BLOCK
  5
48
330
47
100
AcDbEntity
  8
0
100
AcDbBlockBegin
  2
30-255A-M11
 70
     0
 10
4318.771370360424
 20
2843.944170620259
 30
0.0
  3
30-255A-M11
  1

  0
LINE
  5
93
330
47
100
AcDbEntity
  8
0
  6
Continuous
 62
     7
100
AcDbLine
 10
603.4263963023625
 20
994.178967408173
 30
0.0
 11
604.6490805897699
 21
993.9190767901715
 31
0.0
  0
LINE
  5
94
330
47
100
AcDbEntity
  8
0
  6
Continuous
 62
     7
100
AcDbLine
 10
603.632860927512
 20
997.5551610538804
 30
0.0
 11
603.0412788345998
 21
994.7719973703373
 31
0.0
  0
LINE
  5
95
330
47
100
AcDbEntity
  8
0
  6
Continuous
 62
     7
100
AcDbLine
 10
604.6490805897708
 20
993.9190767901764
 30
0.0
 11
620.7885131835608
 21
990.4885206325547
 31
0.0
  0
LINE
  5
96
330
47
100
AcDbEntity
  8
0
  6
Continuous
 62
     7
100
AcDbLine
 10
620.7885131835596
 20
990.4885206325501
 30
0.0
 11
622.0111974709671
 21
990.2286300145488
 31
0.0
  0
LINE
  5
97
330
47
100
AcDbEntity
  8
0
  6
Continuous
 62
     7
100
AcDbLine
 10
622.6042274331312
 20
990.6137474823114
 30
0.0
 11
623.1958188353613
 21
993.3969549625766
 31
0.0
  0
LINE
  5
98
330
47
100
AcDbEntity
  8
0
  6
PHANTOM
 62
     4
100
AcDbLine
 10
612.0950594034612
 20
989.2693564215824
 30
0.0
 11
616.6691342802887
 21
1010.788599879965
 31
0.0
  0
LINE
  5
99
330
47
100
AcDbEntity
  8
0
  6
Continuous
 62
     7
100
AcDbLine
 10
301.5898550791766
 20
1000.192923227432
 30
0.0
 11
301.5962087181864
 21
992.7057044281064
 31
0.0
  0
LINE
  5
9A
330
47
100
AcDbEntity
  8
0
  6
Continuous
 62
     7
100
AcDbLine
 10
321.5962151586049
 20
992.7057044281064
 30
0.0
 11
321.5898751212766
 21
1000.177500525632
 31
0.0
  0
ARC
  5
BD
330
47
100
AcDbEntity
  8
0
  6
Continuous
 62
     7
100
AcDbCircle
 10
304.8617270053766
 20
994.2517354962064
 30
0.0
 40
3.441522850670562
100
AcDbArc
 50
216.517465528601
 51
270.1508293658494
  0
ARC
  5
BE
330
47
100
AcDbEntity
  8
0
  6
Continuous
 62
     7
100
AcDbCircle
 10
311.5163247897766
 20
1027.080215400506
 30
0.0
 40
36.8737767441049
100
AcDbArc
 50
259.6171948467999
 51
281.5349533945003
  0
ARC
  5
BF
330
47
100
AcDbEntity
  8
0
  6
Continuous
 62
     7
100
AcDbCircle
 10
303.3469757418767
 20
991.7493687345064
 30
0.0
 40
1.331088391538423
100
AcDbArc
 50
108.1147672107929
 51
160.0380933991071
  0
ARC
  5
C0
330
47
100
AcDbEntity
  8
0
  6
Continuous
 62
     7
100
AcDbCircle
 10
311.6438705518766
 20
963.8386521165064
 30
0.0
 40
30.44842194797033
100
AcDbArc
 50
73.7490801553003
 51
106.6235617618005
  0
SPLINE
  5
C1
330
47
100
AcDbEntity
  8
0
  6
Continuous
 62
     7
100
AcDbSpline
210
0.0
220
0.0
230
1.0
 70
     8
 71
     3
 72
    50
 73
    46
 74
    44
 42
0.000000001
 43
0.0000000001
 44
0.00000001
 40
0.0
 40
0.0
 40
0.0
 40
0.0
 40
0.0021653604016533
 40
0.0043298644522598
 40
0.1140513680080219
 40
0.2197128298850247
 40
0.3217739577218598
 40
0.4206861672944999
 40
0.5168921975527268
 40
0.6108260745895318
 40
0.7029134850850866
 40
0.7935725921310971
 40
0.9143511734055103
 40
1.033008284262915
 40
1.149285223787594
 40
1.262931956191794
 40
1.373709298914223
 40
1.48139162338555
 40
1.588394805414959
 40
1.69220523312633
 40
1.793108297975507
 40
1.891397033837245
 40
1.987371703684166
 40
2.081339100712126
 40
2.179449497365352
 40
2.275715086331607
 40
2.370287441348524
 40
2.463412254935505
 40
2.555443390542623
 40
2.628533636107516
 40
2.701850044912399
 40
2.776005862514088
 40
2.851592681441297
 40
2.929174010265077
 40
2.969790920636339
 40
3.010761051263405
 40
3.051807541993803
 40
3.092700100353425
 40
3.13327000335693
 40
3.173428330758652
 40
3.213187340955279
 40
3.252683668933512
 40
3.292199992777438
 40
3.296905741096458
 40
3.301614998464454
 40
3.301614998464454
 40
3.301614998464454
 40
3.301614998464454
 10
319.0371935187355
 20
990.9619724078344
 30
0.0
 10
319.0378982240863
 20
990.9621285058706
 30
0.0
 10
319.0393073560626
 20
990.962440640348
 30
0.0
 10
319.0764232932063
 20
990.970669143726
 30
0.0
 10
319.1470746447885
 20
990.9870290514734
 30
0.0
 10
319.2497125415281
 20
991.0127847645875
 30
0.0
 10
319.3484033394747
 20
991.0393999060166
 30
0.0
 10
319.4436122685778
 20
991.0667662119909
 30
0.0
 10
319.5358054008909
 20
991.0947753483204
 30
0.0
 10
319.6254489437461
 20
991.1233188208424
 30
0.0
 10
319.7130096422801
 20
991.1522877960574
 30
0.0
 10
319.8087780010509
 20
991.1849216927291
 30
0.0
 10
319.9126653448629
 20
991.2211806802255
 30
0.0
 10
320.0242039232351
 20
991.2614151169455
 30
0.0
 10
320.1330060306145
 20
991.3022058143679
 30
0.0
 10
320.2387481019376
 20
991.3436447414949
 30
0.0
 10
320.3411065226044
 20
991.3858246104344
 30
0.0
 10
320.4405610505472
 20
991.4291865481482
 30
0.0
 10
320.5368473732312
 20
991.4739349819747
 30
0.0
 10
320.6299148705584
 20
991.5201669082937
 30
0.0
 10
320.7191017738572
 20
991.5675971097362
 30
0.0
 10
320.8045888512964
 20
991.6163335385324
 30
0.0
 10
320.8865576038634
 20
991.6664836245296
 30
0.0
 10
320.9668131952913
 20
991.7192239974196
 30
0.0
 10
321.0452868298286
 20
991.7747619660033
 30
0.0
 10
321.1214944463154
 20
991.8337175876594
 30
0.0
 10
321.1934109413947
 20
991.8953300096393
 30
0.0
 10
321.2606568857389
 20
991.9600049447984
 30
0.0
 10
321.318733993455
 20
992.023641254525
 30
0.0
 10
321.3683987922437
 20
992.0857481841142
 30
0.0
 10
321.4109709465346
 20
992.1457374807223
 30
0.0
 10
321.4505933562215
 20
992.2086964277973
 30
0.0
 10
321.4875495148714
 20
992.2748848257348
 30
0.0
 10
321.5162726480908
 20
992.3327692579848
 30
0.0
 10
321.5382728097754
 20
992.3810542472792
 30
0.0
 10
321.5540644710997
 20
992.41876813514
 30
0.0
 10
321.5683726950183
 20
992.457172466904
 30
0.0
 10
321.5807212993879
 20
992.4961182711479
 30
0.0
 10
321.590631339478
 20
992.5354589031833
 30
0.0
 10
321.5976197527681
 20
992.5750498742641
 30
0.0
 10
321.6011958852374
 20
992.6147501750847
 30
0.0
 10
321.6008618971906
 20
992.6544076678547
 30
0.0
 10
321.5975130879028
 20
992.6821881314954
 30
0.0
 10
321.5944600294107
 20
992.698210066255
 30
0.0
 10
321.5938503982748
 20
992.7012886429949
 30
0.0
 10
321.5935454635406
 20
992.7028285039835
 30
0.0
 11
319.0371935187355
 21
990.9619724078344
 31
0.0
 11
319.0393076108318
 21
990.9624407634375
 31
0.0
 11
319.0414207919021
 21
990.9629093183447
 31
0.0
 11
319.1483128636929
 21
990.987666003755
 31
0.0
 11
319.2507973565918
 21
991.0133812374993
 31
0.0
 11
319.3493403134837
 21
991.0399473712512
 31
0.0
 11
319.4444077772532
 21
991.067256756683
 31
0.0
 11
319.536465790785
 21
991.0952017454679
 31
0.0
 11
319.625980396964
 21
991.1236746892788
 31
0.0
 11
319.7134176386749
 21
991.1525679397886
 31
0.0
 11
319.7992435588022
 21
991.18177384867
 31
0.0
 11
319.9132625751345
 21
991.2216126436425
 31
0.0
 11
320.0248642550548
 21
991.2619186601988
 31
0.0
 11
320.1337233345601
 21
991.3027846295407
 31
0.0
 11
320.239514549647
 21
991.3443032828692
 31
0.0
 11
320.3419126363125
 21
991.3865673513852
 31
0.0
 11
320.4405923305532
 21
991.4296695662908
 31
0.0
 11
320.5376088418719
 21
991.4748079920362
 31
0.0
 11
320.6305607271528
 21
991.5210308425399
 31
0.0
 11
320.7196299793861
 21
991.568444941581
 31
0.0
 11
320.8049985915621
 21
991.6171571129374
 31
0.0
 11
320.8868485566713
 21
991.6672741803869
 31
0.0
 11
320.965361867704
 21
991.7189029677085
 31
0.0
 11
321.0453723174422
 21
991.7756830508939
 31
0.0
 11
321.1214320557767
 21
991.8346913537459
 31
0.0
 11
321.1931646057531
 21
991.8963222842106
 31
0.0
 11
321.2601934904168
 21
991.9609702502347
 31
0.0
 11
321.3221422328138
 21
992.029029659765
 31
0.0
 11
321.3677942672559
 21
992.0861092160443
 31
0.0
 11
321.4102481637408
 21
992.1458834786848
 31
0.0
 11
321.4497860432693
 21
992.2086197630081
 31
0.0
 11
321.4866900268421
 21
992.2745853843338
 31
0.0
 11
321.5212422354602
 21
992.3440476579835
 31
0.0
 11
321.5380329289284
 21
992.3810315195587
 31
0.0
 11
321.553801706146
 21
992.4188455019109
 31
0.0
 11
321.5680695240886
 21
992.4573324316588
 31
0.0
 11
321.5803573397316
 21
992.496335135421
 31
0.0
 11
321.5901861100504
 21
992.5356964398165
 31
0.0
 11
321.5970767920206
 21
992.5752591714643
 31
0.0
 11
321.6005503426175
 21
992.6148661569825
 31
0.0
 11
321.6001277188167
 21
992.6543602229907
 31
0.0
 11
321.5953298775937
 21
992.6935841961075
 31
0.0
 11
321.5944547141456
 21
992.6982078502011
 31
0.0
 11
321.5935454635406
 21
992.7028285039835
 31
0.0
  0
SPLINE
  5
C2
330
47
100
AcDbEntity
  8
0
  6
Continuous
 62
     7
100
AcDbSpline
210
0.0
220
0.0
230
1.0
 70
     8
 71
     3
 72
    23
 73
    19
 74
    17
 42
0.000000001
 43
0.0000000001
 44
0.00000001
 40
0.0
 40
0.0
 40
0.0
 40
0.0
 40
0.1472846370992386
 40
0.2915794409538014
 40
0.4726044561108526
 40
0.6521942516858412
 40
0.8454144876106994
 40
1.040358229846857
 40
1.287291488897509
 40
1.549721657583326
 40
1.871641819454061
 40
2.222986772492682
 40
2.598095111805129
 40
2.999311105439528
 40
3.413744302119007
 40
3.869907963724015
 40
3.896468772731475
 40
3.923128692562242
 40
3.923128692562242
 40
3.923128692562242
 40
3.923128692562242
 10
301.5954448773047
 20
992.6937928123644
 30
0.0
 10
301.6001803580056
 20
992.6449330889329
 30
0.0
 10
301.6095552030192
 20
992.5482054809504
 30
0.0
 10
301.6387652147275
 20
992.3927710686961
 30
0.0
 10
301.7054862761938
 20
992.2365914202132
 30
0.0
 10
301.8079897663117
 20
992.082340894758
 30
0.0
 10
301.9327402411849
 20
991.9393184468952
 30
0.0
 10
302.0909212804127
 20
991.7979654638923
 30
0.0
 10
302.2825162061492
 20
991.6614863930091
 30
0.0
 10
302.5226424550083
 20
991.5226312740804
 30
0.0
 10
302.8038707841
 20
991.3871077123019
 30
0.0
 10
303.1285405926242
 20
991.2572111599408
 30
0.0
 10
303.4849241159215
 20
991.1372815376744
 30
0.0
 10
303.865402231089
 20
991.0241012506249
 30
0.0
 10
304.2744894472949
 20
990.912595734992
 30
0.0
 10
304.5668459796264
 20
990.8486942660275
 30
0.0
 10
304.733779152734
 20
990.8176566683669
 30
0.0
 10
304.7512257972157
 20
990.8144424005096
 30
0.0
 10
304.759965364494
 20
990.8128322733814
 30
0.0
 11
301.5954448773047
 21
992.6937928123644
 31
0.0
 11
301.6118575451235
 21
992.5474254994773
 31
0.0
 11
301.6409967957517
 21
992.4061035437753
 31
0.0
 11
301.7104862723496
 21
992.2389471194404
 31
0.0
 11
301.8084644271513
 21
992.0884387268001
 31
0.0
 11
301.9351834558538
 21
991.9425745872687
 31
0.0
 11
302.0799477516195
 21
991.8120128734286
 31
0.0
 11
302.2803151248885
 21
991.6676904916064
 31
0.0
 11
302.506836217501
 21
991.5351846887048
 31
0.0
 11
302.7964329075842
 21
991.3945918459349
 31
0.0
 11
303.1222597627423
 21
991.2631379140789
 31
0.0
 11
303.4773058415351
 21
991.1421067287428
 31
0.0
 11
303.8615995018265
 21
991.0268129481248
 31
0.0
 11
304.2618977208522
 21
990.919499341211
 31
0.0
 11
304.7076362116713
 21
990.8225329293183
 31
0.0
 11
304.7337480238422
 21
990.8176698184654
 31
0.0
 11
304.759965364494
 21
990.8128322733814
 31
0.0
  0
ARC
  5
C3
330
47
100
AcDbEntity
  8
1
  6
Continuous
 62
     7
100
AcDbCircle
 10
603.5303525495633
 20
994.6680411231362
 30
0.0
 40
0.5000000000003699
100
AcDbArc
 50
167.9999529293961
 51
257.9999529294262
  0
ARC
  5
C4
330
47
100
AcDbEntity
  8
1
  6
Continuous
 62
     7
100
AcDbCircle
 10
622.1151537181677
 20
990.7177037295121
 30
0.0
 40
0.5000000000000293
100
AcDbArc
 50
257.9999529294544
 51
347.999952929447
  0
LWPOLYLINE
  5
C5
330
47
100
AcDbEntity
  8
0
  6
Continuous
 62
     7
100
AcDbPolyline
 90
       11
 70
     0
 43
0.0
 10
318.8898154465866
 20
990.9511821044424
 10
318.9628069220765
 20
990.9696520938064
 10
319.7109402088767
 20
991.1904370113065
 10
320.3079049406766
 20
991.4302264972065
 10
320.7425811259767
 20
991.6845576538065
 10
321.0068709148767
 20
991.9486900492064
 10
321.0958513362765
 20
992.2177044375064
 10
321.0078646360765
 20
992.4865884407064
 10
320.7445499418767
 20
992.7503352685064
 10
320.3108125297766
 20
993.0040294005065
 10
320.1646917431696
 20
993.0705183817255
  0
LWPOLYLINE
  5
C6
330
47
100
AcDbEntity
  8
0
  6
Continuous
 62
     7
100
AcDbPolyline
 90
       25
 70
     0
 43
0.0
 10
301.5954439459766
 20
992.6925038619064
 10
301.6851815326767
 20
992.9696859492065
 10
301.9517670316767
 20
993.2420530988064
 10
302.3904441787767
 20
993.5047456695064
 10
302.9933852074765
 20
993.7530716581065
 10
303.7498296169766
 20
993.9826035572064
 10
304.6462792834767
 20
994.1892435475064
 10
305.6667368790767
 20
994.3693073167065
 10
306.7929922534767
 20
994.5195762141065
 10
308.0049474654767
 20
994.6373736186064
 10
309.2809751095766
 20
994.7205928786065
 10
310.5983044359765
 20
994.7677531911064
 10
311.9334277278766
 20
994.7780126406064
 10
313.2625195129766
 20
994.7511849625065
 10
314.5618623519766
 20
994.6877507193065
 10
315.8082692815766
 20
994.5888423993064
 10
316.9794982230766
 20
994.4562239273065
 10
318.0546482024766
 20
994.2922627254064
 10
319.0145335091767
 20
994.0998850091064
 10
319.8420257238767
 20
993.8825217707064
 10
320.5223568646767
 20
993.6440547629064
 10
321.0433871416766
 20
993.3887364043064
 10
321.3958182303767
 20
993.1211264504065
 10
321.5733609093767
 20
992.8459969981064
 10
321.5954304604767
 20
992.7057044281064
  0
ENDBLK
  5
49
330
47
100
AcDbEntity
  8
0
100
AcDbBlockEnd
  0
BLOCK
  5
4B
330
4A
100
AcDbEntity
  8
0
100
AcDbBlockBegin
  2
37-399-M1
 70
     0
 10
294.0917193173386
 20
793.2
 30
0.0
  3
37-399-M1
  1

  0
LINE
  5
C7
330
4A
100
AcDbEntity
  8
1
  6
Continuous
 62
     7
100
AcDbLine
 10
294.0917193173386
 20
793.2
 30
0.0
 11
294.0917193173386
 21
893.2
 31
0.0
  0
LINE
  5
C8
330
4A
100
AcDbEntity
  8
1
  6
Continuous
 62
     7
100
AcDbLine
 10
329.0917194663387
 20
793.2
 30
0.0
 11
294.0917193173386
 21
793.2
 31
0.0
  0
LINE
  5
C9
330
4A
100
AcDbEntity
  8
1
  6
Continuous
 62
     7
100
AcDbLine
 10
329.0917194663387
 20
893.2
 30
0.0
 11
329.0917194663387
 21
793.2
 31
0.0
  0
LINE
  5
CA
330
4A
100
AcDbEntity
  8
1
  6
Continuous
 62
     7
100
AcDbLine
 10
294.0917193173386
 20
893.2
 30
0.0
 11
329.0917194663387
 21
893.2
 31
0.0
  0
LINE
  5
CB
330
4A
100
AcDbEntity
  8
1
  6
Continuous
 62
     7
100
AcDbLine
 10
714.0913514628681
 20
793.2
 30
0.0
 11
714.0913514628681
 21
893.2000040532001
 31
0.0
  0
LINE
  5
CC
330
4A
100
AcDbEntity
  8
1
  6
Continuous
 62
     7
100
AcDbLine
 10
749.0913516118683
 20
793.2
 30
0.0
 11
714.0913514628681
 21
793.2
 31
0.0
  0
LINE
  5
CD
330
4A
100
AcDbEntity
  8
1
  6
Continuous
 62
     7
100
AcDbLine
 10
749.0913516118683
 20
893.2000040532001
 30
0.0
 11
749.0913516118683
 21
793.2
 31
0.0
  0
LINE
  5
CE
330
4A
100
AcDbEntity
  8
1
  6
Continuous
 62
     7
100
AcDbLine
 10
714.0913514628681
 20
893.2000040532001
 30
0.0
 11
749.0913516118683
 21
893.2000040532001
 31
0.0
  0
ENDBLK
  5
4C
330
4A
100
AcDbEntity
  8
0
100
AcDbBlockEnd
  0
BLOCK
  5
4E
330
4D
100
AcDbEntity
  8
0
100
AcDbBlockBegin
  2
92-64A
 70
     0
 10
660.6791750130905
 20
638.4741394466233
 30
0.0
  3
92-64A
  1

  0
LINE
  5
CF
330
4D
100
AcDbEntity
  8
0
  6
Continuous
 62
     7
100
AcDbLine
 10
286.5917193918019
 20
773.2000000000006
 30
0.0
 11
286.5917193918019
 21
771.7000000000004
 31
0.0
  0
LINE
  5
D0
330
4D
100
AcDbEntity
  8
0
  6
Continuous
 62
     7
100
AcDbLine
 10
336.5917193918019
 20
771.7000000000004
 30
0.0
 11
336.5917193918019
 21
773.2000000000006
 31
0.0
  0
LINE
  5
D1
330
4D
100
AcDbEntity
  8
1
  6
Continuous
 62
     7
100
AcDbLine
 10
286.5917193918019
 20
773.2000000000006
 30
0.0
 11
336.5917193918019
 21
773.2000000000006
 31
0.0
  0
LINE
  5
D2
330
4D
100
AcDbEntity
  8
1
  6
Continuous
 62
     7
100
AcDbLine
 10
286.6029719241913
 20
771.7000000000004
 30
0.0
 11
336.5917193918019
 21
771.7000000000004
 31
0.0
  0
LINE
  5
D3
330
4D
100
AcDbEntity
  8
1
  6
Continuous
 62
     7
100
AcDbLine
 10
706.6029719241914
 20
771.7000000000004
 30
0.0
 11
756.591719391802
 21
771.7000000000004
 31
0.0
  0
LINE
  5
D4
330
4D
100
AcDbEntity
  8
1
  6
Continuous
 62
     7
100
AcDbLine
 10
706.591719391802
 20
773.2000000000006
 30
0.0
 11
756.591719391802
 21
773.2000000000006
 31
0.0
  0
LINE
  5
D5
330
4D
100
AcDbEntity
  8
0
  6
Continuous
 62
     7
100
AcDbLine
 10
756.591719391802
 20
771.7000000000004
 30
0.0
 11
756.591719391802
 21
773.2000000000006
 31
0.0
  0
LINE
  5
D6
330
4D
100
AcDbEntity
  8
0
  6
Continuous
 62
     7
100
AcDbLine
 10
706.591719391802
 20
773.2000000000006
 30
0.0
 11
706.591719391802
 21
771.7000000000004
 31
0.0
  0
ENDBLK
  5
4F
330
4D
100
AcDbEntity
  8
0
100
AcDbBlockEnd
  0
BLOCK
  5
51
330
50
100
AcDbEntity
  8
0
100
AcDbBlockBegin
  2
98-126
 70
     0
 10
1356.330860123493
 20
1402.647727390118
 30
0.0
  3
98-126
  1

  0
LINE
  5
D7
330
50
100
AcDbEntity
  8
1
  6
Continuous
 62
     7
100
AcDbLine
 10
331.8417193918019
 20
788.6999999999998
 30
0.0
 11
291.3417193918019
 21
788.7000000000002
 31
0.0
  0
LINE
  5
D8
330
50
100
AcDbEntity
  8
1
  6
Continuous
 62
     7
100
AcDbLine
 10
291.3417193918019
 20
788.7000000000002
 30
0.0
 11
291.3417193918019
 21
791.2
 31
0.0
  0
LINE
  5
D9
330
50
100
AcDbEntity
  8
1
  6
Continuous
 62
     7
100
AcDbLine
 10
331.8417193918019
 20
791.2
 30
0.0
 11
331.8417193918019
 21
788.6999999999998
 31
0.0
  0
LINE
  5
DA
330
50
100
AcDbEntity
  8
1
  6
Continuous
 62
     7
100
AcDbLine
 10
751.841719391802
 20
791.2
 30
0.0
 11
751.841719391802
 21
788.6999999999998
 31
0.0
  0
LINE
  5
DB
330
50
100
AcDbEntity
  8
1
  6
Continuous
 62
     7
100
AcDbLine
 10
711.341719391802
 20
788.7000000000002
 30
0.0
 11
711.341719391802
 21
791.2
 31
0.0
  0
LINE
  5
DC
330
50
100
AcDbEntity
  8
1
  6
Continuous
 62
     7
100
AcDbLine
 10
751.841719391802
 20
788.6999999999998
 30
0.0
 11
711.341719391802
 21
788.7000000000002
 31
0.0
  0
ENDBLK
  5
52
330
50
100
AcDbEntity
  8
0
100
AcDbBlockEnd
  0
BLOCK
  5
54
330
53
100
AcDbEntity
  8
0
100
AcDbBlockBegin
  2
35-18
 70
     0
 10
1191.034849246653
 20
576.3708632020213
 30
0.0
  3
35-18
  1

  0
LINE
  5
DD
330
53
100
AcDbEntity
  8
1
  6
Continuous
 62
     7
100
AcDbLine
 10
323.5622821402659
 20
387.7785420656548
 30
0.0
 11
316.4417193917883
 21
387.7785420656548
 31
0.0
  0
LINE
  5
DE
330
53
100
AcDbEntity
  8
1
  6
Continuous
 62
     7
100
AcDbLine
 10
320.0917193917886
 20
401.7785420656548
 30
0.0
 11
311.5917193917886
 21
401.7785420656548
 31
0.0
  0
LINE
  5
DF
330
53
100
AcDbEntity
  8
1
  6
Continuous
 62
     2
100
AcDbLine
 10
319.5507193917885
 20
401.7785420656548
 30
0.0
 11
319.5507193917885
 21
404.7352086140683
 31
0.0
  0
LINE
  5
E0
330
53
100
AcDbEntity
  8
1
  6
Continuous
 62
     7
100
AcDbLine
 10
311.5917193917886
 20
399.7785420656548
 30
0.0
 11
323.5622821402659
 21
399.7785420656548
 31
0.0
  0
LINE
  5
E1
330
53
100
AcDbEntity
  8
1
  6
Continuous
 62
     7
100
AcDbLine
 10
320.0917193917886
 20
404.7352086140683
 30
0.0
 11
320.0917193917886
 21
399.7785420656548
 31
0.0
  0
LINE
  5
E2
330
53
100
AcDbEntity
  8
1
  6
Continuous
 62
     2
100
AcDbLine
 10
320.0917193917886
 20
400.8415025787602
 30
0.0
 11
319.5507193917885
 21
401.7785420656548
 31
0.0
  0
LINE
  5
E3
330
53
100
AcDbEntity
  8
1
  6
Continuous
 62
     7
100
AcDbLine
 10
316.4417193917883
 20
387.7785420656548
 30
0.0
 11
311.5917193917886
 21
387.7785420656548
 31
0.0
  0
LINE
  5
E4
330
53
100
AcDbEntity
  8
1
  6
Continuous
 62
     7
100
AcDbLine
 10
311.5917193917886
 20
387.7785420656548
 30
0.0
 11
306.7417193917883
 21
387.7785420656548
 31
0.0
  0
LINE
  5
E5
330
53
100
AcDbEntity
  8
1
  6
Continuous
 62
     2
100
AcDbLine
 10
303.6327193917881
 20
401.7785420656548
 30
0.0
 11
303.0917193917884
 21
400.8415025787602
 31
0.0
  0
LINE
  5
E6
330
53
100
AcDbEntity
  8
1
  6
Continuous
 62
     7
100
AcDbLine
 10
303.0917193917884
 20
399.7785420656548
 30
0.0
 11
303.0917193917884
 21
404.7352086140683
 31
0.0
  0
LINE
  5
E7
330
53
100
AcDbEntity
  8
1
  6
Continuous
 62
     7
100
AcDbLine
 10
299.6211566433111
 20
399.7785420656548
 30
0.0
 11
311.5917193917886
 21
399.7785420656548
 31
0.0
  0
LINE
  5
E8
330
53
100
AcDbEntity
  8
1
  6
Continuous
 62
     2
100
AcDbLine
 10
303.6327193917881
 20
404.7352086140683
 30
0.0
 11
303.6327193917881
 21
401.7785420656548
 31
0.0
  0
LINE
  5
E9
330
53
100
AcDbEntity
  8
1
  6
Continuous
 62
     7
100
AcDbLine
 10
311.5917193917886
 20
401.7785420656548
 30
0.0
 11
303.0917193917884
 21
401.7785420656548
 31
0.0
  0
LINE
  5
EA
330
53
100
AcDbEntity
  8
1
  6
Continuous
 62
     7
100
AcDbLine
 10
306.7417193917883
 20
387.7785420656548
 30
0.0
 11
299.6211566433111
 21
387.7785420656548
 31
0.0
  0
LINE
  5
EB
330
53
100
AcDbEntity
  8
1
  6
Continuous
 62
     7
100
AcDbLine
 10
725.4917193917868
 20
387.7785420656548
 30
0.0
 11
713.4917193917895
 21
387.7785420656548
 31
0.0
  0
LINE
  5
EC
330
53
100
AcDbEntity
  8
1
  6
Continuous
 62
     7
100
AcDbLine
 10
725.488494591727
 20
401.7785420656548
 30
0.0
 11
716.9884945917267
 21
401.7785420656548
 31
0.0
  0
LINE
  5
ED
330
53
100
AcDbEntity
  8
1
  6
Continuous
 62
     2
100
AcDbLine
 10
717.5294945917267
 20
404.7352086140683
 30
0.0
 11
717.5294945917267
 21
401.7785420656548
 31
0.0
  0
LINE
  5
EE
330
53
100
AcDbEntity
  8
1
  6
Continuous
 62
     7
100
AcDbLine
 10
713.4917193917895
 20
399.7785420656548
 30
0.0
 11
725.488494591727
 21
399.7785420656548
 31
0.0
  0
LINE
  5
EF
330
53
100
AcDbEntity
  8
1
  6
Continuous
 62
     7
100
AcDbLine
 10
716.9884945917267
 20
399.7785420656548
 30
0.0
 11
716.9884945917267
 21
404.7352086140683
 31
0.0
  0
LINE
  5
F0
330
53
100
AcDbEntity
  8
1
  6
Continuous
 62
     2
100
AcDbLine
 10
717.5294945917267
 20
401.7785420656548
 30
0.0
 11
716.9884945917267
 21
400.8415025787602
 31
0.0
  0
LINE
  5
F1
330
53
100
AcDbEntity
  8
1
  6
Continuous
 62
     2
100
AcDbLine
 10
733.988494591727
 20
400.8415025787602
 30
0.0
 11
733.4474945917268
 21
401.7785420656548
 31
0.0
  0
LINE
  5
F2
330
53
100
AcDbEntity
  8
1
  6
Continuous
 62
     7
100
AcDbLine
 10
733.988494591727
 20
404.7352086140683
 30
0.0
 11
733.988494591727
 21
399.7785420656548
 31
0.0
  0
LINE
  5
F3
330
53
100
AcDbEntity
  8
1
  6
Continuous
 62
     7
100
AcDbLine
 10
725.488494591727
 20
399.7785420656548
 30
0.0
 11
737.4917193917852
 21
399.7785420656548
 31
0.0
  0
LINE
  5
F4
330
53
100
AcDbEntity
  8
1
  6
Continuous
 62
     2
100
AcDbLine
 10
733.4474945917268
 20
401.7785420656548
 30
0.0
 11
733.4474945917268
 21
404.7352086140683
 31
0.0
  0
LINE
  5
F5
330
53
100
AcDbEntity
  8
1
  6
Continuous
 62
     7
100
AcDbLine
 10
733.988494591727
 20
401.7785420656548
 30
0.0
 11
725.488494591727
 21
401.7785420656548
 31
0.0
  0
LINE
  5
F6
330
53
100
AcDbEntity
  8
1
  6
Continuous
 62
     7
100
AcDbLine
 10
737.4917193917852
 20
387.7785420656548
 30
0.0
 11
725.4917193917868
 21
387.7785420656548
 31
0.0
  0
LINE
  5
F7
330
53
100
AcDbEntity
  8
1
  6
Continuous
 62
     7
100
AcDbLine
 10
713.4917193917895
 20
399.7785420656548
 30
0.0
 11
713.4917193917896
 21
395.6999999999999
 31
0.0
  0
LINE
  5
F8
330
53
100
AcDbEntity
  8
1
  6
Continuous
 62
     7
100
AcDbLine
 10
737.4917193917852
 20
399.7785420656548
 30
0.0
 11
737.4917193917852
 21
387.7785420656548
 31
0.0
  0
LINE
  5
F9
330
53
100
AcDbEntity
  8
1
  6
Continuous
 62
     7
100
AcDbLine
 10
713.4917193917896
 20
395.6999999999999
 30
0.0
 11
713.4917193917895
 21
387.7785420656548
 31
0.0
  0
ARC
  5
FA
330
53
100
AcDbEntity
  8
1
  6
Continuous
 62
     7
100
AcDbCircle
 10
311.574010920136
 20
392.1865655365147
 30
0.0
 40
4.325962428302649
100
AcDbArc
 50
270.2345428416979
 51
282.9894887311206
  0
ARC
  5
FB
330
53
100
AcDbEntity
  8
1
  6
Continuous
 62
     7
100
AcDbCircle
 10
311.5589174227681
 20
392.251997419755
 30
0.0
 40
4.39311259588319
100
AcDbArc
 50
282.989488731166
 51
291.0659229021124
  0
ARC
  5
FC
330
53
100
AcDbEntity
  8
1
  6
Continuous
 62
     7
100
AcDbCircle
 10
311.5022612999456
 20
392.3990856050752
 30
0.0
 40
4.550735089570117
100
AcDbArc
 50
291.0659229020266
 51
296.7062519136246
  0
ARC
  5
FD
330
53
100
AcDbEntity
  8
1
  6
Continuous
 62
     7
100
AcDbCircle
 10
311.4337970817761
 20
392.5351745552054
 30
0.0
 40
4.703075338746026
100
AcDbArc
 50
296.7062519137506
 51
303.3109308598104
  0
ARC
  5
FE
330
53
100
AcDbEntity
  8
1
  6
Continuous
 62
     7
100
AcDbCircle
 10
311.2849564717764
 20
392.761668551355
 30
0.0
 40
4.974097584096003
100
AcDbArc
 50
303.3109308597657
 51
308.6293150115455
  0
ARC
  5
FF
330
53
100
AcDbEntity
  8
1
  6
Continuous
 62
     7
100
AcDbCircle
 10
311.1943916955571
 20
392.8749981144539
 30
0.0
 40
5.119168492836661
100
AcDbArc
 50
308.6293150114769
 51
313.8250370141307
  0
ARC
  5
100
330
53
100
AcDbEntity
  8
1
  6
Continuous
 62
     7
100
AcDbCircle
 10
310.9827896525165
 20
393.0954617589852
 30
0.0
 40
5.424749322046358
100
AcDbArc
 50
313.8250370141889
 51
318.8440935973293
  0
ARC
  5
101
330
53
100
AcDbEntity
  8
1
  6
Continuous
 62
     7
100
AcDbCircle
 10
310.8569992402264
 20
393.2054120597042
 30
0.0
 40
5.59181905733785
100
AcDbArc
 50
318.8440935973833
 51
323.7415247076932
  0
ARC
  5
102
330
53
100
AcDbEntity
  8
1
  6
Continuous
 62
     7
100
AcDbCircle
 10
310.5982633258174
 20
393.3951839367058
 30
0.0
 40
5.912689184812065
100
AcDbArc
 50
323.7415247076063
 51
328.4767095436211
  0
ARC
  5
103
330
53
100
AcDbEntity
  8
1
  6
Continuous
 62
     7
100
AcDbCircle
 10
310.4679180052082
 20
393.4751325518958
 30
0.0
 40
6.06559988973067
100
AcDbArc
 50
328.4767095436039
 51
333.1178845086283
  0
ARC
  5
104
330
53
100
AcDbEntity
  8
1
  6
Continuous
 62
     7
100
AcDbCircle
 10
310.1902138394981
 20
393.6159109390958
 30
0.0
 40
6.376948822527305
100
AcDbArc
 50
333.1178845086109
 51
337.6147948227897
  0
ARC
  5
105
330
53
100
AcDbEntity
  8
1
  6
Continuous
 62
     7
100
AcDbCircle
 10
309.7320886310773
 20
393.7638035280453
 30
0.0
 40
6.858920039792824
100
AcDbArc
 50
343.8246760880567
 51
355.8168315728493
  0
ARC
  5
106
330
53
100
AcDbEntity
  8
1
  6
Continuous
 62
     7
100
AcDbCircle
 10
309.5665454841657
 20
393.7759113646355
 30
0.0
 40
7.024905380103468
100
AcDbArc
 50
355.8168315728337
 51
10.09801881296235
  0
ARC
  5
107
330
53
100
AcDbEntity
  8
1
  6
Continuous
 62
     7
100
AcDbCircle
 10
309.9306685833579
 20
393.840758577175
 30
0.0
 40
6.655052987461653
100
AcDbArc
 50
10.09801881294956
 51
17.13916899220748
  0
ARC
  5
108
330
53
100
AcDbEntity
  8
1
  6
Continuous
 62
     7
100
AcDbCircle
 10
309.9010584293466
 20
393.8316271415954
 30
0.0
 40
6.686039183359969
100
AcDbArc
 50
17.13916899221343
 51
22.30955063200109
  0
ARC
  5
109
330
53
100
AcDbEntity
  8
1
  6
Continuous
 62
     7
100
AcDbCircle
 10
310.3789565036969
 20
394.0277204926553
 30
0.0
 40
6.169474403497263
100
AcDbArc
 50
22.30955063197463
 51
26.95777003634388
  0
ARC
  5
10A
330
53
100
AcDbEntity
  8
1
  6
Continuous
 62
     7
100
AcDbCircle
 10
310.2894417528952
 20
393.9821935235451
 30
0.0
 40
6.269901469209029
100
AcDbArc
 50
26.9577700364075
 51
31.44763591124843
  0
ARC
  5
10B
330
53
100
AcDbEntity
  8
1
  6
Continuous
 62
     7
100
AcDbCircle
 10
310.7502883771159
 20
394.2640216792154
 30
0.0
 40
5.729710095359393
100
AcDbArc
 50
31.44763591121684
 51
36.33412983750458
  0
ARC
  5
10C
330
53
100
AcDbEntity
  8
1
  6
Continuous
 62
     7
100
AcDbCircle
 10
310.7178458514062
 20
394.2401605086455
 30
0.0
 40
5.769982578954787
100
AcDbArc
 50
36.33412983753996
 51
41.08025185767215
  0
ARC
  5
10D
330
53
100
AcDbEntity
  8
1
  6
Continuous
 62
     7
100
AcDbCircle
 10
311.0976683384178
 20
394.5712703126157
 30
0.0
 40
5.266098838472956
100
AcDbArc
 50
41.08025185761854
 51
46.25061753093968
  0
ARC
  5
10E
330
53
100
AcDbEntity
  8
1
  6
Continuous
 62
     7
100
AcDbCircle
 10
311.0931615488954
 20
394.5665623572843
 30
0.0
 40
5.272616199540249
100
AcDbArc
 50
46.25061753092191
 51
51.29503044336717
  0
ARC
  5
10F
330
53
100
AcDbEntity
  8
1
  6
Continuous
 62
     7
100
AcDbCircle
 10
311.365807949638
 20
394.9068202097845
 30
0.0
 40
4.836598463628652
100
AcDbArc
 50
51.29503044338512
 51
56.76472368529273
  0
ARC
  5
110
330
53
100
AcDbEntity
  8
1
  6
Continuous
 62
     7
100
AcDbCircle
 10
311.3667093314872
 20
394.9081958163845
 30
0.0
 40
4.834953841249697
100
AcDbArc
 50
56.76472368536524
 51
62.11842739235541
  0
ARC
  5
111
330
53
100
AcDbEntity
  8
1
  6
Continuous
 62
     7
100
AcDbCircle
 10
311.5246454566587
 20
395.2067173765555
 30
0.0
 40
4.497227707346772
100
AcDbArc
 50
62.11842739235791
 51
68.97709546416696
  0
ARC
  5
112
330
53
100
AcDbEntity
  8
1
  6
Continuous
 62
     7
100
AcDbCircle
 10
311.5410830188158
 20
395.2494875776339
 30
0.0
 40
4.451407585684363
100
AcDbArc
 50
68.97709546411242
 51
75.80904192828723
  0
ARC
  5
113
330
53
100
AcDbEntity
  8
1
  6
Continuous
 62
     7
100
AcDbCircle
 10
311.5914805644753
 20
395.4487889894046
 30
0.0
 40
4.245832866068381
100
AcDbArc
 50
75.80904192829341
 51
89.99677712299962
  0
ARC
  5
114
330
53
100
AcDbEntity
  8
1
  6
Continuous
 62
     7
100
AcDbCircle
 10
310.0669969353659
 20
393.666660064044
 30
0.0
 40
6.510207515101423
100
AcDbArc
 50
337.614794822862
 51
343.8246760880648
  0
ARC
  5
115
330
53
100
AcDbEntity
  8
1
  6
Continuous
 62
     7
100
AcDbCircle
 10
306.5917193917886
 20
393.7785420656548
 30
0.0
 40
18.00000000000013
100
AcDbArc
 50
340.5287793655095
 51
19.47122063449055
  0
ARC
  5
116
330
53
100
AcDbEntity
  8
1
  6
Continuous
 62
     7
100
AcDbCircle
 10
316.5917193917884
 20
393.7785420656548
 30
0.0
 40
18.00000000000013
100
AcDbArc
 50
160.5287793655095
 51
199.4712206344905
  0
ARC
  5
117
330
53
100
AcDbEntity
  8
1
  6
Continuous
 62
     7
100
AcDbCircle
 10
313.1164418482114
 20
393.666660064044
 30
0.0
 40
6.510207515097956
100
AcDbArc
 50
196.1753239119331
 51
202.3852051771374
  0
ARC
  5
118
330
53
100
AcDbEntity
  8
1
  6
Continuous
 62
     7
100
AcDbCircle
 10
311.5919582191017
 20
395.4487889894046
 30
0.0
 40
4.245832866066316
100
AcDbArc
 50
90.00322287699731
 51
104.1909580717051
  0
ARC
  5
119
330
53
100
AcDbEntity
  8
1
  6
Continuous
 62
     7
100
AcDbCircle
 10
311.6423557647614
 20
395.2494875776339
 30
0.0
 40
4.451407585677358
100
AcDbArc
 50
104.1909580717142
 51
111.0229045358903
  0
ARC
  5
11A
330
53
100
AcDbEntity
  8
1
  6
Continuous
 62
     7
100
AcDbCircle
 10
311.6587933269185
 20
395.2067173765555
 30
0.0
 40
4.497227707355532
100
AcDbArc
 50
111.0229045358351
 51
117.8815726076427
  0
ARC
  5
11B
330
53
100
AcDbEntity
  8
1
  6
Continuous
 62
     7
100
AcDbCircle
 10
311.81672945209
 20
394.9081958163845
 30
0.0
 40
4.834953841249887
100
AcDbArc
 50
117.8815726076452
 51
123.2352763146365
  0
ARC
  5
11C
330
53
100
AcDbEntity
  8
1
  6
Continuous
 62
     7
100
AcDbCircle
 10
311.817630833939
 20
394.9068202097845
 30
0.0
 40
4.836598463624587
100
AcDbArc
 50
123.2352763147073
 51
128.7049695566138
  0
ARC
  5
11D
330
53
100
AcDbEntity
  8
1
  6
Continuous
 62
     7
100
AcDbCircle
 10
312.0902772346816
 20
394.5665623572843
 30
0.0
 40
5.272616199536121
100
AcDbArc
 50
128.7049695566319
 51
133.7493824690767
  0
ARC
  5
11E
330
53
100
AcDbEntity
  8
1
  6
Continuous
 62
     7
100
AcDbCircle
 10
312.0857704451593
 20
394.5712703126157
 30
0.0
 40
5.266098838479034
100
AcDbArc
 50
133.7493824690599
 51
138.9197481423822
  0
ARC
  5
11F
330
53
100
AcDbEntity
  8
1
  6
Continuous
 62
     7
100
AcDbCircle
 10
312.4655929321708
 20
394.2401605086455
 30
0.0
 40
5.769982578957677
100
AcDbArc
 50
138.9197481423279
 51
143.6658701624587
  0
ARC
  5
120
330
53
100
AcDbEntity
  8
1
  6
Continuous
 62
     7
100
AcDbCircle
 10
312.4331504064611
 20
394.2640216792154
 30
0.0
 40
5.729710095353631
100
AcDbArc
 50
143.6658701624941
 51
148.5523640887823
  0
ARC
  5
121
330
53
100
AcDbEntity
  8
1
  6
Continuous
 62
     7
100
AcDbCircle
 10
312.893997030682
 20
393.9821935235451
 30
0.0
 40
6.26990146921142
100
AcDbArc
 50
148.5523640887516
 51
153.0422299635927
  0
ARC
  5
122
330
53
100
AcDbEntity
  8
1
  6
Continuous
 62
     7
100
AcDbCircle
 10
312.8044822798803
 20
394.0277204926553
 30
0.0
 40
6.169474403497435
100
AcDbArc
 50
153.0422299636564
 51
157.6904493680254
  0
ARC
  5
123
330
53
100
AcDbEntity
  8
1
  6
Continuous
 62
     7
100
AcDbCircle
 10
313.2823803542304
 20
393.8316271415954
 30
0.0
 40
6.686039183362708
100
AcDbArc
 50
157.6904493679984
 51
162.8608310077859
  0
ARC
  5
124
330
53
100
AcDbEntity
  8
1
  6
Continuous
 62
     7
100
AcDbCircle
 10
313.2527702002191
 20
393.840758577175
 30
0.0
 40
6.655052987460308
100
AcDbArc
 50
162.8608310077918
 51
169.9019811870511
  0
ARC
  5
125
330
53
100
AcDbEntity
  8
1
  6
Continuous
 62
     7
100
AcDbCircle
 10
313.6168932994113
 20
393.7759113646355
 30
0.0
 40
7.024905380099238
100
AcDbArc
 50
169.9019811870382
 51
184.1831684271665
  0
ARC
  5
126
330
53
100
AcDbEntity
  8
1
  6
Continuous
 62
     7
100
AcDbCircle
 10
313.4513501524997
 20
393.7638035280453
 30
0.0
 40
6.858920039797753
100
AcDbArc
 50
184.1831684271509
 51
196.1753239119422
  0
ARC
  5
127
330
53
100
AcDbEntity
  8
1
  6
Continuous
 62
     7
100
AcDbCircle
 10
312.9932249440791
 20
393.6159109390958
 30
0.0
 40
6.376948822525957
100
AcDbArc
 50
202.3852051772103
 51
206.8821154913888
  0
ARC
  5
128
330
53
100
AcDbEntity
  8
1
  6
Continuous
 62
     7
100
AcDbCircle
 10
312.7155207783688
 20
393.4751325518958
 30
0.0
 40
6.065599889727698
100
AcDbArc
 50
206.8821154913722
 51
211.5232904563969
  0
ARC
  5
129
330
53
100
AcDbEntity
  8
1
  6
Continuous
 62
     7
100
AcDbCircle
 10
312.5851754577597
 20
393.3951839367058
 30
0.0
 40
5.912689184822453
100
AcDbArc
 50
211.5232904563792
 51
216.2584752923943
  0
ARC
  5
12A
330
53
100
AcDbEntity
  8
1
  6
Continuous
 62
     7
100
AcDbCircle
 10
312.3264395433506
 20
393.2054120597042
 30
0.0
 40
5.591819057336977
100
AcDbArc
 50
216.2584752923082
 51
221.1559064026166
  0
ARC
  5
12B
330
53
100
AcDbEntity
  8
1
  6
Continuous
 62
     7
100
AcDbCircle
 10
312.2006491310605
 20
393.0954617589852
 30
0.0
 40
5.424749322040559
100
AcDbArc
 50
221.1559064026707
 51
226.1749629858124
  0
ARC
  5
12C
330
53
100
AcDbEntity
  8
1
  6
Continuous
 62
     7
100
AcDbCircle
 10
311.9890470880199
 20
392.8749981144539
 30
0.0
 40
5.119168492838983
100
AcDbArc
 50
226.1749629858706
 51
231.3706849885241
  0
ARC
  5
12D
330
53
100
AcDbEntity
  8
1
  6
Continuous
 62
     7
100
AcDbCircle
 10
311.8984823118007
 20
392.761668551355
 30
0.0
 40
4.974097584092563
100
AcDbArc
 50
231.3706849884545
 51
236.6890691402332
  0
ARC
  5
12E
330
53
100
AcDbEntity
  8
1
  6
Continuous
 62
     7
100
AcDbCircle
 10
311.7496417018009
 20
392.5351745552054
 30
0.0
 40
4.703075338741685
100
AcDbArc
 50
236.6890691401896
 51
243.2937480862494
  0
ARC
  5
12F
330
53
100
AcDbEntity
  8
1
  6
Continuous
 62
     7
100
AcDbCircle
 10
311.6811774836316
 20
392.3990856050752
 30
0.0
 40
4.550735089576349
100
AcDbArc
 50
243.2937480863735
 51
248.9340770979714
  0
ARC
  5
130
330
53
100
AcDbEntity
  8
1
  6
Continuous
 62
     7
100
AcDbCircle
 10
311.6245213608089
 20
392.251997419755
 30
0.0
 40
4.393112595889611
100
AcDbArc
 50
248.9340770978876
 51
257.0105112688383
  0
ARC
  5
131
330
53
100
AcDbEntity
  8
1
  6
Continuous
 62
     7
100
AcDbCircle
 10
311.6094278634411
 20
392.1865655365147
 30
0.0
 40
4.325962428294606
100
AcDbArc
 50
257.0105112688824
 51
269.7654571583037
  0
SPLINE
  5
132
330
53
100
AcDbEntity
  8
1
  6
Continuous
 62
     7
100
AcDbSpline
210
0.0
220
0.0
230
1.0
 70
    11
 71
     3
 72
    79
 73
    75
 74
    73
 42
0.000000001
 43
0.0000000001
 44
0.00000001
 40
0.0
 40
0.0
 40
0.0
 40
0.0
 40
0.3840904972705436
 40
0.7680482159496844
 40
1.165594404044765
 40
1.5629314639449
 40
1.980235353029739
 40
2.397320515395211
 40
2.837675604894333
 40
3.277843002775284
 40
3.741506292416105
 40
4.205026076747408
 40
4.689598155922018
 40
5.174069747158065
 40
5.675055359956619
 40
6.175978112650723
 40
6.687394598361111
 40
7.19878098388306
 40
7.713762195432327
 40
8.22874340697727
 40
8.740129792486272
 40
9.251546278174182
 40
9.752469030835302
 40
10.25345464358778
 40
10.73792623476348
 40
11.22249831385834
 40
11.68601809809012
 40
12.14968138760214
 40
12.58984878532576
 40
13.03020387462266
 40
13.44728903674032
 40
13.86459292550075
 40
14.26192998496838
 40
14.65947617236769
 40
15.04343388922286
 40
15.42752439459593
 40
15.8067820283038
 40
16.18603966201042
 40
16.57013016738012
 40
16.95408788422955
 40
17.3516340716214
 40
17.74897113107967
 40
18.16627501982913
 40
18.58336018193483
 40
19.02371527121883
 40
19.46388266892899
 40
19.92754595842678
 40
20.39106574264458
 40
20.87563782172519
 40
21.36010941288703
 40
21.86109502562554
 40
22.36201777827295
 40
22.87343426394722
 40
23.38482064944305
 40
23.89980186097509
 40
24.41478307251169
 40
24.92616945802138
 40
25.43758594371958
 40
25.93850869640169
 40
26.4394943091883
 40
26.92396590041236
 40
27.40853797957423
 40
27.87205776389206
 40
28.33572105351751
 40
28.77588845138019
 40
29.21624354085459
 40
29.63332870318469
 40
30.05063259221019
 40
30.44796965199339
 40
30.84551583978838
 40
31.22947355715025
 40
31.61356406327909
 40
31.99282169888261
 40
32.37207932458768
 40
32.37207932458768
 40
32.37207932458768
 40
32.37207932458768
 10
719.1131507525635
 20
399.6717715042605
 30
0.0
 10
718.9864675524913
 20
399.6522006388834
 30
0.0
 10
718.733144945046
 20
399.6130656808639
 30
0.0
 10
718.3611588847895
 20
399.496422906704
 30
0.0
 10
717.9997202326292
 20
399.3406839332126
 30
0.0
 10
717.6481844967838
 20
399.1398082269968
 30
0.0
 10
717.3136852487721
 20
398.9005487549047
 30
0.0
 10
716.9936761605281
 20
398.6200399660181
 30
0.0
 10
716.6956448843576
 20
398.3057395629902
 30
0.0
 10
716.4166881108881
 20
397.9544375696952
 30
0.0
 10
716.163519120124
 20
397.5748177387264
 30
0.0
 10
715.9337556164367
 20
397.1636229782309
 30
0.0
 10
715.7326556008906
 20
396.730023833988
 30
0.0
 10
715.55873466606
 20
396.2714941577119
 30
0.0
 10
715.415554041662
 20
395.7967624909709
 30
0.0
 10
715.3024712704074
 20
395.3047859172786
 30
0.0
 10
715.221484238437
 20
394.803008097783
 30
0.0
 10
715.1724348727478
 20
394.2924153740096
 30
0.0
 10
715.1561521377337
 20
393.7785420755135
 30
0.0
 10
715.1724348725974
 20
393.2646687770037
 30
0.0
 10
715.2214842381381
 20
392.7540760532682
 30
0.0
 10
715.3024712699321
 20
392.2522982336283
 30
0.0
 10
715.415554041079
 20
391.760321660451
 30
0.0
 10
715.5587346650631
 20
391.2855899917959
 30
0.0
 10
715.7326556005253
 20
390.8270603224055
 30
0.0
 10
715.933755612808
 20
390.3934611529613
 30
0.0
 10
716.1635191271273
 20
389.9822664825541
 30
0.0
 10
716.4166880780608
 20
389.6026463239639
 30
0.0
 10
716.6956449917266
 20
389.2513454943225
 30
0.0
 10
716.9936757578823
 20
388.9370408702247
 30
0.0
 10
717.3136866524377
 20
388.6565470445211
 30
0.0
 10
717.6481793380503
 20
388.41723322667
 30
0.0
 10
717.9997384530031
 20
388.2165511511125
 30
0.0
 10
718.3610916981071
 20
388.0601048471217
 30
0.0
 10
718.7333862038047
 20
387.9460166005973
 30
0.0
 10
719.1106597354557
 20
387.8781298875567
 30
0.0
 10
719.4917193913265
 20
387.8546780919913
 30
0.0
 10
719.8727790471968
 20
387.8781298875413
 30
0.0
 10
720.2500525788473
 20
387.9460166005663
 30
0.0
 10
720.6223470845434
 20
388.0601048470762
 30
0.0
 10
720.9837003296464
 20
388.2165511510514
 30
0.0
 10
721.3352594445964
 20
388.4172332265944
 30
0.0
 10
721.6697521302061
 20
388.6565470444318
 30
0.0
 10
721.9897630247577
 20
388.9370408701214
 30
0.0
 10
722.2877937909092
 20
389.251345494206
 30
0.0
 10
722.5667507045696
 20
389.6026463238343
 30
0.0
 10
722.8199196554964
 20
389.9822664824123
 30
0.0
 10
723.0496831698094
 20
390.3934611528067
 30
0.0
 10
723.2507831820844
 20
390.8270603222393
 30
0.0
 10
723.4247041175382
 20
391.2855899916178
 30
0.0
 10
723.5678847415122
 20
391.7603216602614
 30
0.0
 10
723.6809675126483
 20
392.2522982334273
 30
0.0
 10
723.7619545444297
 20
392.7540760530554
 30
0.0
 10
723.8110039099573
 20
393.2646687767794
 30
0.0
 10
723.8272866448069
 20
393.7785420752743
 30
0.0
 10
723.8110039097775
 20
394.292415373767
 30
0.0
 10
723.761954544066
 20
394.8030080974908
 30
0.0
 10
723.6809675120957
 20
395.3047859171027
 30
0.0
 10
723.5678847407546
 20
395.7967624902961
 30
0.0
 10
723.4247041165844
 20
396.2714941587906
 30
0.0
 10
723.25078318084
 20
396.7300238286422
 30
0.0
 10
723.049683168534
 20
397.1636229962527
 30
0.0
 10
722.8199196531721
 20
397.5748176730421
 30
0.0
 10
722.5667507047709
 20
397.9544378082057
 30
0.0
 10
722.28779378076
 20
398.3057387207928
 30
0.0
 10
721.9897630506136
 20
398.6200430436807
 30
0.0
 10
721.6697520267792
 20
398.9005379367374
 30
0.0
 10
721.3352598088654
 20
399.1398478774915
 30
0.0
 10
720.9836990255462
 20
399.340543766301
 30
0.0
 10
720.6223518726813
 20
399.4969396098494
 30
0.0
 10
720.250035362191
 20
399.6112100936157
 30
0.0
 10
719.8728430325234
 20
399.6784242836927
 30
0.0
 10
719.4914838922977
 20
399.7043564137982
 30
0.0
 10
719.2392617982283
 20
399.6826331381965
 30
0.0
 10
719.1131507525636
 20
399.6717715042605
 30
0.0
 11
719.1131507525635
 21
399.6717715042605
 31
0.0
 11
718.7351540648822
 21
399.6036244533847
 31
0.0
 11
718.3678597962821
 21
399.4917385798233
 31
0.0
 11
718.0029573837239
 21
399.3339754645506
 31
0.0
 11
717.6575469471409
 21
399.1375871521935
 31
0.0
 11
717.3179109285178
 21
398.895120844161
 31
0.0
 11
717.0038514527693
 21
398.6206637833274
 31
0.0
 11
716.7004795379943
 21
398.3014803155816
 31
0.0
 11
716.4263606349296
 21
397.9570878576571
 31
0.0
 11
716.1686870088481
 21
397.5716167841217
 31
0.0
 11
715.9422517979301
 21
397.167169401031
 31
0.0
 11
715.7379884595786
 21
396.7277532105047
 31
0.0
 11
715.5659242411269
 21
396.2748662186088
 31
0.0
 11
715.4209598947361
 21
395.7953123399901
 31
0.0
 11
715.3086028647763
 21
395.3071530401884
 31
0.0
 11
715.2269177560056
 21
394.8023022059176
 31
0.0
 11
715.1779849212465
 21
394.2932623126022
 31
0.0
 11
715.1615923728693
 21
393.7785420656548
 31
0.0
 11
715.1779849212465
 21
393.2638218187075
 31
0.0
 11
715.2269177560055
 21
392.7547819253921
 31
0.0
 11
715.3086028647763
 21
392.2499310911213
 31
0.0
 11
715.4209598947361
 21
391.7617717913196
 31
0.0
 11
715.565924241127
 21
391.2822179127008
 31
0.0
 11
715.7379884595786
 21
390.829330920805
 31
0.0
 11
715.9422517979299
 21
390.3899147302787
 31
0.0
 11
716.1686870088478
 21
389.9854673471879
 31
0.0
 11
716.4263606349296
 21
389.5999962736526
 31
0.0
 11
716.7004795379946
 21
389.2556038157281
 31
0.0
 11
717.0038514527695
 21
388.9364203479823
 31
0.0
 11
717.3179109285177
 21
388.6619632871488
 31
0.0
 11
717.6575469471411
 21
388.4194969791164
 31
0.0
 11
718.0029573837242
 21
388.2231086667594
 31
0.0
 11
718.3678597962821
 21
388.0653455514865
 31
0.0
 11
718.7351540648822
 21
387.9534596779253
 31
0.0
 11
719.1131507525633
 21
387.8853126270493
 31
0.0
 11
719.4917193917904
 21
387.8624622825559
 31
0.0
 11
719.8702880310175
 21
387.8853126270493
 31
0.0
 11
720.2482847186988
 21
387.9534596779253
 31
0.0
 11
720.6155789872988
 21
388.0653455514866
 31
0.0
 11
720.9804813998571
 21
388.2231086667593
 31
0.0
 11
721.3258918364402
 21
388.4194969791164
 31
0.0
 11
721.6655278550636
 21
388.6619632871489
 31
0.0
 11
721.9795873308118
 21
388.9364203479823
 31
0.0
 11
722.2829592455868
 21
389.2556038157281
 31
0.0
 11
722.5570781486515
 21
389.5999962736526
 31
0.0
 11
722.8147517747329
 21
389.9854673471879
 31
0.0
 11
723.0411869856509
 21
390.3899147302786
 31
0.0
 11
723.2454503240024
 21
390.8293309208049
 31
0.0
 11
723.417514542454
 21
391.2822179127007
 31
0.0
 11
723.5624788888449
 21
391.7617717913196
 31
0.0
 11
723.6748359188045
 21
392.2499310911213
 31
0.0
 11
723.7565210275752
 21
392.7547819253921
 31
0.0
 11
723.8054538623345
 21
393.2638218187075
 31
0.0
 11
723.8218464107119
 21
393.7785420656548
 31
0.0
 11
723.8054538623345
 21
394.2932623126022
 31
0.0
 11
723.7565210275753
 21
394.8023022059176
 31
0.0
 11
723.6748359188045
 21
395.3071530401885
 31
0.0
 11
723.5624788888449
 21
395.7953123399901
 31
0.0
 11
723.4175145424541
 21
396.274866218609
 31
0.0
 11
723.2454503240024
 21
396.7277532105048
 31
0.0
 11
723.0411869856509
 21
397.1671694010311
 31
0.0
 11
722.8147517747332
 21
397.5716167841218
 31
0.0
 11
722.5570781486515
 21
397.9570878576573
 31
0.0
 11
722.2829592455867
 21
398.3014803155817
 31
0.0
 11
721.9795873308117
 21
398.6206637833274
 31
0.0
 11
721.6655278550633
 21
398.895120844161
 31
0.0
 11
721.32589183644
 21
399.1375871521934
 31
0.0
 11
720.980481399857
 21
399.3339754645505
 31
0.0
 11
720.6155789872987
 21
399.4917385798233
 31
0.0
 11
720.2482847186985
 21
399.6036244533846
 31
0.0
 11
719.8702880310173
 21
399.6717715042605
 31
0.0
 11
719.4917193917903
 21
399.694621848754
 31
0.0
 11
719.1131507525636
 21
399.6717715042605
 31
0.0
  0
SPLINE
  5
133
330
53
100
AcDbEntity
  8
1
  6
Continuous
 62
     7
100
AcDbSpline
210
0.0
220
0.0
230
1.0
 70
    11
 71
     3
 72
    79
 73
    75
 74
    73
 42
0.000000001
 43
0.0000000001
 44
0.00000001
 40
0.0
 40
0.0
 40
0.0
 40
0.0
 40
0.3840904972706555
 40
0.7680482159497963
 40
1.165594404044877
 40
1.562931463944814
 40
1.980235353029931
 40
2.397320515395231
 40
2.837675604894354
 40
3.277843002775375
 40
3.741506292416196
 40
4.205026076747499
 40
4.689598155922109
 40
5.174069747158156
 40
5.67505535995671
 40
6.175978112650764
 40
6.687394598361188
 40
7.198780983883136
 40
7.713762195432407
 40
8.228743406977356
 40
8.740129792486382
 40
9.251546278174274
 40
9.752469030835345
 40
10.25345464358779
 40
10.73792623476354
 40
11.22249831385848
 40
11.68601809809038
 40
12.14968138760227
 40
12.58984878532582
 40
13.03020387462272
 40
13.4472890367403
 40
13.86459292550054
 40
14.26192998496817
 40
14.65947617236779
 40
15.04343388922285
 40
15.42752439459615
 40
15.80678202830402
 40
16.18603966201063
 40
16.57013016738022
 40
16.95408788422965
 40
17.35163407162129
 40
17.74897113107947
 40
18.16627501982892
 40
18.58336018193471
 40
19.02371527121847
 40
19.46388266892878
 40
19.92754595842669
 40
20.39106574264449
 40
20.87563782172515
 40
21.36010941288695
 40
21.86109502562547
 40
22.36201777827289
 40
22.87343426394719
 40
23.38482064944299
 40
23.89980186097502
 40
24.41478307251163
 40
24.92616945802132
 40
25.43758594371948
 40
25.93850869640163
 40
26.43949430918824
 40
26.92396590041222
 40
27.40853797957415
 40
27.87205776389202
 40
28.33572105351741
 40
28.77588845138009
 40
29.21624354085434
 40
29.63332870318444
 40
30.05063259220993
 40
30.44796965199303
 40
30.84551583978824
 40
31.2294735571501
 40
31.61356406327883
 40
31.99282169888235
 40
32.37207932458765
 40
32.37207932458765
 40
32.37207932458765
 40
32.37207932458765
 10
731.8702880310097
 20
399.6717715042605
 30
0.0
 10
731.9969712310821
 20
399.6522006388833
 30
0.0
 10
732.2502938385275
 20
399.613065680864
 30
0.0
 10
732.6222798987835
 20
399.496422906704
 30
0.0
 10
732.9837185509441
 20
399.3406839332126
 30
0.0
 10
733.3352542867893
 20
399.1398082269966
 30
0.0
 10
733.6697535348011
 20
398.9005487549049
 30
0.0
 10
733.989762623045
 20
398.6200399660179
 30
0.0
 10
734.2877938992154
 20
398.3057395629902
 30
0.0
 10
734.5667506726855
 20
397.9544375696952
 30
0.0
 10
734.819919663449
 20
397.5748177387266
 30
0.0
 10
735.0496831671369
 20
397.1636229782308
 30
0.0
 10
735.2507831826824
 20
396.7300238339881
 30
0.0
 10
735.4247041175133
 20
396.2714941577119
 30
0.0
 10
735.5678847419113
 20
395.7967624909708
 30
0.0
 10
735.6809675131659
 20
395.3047859172787
 30
0.0
 10
735.7619545451364
 20
394.803008097783
 30
0.0
 10
735.8110039108252
 20
394.2924153740097
 30
0.0
 10
735.82728664584
 20
393.7785420755135
 30
0.0
 10
735.8110039109755
 20
393.2646687770037
 30
0.0
 10
735.761954545435
 20
392.7540760532682
 30
0.0
 10
735.680967513641
 20
392.2522982336283
 30
0.0
 10
735.5678847424945
 20
391.760321660451
 30
0.0
 10
735.4247041185104
 20
391.2855899917958
 30
0.0
 10
735.250783183048
 20
390.8270603224057
 30
0.0
 10
735.0496831707651
 20
390.3934611529613
 30
0.0
 10
734.8199196564453
 20
389.9822664825543
 30
0.0
 10
734.5667507055122
 20
389.6026463239638
 30
0.0
 10
734.2877937918463
 20
389.2513454943225
 30
0.0
 10
733.9897630256912
 20
388.9370408702248
 30
0.0
 10
733.6697521311355
 20
388.6565470445212
 30
0.0
 10
733.3352594455233
 20
388.4172332266699
 30
0.0
 10
732.9837003305702
 20
388.2165511511122
 30
0.0
 10
732.6223470854661
 20
388.060104847122
 30
0.0
 10
732.2500525797686
 20
387.9460166005972
 30
0.0
 10
731.8727790481171
 20
387.8781298875567
 30
0.0
 10
731.4917193922466
 20
387.8546780919913
 30
0.0
 10
731.1106597363762
 20
387.8781298875411
 30
0.0
 10
730.733386204726
 20
387.9460166005664
 30
0.0
 10
730.3610916990297
 20
388.0601048470761
 30
0.0
 10
729.9997384539272
 20
388.2165511510514
 30
0.0
 10
729.6481793389769
 20
388.4172332265945
 30
0.0
 10
729.3136866533674
 20
388.6565470444318
 30
0.0
 10
728.9936757588157
 20
388.9370408701213
 30
0.0
 10
728.6956449926646
 20
389.251345494206
 30
0.0
 10
728.4166880790042
 20
389.6026463238344
 30
0.0
 10
728.1635191280768
 20
389.9822664824122
 30
0.0
 10
727.9337556137639
 20
390.3934611528068
 30
0.0
 10
727.7326556014887
 20
390.8270603222391
 30
0.0
 10
727.5587346660357
 20
391.2855899916179
 30
0.0
 10
727.4155540420609
 20
391.7603216602614
 30
0.0
 10
727.302471270925
 20
392.2522982334273
 30
0.0
 10
727.2214842391431
 20
392.7540760530554
 30
0.0
 10
727.1724348736159
 20
393.2646687767796
 30
0.0
 10
727.1561521387667
 20
393.7785420752743
 30
0.0
 10
727.1724348737961
 20
394.2924153737671
 30
0.0
 10
727.2214842395074
 20
394.8030080974906
 30
0.0
 10
727.3024712714773
 20
395.3047859171027
 30
0.0
 10
727.4155540428188
 20
395.7967624902962
 30
0.0
 10
727.5587346669894
 20
396.2714941587906
 30
0.0
 10
727.7326556027326
 20
396.7300238286424
 30
0.0
 10
727.9337556150394
 20
397.1636229962526
 30
0.0
 10
728.1635191304014
 20
397.5748176730421
 30
0.0
 10
728.4166880788026
 20
397.9544378082057
 30
0.0
 10
728.6956450028132
 20
398.3057387207926
 30
0.0
 10
728.9936757329598
 20
398.6200430436808
 30
0.0
 10
729.3136867567936
 20
398.9005379367375
 30
0.0
 10
729.6481789747077
 20
399.1398478774913
 30
0.0
 10
729.9997397580267
 20
399.340543766301
 30
0.0
 10
730.361086910892
 20
399.4969396098494
 30
0.0
 10
730.7334034213823
 20
399.6112100936158
 30
0.0
 10
731.1105957510497
 20
399.6784242836926
 30
0.0
 10
731.4919548912756
 20
399.7043564137982
 30
0.0
 10
731.7441769853452
 20
399.6826331381966
 30
0.0
 10
731.8702880310097
 20
399.6717715042605
 30
0.0
 11
731.8702880310097
 21
399.6717715042605
 31
0.0
 11
732.2482847186911
 21
399.6036244533847
 31
0.0
 11
732.6155789872912
 21
399.4917385798233
 31
0.0
 11
732.9804813998494
 21
399.3339754645506
 31
0.0
 11
733.3258918364322
 21
399.1375871521935
 31
0.0
 11
733.6655278550556
 21
398.895120844161
 31
0.0
 11
733.979587330804
 21
398.6206637833274
 31
0.0
 11
734.2829592455789
 21
398.3014803155816
 31
0.0
 11
734.5570781486438
 21
397.9570878576571
 31
0.0
 11
734.8147517747252
 21
397.5716167841217
 31
0.0
 11
735.0411869856432
 21
397.167169401031
 31
0.0
 11
735.2454503239948
 21
396.7277532105047
 31
0.0
 11
735.4175145424464
 21
396.2748662186088
 31
0.0
 11
735.5624788888372
 21
395.7953123399901
 31
0.0
 11
735.6748359187968
 21
395.3071530401884
 31
0.0
 11
735.7565210275677
 21
394.8023022059176
 31
0.0
 11
735.8054538623268
 21
394.2932623126022
 31
0.0
 11
735.8218464107041
 21
393.7785420656548
 31
0.0
 11
735.8054538623267
 21
393.2638218187075
 31
0.0
 11
735.7565210275675
 21
392.7547819253921
 31
0.0
 11
735.6748359187968
 21
392.2499310911213
 31
0.0
 11
735.5624788888372
 21
391.7617717913196
 31
0.0
 11
735.4175145424464
 21
391.2822179127008
 31
0.0
 11
735.2454503239948
 21
390.829330920805
 31
0.0
 11
735.0411869856432
 21
390.3899147302787
 31
0.0
 11
734.8147517747251
 21
389.9854673471879
 31
0.0
 11
734.5570781486435
 21
389.5999962736526
 31
0.0
 11
734.2829592455786
 21
389.2556038157281
 31
0.0
 11
733.9795873308037
 21
388.9364203479823
 31
0.0
 11
733.6655278550556
 21
388.6619632871488
 31
0.0
 11
733.3258918364324
 21
388.4194969791164
 31
0.0
 11
732.9804813998494
 21
388.2231086667594
 31
0.0
 11
732.6155789872911
 21
388.0653455514865
 31
0.0
 11
732.2482847186911
 21
387.9534596779253
 31
0.0
 11
731.8702880310097
 21
387.8853126270493
 31
0.0
 11
731.4917193917827
 21
387.8624622825559
 31
0.0
 11
731.1131507525556
 21
387.8853126270493
 31
0.0
 11
730.7351540648745
 21
387.9534596779253
 31
0.0
 11
730.3678597962744
 21
388.0653455514866
 31
0.0
 11
730.0029573837163
 21
388.2231086667593
 31
0.0
 11
729.6575469471334
 21
388.4194969791164
 31
0.0
 11
729.31791092851
 21
388.6619632871489
 31
0.0
 11
729.0038514527616
 21
388.9364203479823
 31
0.0
 11
728.700479537987
 21
389.2556038157281
 31
0.0
 11
728.426360634922
 21
389.5999962736526
 31
0.0
 11
728.1686870088404
 21
389.9854673471879
 31
0.0
 11
727.9422517979224
 21
390.3899147302786
 31
0.0
 11
727.7379884595708
 21
390.8293309208049
 31
0.0
 11
727.5659242411193
 21
391.2822179127007
 31
0.0
 11
727.4209598947284
 21
391.7617717913196
 31
0.0
 11
727.3086028647687
 21
392.2499310911213
 31
0.0
 11
727.2269177559979
 21
392.7547819253921
 31
0.0
 11
727.1779849212388
 21
393.2638218187075
 31
0.0
 11
727.1615923728616
 21
393.7785420656548
 31
0.0
 11
727.1779849212389
 21
394.2932623126022
 31
0.0
 11
727.2269177559981
 21
394.8023022059176
 31
0.0
 11
727.3086028647687
 21
395.3071530401885
 31
0.0
 11
727.4209598947285
 21
395.7953123399901
 31
0.0
 11
727.5659242411193
 21
396.274866218609
 31
0.0
 11
727.7379884595708
 21
396.7277532105048
 31
0.0
 11
727.9422517979224
 21
397.1671694010311
 31
0.0
 11
728.1686870088403
 21
397.5716167841218
 31
0.0
 11
728.4263606349218
 21
397.9570878576573
 31
0.0
 11
728.7004795379867
 21
398.3014803155817
 31
0.0
 11
729.0038514527614
 21
398.6206637833274
 31
0.0
 11
729.3179109285098
 21
398.895120844161
 31
0.0
 11
729.6575469471331
 21
399.1375871521934
 31
0.0
 11
730.002957383716
 21
399.3339754645505
 31
0.0
 11
730.3678597962745
 21
399.4917385798233
 31
0.0
 11
730.7351540648747
 21
399.6036244533846
 31
0.0
 11
731.1131507525558
 21
399.6717715042605
 31
0.0
 11
731.4917193917828
 21
399.694621848754
 31
0.0
 11
731.8702880310097
 21
399.6717715042605
 31
0.0
  0
ENDBLK
  5
55
330
53
100
AcDbEntity
  8
0
100
AcDbBlockEnd
  0
BLOCK
  5
57
330
56
100
AcDbEntity
  8
0
100
AcDbBlockBegin
  2
32-116-C2
 70
     0
 10
1193.038176326962
 20
593.3275297504348
 30
0.0
  3
32-116-C2
  1

  0
LINE
  5
134
330
56
100
AcDbEntity
  8
1
  6
Continuous
 62
     7
100
AcDbLine
 10
317.960685582155
 20
415.3317967697243
 30
0.0
 11
316.1742950867444
 21
415.3317967697243
 31
0.0
  0
LINE
  5
135
330
56
100
AcDbEntity
  8
1
  6
Continuous
 62
     7
100
AcDbLine
 10
316.1742950867444
 20
415.3317967697243
 30
0.0
 11
316.1742950867444
 21
404.8373502691894
 31
0.0
  0
LINE
  5
136
330
56
100
AcDbEntity
  8
1
  6
Continuous
 62
     7
100
AcDbLine
 10
316.1742950867444
 20
404.8373502691894
 30
0.0
 11
317.960685582155
 21
404.8373502691894
 31
0.0
  0
LINE
  5
137
330
56
100
AcDbEntity
  8
1
  6
Continuous
 62
     7
100
AcDbLine
 10
317.960685582155
 20
404.8373502691894
 30
0.0
 11
317.960685582155
 21
415.3317967697243
 31
0.0
  0
LINE
  5
138
330
56
100
AcDbEntity
  8
0
  6
Continuous
 62
     7
100
AcDbLine
 10
322.5917193917887
 20
404.8373502691894
 30
0.0
 11
322.5917193917887
 21
415.3317967697243
 31
0.0
  0
LINE
  5
139
330
56
100
AcDbEntity
  8
0
  6
Continuous
 62
     7
100
AcDbLine
 10
322.5917193917887
 20
415.3317967697243
 30
0.0
 11
318.5917193917887
 21
422.26
 31
0.0
  0
LINE
  5
13A
330
56
100
AcDbEntity
  8
0
  6
Continuous
 62
     7
100
AcDbLine
 10
321.5917193917887
 20
404.26
 30
0.0
 11
322.5917193917887
 21
404.8373502691894
 31
0.0
  0
LINE
  5
13B
330
56
100
AcDbEntity
  8
0
  6
Continuous
 62
     7
100
AcDbLine
 10
311.5917193917887
 20
404.26
 30
0.0
 11
321.5917193917887
 21
404.26
 31
0.0
  0
LINE
  5
13C
330
56
100
AcDbEntity
  8
0
  6
Continuous
 62
     7
100
AcDbLine
 10
311.5917193917887
 20
422.26
 30
0.0
 11
318.5917193917887
 21
422.26
 31
0.0
  0
LINE
  5
13D
330
56
100
AcDbEntity
  8
0
  6
Continuous
 62
     7
100
AcDbLine
 10
304.5917193917882
 20
422.26
 30
0.0
 11
311.5917193917887
 21
422.26
 31
0.0
  0
LINE
  5
13E
330
56
100
AcDbEntity
  8
0
  6
Continuous
 62
     7
100
AcDbLine
 10
301.5917193917882
 20
404.26
 30
0.0
 11
311.5917193917887
 21
404.26
 31
0.0
  0
LINE
  5
13F
330
56
100
AcDbEntity
  8
0
  6
Continuous
 62
     7
100
AcDbLine
 10
300.5917193917882
 20
404.8373502691894
 30
0.0
 11
301.5917193917882
 21
404.26
 31
0.0
  0
LINE
  5
140
330
56
100
AcDbEntity
  8
0
  6
Continuous
 62
     7
100
AcDbLine
 10
304.5917193917882
 20
422.26
 30
0.0
 11
300.5917193917882
 21
415.3317967697243
 31
0.0
  0
LINE
  5
141
330
56
100
AcDbEntity
  8
0
  6
Continuous
 62
     7
100
AcDbLine
 10
300.5917193917882
 20
415.3317967697243
 30
0.0
 11
300.5917193917882
 21
404.8373502691894
 31
0.0
  0
LINE
  5
142
330
56
100
AcDbEntity
  8
1
  6
Continuous
 62
     7
100
AcDbLine
 10
305.2227532014217
 20
415.3317967697243
 30
0.0
 11
305.2227532014217
 21
404.8373502691894
 31
0.0
  0
LINE
  5
143
330
56
100
AcDbEntity
  8
1
  6
Continuous
 62
     7
100
AcDbLine
 10
305.2227532014217
 20
404.8373502691894
 30
0.0
 11
307.0091436968325
 21
404.8373502691894
 31
0.0
  0
LINE
  5
144
330
56
100
AcDbEntity
  8
1
  6
Continuous
 62
     7
100
AcDbLine
 10
307.0091436968325
 20
404.8373502691894
 30
0.0
 11
307.0091436968325
 21
415.3317967697243
 31
0.0
  0
LINE
  5
145
330
56
100
AcDbEntity
  8
1
  6
Continuous
 62
     7
100
AcDbLine
 10
307.0091436968325
 20
415.3317967697243
 30
0.0
 11
305.2227532014217
 21
415.3317967697243
 31
0.0
  0
LINE
  5
146
330
56
100
AcDbEntity
  8
0
  6
Continuous
 62
     7
100
AcDbLine
 10
714.4917193917863
 20
415.3317967697243
 30
0.0
 11
714.4917193917863
 21
404.8373502691894
 31
0.0
  0
LINE
  5
147
330
56
100
AcDbEntity
  8
0
  6
Continuous
 62
     7
100
AcDbLine
 10
718.4917193917863
 20
422.26
 30
0.0
 11
714.4917193917863
 21
415.3317967697243
 31
0.0
  0
LINE
  5
148
330
56
100
AcDbEntity
  8
0
  6
Continuous
 62
     7
100
AcDbLine
 10
714.4917193917863
 20
404.8373502691894
 30
0.0
 11
715.4917193917863
 21
404.26
 31
0.0
  0
LINE
  5
149
330
56
100
AcDbEntity
  8
0
  6
Continuous
 62
     7
100
AcDbLine
 10
715.4917193917863
 20
404.26
 30
0.0
 11
725.4917193917868
 21
404.26
 31
0.0
  0
LINE
  5
14A
330
56
100
AcDbEntity
  8
0
  6
Continuous
 62
     7
100
AcDbLine
 10
718.4917193917863
 20
422.26
 30
0.0
 11
725.4917193917868
 21
422.26
 31
0.0
  0
LINE
  5
14B
330
56
100
AcDbEntity
  8
0
  6
Continuous
 62
     7
100
AcDbLine
 10
725.4917193917868
 20
422.26
 30
0.0
 11
732.4917193917868
 21
422.26
 31
0.0
  0
LINE
  5
14C
330
56
100
AcDbEntity
  8
0
  6
Continuous
 62
     7
100
AcDbLine
 10
725.4917193917868
 20
404.26
 30
0.0
 11
735.4917193917868
 21
404.26
 31
0.0
  0
LINE
  5
14D
330
56
100
AcDbEntity
  8
0
  6
Continuous
 62
     7
100
AcDbLine
 10
735.4917193917868
 20
404.26
 30
0.0
 11
736.4917193917868
 21
404.8373502691894
 31
0.0
  0
LINE
  5
14E
330
56
100
AcDbEntity
  8
0
  6
Continuous
 62
     7
100
AcDbLine
 10
736.4917193917868
 20
415.3317967697243
 30
0.0
 11
732.4917193917868
 21
422.26
 31
0.0
  0
LINE
  5
14F
330
56
100
AcDbEntity
  8
0
  6
Continuous
 62
     7
100
AcDbLine
 10
736.4917193917868
 20
404.8373502691894
 30
0.0
 11
736.4917193917868
 21
415.3317967697243
 31
0.0
  0
LINE
  5
150
330
56
100
AcDbEntity
  8
1
  6
Continuous
 62
     7
100
AcDbLine
 10
724.4603463583833
 20
415.3317967697243
 30
0.0
 11
726.5230924251896
 21
415.3317967697243
 31
0.0
  0
LINE
  5
151
330
56
100
AcDbEntity
  8
1
  6
Continuous
 62
     7
100
AcDbLine
 10
726.5230924251896
 20
415.3317967697243
 30
0.0
 11
726.5230924251896
 21
404.8373502691894
 31
0.0
  0
LINE
  5
152
330
56
100
AcDbEntity
  8
1
  6
Continuous
 62
     7
100
AcDbLine
 10
714.4917193917863
 20
415.3317967697243
 30
0.0
 11
716.5230924251894
 21
415.3317967697243
 31
0.0
  0
LINE
  5
153
330
56
100
AcDbEntity
  8
1
  6
Continuous
 62
     7
100
AcDbLine
 10
716.5230924251894
 20
415.3317967697243
 30
0.0
 11
716.5230924251894
 21
404.8373502691894
 31
0.0
  0
LINE
  5
154
330
56
100
AcDbEntity
  8
1
  6
Continuous
 62
     7
100
AcDbLine
 10
734.460346358384
 20
415.3317967697243
 30
0.0
 11
736.4917193917868
 21
415.3317967697243
 31
0.0
  0
LINE
  5
155
330
56
100
AcDbEntity
  8
1
  6
Continuous
 62
     7
100
AcDbLine
 10
724.4603463583833
 20
404.8373502691894
 30
0.0
 11
726.5230924251896
 21
404.8373502691894
 31
0.0
  0
LINE
  5
156
330
56
100
AcDbEntity
  8
1
  6
Continuous
 62
     7
100
AcDbLine
 10
724.4603463583833
 20
404.8373502691894
 30
0.0
 11
724.4603463583833
 21
415.3317967697243
 31
0.0
  0
LINE
  5
157
330
56
100
AcDbEntity
  8
1
  6
Continuous
 62
     7
100
AcDbLine
 10
734.460346358384
 20
404.8373502691894
 30
0.0
 11
736.4917193917868
 21
404.8373502691894
 31
0.0
  0
LINE
  5
158
330
56
100
AcDbEntity
  8
1
  6
Continuous
 62
     7
100
AcDbLine
 10
734.460346358384
 20
404.8373502691894
 30
0.0
 11
734.460346358384
 21
415.3317967697243
 31
0.0
  0
LINE
  5
159
330
56
100
AcDbEntity
  8
1
  6
Continuous
 62
     7
100
AcDbLine
 10
716.5230924251894
 20
404.8373502691894
 30
0.0
 11
714.4917193917863
 21
404.8373502691894
 31
0.0
  0
ARC
  5
15A
330
56
100
AcDbEntity
  8
1
  6
Continuous
 62
     7
100
AcDbCircle
 10
311.5917193917887
 20
422.7352086140683
 30
0.0
 40
18.47520861406832
100
AcDbArc
 50
270.0
 51
284.3615115629158
  0
ARC
  5
15B
330
56
100
AcDbEntity
  8
1
  6
Continuous
 62
     7
100
AcDbCircle
 10
311.5917193917887
 20
410.1356443470179
 30
0.0
 40
6.92820323027526
100
AcDbArc
 50
48.59037789072864
 51
90.0
  0
ARC
  5
15C
330
56
100
AcDbEntity
  8
1
  6
Continuous
 62
     7
100
AcDbCircle
 10
320.2762024869716
 20
409.1897428477696
 30
0.0
 40
4.930004025816945
100
AcDbArc
 50
241.9865705819905
 51
298.0134294180142
  0
ARC
  5
15D
330
56
100
AcDbEntity
  8
1
  6
Continuous
 62
     7
100
AcDbCircle
 10
320.2762024869716
 20
414.6525547089458
 30
0.0
 40
2.413086884806307
100
AcDbArc
 50
16.34871308827555
 51
163.6512869117214
  0
ARC
  5
15E
330
56
100
AcDbEntity
  8
1
  6
Continuous
 62
     7
100
AcDbCircle
 10
302.9072362966051
 20
414.6525547089458
 30
0.0
 40
2.413086884805871
100
AcDbArc
 50
16.34871308827859
 51
163.6512869117233
  0
ARC
  5
15F
330
56
100
AcDbEntity
  8
1
  6
Continuous
 62
     7
100
AcDbCircle
 10
302.9072362966051
 20
409.1897428477696
 30
0.0
 40
4.930004025817079
100
AcDbArc
 50
241.9865705819875
 51
298.0134294180095
  0
ARC
  5
160
330
56
100
AcDbEntity
  8
1
  6
Continuous
 62
     7
100
AcDbCircle
 10
311.5917193917887
 20
410.1356443470179
 30
0.0
 40
6.928203230275301
100
AcDbArc
 50
90.0
 51
131.4096221092742
  0
ARC
  5
161
330
56
100
AcDbEntity
  8
1
  6
Continuous
 62
     7
100
AcDbCircle
 10
311.5917193917887
 20
422.7352086140683
 30
0.0
 40
18.47520861406859
100
AcDbArc
 50
255.6384884370828
 51
270.0
  0
ARC
  5
162
330
56
100
AcDbEntity
  8
1
  6
Continuous
 62
     7
100
AcDbCircle
 10
720.4917193917863
 20
411.6522309829386
 30
0.0
 40
5.411950145676182
100
AcDbArc
 50
42.83555318522092
 51
137.1644468147791
  0
ARC
  5
163
330
56
100
AcDbEntity
  8
1
  6
Continuous
 62
     7
100
AcDbCircle
 10
730.491719391787
 20
411.6522309829386
 30
0.0
 40
5.411950145676182
100
AcDbArc
 50
42.83555318522092
 51
137.1644468147824
  0
ARC
  5
164
330
56
100
AcDbEntity
  8
1
  6
Continuous
 62
     7
100
AcDbCircle
 10
720.4917193917863
 20
418.1877264499939
 30
0.0
 40
13.92776163527333
100
AcDbArc
 50
253.4445208525354
 51
286.5554791474646
  0
ARC
  5
165
330
56
100
AcDbEntity
  8
1
  6
Continuous
 62
     7
100
AcDbCircle
 10
730.4917193917868
 20
418.1624842987388
 30
0.0
 40
13.90356777613058
100
AcDbArc
 50
253.4148806128089
 51
286.5851193871911
  0
ENDBLK
  5
58
330
56
100
AcDbEntity
  8
0
100
AcDbBlockEnd
  0
BLOCK
  5
5C
330
59
100
AcDbEntity
  8
0
100
AcDbBlockBegin
  2
T90-240
 70
     0
 10
298.5917193917883
 20
387.7785420656548
 30
0.0
  3
T90-240
  1

  0
INSERT
  5
5A
330
59
100
AcDbEntity
  8
0
100
AcDbBlockReference
  2
35-18
 10
1191.034849246653
 20
576.3708632020212
 30
0.0
 41
1.0
 42
1.0
 43
1.0
  0
INSERT
  5
5B
330
59
100
AcDbEntity
  8
0
100
AcDbBlockReference
  2
32-116-C2
 10
1193.038176326962
 20
593.3275297504347
 30
0.0
 41
1.0
 42
1.0
 43
1.0
  0
ENDBLK
  5
5D
330
59
100
AcDbEntity
  8
0
100
AcDbBlockEnd
  0
BLOCK
  5
5F
330
5E
100
AcDbEntity
  8
0
100
AcDbBlockBegin
  2
開示A4
 70
     0
 10
0.0
 20
0.0
 30
0.0
  3
開示A4
  1

  0
POINT
  5
166
330
5E
100
AcDbEntity
  8
1
 62
     4
100
AcDbPoint
 10
34.0
 20
34.00000000000001
 30
0.0
  0
POINT
  5
167
330
5E
100
AcDbEntity
  8
1
 62
     4
100
AcDbPoint
 10
57.0
 20
12.25
 30
0.0
  0
POINT
  5
168
330
5E
100
AcDbEntity
  8
1
 62
     4
100
AcDbPoint
 10
57.0
 20
20.75000000000001
 30
0.0
  0
POINT
  5
169
330
5E
100
AcDbEntity
  8
1
 62
     4
100
AcDbPoint
 10
57.0
 20
24.75000000000001
 30
0.0
  0
POINT
  5
16A
330
5E
100
AcDbEntity
  8
1
 62
     4
100
AcDbPoint
 10
57.0
 20
16.25
 30
0.0
  0
POINT
  5
16B
330
5E
100
AcDbEntity
  8
1
 62
     4
100
AcDbPoint
 10
157.5
 20
19.00000000000001
 30
0.0
  0
POINT
  5
16C
330
5E
100
AcDbEntity
  8
1
 62
     4
100
AcDbPoint
 10
47.5
 20
282.0000000000003
 30
0.0
  0
POINT
  5
16D
330
5E
100
AcDbEntity
  8
1
 62
     4
100
AcDbPoint
 10
57.0
 20
22.75000000000001
 30
0.0
  0
POINT
  5
16E
330
5E
100
AcDbEntity
  8
1
 62
     4
100
AcDbPoint
 10
57.0
 20
14.25
 30
0.0
  0
POINT
  5
16F
330
5E
100
AcDbEntity
  8
1
 62
     4
100
AcDbPoint
 10
157.5
 20
12.5
 30
0.0
  0
POINT
  5
170
330
5E
100
AcDbEntity
  8
1
 62
     4
100
AcDbPoint
 10
163.25
 20
12.5
 30
0.0
  0
POINT
  5
171
330
5E
100
AcDbEntity
  8
1
 62
     4
100
AcDbPoint
 10
151.75
 20
12.5
 30
0.0
  0
POINT
  5
172
330
5E
100
AcDbEntity
  8
1
 62
     4
100
AcDbPoint
 10
134.75
 20
12.5
 30
0.0
  0
POINT
  5
173
330
5E
100
AcDbEntity
  8
1
 62
     4
100
AcDbPoint
 10
146.25
 20
12.5
 30
0.0
  0
POINT
  5
174
330
5E
100
AcDbEntity
  8
1
 62
     4
100
AcDbPoint
 10
140.5
 20
12.5
 30
0.0
  0
POINT
  5
175
330
5E
100
AcDbEntity
  8
1
 62
     4
100
AcDbPoint
 10
140.5
 20
19.00000000000001
 30
0.0
  0
POINT
  5
176
330
5E
100
AcDbEntity
  8
1
 62
     4
100
AcDbPoint
 10
117.75
 20
12.5
 30
0.0
  0
POINT
  5
177
330
5E
100
AcDbEntity
  8
1
 62
     4
100
AcDbPoint
 10
129.25
 20
12.5
 30
0.0
  0
POINT
  5
178
330
5E
100
AcDbEntity
  8
1
 62
     4
100
AcDbPoint
 10
123.5
 20
12.5
 30
0.0
  0
POINT
  5
179
330
5E
100
AcDbEntity
  8
1
 62
     4
100
AcDbPoint
 10
123.5
 20
19.00000000000001
 30
0.0
  0
POINT
  5
17A
330
5E
100
AcDbEntity
  8
1
 62
     4
100
AcDbPoint
 10
100.75
 20
12.5
 30
0.0
  0
POINT
  5
17B
330
5E
100
AcDbEntity
  8
1
 62
     4
100
AcDbPoint
 10
112.25
 20
12.5
 30
0.0
  0
POINT
  5
17C
330
5E
100
AcDbEntity
  8
1
 62
     4
100
AcDbPoint
 10
106.5
 20
12.5
 30
0.0
  0
POINT
  5
17D
330
5E
100
AcDbEntity
  8
1
 62
     4
100
AcDbPoint
 10
106.5
 20
19.00000000000001
 30
0.0
  0
POINT
  5
17E
330
5E
100
AcDbEntity
  8
1
 62
     4
100
AcDbPoint
 10
85.25
 20
17.0
 30
0.0
  0
POINT
  5
17F
330
5E
100
AcDbEntity
  8
1
 62
     4
100
AcDbPoint
 10
93.75
 20
17.0
 30
0.0
  0
LINE
  5
180
330
5E
100
AcDbEntity
  8
1
  6
Continuous
 62
     2
100
AcDbLine
 10
81.0
 20
27.00000000000001
 30
0.0
 11
81.0
 21
10.0
 31
0.0
  0
LINE
  5
181
330
5E
100
AcDbEntity
  8
1
  6
DOT_CENTER
 62
     2
100
AcDbLine
 10
187.0
 20
26.50000000000001
 30
0.0
 11
187.0
 21
20.50000000000001
 31
0.0
  0
LINE
  5
182
330
5E
100
AcDbEntity
  8
1
  6
DOT_CENTER
 62
     2
100
AcDbLine
 10
184.0
 20
23.50000000000001
 30
0.0
 11
197.0
 21
23.50000000000001
 31
0.0
  0
LINE
  5
183
330
5E
100
AcDbEntity
  8
1
  6
Continuous
 62
     7
100
AcDbLine
 10
196.0
 20
21.50000000000001
 30
0.0
 11
191.0
 21
22.30000000000001
 31
0.0
  0
LINE
  5
184
330
5E
100
AcDbEntity
  8
1
  6
Continuous
 62
     7
100
AcDbLine
 10
196.0
 20
25.50000000000001
 30
0.0
 11
196.0
 21
21.50000000000001
 31
0.0
  0
LINE
  5
185
330
5E
100
AcDbEntity
  8
1
  6
Continuous
 62
     7
100
AcDbLine
 10
191.0
 20
24.70000000000001
 30
0.0
 11
196.0
 21
25.50000000000001
 31
0.0
  0
LINE
  5
186
330
5E
100
AcDbEntity
  8
1
  6
Continuous
 62
     7
100
AcDbLine
 10
191.0
 20
24.70000000000001
 30
0.0
 11
191.0
 21
22.30000000000001
 31
0.0
  0
LINE
  5
187
330
5E
100
AcDbEntity
  8
1
  6
Continuous
 62
     2
100
AcDbLine
 10
33.0
 20
27.0
 30
0.0
 11
33.0
 21
10.0
 31
0.0
  0
LINE
  5
188
330
5E
100
AcDbEntity
  8
1
  6
Continuous
 62
     2
100
AcDbLine
 10
25.0
 20
18.50000000000001
 30
0.0
 11
81.0
 21
18.50000000000001
 31
0.0
  0
LINE
  5
189
330
5E
100
AcDbEntity
  8
1
  6
Continuous
 62
     7
100
AcDbLine
 10
200.0
 20
287.0000000000003
 30
0.0
 11
105.0
 21
287.0000000000003
 31
0.0
  0
LINE
  5
18A
330
5E
100
AcDbEntity
  8
1
  6
Continuous
 62
     7
100
AcDbLine
 10
200.0
 20
10.0
 30
0.0
 11
200.0
 21
148.5
 31
0.0
  0
LINE
  5
18B
330
5E
100
AcDbEntity
  8
1
  6
Continuous
 62
     7
100
AcDbLine
 10
25.0
 20
10.0
 30
0.0
 11
105.0
 21
9.99999999999999
 31
0.0
  0
LINE
  5
18C
330
5E
100
AcDbEntity
  8
1
  6
PHANTOM
 62
     4
100
AcDbLine
 10
0.0
 20
297.0
 30
0.0
 11
0.0
 21
0.0
 31
0.0
  0
LINE
  5
18D
330
5E
100
AcDbEntity
  8
1
  6
PHANTOM
 62
     4
100
AcDbLine
 10
210.0
 20
297.0
 30
0.0
 11
0.0
 21
297.0
 31
0.0
  0
LINE
  5
18E
330
5E
100
AcDbEntity
  8
1
  6
PHANTOM
 62
     4
100
AcDbLine
 10
210.0
 20
0.0
 30
0.0
 11
210.0
 21
297.0
 31
0.0
  0
LINE
  5
18F
330
5E
100
AcDbEntity
  8
1
  6
PHANTOM
 62
     4
100
AcDbLine
 10
0.0
 20
0.0
 30
0.0
 11
210.0
 21
0.0
 31
0.0
  0
LINE
  5
190
330
5E
100
AcDbEntity
  8
1
  6
Continuous
 62
     7
100
AcDbLine
 10
25.0
 20
41.0
 30
0.0
 11
200.0
 21
41.0
 31
0.0
  0
LINE
  5
191
330
5E
100
AcDbEntity
  8
1
  6
Continuous
 62
     7
100
AcDbLine
 10
200.0
 20
27.00000000000001
 30
0.0
 11
25.0
 21
27.00000000000001
 31
0.0
  0
LINE
  5
192
330
5E
100
AcDbEntity
  8
1
  6
Continuous
 62
     2
100
AcDbLine
 10
33.0
 20
41.00000000000001
 30
0.0
 11
33.0
 21
27.0
 31
0.0
  0
LINE
  5
193
330
5E
100
AcDbEntity
  8
1
  6
Continuous
 62
     2
100
AcDbLine
 10
55.0
 20
287.0000000000003
 30
0.0
 11
55.0
 21
277.0000000000003
 31
0.0
  0
LINE
  5
194
330
5E
100
AcDbEntity
  8
1
  6
Continuous
 62
     2
100
AcDbLine
 10
40.0
 20
287.0000000000003
 30
0.0
 11
40.0
 21
277.0000000000003
 31
0.0
  0
LINE
  5
195
330
5E
100
AcDbEntity
  8
1
  6
Continuous
 62
     7
100
AcDbLine
 10
25.0
 20
10.0
 30
0.0
 11
25.0
 21
148.5
 31
0.0
  0
LINE
  5
196
330
5E
100
AcDbEntity
  8
1
  6
Continuous
 62
     2
100
AcDbLine
 10
55.0
 20
277.0000000000003
 30
0.0
 11
25.0
 21
277.0000000000003
 31
0.0
  0
LINE
  5
197
330
5E
100
AcDbEntity
  8
1
  6
Continuous
 62
     2
100
AcDbLine
 10
166.0
 20
27.00000000000001
 30
0.0
 11
166.0
 21
10.0
 31
0.0
  0
LINE
  5
198
330
5E
100
AcDbEntity
  8
1
  6
Continuous
 62
     2
100
AcDbLine
 10
132.0
 20
27.00000000000001
 30
0.0
 11
132.0
 21
9.99999999999999
 31
0.0
  0
LINE
  5
199
330
5E
100
AcDbEntity
  8
1
  6
Continuous
 62
     2
100
AcDbLine
 10
149.0
 20
27.00000000000001
 30
0.0
 11
149.0
 21
10.0
 31
0.0
  0
LINE
  5
19A
330
5E
100
AcDbEntity
  8
1
  6
Continuous
 62
     2
100
AcDbLine
 10
115.0
 20
27.00000000000001
 30
0.0
 11
115.0
 21
9.99999999999999
 31
0.0
  0
LINE
  5
19B
330
5E
100
AcDbEntity
  8
1
  6
Continuous
 62
     2
100
AcDbLine
 10
98.0
 20
27.00000000000001
 30
0.0
 11
98.0
 21
9.99999999999999
 31
0.0
  0
LINE
  5
19C
330
5E
100
AcDbEntity
  8
1
  6
Continuous
 62
     2
100
AcDbLine
 10
166.0
 20
20.00000000000001
 30
0.0
 11
200.0
 21
20.00000000000001
 31
0.0
  0
LINE
  5
19D
330
5E
100
AcDbEntity
  8
1
  6
Continuous
 62
     2
100
AcDbLine
 10
105.0
 20
287.0000000000003
 30
0.0
 11
105.0
 21
292.0000000000003
 31
0.0
  0
LINE
  5
19E
330
5E
100
AcDbEntity
  8
1
  6
Continuous
 62
     7
100
AcDbLine
 10
105.0
 20
287.0000000000003
 30
0.0
 11
25.0
 21
287.0000000000003
 31
0.0
  0
LINE
  5
19F
330
5E
100
AcDbEntity
  8
1
  6
Continuous
 62
     2
100
AcDbLine
 10
25.0
 20
148.5
 30
0.0
 11
20.0
 21
148.5
 31
0.0
  0
LINE
  5
1A0
330
5E
100
AcDbEntity
  8
1
  6
Continuous
 62
     7
100
AcDbLine
 10
25.0
 20
148.5
 30
0.0
 11
25.0
 21
287.0000000000003
 31
0.0
  0
LINE
  5
1A1
330
5E
100
AcDbEntity
  8
1
  6
Continuous
 62
     2
100
AcDbLine
 10
200.0
 20
148.5
 30
0.0
 11
205.0
 21
148.5
 31
0.0
  0
LINE
  5
1A2
330
5E
100
AcDbEntity
  8
1
  6
Continuous
 62
     7
100
AcDbLine
 10
200.0
 20
148.5
 30
0.0
 11
200.0
 21
287.0000000000003
 31
0.0
  0
LINE
  5
1A3
330
5E
100
AcDbEntity
  8
1
  6
Continuous
 62
     2
100
AcDbLine
 10
105.0
 20
9.99999999999999
 30
0.0
 11
105.0
 21
5.0
 31
0.0
  0
LINE
  5
1A4
330
5E
100
AcDbEntity
  8
1
  6
Continuous
 62
     7
100
AcDbLine
 10
105.0
 20
9.99999999999999
 30
0.0
 11
200.0
 21
10.0
 31
0.0
  0
CIRCLE
  5
1A5
330
5E
100
AcDbEntity
  8
1
  6
DOT_CENTER
 62
     7
100
AcDbCircle
 10
89.5
 20
18.0
 30
0.0
 40
0.1000000000000227
  0
CIRCLE
  5
1A6
330
5E
100
AcDbEntity
  8
1
  6
DOT_CENTER
 62
     7
100
AcDbCircle
 10
89.5
 20
16.0
 30
0.0
 40
0.1000000000000227
  0
CIRCLE
  5
1A7
330
5E
100
AcDbEntity
  8
1
  6
Continuous
 62
     7
100
AcDbCircle
 10
187.0
 20
23.50000000000001
 30
0.0
 40
2.0
  0
CIRCLE
  5
1A8
330
5E
100
AcDbEntity
  8
1
  6
Continuous
 62
     7
100
AcDbCircle
 10
187.0
 20
23.50000000000001
 30
0.0
 40
1.200000000000102
  0
CIRCLE
  5
1A9
330
5E
100
AcDbEntity
  8
1
  6
Continuous
 62
     7
100
AcDbCircle
 10
154.5
 20
12.5
 30
0.0
 40
0.3000000000000114
  0
CIRCLE
  5
1AA
330
5E
100
AcDbEntity
  8
1
  6
Continuous
 62
     7
100
AcDbCircle
 10
160.5
 20
12.5
 30
0.0
 40
0.3000000000000114
  0
CIRCLE
  5
1AB
330
5E
100
AcDbEntity
  8
1
  6
Continuous
 62
     7
100
AcDbCircle
 10
143.5
 20
12.5
 30
0.0
 40
0.3000000000000114
  0
CIRCLE
  5
1AC
330
5E
100
AcDbEntity
  8
1
  6
Continuous
 62
     7
100
AcDbCircle
 10
137.5
 20
12.5
 30
0.0
 40
0.3000000000000114
  0
CIRCLE
  5
1AD
330
5E
100
AcDbEntity
  8
1
  6
Continuous
 62
     7
100
AcDbCircle
 10
126.5
 20
12.5
 30
0.0
 40
0.2999999999999972
  0
CIRCLE
  5
1AE
330
5E
100
AcDbEntity
  8
1
  6
Continuous
 62
     7
100
AcDbCircle
 10
120.5
 20
12.5
 30
0.0
 40
0.2999999999999972
  0
CIRCLE
  5
1AF
330
5E
100
AcDbEntity
  8
1
  6
Continuous
 62
     7
100
AcDbCircle
 10
109.5
 20
12.5
 30
0.0
 40
0.2999999999999972
  0
CIRCLE
  5
1B0
330
5E
100
AcDbEntity
  8
1
  6
Continuous
 62
     7
100
AcDbCircle
 10
103.5
 20
12.5
 30
0.0
 40
0.2999999999999972
  0
MTEXT
  5
1B2
330
5E
100
AcDbEntity
  8
1
 62
   250
100
AcDbMText
 10
25.0
 20
5.0
 30
0.0
 40
3.5
 41
0.0
 71
     4
 72
     1
  1
備考欄の文字列 原点位置=4
  7
CONVERTER_11
 73
     1
 44
0.54545454545455
  0
MTEXT
  5
1B3
330
5E
100
AcDbEntity
  8
1
 62
     2
100
AcDbMText
 10
89.5
 20
24.00000000000001
 30
0.0
 40
3.5
 41
0.0
 71
     5
 72
     1
  1
尺度
  7
CONVERTER_11
 73
     1
 44
0.54545454545455
  0
MTEXT
  5
1B4
330
5E
100
AcDbEntity
  8
1
 62
     2
100
AcDbMText
 10
135.5
 20
25.00000000000001
 30
0.0
 40
3.0
 41
0.0
 71
     5
 72
     1
  1
製図
  7
CONVERTER_11
 73
     1
 44
0.59090909090909
  0
MTEXT
  5
1B5
330
5E
100
AcDbEntity
  8
1
 62
     2
100
AcDbMText
 10
152.5
 20
25.00000000000001
 30
0.0
 40
3.0
 41
0.0
 71
     5
 72
     1
  1
設計
  7
CONVERTER_11
 73
     1
 44
0.59090909090909
  0
MTEXT
  5
1B6
330
5E
100
AcDbEntity
  8
1
 62
     2
100
AcDbMText
 10
118.5
 20
25.00000000000001
 30
0.0
 40
3.0
 41
0.0
 71
     5
 72
     1
  1
検図
  7
CONVERTER_11
 73
     1
 44
0.59090909090909
  0
MTEXT
  5
1B7
330
5E
100
AcDbEntity
  8
1
 62
     2
100
AcDbMText
 10
175.0
 20
23.50000000000001
 30
0.0
 40
3.5
 41
0.0
 71
     5
 72
     1
  1
第三角法
  7
CONVERTER_11
 73
     1
 44
0.54545454545455
  0
MTEXT
  5
1B8
330
5E
100
AcDbEntity
  8
1
 62
     2
100
AcDbMText
 10
101.5
 20
25.00000000000001
 30
0.0
 40
3.0
 41
0.0
 71
     5
 72
     1
  1
承認
  7
CONVERTER_11
 73
     1
 44
0.59090909090909
  0
MTEXT
  5
1B9
330
5E
100
AcDbEntity
  8
1
 62
     2
100
AcDbMText
 10
29.0
 20
14.25
 30
0.0
 40
3.5
 41
0.0
 71
     5
 72
     1
  1
品番
  7
CONVERTER_11
 73
     1
 44
0.72727272727273
  0
MTEXT
  5
1BA
330
5E
100
AcDbEntity
  8
1
 62
     2
100
AcDbMText
 10
29.0
 20
22.75
 30
0.0
 40
3.5
 41
0.0
 71
     5
 72
     1
  1
品名
  7
CONVERTER_11
 73
     1
 44
0.72727272727273
  0
MTEXT
  5
1BB
330
5E
100
AcDbEntity
  8
1
 62
     2
100
AcDbMText
 10
29.0
 20
34.00000000000001
 30
0.0
 40
3.5
 41
0.0
 71
     5
 72
     1
  1
備考
  7
CONVERTER_11
 73
     1
 44
0.45454545454545
  0
MTEXT
  5
1BC
330
5E
100
AcDbEntity
  8
1
 62
     2
100
AcDbMText
 10
32.5
 20
282.0000000000003
 30
0.0
 40
5.0
 41
0.0
 71
     5
 72
     1
  1
図番
  7
CONVERTER_11
 73
     1
 44
0.45454545454545
  0
MTEXT
  5
1BD
330
5E
100
AcDbEntity
  8
1
 62
     7
100
AcDbMText
 10
171.5
 20
15.0
 30
0.0
 40
2.5
 41
0.0
 71
     5
 72
     1
  1
株式会社
  7
CONVERTER_11
 73
     1
 44
1.0
  0
MTEXT
  5
1BE
330
5E
100
AcDbEntity
  8
1
 62
     7
100
AcDbMText
 10
188.5
 20
15.0
 30
0.0
 40
3.0
 41
0.0
 71
     5
 72
     1
  1
三栄水栓製作所
  7
CONVERTER_11
 73
     1
 44
1.0
  0
ENDBLK
  5
60
330
5E
100
AcDbEntity
  8
0
100
AcDbBlockEnd
  0
BLOCK
  5
62
330
61
100
AcDbEntity
  8
0
100
AcDbBlockBegin
  2
30-360-M1
 70
     0
 10
532.3308601234934
 20
1502.534948494536
 30
0.0
  3
30-360-M1
  1

  0
LINE
  5
1BF
330
61
100
AcDbEntity
  8
1
  6
Continuous
 62
     7
100
AcDbLine
 10
294.5917193918388
 20
1019.504478341787
 30
0.0
 11
303.4940960214228
 21
1019.504478341788
 31
0.0
  0
LINE
  5
1C0
330
61
100
AcDbEntity
  8
1
  6
Continuous
 62
     7
100
AcDbLine
 10
328.5917193918388
 20
1019.504478341787
 30
0.0
 11
320.8800031585372
 21
1019.504478341788
 31
0.0
  0
LINE
  5
1C1
330
61
100
AcDbEntity
  8
0
  6
Continuous
 62
     7
100
AcDbLine
 10
597.5658954523252
 20
998.4918381628175
 30
0.0
 11
603.3233614109253
 21
997.2680355962175
 31
0.0
  0
LINE
  5
1C2
330
61
100
AcDbEntity
  8
0
  6
Continuous
 62
     7
100
AcDbLine
 10
596.7777283333252
 20
999.5645047706175
 30
0.0
 11
596.7779965542253
 21
999.5695171487175
 31
0.0
  0
LINE
  5
1C3
330
61
100
AcDbEntity
  8
0
  6
Continuous
 62
     7
100
AcDbLine
 10
601.6055704496251
 20
1022.281241657218
 30
0.0
 11
601.6083569668252
 21
1022.287265451618
 31
0.0
  0
LINE
  5
1C4
330
61
100
AcDbEntity
  8
0
  6
Continuous
 62
     8
100
AcDbLine
 10
596.7807681701253
 20
999.5683231931175
 30
0.0
 11
596.7777283333252
 21
999.5645047706175
 31
0.0
  0
LINE
  5
1C5
330
61
100
AcDbEntity
  8
0
  6
Continuous
 62
     7
100
AcDbLine
 10
623.356706037325
 20
993.0097642895175
 30
0.0
 11
714.1080146863682
 21
973.7197026134002
 31
0.0
  0
LINE
  5
1C6
330
61
100
AcDbEntity
  8
0
  6
Continuous
 62
     7
100
AcDbLine
 10
714.1029184891682
 20
999.2793105066002
 30
0.0
 11
602.7636737964252
 21
1022.945282569217
 31
0.0
  0
LINE
  5
1C7
330
61
100
AcDbEntity
  8
0
  6
Continuous
 62
     7
100
AcDbLine
 10
714.0913514628681
 20
1019.0024796775
 30
0.0
 11
714.0913514628681
 21
999.2722603947001
 31
0.0
  0
LINE
  5
1C8
330
61
100
AcDbEntity
  8
0
  6
Continuous
 62
     7
100
AcDbLine
 10
714.5913506134681
 20
1019.5024796867
 30
0.0
 11
748.5913524611682
 21
1019.5024796867
 31
0.0
  0
LINE
  5
1C9
330
61
100
AcDbEntity
  8
0
  6
Continuous
 62
     7
100
AcDbLine
 10
749.0913516118682
 20
893.2000040532001
 30
0.0
 11
749.0913516118682
 21
1019.0024796775
 31
0.0
  0
LINE
  5
1CA
330
61
100
AcDbEntity
  8
0
  6
Continuous
 62
     7
100
AcDbLine
 10
714.0913514628681
 20
973.7530588627001
 30
0.0
 11
714.0913514628681
 21
893.2000040532001
 31
0.0
  0
LINE
  5
1CB
330
61
100
AcDbEntity
  8
0
  6
Continuous
 62
     7
100
AcDbLine
 10
714.0913514628681
 20
893.2000040532001
 30
0.0
 11
749.0913516118682
 21
893.2000040532001
 31
0.0
  0
LINE
  5
1CC
330
61
100
AcDbEntity
  8
0
  6
Continuous
 62
     7
100
AcDbLine
 10
294.0917193173386
 20
1019.004478346887
 30
0.0
 11
294.0917193173386
 21
893.2
 31
0.0
  0
LINE
  5
1CD
330
61
100
AcDbEntity
  8
0
  6
Continuous
 62
     7
100
AcDbLine
 10
329.0917194663387
 20
892.9000000000003
 30
0.0
 11
329.0917194663387
 21
893.2
 31
0.0
  0
LINE
  5
1CE
330
61
100
AcDbEntity
  8
0
  6
Continuous
 62
     7
100
AcDbLine
 10
299.6968050702387
 20
1010.983326056452
 30
0.0
 11
299.1430583624388
 21
985.3339182675004
 31
0.0
  0
LINE
  5
22E
330
61
100
AcDbEntity
  8
0
  6
Continuous
 62
     7
100
AcDbLine
 10
324.1382885007388
 20
984.8446647168004
 30
0.0
 11
324.6921553491386
 21
1010.513887324752
 31
0.0
  0
LINE
  5
22F
330
61
100
AcDbEntity
  8
1
  6
Continuous
 62
     7
100
AcDbLine
 10
294.0917193173386
 20
893.2
 30
0.0
 11
329.0917194663387
 21
893.2
 31
0.0
  0
LINE
  5
230
330
61
100
AcDbEntity
  8
0
  6
Continuous
 62
     7
100
AcDbLine
 10
294.0917193173386
 20
893.2
 30
0.0
 11
294.0917193173386
 21
892.9000000000003
 31
0.0
  0
LINE
  5
231
330
61
100
AcDbEntity
  8
0
  6
Continuous
 62
     7
100
AcDbLine
 10
329.0917194663387
 20
893.2
 30
0.0
 11
329.0917194663387
 21
1019.004478346888
 31
0.0
  0
ARC
  5
232
330
61
100
AcDbEntity
  8
0
  6
Continuous
 62
     7
100
AcDbCircle
 10
696.3450900648254
 20
990.2746418837175
 30
0.0
 40
100.0000000000002
100
AcDbArc
 50
161.3330839216996
 51
174.6667303835001
  0
ARC
  5
233
330
61
100
AcDbEntity
  8
0
  6
Continuous
 62
     7
100
AcDbCircle
 10
714.5913515373683
 20
1019.0024796725
 30
0.0
 40
0.5
100
AcDbArc
 50
90.0
 51
180.0
  0
ARC
  5
234
330
61
100
AcDbEntity
  8
0
  6
Continuous
 62
     7
100
AcDbCircle
 10
748.5913515373683
 20
1019.0024796725
 30
0.0
 40
0.5
100
AcDbArc
 50
0.0
 51
90.0
  0
ARC
  5
235
330
61
100
AcDbEntity
  8
0
  6
Continuous
 62
     7
100
AcDbCircle
 10
328.5917193918388
 20
1019.004478341787
 30
0.0
 40
0.5
100
AcDbArc
 50
0.0
 51
90.0
  0
ARC
  5
236
330
61
100
AcDbEntity
  8
0
  6
Continuous
 62
     7
100
AcDbCircle
 10
294.5917193918388
 20
1019.004478341787
 30
0.0
 40
0.5
100
AcDbArc
 50
90.0
 51
180.0
  0
SPLINE
  5
237
330
61
100
AcDbEntity
  8
0
  6
Continuous
 62
     7
100
AcDbSpline
210
0.0
220
0.0
230
1.0
 70
     8
 71
     3
 72
    11
 73
     7
 74
     5
 42
0.000000001
 43
0.0000000001
 44
0.00000001
 40
0.0
 40
0.0
 40
0.0
 40
0.0
 40
0.008142954034365
 40
0.0162636415303786
 40
0.0694423936871542
 40
0.1235821582787333
 40
0.1235821582787333
 40
0.1235821582787333
 40
0.1235821582787333
 10
602.6781709335297
 20
1022.956774158423
 30
0.0
 10
602.6755816803434
 20
1022.957588393308
 30
0.0
 10
602.6704102499311
 20
1022.959214622929
 30
0.0
 10
602.6481691342152
 20
1022.965655368962
 30
0.0
 10
602.609470339889
 20
1022.969681506376
 30
0.0
 10
602.5737488009557
 20
1022.967991451123
 30
0.0
 10
602.5557280920001
 20
1022.967138847356
 30
0.0
 11
602.6781709335297
 21
1022.956774158423
 31
0.0
 11
602.6703937675577
 21
1022.959187332208
 31
0.0
 11
602.6625843189211
 21
1022.96141400749
 31
0.0
 11
602.6098550997438
 21
1022.968313973272
 31
0.0
 11
602.5557280920001
 21
1022.967138847356
 31
0.0
  0
SPLINE
  5
238
330
61
100
AcDbEntity
  8
0
  6
Continuous
 62
     7
100
AcDbSpline
210
0.0
220
0.0
230
1.0
 70
     8
 71
     3
 72
    23
 73
    19
 74
    17
 42
0.000000001
 43
0.0000000001
 44
0.00000001
 40
0.0
 40
0.0
 40
0.0
 40
0.0
 40
0.0072345063634152
 40
0.0145920595923604
 40
0.069643021741359
 40
0.1319062341022497
 40
0.1972302806879785
 40
0.3207034604274685
 40
0.4426124225506737
 40
0.5525900052980722
 40
0.6637500454434853
 40
0.7760444943489455
 40
0.8654796697377038
 40
0.9545558156524023
 40
1.042770563978528
 40
1.130216179299338
 40
1.21982999278587
 40
1.310218962632582
 40
1.310218962632582
 40
1.310218962632582
 40
1.310218962632582
 10
596.7753292463275
 20
999.4189902749106
 30
0.0
 10
596.7753689923184
 20
999.4165791011341
 30
0.0
 10
596.7754491746605
 20
999.4117157437984
 30
0.0
 10
596.7760477738211
 20
999.3885082451367
 30
0.0
 10
596.7798853620603
 20
999.3470606692115
 30
0.0
 10
596.7896575412624
 20
999.2869402559874
 30
0.0
 10
596.8078787825847
 20
999.2052200509702
 30
0.0
 10
596.8392077023511
 20
999.1062197287315
 30
0.0
 10
596.8891475339185
 20
998.9984356362949
 30
0.0
 10
596.9497401635599
 20
998.9011800905303
 30
0.0
 10
597.0183566237245
 20
998.8134976605829
 30
0.0
 10
597.0905618712541
 20
998.7380162126142
 30
0.0
 10
597.1632224374521
 20
998.6737095019126
 30
0.0
 10
597.2349421394363
 20
998.6209092077228
 30
0.0
 10
597.3114787328234
 20
998.5765819866285
 30
0.0
 10
597.3935174650745
 20
998.5426507193727
 30
0.0
 10
597.4804817494838
 20
998.5219294129297
 30
0.0
 10
597.5397531240808
 20
998.5126207070721
 30
0.0
 10
597.569516434476
 20
998.5079463180356
 30
0.0
 11
596.7753292463275
 21
999.4189902749106
 31
0.0
 11
596.7754596086806
 21
999.4117569421022
 31
0.0
 11
596.7756570718735
 21
999.4044020381017
 31
0.0
 11
596.7802504060386
 21
999.3495430389199
 31
0.0
 11
596.7900732604849
 21
999.2880595522843
 31
0.0
 11
596.8042971036882
 21
999.2243028786226
 31
0.0
 11
596.8418321140047
 21
999.106673163863
 31
0.0
 11
596.8931378267262
 21
998.9960860070037
 31
0.0
 11
596.9511260720244
 21
998.902638523973
 31
0.0
 11
597.0195045513968
 21
998.8149975640589
 31
0.0
 11
597.0970304153415
 21
998.7337585147666
 31
0.0
 11
597.1641648075778
 21
998.6746685519203
 31
0.0
 11
597.2360785034089
 21
998.6221044952507
 31
0.0
 11
597.3125939815652
 21
998.5782043418379
 31
0.0
 11
597.3935337207766
 21
998.5451060887619
 31
0.0
 11
597.480413391354
 21
998.5231388740469
 31
0.0
 11
597.569516434476
 21
998.5079463180356
 31
0.0
  0
SPLINE
  5
239
330
61
100
AcDbEntity
  8
0
  6
Continuous
 62
     7
100
AcDbSpline
210
0.0
220
0.0
230
1.0
 70
     8
 71
     3
 72
    17
 73
    13
 74
    11
 42
0.000000001
 43
0.0000000001
 44
0.00000001
 40
0.0
 40
0.0
 40
0.0
 40
0.0
 40
0.194158911369957
 40
0.385655175101857
 40
0.5118594824907418
 40
0.6383067948816907
 40
0.7465349398286908
 40
0.854900747037737
 40
0.9438705513023027
 40
1.027543329878748
 40
1.05507071797654
 40
1.081891675684535
 40
1.081891675684535
 40
1.081891675684535
 40
1.081891675684535
 10
602.5557280920001
 20
1022.967138847356
 30
0.0
 10
602.4914042658091
 20
1022.960094077699
 30
0.0
 10
602.363638736475
 20
1022.946101134213
 30
0.0
 10
602.1964823454348
 20
1022.905949038097
 30
0.0
 10
602.0625322801278
 20
1022.841333646352
 30
0.0
 10
601.9620844485383
 20
1022.774625199978
 30
0.0
 10
601.8741097039225
 20
1022.701278315255
 30
0.0
 10
601.8030561035453
 20
1022.628020004737
 30
0.0
 10
601.7443716213984
 20
1022.554899215486
 30
0.0
 10
601.7073381112539
 20
1022.499203224542
 30
0.0
 10
601.6854150431448
 20
1022.458742024696
 30
0.0
 10
601.6772108749637
 20
1022.442589923478
 30
0.0
 10
601.6731621168109
 20
1022.434618843739
 30
0.0
 11
602.5557280920001
 21
1022.967138847356
 31
0.0
 11
602.363218754315
 21
1022.941883403069
 31
0.0
 11
602.1780432603807
 21
1022.893089389448
 31
0.0
 11
602.0640711126546
 21
1022.838887205386
 31
0.0
 11
601.9585044525118
 21
1022.769284022992
 31
0.0
 11
601.8754387269013
 21
1022.699905232849
 31
0.0
 11
601.7999560974092
 21
1022.62215228567
 31
0.0
 11
601.7443577850846
 21
1022.552693996241
 31
0.0
 11
601.6985983989687
 21
1022.482642492299
 31
0.0
 11
601.6854127401841
 21
1022.458478561394
 31
0.0
 11
601.6731621168109
 21
1022.434618843739
 31
0.0
  0
SPLINE
  5
23A
330
61
100
AcDbEntity
  8
0
  6
Continuous
 62
     7
100
AcDbSpline
210
0.0
220
0.0
230
1.0
 70
     8
 71
     3
 72
   117
 73
   113
 74
   111
 42
0.000000001
 43
0.0000000001
 44
0.00000001
 40
0.0
 40
0.0
 40
0.0
 40
0.0
 40
0.0075005537167956
 40
0.0172719677276093
 40
0.0315954659814916
 40
0.052756273090028
 40
0.0830390216451312
 40
0.1256819338961012
 40
0.1794358379106243
 40
0.2432652351057936
 40
0.3161343822970671
 40
0.3970074500698302
 40
0.5111208426351669
 40
0.6367118698087116
 40
0.7738031099106197
 40
0.9224174473873819
 40
1.089719693057919
 40
1.268920408632114
 40
1.459341782505577
 40
1.660306782335387
 40
1.87561211062036
 40
2.100726312154385
 40
2.335182512788556
 40
2.578515404718214
 40
2.866784408089917
 40
3.165399915199694
 40
3.473733399969013
 40
3.791162390235035
 40
4.117071106268083
 40
4.460609155600963
 40
4.81197599817706
 40
5.170686824788929
 40
5.53627772328641
 40
5.908308073109563
 40
6.272628585290955
 40
6.642253469788287
 40
7.016937607812372
 40
7.396491017952372
 40
7.710361070381701
 40
8.02711583475024
 40
8.346521775458786
 40
8.668403118204113
 40
8.99264788895086
 40
9.254798684476647
 40
9.518303857140062
 40
9.783060410125236
 40
10.04900893485616
 40
10.32264432972216
 40
10.59726976795715
 40
10.8726774286684
 40
11.14870291316822
 40
11.41907176231351
 40
11.68970549830539
 40
11.96039112707347
 40
12.23091739128751
 40
12.45457018280268
 40
12.67791275262844
 40
12.90086656502505
 40
13.12333440848884
 40
13.34520186322901
 40
13.60936320951268
 40
13.8724550251395
 40
14.13440693651781
 40
14.39510646825229
 40
14.65440235405992
 40
14.98523790400553
 40
15.31344437169149
 40
15.63894624727468
 40
15.9616015086815
 40
16.34284197661298
 40
16.71953742654868
 40
17.09142655350727
 40
17.45819287692331
 40
17.81947068242019
 40
18.18471881798906
 40
18.54334040710035
 40
18.89491985770517
 40
19.23902317882919
 40
19.57519982055339
 40
19.84646511095608
 40
20.11162684930275
 40
20.37029970744678
 40
20.62209534505249
 40
20.86662266437829
 40
21.10348805669334
 40
21.30704435724322
 40
21.5039537280852
 40
21.6939201864107
 40
21.87664709042549
 40
22.05183718727103
 40
22.21919266047264
 40
22.37841517808161
 40
22.51733357162927
 40
22.64858255994128
 40
22.7716212605424
 40
22.88590862287897
 40
22.99090345213885
 40
23.08874852715446
 40
23.17712226142918
 40
23.25692711996859
 40
23.3290655423498
 40
23.39443995019573
 40
23.43112553136195
 40
23.46461534164242
 40
23.4938883419015
 40
23.51792356242172
 40
23.53570023678688
 40
23.54619846743773
 40
23.54841333685112
 40
23.5555513118384
 40
23.55904021854928
 40
23.56288657331756
 40
23.56288657331756
 40
23.56288657331756
 40
23.56288657331756
 10
623.3588518045398
 20
993.0199138429216
 30
0.0
 10
623.3575217949989
 20
993.0220310533443
 30
0.0
 10
623.3544591170645
 20
993.026906487335
 30
0.0
 10
623.348561566978
 20
993.035634746896
 30
0.0
 10
623.3397709706719
 20
993.0478953848807
 30
0.0
 10
623.3266830151098
 20
993.0654830507773
 30
0.0
 10
623.3076819127322
 20
993.0904343173132
 30
0.0
 10
623.2818640526281
 20
993.1238489076356
 30
0.0
 10
623.2490345070042
 20
993.1659763822472
 30
0.0
 10
623.2098588099402
 20
993.2159314848757
 30
0.0
 10
623.1649668141907
 20
993.2728913745088
 30
0.0
 10
623.109552713427
 20
993.3428994806103
 30
0.0
 10
623.0430444669864
 20
993.426538938766
 30
0.0
 10
622.9646189210986
 20
993.5246433030968
 30
0.0
 10
622.8787288240596
 20
993.6315031937925
 30
0.0
 10
622.7838105310926
 20
993.7489440740567
 30
0.0
 10
622.6797092756133
 20
993.8770101244828
 30
0.0
 10
622.5663884196014
 20
994.0155397781001
 30
0.0
 10
622.4454750712259
 20
994.1623543115927
 30
0.0
 10
622.3163595411493
 20
994.3180031523152
 30
0.0
 10
622.1792363510856
 20
994.4820327552471
 30
0.0
 10
622.0342320644072
 20
994.6540223950475
 30
0.0
 10
621.8823994108907
 20
994.8324719784374
 30
0.0
 10
621.7159886399149
 20
995.0261546329335
 30
0.0
 10
621.5344853046528
 20
995.2350615192165
 30
0.0
 10
621.3372903789298
 20
995.45902966052
 30
0.0
 10
621.1319935165714
 20
995.6888048958658
 30
0.0
 10
620.9187603561379
 20
995.9236768412754
 30
0.0
 10
620.6955501320116
 20
996.1653248468864
 30
0.0
 10
620.4623208545461
 20
996.4131001534462
 30
0.0
 10
620.2188102665705
 20
996.6661876492558
 30
0.0
 10
619.9670414087723
 20
996.9214956487085
 30
0.0
 10
619.7069121390123
 20
997.1781884405409
 30
0.0
 10
619.4416274002724
 20
997.4322639354575
 30
0.0
 10
619.1713417368549
 20
997.6829974423979
 30
0.0
 10
618.8959469678578
 20
997.9294450654978
 30
0.0
 10
618.611797088184
 20
998.173617834369
 30
0.0
 10
618.3366372639833
 20
998.3996098277421
 30
0.0
 10
618.0717390518855
 20
998.6075268584864
 30
0.0
 10
617.818328761438
 20
998.7974894989229
 30
0.0
 10
617.5581665179142
 20
998.9827478213112
 30
0.0
 10
617.2910671704076
 20
999.1623807427279
 30
0.0
 10
617.0350019377133
 20
999.3240053219768
 30
0.0
 10
616.7912390647127
 20
999.4684216606532
 30
0.0
 10
616.5610069115565
 20
999.5965934492344
 30
0.0
 10
616.3260715397012
 20
999.7187050871071
 30
0.0
 10
616.0844812354516
 20
999.8350773690411
 30
0.0
 10
615.8362060991914
 20
999.9448365608228
 30
0.0
 10
615.5813899403283
 20
1000.047210188334
 30
0.0
 10
615.3223414826475
 20
1000.140731346824
 30
0.0
 10
615.0613572737248
 20
1000.224177267253
 30
0.0
 10
614.7989194170295
 20
1000.297197699102
 30
0.0
 10
614.5356612953448
 20
1000.359916535603
 30
0.0
 10
614.2701872652135
 20
1000.412738378702
 30
0.0
 10
614.0183788174436
 20
1000.45306838562
 30
0.0
 10
613.7810110385344
 20
1000.482704354857
 30
0.0
 10
613.5586438301445
 20
1000.503633376176
 30
0.0
 10
613.3361534794037
 20
1000.517981669895
 30
0.0
 10
613.1138369053916
 20
1000.525949607888
 30
0.0
 10
612.8776502914609
 20
1000.527853459412
 30
0.0
 10
612.6279590197223
 20
1000.522463003657
 30
0.0
 10
612.3652096744896
 20
1000.508759565577
 30
0.0
 10
612.1041174993755
 20
1000.487596861322
 30
0.0
 10
611.8449552186916
 20
1000.459515600798
 30
0.0
 10
611.5638340796296
 20
1000.421816934107
 30
0.0
 10
611.261605654722
 20
1000.372918668475
 30
0.0
 10
610.939200394881
 20
1000.311409881968
 30
0.0
 10
610.6211518652813
 20
1000.242220467894
 30
0.0
 10
610.2876221914349
 20
1000.161497544936
 30
0.0
 10
609.9395215523532
 20
1000.068798893841
 30
0.0
 10
609.5778673436898
 20
999.9636222178293
 30
0.0
 10
609.2230716072471
 20
999.8524432852612
 30
0.0
 10
608.8752761490653
 20
999.7363394043182
 30
0.0
 10
608.5315204913619
 20
999.6152942223102
 30
0.0
 10
608.1920884162957
 20
999.490263627983
 30
0.0
 10
607.8573848985967
 20
999.3618473138624
 30
0.0
 10
607.5308331396561
 20
999.2319397674721
 30
0.0
 10
607.2126648770749
 20
999.1012605976899
 30
0.0
 10
606.9204679745294
 20
998.9778582377943
 30
0.0
 10
606.6534156185161
 20
998.8625828399465
 30
0.0
 10
606.4107876252205
 20
998.755927824179
 30
0.0
 10
606.1747508248413
 20
998.6504189965324
 30
0.0
 10
605.945586130208
 20
998.5464017378105
 30
0.0
 10
605.7235745656601
 20
998.4442213826894
 30
0.0
 10
605.5166265840443
 20
998.3477784670428
 30
0.0
 10
605.3244266290367
 20
998.2572705138681
 30
0.0
 10
605.146668103338
 20
998.172792609771
 30
0.0
 10
604.9754525257141
 20
998.090725280054
 30
0.0
 10
604.8110108622776
 20
998.0112774434838
 30
0.0
 10
604.6535741263438
 20
997.9346579459893
 30
0.0
 10
604.5033733143506
 20
997.8610756642241
 30
0.0
 10
604.364189377447
 20
997.7924885660622
 30
0.0
 10
604.2359241136327
 20
997.7289729785707
 30
0.0
 10
604.1185645085449
 20
997.6706142621235
 30
0.0
 10
604.0086370670123
 20
997.6157495037687
 30
0.0
 10
603.90660393203
 20
997.5646648421888
 30
0.0
 10
603.8121277671721
 20
997.5172446643253
 30
0.0
 10
603.7254024486406
 20
997.4736381776651
 30
0.0
 10
603.6462039866368
 20
997.4337530160606
 30
0.0
 10
603.5746786412934
 20
997.3976848233086
 30
0.0
 10
603.510006110443
 20
997.3650461637991
 30
0.0
 10
603.4581779892243
 20
997.3388801222488
 30
0.0
 10
603.417821071736
 20
997.3185264730048
 30
0.0
 10
603.3882642964275
 20
997.3036142726398
 30
0.0
 10
603.3622680655267
 20
997.290611588465
 30
0.0
 10
603.341473105741
 20
997.2800455519882
 30
0.0
 10
603.3249111862548
 20
997.2722297630439
 30
0.0
 10
603.317343265305
 20
997.2679192841781
 30
0.0
 10
603.3092443992375
 20
997.2649998681017
 30
0.0
 10
603.3176120726035
 20
997.2692756866829
 30
0.0
 10
603.3210270783433
 20
997.271204223226
 30
0.0
 10
603.3232622493106
 20
997.2724149655916
 30
0.0
 10
603.3244342945071
 20
997.2730498369975
 30
0.0
 11
623.3588518045398
 21
993.0199138429216
 31
0.0
 11
623.3548313654776
 21
993.026245854903
 31
0.0
 11
623.3493811864417
 21
993.0343561001929
 31
0.0
 11
623.341071527459
 21
993.0460228121004
 31
0.0
 11
623.3284726485556
 21
993.063024223934
 31
0.0
 11
623.3101548097582
 21
993.0871385690023
 31
0.0
 11
623.2841079427309
 21
993.1209021392983
 31
0.0
 11
623.2510791819673
 21
993.1633118452046
 31
0.0
 11
623.2116993649329
 21
993.2135455186935
 31
0.0
 11
623.1665993290939
 21
993.2707809917367
 31
0.0
 11
623.1164099119159
 21
993.3341960963061
 31
0.0
 11
623.0453890242077
 21
993.4235151863962
 31
0.0
 11
622.9669711440422
 21
993.5216158598911
 31
0.0
 11
622.8810890185395
 21
993.6284721582364
 31
0.0
 11
622.7876753948183
 21
993.744058122878
 31
0.0
 11
622.6821463991278
 21
993.8738798206446
 31
0.0
 11
622.5686823380873
 21
994.0125838342905
 31
0.0
 11
622.4476252060413
 21
994.1595718285168
 31
0.0
 11
622.3193169973345
 21
994.3142454680251
 31
0.0
 11
622.1812209849484
 21
994.4794298370473
 31
0.0
 11
622.0361128047606
 21
994.651534513887
 31
0.0
 11
621.8841762542077
 21
994.8300982129847
 31
0.0
 11
621.7255951307268
 21
995.0146596487808
 31
0.0
 11
621.5365130254684
 21
995.23225325115
 31
0.0
 11
621.339164217635
 21
995.456361861313
 31
0.0
 11
621.1337142838952
 21
995.6862745894783
 31
0.0
 11
620.920328800918
 21
995.9212805458549
 31
0.0
 11
620.6991733453722
 21
996.1606688406515
 31
0.0
 11
620.4636603157036
 21
996.4107728274539
 31
0.0
 11
620.219996607601
 21
996.6639262501741
 31
0.0
 11
619.9680807249297
 21
996.9192923505211
 31
0.0
 11
619.7078111715533
 21
997.1760343702026
 31
0.0
 11
619.4390864513368
 21
997.4333155509279
 31
0.0
 11
619.1719104401801
 21
997.6809976348154
 31
0.0
 11
618.896391833616
 21
997.9273957936915
 31
0.0
 11
618.6121383101128
 21
998.1715026098271
 31
0.0
 11
618.3187575481387
 21
998.412310665493
 31
0.0
 11
618.0717909989436
 21
998.6060164563323
 31
0.0
 11
617.818276193972
 21
998.7959212335874
 31
0.0
 11
617.5580308665056
 21
998.9811036423233
 31
0.0
 11
617.2908727498259
 21
999.1606423276045
 31
0.0
 11
617.0166195772143
 21
999.3336159344958
 31
0.0
 11
616.7910434344872
 21
999.4671765702916
 31
0.0
 11
616.5607761231704
 21
999.5952856697563
 31
0.0
 11
616.3258234126399
 21
999.7173235989768
 31
0.0
 11
616.0861910722705
 21
999.832670724039
 31
0.0
 11
615.8359016948849
 21
999.9432670933053
 31
0.0
 11
615.581052158742
 21
1000.04559424149
 31
0.0
 11
615.3219878190904
 21
1000.13905571751
 31
0.0
 11
615.0590540311786
 21
1000.223055070286
 31
0.0
 11
614.7985824385698
 21
1000.29553861345
 31
0.0
 11
614.535317334806
 21
1000.358261051167
 31
0.0
 11
614.2698347499704
 21
1000.411078725909
 31
0.0
 11
614.0027107141467
 21
1000.453847980147
 31
0.0
 11
613.7807852883875
 21
1000.481591025197
 31
0.0
 11
613.5584284909368
 21
1000.502551896308
 31
0.0
 11
613.3359387990844
 21
1000.516930334157
 31
0.0
 11
613.1136146901217
 21
1000.52492607942
 31
0.0
 11
612.8917546413393
 21
1000.526738872772
 31
0.0
 11
612.6276532815516
 21
1000.521109608367
 31
0.0
 11
612.364914841897
 21
1000.507478182672
 31
0.0
 11
612.1038136094837
 21
1000.4863843377
 31
0.0
 11
611.8446238714204
 21
1000.458367815467
 31
0.0
 11
611.587619914815
 21
1000.423968357985
 31
0.0
 11
611.2610123088539
 21
1000.371246134791
 31
0.0
 11
610.9385979307327
 21
1000.309858398271
 31
0.0
 11
610.6205095687901
 21
1000.240784054342
 31
0.0
 11
610.306880011365
 21
1000.16500200892
 31
0.0
 11
609.9384489250435
 21
1000.067007983583
 31
0.0
 11
609.5767070616859
 21
999.9619257002051
 31
0.0
 11
609.2217988087534
 21
999.8508326998159
 31
0.0
 11
608.8738685537079
 21
999.7348065234462
 31
0.0
 11
608.5330606840105
 21
999.6149247121259
 31
0.0
 11
608.1903061078345
 21
999.4887284323212
 31
0.0
 11
607.8554630797585
 21
999.3603166310077
 31
0.0
 11
607.5287640595885
 21
999.2304095091861
 31
0.0
 11
607.2104415071309
 21
999.099727267856
 31
0.0
 11
606.9007278821917
 21
998.9689901080176
 31
0.0
 11
606.651669329132
 21
998.861497341182
 31
0.0
 11
606.4089199993196
 21
998.754803806439
 31
0.0
 11
606.1727608894039
 21
998.6492551335814
 31
0.0
 11
605.9434729960353
 21
998.5451969524039
 31
0.0
 11
605.7213373158643
 21
998.4429748927005
 31
0.0
 11
605.5066348455401
 21
998.3429345842644
 31
0.0
 11
605.3224743647814
 21
998.2562161616576
 31
0.0
 11
605.1446256915817
 21
998.1716990050222
 31
0.0
 11
604.9733197776185
 21
998.0895921287613
 31
0.0
 11
604.8087875745692
 21
998.0101045472779
 31
0.0
 11
604.6512600341123
 21
997.9334452749756
 31
0.0
 11
604.5009681079251
 21
997.8598233262569
 31
0.0
 11
604.3581427476853
 21
997.7894477155253
 31
0.0
 11
604.2336507771456
 21
997.7278030131023
 31
0.0
 11
604.1161288157034
 21
997.6693659913478
 31
0.0
 11
604.0060389180794
 21
997.6144229637044
 31
0.0
 11
603.9038431389946
 21
997.5632602436145
 31
0.0
 11
603.8100035331697
 21
997.5161641445208
 31
0.0
 11
603.7225866849468
 21
997.472210153217
 31
0.0
 11
603.6436567898412
 21
997.4324610831873
 31
0.0
 11
603.5723983506159
 21
997.3965298949851
 31
0.0
 11
603.5079958700339
 21
997.3640295491639
 31
0.0
 11
603.4496338508577
 21
997.334573006277
 31
0.0
 11
603.416879592356
 21
997.3180505846778
 31
0.0
 11
603.3869700210278
 21
997.3029845654438
 31
0.0
 11
603.3608113148939
 21
997.289845667562
 31
0.0
 11
603.3393096519751
 21
997.2791046100182
 31
0.0
 11
603.3233712102926
 21
997.2712321117995
 31
0.0
 11
603.3139021678674
 21
997.266698891892
 31
0.0
 11
603.3118087027199
 21
997.2659756692822
 31
0.0
 11
603.3179969928713
 21
997.2695331629563
 31
0.0
 11
603.3210568545205
 21
997.2712093839637
 31
0.0
 11
603.3244342945071
 21
997.2730498369975
 31
0.0
  0
SPLINE
  5
23B
330
61
100
AcDbEntity
  8
0
  6
Continuous
 62
     7
100
AcDbSpline
210
0.0
220
0.0
230
1.0
 70
     8
 71
     3
 72
    69
 73
    65
 74
    63
 42
0.000000001
 43
0.0000000001
 44
0.00000001
 40
0.0
 40
0.0
 40
0.0
 40
0.0
 40
0.0223043361400994
 40
0.0583467145993965
 40
0.1219060659782115
 40
0.2174224882611038
 40
0.3451279159770752
 40
0.500002354489066
 40
0.6825667580194597
 40
0.888199885167535
 40
1.116699665190045
 40
1.450385020742281
 40
1.819631789334499
 40
2.220980461507406
 40
2.66394060643949
 40
3.134770268775831
 40
3.631032115163835
 40
4.297226303030782
 40
4.996934804765539
 40
5.726311167097578
 40
6.503779138661718
 40
7.305843580011826
 40
8.129883535159667
 40
9.148809750731026
 40
10.19311644914414
 40
10.91933004601032
 40
11.65470603187547
 40
12.39794059748267
 40
12.92072254431021
 40
13.44627077895643
 40
13.97407115597095
 40
14.51740944845529
 40
15.06165205167577
 40
15.60582117482222
 40
16.13597503757362
 40
16.66425176127637
 40
17.18964266163925
 40
17.72838152087093
 40
18.26207779666518
 40
18.78971930339697
 40
19.50444010078552
 40
20.20396117205385
 40
20.8999731371774
 40
21.57650451364745
 40
22.35067292476227
 40
23.09200399762355
 40
23.5757975494854
 40
24.041858707397
 40
24.48909213845689
 40
24.9873837452295
 40
25.45664298041255
 40
25.89518164124961
 40
26.31254564365465
 40
26.69197368032211
 40
27.0299187667382
 40
27.31046292762126
 40
27.55289839757813
 40
27.75984078430087
 40
27.89635930171051
 40
28.00537806141738
 40
28.07926466220282
 40
28.1104035212247
 40
28.11458164961257
 40
28.12899037506758
 40
28.12899037506758
 40
28.12899037506758
 40
28.12899037506758
 10
714.0969673379612
 20
999.2722603947391
 30
0.0
 10
714.1013799498147
 20
999.2662758386743
 30
0.0
 10
714.1129230738433
 20
999.2506206336125
 30
0.0
 10
714.1355185844789
 20
999.2168324378977
 30
0.0
 10
714.170673967928
 20
999.1621161486646
 30
0.0
 10
714.2215304244502
 20
999.0811696427096
 30
0.0
 10
714.2880681488057
 20
998.9741338208677
 30
0.0
 10
714.369411098932
 20
998.84213591959
 30
0.0
 10
714.4638635543586
 20
998.6877063172718
 30
0.0
 10
714.5704921035966
 20
998.511956934145
 30
0.0
 10
714.7024525850505
 20
998.2926587713453
 30
0.0
 10
714.8613730796664
 20
998.0259354898991
 30
0.0
 10
715.0480791643146
 20
997.7087050226564
 30
0.0
 10
715.2511987496903
 20
997.3588768658652
 30
0.0
 10
715.4688285602828
 20
996.9783285611079
 30
0.0
 10
715.6991063549833
 20
996.5685810629373
 30
0.0
 10
715.9619075918856
 20
996.0917741869167
 30
0.0
 10
716.2558766968776
 20
995.5450585677532
 30
0.0
 10
716.5782922537708
 20
994.9254766492106
 30
0.0
 10
716.907729125217
 20
994.2678256626348
 30
0.0
 10
717.2402784385146
 20
993.5736896849984
 30
0.0
 10
717.5710718464829
 20
992.84389762218
 30
0.0
 10
717.9153669157915
 20
992.0321224871732
 30
0.0
 10
718.2639431266858
 20
991.1348104442777
 30
0.0
 10
718.5650868059103
 20
990.2547651223229
 30
0.0
 10
718.8035240060556
 20
989.4540525056384
 30
0.0
 10
718.9870270277978
 20
988.7421951696493
 30
0.0
 10
719.126580012971
 20
988.0895899301267
 30
0.0
 10
719.2285169436075
 20
987.5010605607531
 30
0.0
 10
719.3003680846265
 20
986.9805077015191
 30
0.0
 10
719.3538199626423
 20
986.4508427924997
 30
0.0
 10
719.3867371048354
 20
985.9132402838043
 30
0.0
 10
719.3976712109223
 20
985.3692768736596
 30
0.0
 10
719.3855810929881
 20
984.8297185924448
 30
0.0
 10
719.350280698726
 20
984.2965210290106
 30
0.0
 10
719.2929803703371
 20
983.7715405285692
 30
0.0
 10
719.2130708538784
 20
983.2466260519873
 30
0.0
 10
719.1102493913204
 20
982.7238685517939
 30
0.0
 10
718.9855168402521
 20
982.2051466462915
 30
0.0
 10
718.824212786872
 20
981.6353763574638
 30
0.0
 10
718.6196997578184
 20
981.0209321114365
 30
0.0
 10
718.3657420284725
 20
980.3647034734529
 30
0.0
 10
718.0884745804888
 20
979.7318879912292
 30
0.0
 10
717.7755818561754
 20
979.0881744678081
 30
0.0
 10
717.4314193264901
 20
978.4434168041846
 30
0.0
 10
717.0966421056146
 20
977.867031393209
 30
0.0
 10
716.8010760783208
 20
977.3869622554695
 30
0.0
 10
716.5495081505608
 20
976.9950304726635
 30
0.0
 10
716.2886840100222
 20
976.6033856254109
 30
0.0
 10
716.0209918676503
 20
976.2151026690368
 30
0.0
 10
715.7489097888509
 20
975.8334444816771
 30
0.0
 10
715.4874974428918
 20
975.477362615256
 30
0.0
 10
715.2398365869352
 20
975.148390498873
 30
0.0
 10
715.0090291507854
 20
974.8486736895054
 30
0.0
 10
714.8036099076619
 20
974.587177467696
 30
0.0
 10
714.6243820529191
 20
974.362632437905
 30
0.0
 10
714.4717147438539
 20
974.1744207363853
 30
0.0
 10
714.3461751037307
 20
974.0213393415193
 30
0.0
 10
714.2532836515702
 20
973.9104609028135
 30
0.0
 10
714.1763733249892
 20
973.8164069886495
 30
0.0
 10
714.1475360486672
 20
973.7878043337541
 30
0.0
 10
714.1012339376636
 20
973.7276321042011
 30
0.0
 10
714.1089488402745
 20
973.7449002850844
 30
0.0
 10
714.1127340024642
 20
973.7494961194438
 30
0.0
 10
714.1156682952602
 20
973.7530588627332
 30
0.0
 11
714.0969673379612
 21
999.2722603947391
 31
0.0
 11
714.1100987249695
 21
999.2542312506409
 31
0.0
 11
714.1303507346925
 21
999.2244166706352
 31
0.0
 11
714.1648439898446
 21
999.1710312188143
 31
0.0
 11
714.2157668057756
 21
999.0902212339209
 31
0.0
 11
714.2832231924634
 21
998.9817854835355
 31
0.0
 11
714.3645009233906
 21
998.8499521732801
 31
0.0
 11
714.4597638011671
 21
998.6942128257831
 31
0.0
 11
714.5664372577859
 21
998.5184124986353
 31
0.0
 11
714.6842593535141
 21
998.322631743597
 31
0.0
 11
714.8550609234911
 21
998.035973860835
 31
0.0
 11
715.0423508962441
 21
997.7177512296233
 31
0.0
 11
715.2438724621489
 21
997.3706636101473
 31
0.0
 11
715.463750980649
 21
996.9861286606005
 31
0.0
 11
715.6944009748431
 21
996.5756641050725
 31
0.0
 11
715.9339210226493
 21
996.1410309643024
 31
0.0
 11
716.2492905043704
 21
995.5542117534958
 31
0.0
 11
716.5721587372866
 21
994.9334476342408
 31
0.0
 11
716.8986883222415
 21
994.2812449753757
 31
0.0
 11
717.2342855236519
 21
993.5799383624343
 31
0.0
 11
717.5650965942948
 21
992.8492733203354
 31
0.0
 11
717.8865216880398
 21
992.0905060589785
 31
0.0
 11
718.2544530153033
 21
991.1403286169434
 31
0.0
 11
718.5915384649593
 21
990.1519208670134
 31
0.0
 11
718.7983502036873
 21
989.4557778550845
 31
0.0
 11
718.9814355684769
 21
988.7435576715452
 31
0.0
 11
719.136353789206
 21
988.0166477978701
 31
0.0
 11
719.2254107050895
 21
987.5015072057192
 31
0.0
 11
719.2970899522998
 21
986.9808700648281
 31
0.0
 11
719.3498930170492
 21
986.4557176352017
 31
0.0
 11
719.3830062977586
 21
985.9133893114625
 31
0.0
 11
719.3938153562548
 21
985.3692540567512
 31
0.0
 11
719.3814639210058
 21
984.8252251267904
 31
0.0
 11
719.3464814504168
 21
984.296226691123
 31
0.0
 11
719.2891670916736
 21
983.7710682758981
 31
0.0
 11
719.2100651770187
 21
983.2516662300101
 31
0.0
 11
719.1062433716857
 21
982.7230259069445
 31
0.0
 11
718.9815916637205
 21
982.2040907795121
 31
0.0
 11
718.837955242331
 21
981.6963761568538
 31
0.0
 11
718.6126709216819
 21
981.0180894969094
 31
0.0
 11
718.3605974748087
 21
980.3655646265021
 31
0.0
 11
718.0816528894774
 21
979.7278949832848
 31
0.0
 11
717.786262950237
 21
979.1192575812804
 31
0.0
 11
717.4221343287057
 21
978.4360686793506
 31
0.0
 11
717.0502340629056
 21
977.7947715938558
 31
0.0
 11
716.7966716792224
 21
977.382749363393
 31
0.0
 11
716.5449982243373
 21
976.9904822668719
 31
0.0
 11
716.2971796675877
 21
976.6181870818606
 31
0.0
 11
716.0143971963004
 21
976.2079083969317
 31
0.0
 11
715.7420518718247
 21
975.8257667294355
 31
0.0
 11
715.4825983777005
 21
975.4722132802476
 31
0.0
 11
715.2315927178865
 21
975.1387633301158
 31
0.0
 11
715.0001005237302
 21
974.8381356549879
 31
0.0
 11
714.7913633122404
 21
974.5723619580734
 31
0.0
 11
714.6163018355946
 21
974.3531394555788
 31
0.0
 11
714.4636223394582
 21
974.1648207667753
 31
0.0
 11
714.3322045191483
 21
974.0049629927149
 31
0.0
 11
714.2449447287656
 21
973.8999723522834
 31
0.0
 11
714.1748055029515
 21
973.8165123081276
 31
0.0
 11
714.1267404413766
 21
973.7603965382145
 31
0.0
 11
714.1057031437115
 21
973.7374387205114
 31
0.0
 11
714.1074071253147
 21
973.7412535848757
 31
0.0
 11
714.1156682952602
 21
973.7530588627332
 31
0.0
  0
SPLINE
  5
23C
330
61
100
AcDbEntity
  8
0
  6
Continuous
 62
     7
100
AcDbSpline
210
0.0
220
0.0
230
1.0
 70
     8
 71
     3
 72
    17
 73
    13
 74
    11
 42
0.000000001
 43
0.0000000001
 44
0.00000001
 40
0.0
 40
0.0
 40
0.0
 40
0.0
 40
0.8378680591888416
 40
1.677484415489776
 40
2.544086701897245
 40
3.422172934960765
 40
4.293838706251431
 40
5.178931105963267
 40
6.113457730798785
 40
7.057470468886479
 40
7.755757098890692
 40
8.456558469648593
 40
8.456558469648593
 40
8.456558469648593
 40
8.456558469648593
 10
301.9175893841868
 20
977.5546478569853
 30
0.0
 10
301.7411731851491
 20
977.7711635529074
 30
0.0
 10
301.3879726880925
 20
978.2046467359537
 30
0.0
 10
300.8851614033545
 20
978.8886498788104
 30
0.0
 10
300.4456989751343
 20
979.631260796129
 30
0.0
 10
300.0694569225134
 20
980.4190879080637
 30
0.0
 10
299.7531514037181
 20
981.2393410126738
 30
0.0
 10
299.4946311680968
 20
982.0992531099635
 30
0.0
 10
299.297176539532
 20
983.0000437952631
 30
0.0
 10
299.1873844788601
 20
983.8534084003982
 30
0.0
 10
299.155421803987
 20
984.6342270210114
 30
0.0
 10
299.1533895395577
 20
985.1005847696829
 30
0.0
 10
299.1523715882188
 20
985.3341827631343
 30
0.0
 11
301.9175893841868
 21
977.5546478569853
 31
0.0
 11
301.3937454576882
 21
978.2085671384503
 31
0.0
 11
300.9018936409241
 21
978.8890356660233
 31
0.0
 11
300.4589496402098
 21
979.6338847354248
 31
0.0
 11
300.0790021597035
 21
980.4255130231726
 31
0.0
 11
299.7651384394047
 21
981.2387108976915
 31
0.0
 11
299.5099752424842
 21
982.0862250864848
 31
0.0
 11
299.3112621310231
 21
982.9993806664547
 31
0.0
 11
299.1926326631194
 21
983.9359099507675
 31
0.0
 11
299.159704025309
 21
984.6334197521664
 31
0.0
 11
299.1523715882188
 21
985.3341827631343
 31
0.0
  0
SPLINE
  5
23D
330
61
100
AcDbEntity
  8
0
  6
Continuous
 62
     7
100
AcDbSpline
210
0.0
220
0.0
230
1.0
 70
     8
 71
     3
 72
    25
 73
    21
 74
    19
 42
0.000000001
 43
0.0000000001
 44
0.00000001
 40
0.0
 40
0.0
 40
0.0
 40
0.0
 40
0.7634551701043409
 40
1.487530931595457
 40
2.141066041629108
 40
2.719891168373065
 40
3.081147196763452
 40
3.399494358260982
 40
3.667558603280836
 40
3.878364454183212
 40
3.992144616579725
 40
4.07649354256223
 40
4.143202462818821
 40
4.219998459027872
 40
4.332494646096741
 40
4.482560941532639
 40
4.668018673820996
 40
4.905311108798286
 40
5.011316909386619
 40
5.12265397527296
 40
5.12265397527296
 40
5.12265397527296
 40
5.12265397527296
 10
305.0291040693724
 20
998.6436111419017
 30
0.0
 10
304.798819478652
 20
998.7519102790895
 30
0.0
 10
304.3501284961164
 20
998.9629224322914
 30
0.0
 10
303.7108931702192
 20
999.2807968132081
 30
0.0
 10
303.1433954531133
 20
999.602714831916
 30
0.0
 10
302.692157453989
 20
999.8831252484829
 30
0.0
 10
302.3385459189068
 20
1000.108721877526
 30
0.0
 10
302.0716102776822
 20
1000.277775676464
 30
0.0
 10
301.8440938601856
 20
1000.414778658072
 30
0.0
 10
301.6684796225115
 20
1000.506843470755
 30
0.0
 10
301.5394964460156
 20
1000.551257568459
 30
0.0
 10
301.4496884037648
 20
1000.561705778749
 30
0.0
 10
301.3756646809426
 20
1000.525835313239
 30
0.0
 10
301.346391663922
 20
1000.439298296048
 30
0.0
 10
301.3518517571331
 20
1000.3263874298
 30
0.0
 10
301.3770615292753
 20
1000.178773057672
 30
0.0
 10
301.4248929980044
 20
999.9937025680091
 30
0.0
 10
301.4886625206492
 20
999.828896365398
 30
0.0
 10
301.5523202726998
 20
999.6913810473167
 30
0.0
 10
301.5837750367571
 20
999.626115276577
 30
0.0
 10
301.5998882023001
 20
999.5926819308218
 30
0.0
 11
305.0291040693724
 21
998.6436111419017
 31
0.0
 11
304.3394553325188
 21
998.9710991597813
 31
0.0
 11
303.6930645597482
 21
999.2973884134104
 31
0.0
 11
303.1241206560018
 21
999.6189641810058
 31
0.0
 11
302.6313214344287
 21
999.9225880517176
 31
0.0
 11
302.3263578199065
 21
1000.116245255439
 31
0.0
 11
302.0568053019549
 21
1000.285615728658
 31
0.0
 11
301.8261125618243
 21
1000.422141557898
 31
0.0
 11
301.6371150282527
 21
1000.515517362815
 31
0.0
 11
301.5286653389776
 21
1000.549935246225
 31
0.0
 11
301.4443768901134
 21
1000.55312882499
 31
0.0
 11
301.3854701187524
 21
1000.521822715738
 31
0.0
 11
301.3545377892756
 21
1000.451531776648
 31
0.0
 11
301.3531839189884
 21
1000.339043736415
 31
0.0
 11
301.3768979129696
 21
1000.190862969917
 31
0.0
 11
301.4235831552431
 21
1000.011377430958
 31
0.0
 11
301.5076807481552
 21
999.7894871546439
 31
0.0
 11
301.5518170357795
 21
999.6931065658094
 31
0.0
 11
301.5998882023001
 21
999.5926819308218
 31
0.0
  0
SPLINE
  5
23E
330
61
100
AcDbEntity
  8
0
  6
Continuous
 62
     7
100
AcDbSpline
210
0.0
220
0.0
230
1.0
 70
     8
 71
     3
 72
    45
 73
    41
 74
    39
 42
0.000000001
 43
0.0000000001
 44
0.00000001
 40
0.0
 40
0.0
 40
0.0
 40
0.0
 40
0.1357204665149374
 40
0.2643647551727489
 40
0.4918544541626308
 40
0.6691231745495034
 40
0.8054851264684568
 40
0.9023657349959446
 40
0.970651080861838
 40
1.040680372459525
 40
1.164953498710985
 40
1.340614943308176
 40
1.564849513040964
 40
1.832370564365725
 40
2.315219215789081
 40
2.875675019081372
 40
3.50404561664321
 40
4.193863228969316
 40
4.958861924133675
 40
5.781123061472607
 40
6.656597197012598
 40
7.582937544098426
 40
8.238247575550526
 40
8.912941826124502
 40
9.603847986813456
 40
10.30814580248549
 40
11.02557519615516
 40
11.74845800213532
 40
12.47195101741065
 40
13.19117361861564
 40
13.85134086839555
 40
14.50094730531166
 40
15.1375731232405
 40
15.75826078430611
 40
16.40468621859902
 40
17.02935392102607
 40
17.63148170246401
 40
18.20737607371702
 40
18.40637442103279
 40
18.6034775644647
 40
18.6034775644647
 40
18.6034775644647
 40
18.6034775644647
 10
321.5998663348467
 20
999.6265597207957
 30
0.0
 10
321.6188629011766
 20
999.667618512422
 30
0.0
 10
321.6558655889359
 20
999.7475953790829
 30
0.0
 10
321.7222705447278
 20
999.897512106586
 30
0.0
 10
321.7846596065439
 20
1000.06425925304
 30
0.0
 10
321.8307295241543
 20
1000.239131697879
 30
0.0
 10
321.8500007122062
 20
1000.374658339887
 30
0.0
 10
321.8479684357367
 20
1000.476594197387
 30
0.0
 10
321.8029628700692
 20
1000.549465906321
 30
0.0
 10
321.7093582223865
 20
1000.563792613908
 30
0.0
 10
321.5915081434376
 20
1000.523892392923
 30
0.0
 10
321.4349866976987
 20
1000.446068789391
 30
0.0
 10
321.244206750767
 20
1000.331279938478
 30
0.0
 10
320.9703771192263
 20
1000.156557833847
 30
0.0
 10
320.6034258175515
 20
999.9193118326245
 30
0.0
 10
320.1307708587857
 20
999.6241156889935
 30
0.0
 10
319.5899142176582
 20
999.3082309979984
 30
0.0
 10
318.9764418765192
 20
998.9823953916944
 30
0.0
 10
318.2889817143257
 20
998.6598622838071
 30
0.0
 10
317.5286616131921
 20
998.3493777633498
 30
0.0
 10
316.7023045669036
 20
998.0613689098822
 30
0.0
 10
315.9144898391561
 20
997.8355521290042
 30
0.0
 10
315.1818225979746
 20
997.6647821019317
 30
0.0
 10
314.5200163681243
 20
997.5381318284424
 30
0.0
 10
313.837566985829
 20
997.4353285941777
 30
0.0
 10
313.1372815437226
 20
997.359086664107
 30
0.0
 10
312.4237144011683
 20
997.3124713639686
 30
0.0
 10
311.702449024552
 20
997.2953483665365
 30
0.0
 10
310.9804872915275
 20
997.3075801017918
 30
0.0
 10
310.2805052190618
 20
997.348485148878
 30
0.0
 10
309.607380671561
 20
997.416047769851
 30
0.0
 10
308.964631087469
 20
997.5055509665732
 30
0.0
 10
308.3385937396962
 20
997.616449848287
 30
0.0
 10
307.7181406650583
 20
997.7503124929365
 30
0.0
 10
307.1072716931434
 20
997.9074833645345
 30
0.0
 10
306.5088697424752
 20
998.0863054628703
 30
0.0
 10
305.9395893949214
 20
998.2790434708068
 30
0.0
 10
305.5105708241217
 20
998.4426189616493
 30
0.0
 10
305.2112132803463
 20
998.5665693631958
 30
0.0
 10
305.0896132002434
 20
998.6180125904667
 30
0.0
 10
305.0291040693724
 20
998.6436111419017
 30
0.0
 11
321.5998663348467
 21
999.6265597207957
 31
0.0
 11
321.6565105134735
 21
999.7498945684877
 31
0.0
 11
321.7080869493388
 21
999.8677471219113
 31
0.0
 11
321.7864644319307
 21
1000.081308666922
 31
0.0
 11
321.8303854358698
 21
1000.253050172191
 31
0.0
 11
321.8475743154466
 21
1000.388324428137
 31
0.0
 11
321.8372846735026
 21
1000.484657057982
 31
0.0
 11
321.7977301591179
 21
1000.540319693125
 31
0.0
 11
321.7296517235544
 21
1000.556733974676
 31
0.0
 11
321.6089041426639
 21
1000.527342948495
 31
0.0
 11
321.4504756746196
 21
1000.451465652745
 31
0.0
 11
321.2570794053786
 21
1000.337979859022
 31
0.0
 11
321.0309744593999
 21
1000.194997110826
 31
0.0
 11
320.6245244362675
 21
999.9343417852343
 31
0.0
 11
320.1486115125323
 21
999.6383390887196
 31
0.0
 11
319.6056306574855
 21
999.3220774900032
 31
0.0
 11
318.9961557058004
 21
998.9989852099234
 31
0.0
 11
318.3037529411684
 21
998.673713915391
 31
0.0
 11
317.5426275250817
 21
998.3625845550115
 31
0.0
 11
316.7158936419234
 21
998.074546279133
 31
0.0
 11
315.8253720742968
 21
997.8194428174307
 31
0.0
 11
315.1872241608518
 21
997.670451281214
 31
0.0
 11
314.5245845211055
 21
997.5434826253465
 31
0.0
 11
313.8413755428214
 21
997.4406389826223
 31
0.0
 11
313.1411979687716
 21
997.3645681081828
 31
0.0
 11
312.4253122901403
 21
997.3175295068659
 31
0.0
 11
311.7026359672042
 21
997.3002528338247
 31
0.0
 11
310.9792485305635
 21
997.3126124310146
 31
0.0
 11
310.2612658534513
 21
997.3548264740521
 31
0.0
 11
309.6043853834596
 21
997.4206204388801
 31
0.0
 11
308.9609768488759
 21
997.5101412771753
 31
0.0
 11
308.3341299959498
 21
997.6212963715573
 31
0.0
 11
307.7274428927654
 21
997.7523838667685
 31
0.0
 11
307.1013821201764
 21
997.9133613530505
 31
0.0
 11
306.5028321710731
 21
998.0921005396657
 31
0.0
 11
305.9326097197666
 21
998.2855022487896
 31
0.0
 11
305.3946761195863
 21
998.4911275594048
 31
0.0
 11
305.2107285701354
 21
998.5670462082459
 31
0.0
 11
305.0291040693724
 21
998.6436111419017
 31
0.0
  0
SPLINE
  5
23F
330
61
100
AcDbEntity
  8
0
  6
Continuous
 62
     7
100
AcDbSpline
210
0.0
220
0.0
230
1.0
 70
     8
 71
     3
 72
    19
 73
    15
 74
    13
 42
0.000000001
 43
0.0000000001
 44
0.00000001
 40
0.0
 40
0.0
 40
0.0
 40
0.0
 40
0.3825241400938318
 40
0.7649205982301235
 40
1.464784712728889
 40
2.164930449972745
 40
2.864984231873892
 40
3.564298060995519
 40
4.263025762298497
 40
4.961889546681156
 40
5.660562127876224
 40
6.357497632704789
 40
6.793448043293724
 40
7.22958862220101
 40
7.22958862220101
 40
7.22958862220101
 40
7.22958862220101
 10
312.1849346189385
 20
1022.997133949261
 30
0.0
 10
312.057446919422
 20
1022.994836915879
 30
0.0
 10
311.8025140745551
 20
1022.990243601306
 30
0.0
 10
311.3145093722583
 20
1022.972683313366
 30
0.0
 10
310.7221702026834
 20
1022.921129851533
 30
0.0
 10
310.0292106982055
 20
1022.819700433321
 30
0.0
 10
309.3425897448207
 20
1022.682692763337
 30
0.0
 10
308.664896342728
 20
1022.508388693297
 30
0.0
 10
307.998870800955
 20
1022.295106413
 30
0.0
 10
307.3452322446627
 20
1022.047360636644
 30
0.0
 10
306.704325111046
 20
1021.769728767508
 30
0.0
 10
306.1609442002422
 20
1021.489783735108
 30
0.0
 10
305.7142363248953
 20
1021.217445247901
 30
0.0
 10
305.4703027278939
 20
1021.059328535772
 30
0.0
 10
305.3483093372172
 20
1020.98025293411
 30
0.0
 11
312.1849346189385
 21
1022.997133949261
 31
0.0
 11
311.802494890988
 21
1022.989098265584
 31
0.0
 11
311.4203887216838
 21
1022.974201062184
 31
0.0
 11
310.7230876605808
 21
1022.914359527895
 31
0.0
 11
310.030207036119
 21
1022.813758862626
 31
0.0
 11
309.3437605200527
 21
1022.676403562276
 31
0.0
 11
308.6665893188305
 21
1022.501821213823
 31
0.0
 11
308.0009442978335
 21
1022.289366260277
 31
0.0
 11
307.3472037194854
 21
1022.042315968734
 31
0.0
 11
306.7070543392572
 21
1021.762401431296
 31
0.0
 11
306.0886493167466
 21
1021.441007082772
 31
0.0
 11
305.7153785021534
 21
1021.215792385698
 31
0.0
 11
305.3483093372172
 21
1020.98025293411
 31
0.0
  0
SPLINE
  5
240
330
61
100
AcDbEntity
  8
0
  6
Continuous
 62
     7
100
AcDbSpline
210
0.0
220
0.0
230
1.0
 70
     8
 71
     3
 72
    21
 73
    17
 74
    15
 42
0.000000001
 43
0.0000000001
 44
0.00000001
 40
0.0
 40
0.0
 40
0.0
 40
0.0
 40
0.1623071236233337
 40
0.3245817870854194
 40
1.01983422052061
 40
1.717629476926553
 40
2.415411723555136
 40
3.112778942294496
 40
3.811206508957035
 40
4.510385615046607
 40
5.209859741578499
 40
5.909676576242434
 40
6.61003798264685
 40
7.310173407014841
 40
7.682051818634392
 40
8.054019825227018
 40
8.054019825227018
 40
8.054019825227018
 40
8.054019825227018
 10
319.7021681098827
 20
1020.518912517887
 30
0.0
 10
319.6599258407244
 20
1020.552715854317
 30
0.0
 10
319.5754497416759
 20
1020.620315755675
 30
0.0
 10
319.3070625150715
 20
1020.828997311024
 30
0.0
 10
318.8744860130246
 20
1021.116673875861
 30
0.0
 10
318.2654664452071
 20
1021.45602735881
 30
0.0
 10
317.643290080987
 20
1021.772046737609
 30
0.0
 10
317.0059719356745
 20
1022.057263230332
 30
0.0
 10
316.3523418570969
 20
1022.304241609465
 30
0.0
 10
315.6851167979721
 20
1022.513875125455
 30
0.0
 10
315.0070002776229
 20
1022.686859691305
 30
0.0
 10
314.3202227714992
 20
1022.823343978272
 30
0.0
 10
313.6270006975142
 20
1022.923618806895
 30
0.0
 10
313.0379030620563
 20
1022.97377512313
 30
0.0
 10
312.5568162696036
 20
1022.990589544748
 30
0.0
 10
312.3089051227441
 20
1022.994952310746
 30
0.0
 10
312.1849346189385
 20
1022.997133949261
 30
0.0
 11
319.7021681098827
 21
1020.518912517887
 31
0.0
 11
319.5752054318876
 21
1020.620026716121
 31
0.0
 11
319.4468655838256
 21
1020.719334067267
 31
0.0
 11
318.8706286720185
 21
1021.108341743407
 31
0.0
 11
318.2633720553104
 21
1021.452082370829
 31
0.0
 11
317.640673927407
 21
1021.766958705397
 31
0.0
 11
317.0036525680309
 21
1022.050727674228
 31
0.0
 11
316.3504230632262
 21
1022.297896204551
 31
0.0
 11
315.6834702222234
 21
1022.507718348366
 31
0.0
 11
315.005732339351
 21
1022.68073688873
 31
0.0
 11
314.3193636769987
 21
1022.817271345716
 31
0.0
 11
313.6261131937378
 21
1022.916819641987
 31
0.0
 11
312.9284369042701
 21
1022.975449034434
 31
0.0
 11
312.5568245678023
 21
1022.989514035118
 31
0.0
 11
312.1849346189385
 21
1022.997133949261
 31
0.0
  0
SPLINE
  5
241
330
61
100
AcDbEntity
  8
0
  6
Continuous
 62
     7
100
AcDbSpline
210
0.0
220
0.0
230
1.0
 70
     8
 71
     3
 72
    41
 73
    37
 74
    35
 42
0.000000001
 43
0.0000000001
 44
0.00000001
 40
0.0
 40
0.0
 40
0.0
 40
0.0
 40
0.1596628737075066
 40
0.3192065992066274
 40
1.11277562399071
 40
1.903526313493204
 40
2.710870172258112
 40
3.50632881495875
 40
4.22704342866645
 40
4.939329092144964
 40
5.657595582694781
 40
6.369133116327882
 40
7.206671996479617
 40
8.040974330011613
 40
8.89181444390735
 40
9.745507080716202
 40
10.75250319208152
 40
11.77038615214734
 40
12.8322606214598
 40
13.9089038554002
 40
14.94631141826691
 40
15.99572845305654
 40
17.09372280496342
 40
18.19852278754649
 40
19.15414470110388
 40
20.10892266275995
 40
21.08941730380305
 40
22.06359208346413
 40
22.9778489873772
 40
23.88263899688893
 40
24.79938602732879
 40
25.70637818928363
 40
26.71441823043284
 40
27.70949586534673
 40
28.72220462248614
 40
29.73330143174704
 40
29.73330143174704
 40
29.73330143174704
 40
29.73330143174704
 10
324.1223777859098
 20
984.8443629682404
 30
0.0
 10
324.1238753864678
 20
984.7911629457362
 30
0.0
 10
324.1268694569258
 20
984.6848026008339
 30
0.0
 10
324.1321763480528
 20
984.3138906255532
 30
0.0
 10
324.0921186471131
 20
983.7323772128723
 30
0.0
 10
323.9643955023197
 20
982.9450472873746
 30
0.0
 10
323.7991615543731
 20
982.1641453970967
 30
0.0
 10
323.5915950479249
 20
981.4172580228719
 30
0.0
 10
323.3399761968286
 20
980.7176952698036
 30
0.0
 10
323.0520056234628
 20
980.0604153142613
 30
0.0
 10
322.7232590441177
 20
979.4259794045013
 30
0.0
 10
322.3315658008619
 20
978.778988270203
 30
0.0
 10
321.8714321128344
 20
978.1303200447288
 30
0.0
 10
321.3328387697662
 20
977.4834992605588
 30
0.0
 10
320.7427381381729
 20
976.8757336608135
 30
0.0
 10
320.0652749169727
 20
976.276188833133
 30
0.0
 10
319.2970926435718
 20
975.6992193271171
 30
0.0
 10
318.4241561843947
 20
975.1523330520833
 30
0.0
 10
317.4878760706476
 20
974.6696585143198
 30
0.0
 10
316.5088565804879
 20
974.2637213886188
 30
0.0
 10
315.5048092800087
 20
973.9381383863189
 30
0.0
 10
314.471988566303
 20
973.6882296988783
 30
0.0
 10
313.4007505429771
 20
973.5149499190466
 30
0.0
 10
312.3505221435233
 20
973.4273453428002
 30
0.0
 10
311.3447946519281
 20
973.4161267700872
 30
0.0
 10
310.3819192020632
 20
973.469381363142
 30
0.0
 10
309.4186874761193
 20
973.5886134927537
 30
0.0
 10
308.4791761573708
 20
973.7711153399066
 30
0.0
 10
307.5786030089826
 20
974.0101138218217
 30
0.0
 10
306.7141279225203
 20
974.302665871842
 30
0.0
 10
305.8743225548877
 20
974.6538214183602
 30
0.0
 10
305.0297737857626
 20
975.0768881225882
 30
0.0
 10
304.1940324272587
 20
975.5712674450203
 30
0.0
 10
303.3768626049896
 20
976.160044601583
 30
0.0
 10
302.6289563721253
 20
976.835388199614
 30
0.0
 10
302.1545857657559
 20
977.3150219761714
 30
0.0
 10
301.9175893841868
 20
977.5546478569853
 30
0.0
 11
324.1223777859098
 21
984.8443629682404
 31
0.0
 11
324.1265023698214
 21
984.684753374167
 31
0.0
 11
324.1284118248712
 21
984.5252210736617
 31
0.0
 11
324.0799571558989
 21
983.7331327274511
 31
0.0
 11
323.9591662986765
 21
982.9516621768814
 31
0.0
 11
323.7900857833924
 21
982.1622219409666
 31
0.0
 11
323.5750776930341
 21
981.3963721037254
 31
0.0
 11
323.3314308183764
 21
980.7180906321445
 31
0.0
 11
323.0458517773636
 21
980.0655605733738
 31
0.0
 11
322.7152681351993
 21
979.4278920020162
 31
0.0
 11
322.3466967447284
 21
978.8192535281524
 31
0.0
 11
321.8622306534265
 21
978.1360522531361
 31
0.0
 11
321.3285506917718
 21
977.4947675407273
 31
0.0
 11
320.7360045190755
 21
976.8841793548012
 31
0.0
 11
320.0969119771011
 21
976.3181830287322
 31
0.0
 11
319.292016061828
 21
975.7130518576836
 31
0.0
 11
318.4297081297824
 21
975.1722092271193
 31
0.0
 11
317.4861227980686
 21
974.6851526485904
 31
0.0
 11
316.4917580998132
 21
974.2723579049451
 31
0.0
 11
315.5050589908645
 21
973.9519841854001
 31
0.0
 11
314.4851302477158
 21
973.7049589395863
 31
0.0
 11
313.4012792688559
 21
973.5292926289042
 31
0.0
 11
312.3003046475908
 21
973.4374346673827
 31
0.0
 11
311.3447429374822
 21
973.426708063588
 31
0.0
 11
310.3914274816028
 21
973.4795341730456
 31
0.0
 11
309.4183618004351
 21
973.600003760432
 31
0.0
 11
308.462099519614
 21
973.785957926546
 31
0.0
 11
307.5785039393418
 21
974.0207440786124
 31
0.0
 11
306.7215915052777
 21
974.3111679792743
 31
0.0
 11
305.8757197284681
 21
974.6646167811979
 31
0.0
 11
305.0646587489729
 21
975.070590758358
 31
0.0
 11
304.1985404560267
 21
975.5863269588116
 31
0.0
 11
303.3930902584081
 21
976.170646631752
 31
0.0
 11
302.6353208852902
 21
976.8424833718451
 31
0.0
 11
301.9175893841868
 21
977.5546478569853
 31
0.0
  0
LWPOLYLINE
  5
242
330
61
100
AcDbEntity
  8
0
  6
Continuous
 62
     7
100
AcDbPolyline
 90
       45
 70
     0
 43
0.0
 10
319.7183721913386
 20
1020.506157589552
 10
320.3467522962387
 20
1020.010438331852
 10
321.4102295442388
 20
1019.001388040752
 10
322.3443377046388
 20
1017.876486110952
 10
323.1359637557387
 20
1016.651523814952
 10
323.7739960877386
 20
1015.343696627252
 10
324.2494763090388
 20
1013.971363709752
 10
324.5557314931386
 20
1012.553789702652
 10
324.6884617238386
 20
1011.110873942652
 10
324.6458034245386
 20
1009.662872230152
 10
324.4283563672386
 20
1008.230111145852
 10
324.0391724957387
 20
1006.832703532152
 10
323.4837149484388
 20
1005.490266302052
 10
322.7697807579386
 20
1004.221642905352
 10
321.9073937489386
 20
1003.044643954752
 10
320.9086573897387
 20
1001.975790181652
 10
319.7875936730386
 20
1001.030087986452
 10
318.5599391563387
 20
1000.220810578652
 10
317.2429274982387
 20
999.5593200935517
 10
315.8550468488386
 20
999.0549018173517
 10
314.4157800107387
 20
998.7146375267517
 10
312.9453307465387
 20
998.5433021126518
 10
311.4643411809386
 20
998.5433021126518
 10
309.9936011695386
 20
998.7146375267517
 10
308.5537565621387
 20
999.0549018173517
 10
307.1650197944387
 20
999.5593200935517
 10
305.8468858926387
 20
1000.220810578652
 10
304.6178581407387
 20
1001.030087986452
 10
303.4951892896388
 20
1001.975790181652
 10
302.4946396453388
 20
1003.044643954752
 10
301.6302540181387
 20
1004.221642905352
 10
300.9141675411388
 20
1005.490266302052
 10
300.3564319788386
 20
1006.832703532152
 10
299.9648760287387
 20
1008.230111145852
 10
299.7449972881386
 20
1009.662872230152
 10
299.6998821600387
 20
1011.110873942652
 10
299.8301639436386
 20
1012.553789702652
 10
300.1340125902386
 20
1013.971363709752
 10
300.6071645050388
 20
1015.343696627252
 10
301.2429774953387
 20
1016.651523814952
 10
302.0325248344386
 20
1017.876486110952
 10
302.9647237836387
 20
1019.001388040752
 10
304.0264878636388
 20
1020.010438331852
 10
305.2029131195386
 20
1020.889472266152
 10
305.3302956959387
 20
1020.972338089252
  0
LWPOLYLINE
  5
243
330
61
100
AcDbEntity
  8
0
  6
Continuous
 62
     7
100
AcDbPolyline
 90
       52
 70
     1
 43
0.0
 10
312.1887165453386
 20
1022.317260553552
 10
313.6162535502388
 20
1022.231140689452
 10
315.0222966196386
 20
1021.974087276952
 10
316.3855314469388
 20
1021.549996504052
 10
317.6852931483386
 20
1020.965297290552
 10
318.9018788962387
 20
1020.228853033352
 10
320.0168452440387
 20
1019.351827496152
 10
321.0132924123386
 20
1018.347515541552
 10
321.8761134176386
 20
1017.231141499652
 10
322.5922296969386
 20
1016.019628374752
 10
323.1507848231386
 20
1014.731341615252
 10
323.5433130739386
 20
1013.385810240552
 10
323.7638632981386
 20
1012.003431146452
 10
323.8090920476386
 20
1010.605159731052
 10
323.6783138691387
 20
1009.212192663452
 10
323.3735115482386
 20
1007.845645820252
 10
322.8993053762388
 20
1006.526234143852
 10
322.2628833009387
 20
1005.273959183552
 10
321.4738938241387
 20
1004.107803621752
 10
320.5442960588387
 20
1003.045445823552
 10
319.4881827785387
 20
1002.102989287552
 10
318.3215629524386
 20
1001.294721433352
 10
317.0621214649386
 20
1000.632894740852
 10
315.7289504288387
 20
1000.127541416752
 10
314.3422593111386
 20
999.7863215892518
 10
312.9230688773387
 20
999.6144087551518
 10
311.4928924678386
 20
999.6144087551518
 10
310.0734101590388
 20
999.7863215892518
 10
308.6861398751387
 20
1000.127541416752
 10
307.3521113238387
 20
1000.632894740852
 10
306.0915471269386
 20
1001.294721433352
 10
304.9235554626387
 20
1002.102989287552
 10
303.8658426358386
 20
1003.045445823552
 10
302.9344418300386
 20
1004.107803621752
 10
302.1434732927387
 20
1005.273959183552
 10
301.5049259393386
 20
1006.526234143852
 10
301.0284808679387
 20
1007.845645820252
 10
300.7213595538387
 20
1009.212192663452
 10
300.5882167472387
 20
1010.605159731052
 10
300.6310734181386
 20
1012.003431146452
 10
300.8492767094388
 20
1013.385810240552
 10
301.2395213572386
 20
1014.731341615252
 10
301.7958916007387
 20
1016.019628374752
 10
302.5099515198388
 20
1017.231141499652
 10
303.3708782150386
 20
1018.347515541552
 10
304.3656201316387
 20
1019.351827496152
 10
305.4790986916387
 20
1020.228853033352
 10
306.6944341390388
 20
1020.965297290552
 10
307.9932037490387
 20
1021.549996504052
 10
309.3557188967386
 20
1021.974087276952
 10
310.7613257580388
 20
1022.231140689452
 10
312.1887165453386
 20
1022.317260553552
  0
ENDBLK
  5
63
330
61
100
AcDbEntity
  8
0
100
AcDbBlockEnd
  0
BLOCK
  5
65
330
64
100
AcDbEntity
  8
0
100
AcDbBlockBegin
  2
81-414-1-SH
 70
     0
 10
351.0891018826861
 20
1126.704478413341
 30
0.0
  3
81-414-1-SH
  1

  0
LINE
  5
244
330
64
100
AcDbEntity
  8
1
  6
Continuous
 62
     7
100
AcDbLine
 10
308.5917193917886
 20
1023.704478413338
 30
0.0
 11
307.5917193917886
 21
1023.704478413338
 31
0.0
  0
LINE
  5
245
330
64
100
AcDbEntity
  8
1
  6
Continuous
 62
     7
100
AcDbLine
 10
315.5917193917886
 20
1023.704478413338
 30
0.0
 11
314.5917193917886
 21
1023.704478413338
 31
0.0
  0
LINE
  5
246
330
64
100
AcDbEntity
  8
1
  6
Continuous
 62
     7
100
AcDbLine
 10
314.5917193917886
 20
1023.704478413338
 30
0.0
 11
308.5917193917886
 21
1023.704478413338
 31
0.0
  0
LINE
  5
247
330
64
100
AcDbEntity
  8
1
  6
Continuous
 62
     7
100
AcDbLine
 10
713.5911746825028
 20
1023.704478413338
 30
0.0
 11
714.7911746825033
 21
1023.704478413338
 31
0.0
  0
LINE
  5
248
330
64
100
AcDbEntity
  8
1
  6
Continuous
 62
     7
100
AcDbLine
 10
713.5911746825028
 20
1042.104477988338
 30
0.0
 11
714.7911746825024
 21
1042.104477988338
 31
0.0
  0
LINE
  5
249
330
64
100
AcDbEntity
  8
1
  6
Continuous
 62
     7
100
AcDbLine
 10
713.5911746825028
 20
1042.104477988338
 30
0.0
 11
713.5911746825028
 21
1023.704478413338
 31
0.0
  0
LINE
  5
24A
330
64
100
AcDbEntity
  8
1
  6
Continuous
 62
     7
100
AcDbLine
 10
308.5917193917886
 20
1042.054477988338
 30
0.0
 11
314.5917193917886
 21
1042.054477988338
 31
0.0
  0
LINE
  5
24B
330
64
100
AcDbEntity
  8
1
  6
Continuous
 62
     7
100
AcDbLine
 10
308.5917193917886
 20
1042.054477988338
 30
0.0
 11
308.5917193917886
 21
1023.704478413338
 31
0.0
  0
LINE
  5
24C
330
64
100
AcDbEntity
  8
1
  6
Continuous
 62
     7
100
AcDbLine
 10
314.5917193917886
 20
1042.054477988338
 30
0.0
 11
315.5917193917886
 21
1042.054477988338
 31
0.0
  0
LINE
  5
24D
330
64
100
AcDbEntity
  8
1
  6
Continuous
 62
     7
100
AcDbLine
 10
314.5917193917886
 20
1042.054477988338
 30
0.0
 11
314.5917193917886
 21
1023.704478413338
 31
0.0
  0
LINE
  5
24E
330
64
100
AcDbEntity
  8
1
  6
Continuous
 62
     7
100
AcDbLine
 10
307.5917193917886
 20
1042.054477988338
 30
0.0
 11
308.5917193917886
 21
1042.054477988338
 31
0.0
  0
LINE
  5
24F
330
64
100
AcDbEntity
  8
1
  6
Continuous
 62
     7
100
AcDbLine
 10
316.0917193917886
 20
1041.554477988338
 30
0.0
 11
316.0917193917886
 21
1024.204478413338
 31
0.0
  0
LINE
  5
250
330
64
100
AcDbEntity
  8
1
  6
Continuous
 62
     7
100
AcDbLine
 10
307.0917193917886
 20
1041.554477988338
 30
0.0
 11
307.0917193917886
 21
1024.204478413338
 31
0.0
  0
LINE
  5
251
330
64
100
AcDbEntity
  8
1
  6
Continuous
 62
     7
100
AcDbLine
 10
714.7911746825024
 20
1042.104477988338
 30
0.0
 11
714.7911746825033
 21
1023.704478413338
 31
0.0
  0
ARC
  5
252
330
64
100
AcDbEntity
  8
1
  6
Continuous
 62
     7
100
AcDbCircle
 10
315.5917193917886
 20
1024.204478413338
 30
0.0
 40
0.4999999999998863
100
AcDbArc
 50
270.0
 51
0.0
  0
ARC
  5
253
330
64
100
AcDbEntity
  8
1
  6
Continuous
 62
     7
100
AcDbCircle
 10
307.5917193917886
 20
1024.204478413338
 30
0.0
 40
0.5
100
AcDbArc
 50
180.0
 51
270.0
  0
ARC
  5
254
330
64
100
AcDbEntity
  8
1
  6
Continuous
 62
     7
100
AcDbCircle
 10
307.5917193917886
 20
1041.554477988338
 30
0.0
 40
0.5
100
AcDbArc
 50
90.0
 51
180.0
  0
ARC
  5
255
330
64
100
AcDbEntity
  8
1
  6
Continuous
 62
     7
100
AcDbCircle
 10
315.5917193917886
 20
1041.554477988338
 30
0.0
 40
0.5
100
AcDbArc
 50
0.0
 51
90.0
  0
ENDBLK
  5
66
330
64
100
AcDbEntity
  8
0
100
AcDbBlockEnd
  0
BLOCK
  5
68
330
67
100
AcDbEntity
  8
0
100
AcDbBlockBegin
  2
レバー
 70
     0
 10
830.5929570124421
 20
1098.748916343836
 30
0.0
  3
レバー
  1

  0
LINE
  5
256
330
67
100
AcDbEntity
  8
1
  6
PHANTOM
 62
     5
100
AcDbLine
 10
716.9135814136099
 20
1029.823314485377
 30
0.0
 11
732.4907752159869
 21
1023.5297196643
 31
0.0
  0
LINE
  5
257
330
67
100
AcDbEntity
  8
1
  6
PHANTOM
 62
     5
100
AcDbLine
 10
751.365133212844
 20
1023.529719664299
 30
0.0
 11
732.4907752159869
 21
1023.5297196643
 31
0.0
  0
LINE
  5
258
330
67
100
AcDbEntity
  8
1
  6
PHANTOM
 62
     5
100
AcDbLine
 10
722.5275406757397
 20
1050.328492977321
 30
0.0
 11
708.6789702108133
 21
1056.438350814882
 31
0.0
  0
LINE
  5
259
330
67
100
AcDbEntity
  8
1
  6
PHANTOM
 62
     5
100
AcDbLine
 10
708.3527091500586
 20
1057.217260367016
 30
0.0
 11
709.0292179204043
 21
1058.891678330747
 31
0.0
  0
LINE
  5
25A
330
67
100
AcDbEntity
  8
1
  6
PHANTOM
 62
     5
100
AcDbLine
 10
757.7063702851707
 20
1039.224832176411
 30
0.0
 11
751.365133212844
 21
1023.529719664299
 31
0.0
  0
LINE
  5
25B
330
67
100
AcDbEntity
  8
1
  6
PHANTOM
 62
     5
100
AcDbLine
 10
709.8102921892043
 20
1059.223224687437
 30
0.0
 11
757.3748239284802
 21
1040.005906445201
 31
0.0
  0
LINE
  5
25C
330
67
100
AcDbEntity
  8
1
  6
PHANTOM
 62
     5
100
AcDbLine
 10
716.9135814136099
 20
1029.823314485377
 30
0.0
 11
723.8869617622191
 21
1047.083036510091
 31
0.0
  0
ARC
  5
25D
330
67
100
AcDbEntity
  8
1
  6
PHANTOM
 62
     5
100
AcDbCircle
 10
757.1500599724305
 20
1039.449596132461
 30
0.0
 40
0.6000000000002743
100
AcDbArc
 50
337.9999999999554
 51
67.99999999998754
  0
ARC
  5
25E
330
67
100
AcDbEntity
  8
1
  6
PHANTOM
 62
     5
100
AcDbCircle
 10
709.5855282331494
 20
1058.666914374689
 30
0.0
 40
0.6000000000080945
100
AcDbArc
 50
89.99999999950062
 51
157.9999999994257
  0
ARC
  5
25F
330
67
100
AcDbEntity
  8
1
  6
PHANTOM
 62
     5
100
AcDbCircle
 10
708.9090194627986
 20
1056.992496410967
 30
0.0
 40
0.5999999999997431
100
AcDbArc
 50
158.000000000052
 51
247.4545972306666
  0
ARC
  5
260
330
67
100
AcDbEntity
  8
1
  6
PHANTOM
 62
     5
100
AcDbCircle
 10
717.4146340002347
 20
1029.728729574125
 30
0.0
 40
0.5000000000000866
100
AcDbArc
 50
157.9999999999957
 51
247.9999999999761
  0
ARC
  5
261
330
67
100
AcDbEntity
  8
1
  6
PHANTOM
 62
     5
100
AcDbCircle
 10
721.5690021258023
 20
1048.019552993631
 30
0.0
 40
2.499999999999926
100
AcDbArc
 50
337.9999999999966
 51
67.45459723071126
  0
ARC
  5
262
330
67
100
AcDbEntity
  8
1
  6
PHANTOM
 62
     5
100
AcDbCircle
 10
709.5855282331546
 20
1058.666914374696
 30
0.0
 40
0.6000000000009899
100
AcDbArc
 50
68.00000000001815
 51
90.0
  0
ENDBLK
  5
69
330
67
100
AcDbEntity
  8
0
100
AcDbBlockEnd
  0
BLOCK
  5
6C
330
6A
100
AcDbEntity
  8
0
100
AcDbBlockBegin
  2
27-21-M1
 70
     0
 10
582.1167099910061
 20
1085.366826684177
 30
0.0
  3
27-21-M1
  1

  0
INSERT
  5
6B
330
6A
100
AcDbEntity
  8
1
100
AcDbBlockReference
  2
レバー
 10
830.592957012442
 20
1098.748916343836
 30
0.0
 41
1.0
 42
1.0
 43
1.0
  0
LINE
  5
263
330
6A
100
AcDbEntity
  8
1
  6
Continuous
 62
     7
100
AcDbLine
 10
316.4917193917888
 20
1023.704478413338
 30
0.0
 11
316.4917193917887
 21
1044.054058108247
 31
0.0
  0
LINE
  5
264
330
6A
100
AcDbEntity
  8
1
  6
Continuous
 62
     7
100
AcDbLine
 10
316.4917193917888
 20
1023.704478413338
 30
0.0
 11
328.5917193917886
 21
1023.704478413338
 31
0.0
  0
LINE
  5
265
330
6A
100
AcDbEntity
  8
1
  6
Continuous
 62
     7
100
AcDbLine
 10
716.0917193918013
 20
1023.704478413339
 30
0.0
 11
731.5915266779949
 21
1023.704478413339
 31
0.0
  0
LINE
  5
266
330
6A
100
AcDbEntity
  8
1
  6
Continuous
 62
     7
100
AcDbLine
 10
746.0906299732052
 20
1029.562496395698
 30
0.0
 11
731.5915266779949
 21
1023.704478413339
 31
0.0
  0
LINE
  5
267
330
6A
100
AcDbEntity
  8
1
  6
Continuous
 62
     7
100
AcDbLine
 10
321.5917193917886
 20
1045.054058108247
 30
0.0
 11
321.5917193917886
 21
1047.302661500001
 31
0.0
  0
LINE
  5
268
330
6A
100
AcDbEntity
  8
1
  6
Continuous
 62
     7
100
AcDbLine
 10
302.5917193917886
 20
1048.302661500001
 30
0.0
 11
320.5917193917886
 21
1048.302661500001
 31
0.0
  0
LINE
  5
269
330
6A
100
AcDbEntity
  8
1
  6
Continuous
 62
     7
100
AcDbLine
 10
301.5917193917886
 20
1045.054058108247
 30
0.0
 11
301.5917193917886
 21
1047.302661500001
 31
0.0
  0
LINE
  5
26A
330
6A
100
AcDbEntity
  8
1
  6
Continuous
 62
     7
100
AcDbLine
 10
294.0917193917886
 20
1047.302661500001
 30
0.0
 11
294.0917193917886
 21
1024.204478413338
 31
0.0
  0
LINE
  5
26B
330
6A
100
AcDbEntity
  8
1
  6
Continuous
 62
     7
100
AcDbLine
 10
329.0917193917886
 20
1047.302661500001
 30
0.0
 11
329.0917193917886
 21
1024.204478413338
 31
0.0
  0
LINE
  5
26C
330
6A
100
AcDbEntity
  8
1
  6
Continuous
 62
     7
100
AcDbLine
 10
294.5917193917886
 20
1023.704478413338
 30
0.0
 11
306.6917193917888
 21
1023.704478413338
 31
0.0
  0
LINE
  5
26D
330
6A
100
AcDbEntity
  8
1
  6
Continuous
 62
     7
100
AcDbLine
 10
712.3149720082932
 20
1044.819575000843
 30
0.0
 11
697.1860080335989
 21
1045.296770735981
 31
0.0
  0
LINE
  5
26E
330
6A
100
AcDbEntity
  8
1
  6
Continuous
 62
     7
100
AcDbLine
 10
696.5917193917885
 20
1045.896743552355
 30
0.0
 11
696.5917193917885
 21
1047.7026615
 31
0.0
  0
LINE
  5
26F
330
6A
100
AcDbEntity
  8
1
  6
Continuous
 62
     7
100
AcDbLine
 10
697.1917193917884
 20
1048.302661500001
 30
0.0
 11
714.0917193917884
 21
1048.302661500001
 31
0.0
  0
LINE
  5
270
330
6A
100
AcDbEntity
  8
1
  6
Continuous
 62
     7
100
AcDbLine
 10
715.2911746825031
 20
1023.704478413339
 30
0.0
 11
716.0917193918013
 21
1023.704478413339
 31
0.0
  0
LINE
  5
271
330
6A
100
AcDbEntity
  8
1
  6
Continuous
 62
     7
100
AcDbLine
 10
749.0917193917884
 20
1047.7026615
 30
0.0
 11
749.0917193917884
 21
1030.774937365454
 31
0.0
  0
LINE
  5
272
330
6A
100
AcDbEntity
  8
1
  6
Continuous
 62
     7
100
AcDbLine
 10
714.0917193917884
 20
1048.302661500001
 30
0.0
 11
748.4917193917883
 21
1048.302661500001
 31
0.0
  0
LINE
  5
273
330
6A
100
AcDbEntity
  8
1
  6
Continuous
 62
     7
100
AcDbLine
 10
295.0917193917886
 20
1048.302661500001
 30
0.0
 11
302.5917193917886
 21
1048.302661500001
 31
0.0
  0
LINE
  5
274
330
6A
100
AcDbEntity
  8
1
  6
Continuous
 62
     7
100
AcDbLine
 10
320.5917193917886
 20
1048.302661500001
 30
0.0
 11
328.0917193917886
 21
1048.302661500001
 31
0.0
  0
LINE
  5
275
330
6A
100
AcDbEntity
  8
1
  6
Continuous
 62
     7
100
AcDbLine
 10
302.5917193917886
 20
1045.302427984457
 30
0.0
 11
320.5917193917886
 21
1045.302427984457
 31
0.0
  0
LINE
  5
276
330
6A
100
AcDbEntity
  8
1
  6
Continuous
 62
     7
100
AcDbLine
 10
304.0917193917888
 20
1149.000000000001
 30
0.0
 11
319.0917193917888
 21
1149.000000000001
 31
0.0
  0
LINE
  5
277
330
6A
100
AcDbEntity
  8
1
  6
Continuous
 62
     7
100
AcDbLine
 10
321.5917193917888
 20
1151.500000000001
 30
0.0
 11
321.5917193917888
 21
1168.388202796436
 31
0.0
  0
LINE
  5
278
330
6A
100
AcDbEntity
  8
1
  6
Continuous
 62
     7
100
AcDbLine
 10
301.5917193917888
 20
1151.500000000001
 30
0.0
 11
301.5917193917888
 21
1168.388202796436
 31
0.0
  0
LINE
  5
279
330
6A
100
AcDbEntity
  8
1
  6
Continuous
 62
     7
100
AcDbLine
 10
714.7911746825031
 20
1024.204478413339
 30
0.0
 11
714.7911746825031
 21
1042.319688265952
 31
0.0
  0
LINE
  5
27A
330
6A
100
AcDbEntity
  8
1
  6
Continuous
 62
     7
100
AcDbLine
 10
302.5917193917886
 20
1044.054058108247
 30
0.0
 11
320.5917193917886
 21
1044.054058108247
 31
0.0
  0
LINE
  5
27B
330
6A
100
AcDbEntity
  8
1
  6
Continuous
 62
     7
100
AcDbLine
 10
306.6917193917888
 20
1044.054058108247
 30
0.0
 11
306.6917193917888
 21
1023.704478413338
 31
0.0
  0
LINE
  5
27C
330
6A
100
AcDbEntity
  8
1
  6
Continuous
 62
     7
100
AcDbLine
 10
746.0906299732052
 20
1029.562496395698
 30
0.0
 11
749.0917193917884
 21
1030.774937365454
 31
0.0
  0
ARC
  5
27D
330
6A
100
AcDbEntity
  8
1
  6
Continuous
 62
     7
100
AcDbCircle
 10
748.4917193917883
 20
1047.7026615
 30
0.0
 40
0.6000000000001364
100
AcDbArc
 50
0.0
 51
90.0
  0
ARC
  5
27E
330
6A
100
AcDbEntity
  8
1
  6
Continuous
 62
     7
100
AcDbCircle
 10
311.5917193917888
 20
1184.000000000003
 30
0.0
 40
17.49945529071445
100
AcDbArc
 50
308.6834368800553
 51
231.3165631199443
  0
ARC
  5
27F
330
6A
100
AcDbEntity
  8
1
  6
Continuous
 62
     7
100
AcDbCircle
 10
697.1917193917884
 20
1047.7026615
 30
0.0
 40
0.6000000000010459
100
AcDbArc
 50
90.0
 51
180.0
  0
ARC
  5
280
330
6A
100
AcDbEntity
  8
1
  6
Continuous
 62
     7
100
AcDbCircle
 10
697.1917193917884
 20
1045.896743552355
 30
0.0
 40
0.599999999999909
100
AcDbArc
 50
180.0
 51
269.4545972307182
  0
ARC
  5
281
330
6A
100
AcDbEntity
  8
1
  6
Continuous
 62
     7
100
AcDbCircle
 10
712.2911746825031
 20
1042.319688265952
 30
0.0
 40
2.499999999999613
100
AcDbArc
 50
43.92752774961275
 51
89.45459723070506
  0
ARC
  5
282
330
6A
100
AcDbEntity
  8
1
  6
Continuous
 62
     7
100
AcDbCircle
 10
715.2911746825031
 20
1024.204478413339
 30
0.0
 40
0.5
100
AcDbArc
 50
180.0
 51
270.0
  0
ARC
  5
283
330
6A
100
AcDbEntity
  8
1
  6
Continuous
 62
     7
100
AcDbCircle
 10
712.2911746825031
 20
1042.319688265952
 30
0.0
 40
2.5
100
AcDbArc
 50
0.0
 51
43.92752774961275
  0
ARC
  5
284
330
6A
100
AcDbEntity
  8
1
  6
Continuous
 62
     7
100
AcDbCircle
 10
328.0917193917886
 20
1047.302661500001
 30
0.0
 40
1.0
100
AcDbArc
 50
0.0
 51
90.0
  0
ARC
  5
285
330
6A
100
AcDbEntity
  8
1
  6
Continuous
 62
     7
100
AcDbCircle
 10
295.0917193917886
 20
1047.302661500001
 30
0.0
 40
1.0
100
AcDbArc
 50
90.0
 51
180.0
  0
ARC
  5
286
330
6A
100
AcDbEntity
  8
1
  6
Continuous
 62
     7
100
AcDbCircle
 10
320.5917193917886
 20
1047.302661500001
 30
0.0
 40
1.0
100
AcDbArc
 50
0.0
 51
90.0
  0
ARC
  5
287
330
6A
100
AcDbEntity
  8
1
  6
Continuous
 62
     7
100
AcDbCircle
 10
320.5917193917886
 20
1046.302427984457
 30
0.0
 40
1.0
100
AcDbArc
 50
270.0
 51
0.0
  0
ARC
  5
288
330
6A
100
AcDbEntity
  8
1
  6
Continuous
 62
     7
100
AcDbCircle
 10
302.5917193917886
 20
1046.302427984457
 30
0.0
 40
1.0
100
AcDbArc
 50
180.0
 51
270.0
  0
ARC
  5
289
330
6A
100
AcDbEntity
  8
1
  6
Continuous
 62
     7
100
AcDbCircle
 10
302.5917193917886
 20
1047.302661500001
 30
0.0
 40
1.0
100
AcDbArc
 50
90.0
 51
180.0
  0
ARC
  5
28A
330
6A
100
AcDbEntity
  8
1
  6
Continuous
 62
     7
100
AcDbCircle
 10
294.5917193917886
 20
1024.204478413338
 30
0.0
 40
0.5
100
AcDbArc
 50
180.0
 51
270.0
  0
ARC
  5
28B
330
6A
100
AcDbEntity
  8
1
  6
Continuous
 62
     7
100
AcDbCircle
 10
319.0917193917888
 20
1151.500000000001
 30
0.0
 40
2.5
100
AcDbArc
 50
270.0
 51
0.0
  0
ARC
  5
28C
330
6A
100
AcDbEntity
  8
1
  6
Continuous
 62
     7
100
AcDbCircle
 10
304.0917193917888
 20
1151.500000000001
 30
0.0
 40
2.5
100
AcDbArc
 50
180.0
 51
270.0
  0
ARC
  5
28D
330
6A
100
AcDbEntity
  8
1
  6
Continuous
 62
     7
100
AcDbCircle
 10
324.0917193917888
 20
1168.388202796436
 30
0.0
 40
2.500000000000398
100
AcDbArc
 50
128.6834368800485
 51
180.0
  0
ARC
  5
28E
330
6A
100
AcDbEntity
  8
1
  6
Continuous
 62
     7
100
AcDbCircle
 10
299.0917193917888
 20
1168.388202796436
 30
0.0
 40
2.5
100
AcDbArc
 50
0.0
 51
51.31656311995453
  0
ARC
  5
28F
330
6A
100
AcDbEntity
  8
1
  6
Continuous
 62
     7
100
AcDbCircle
 10
320.5917193917886
 20
1045.054058108247
 30
0.0
 40
1.0
100
AcDbArc
 50
270.0
 51
0.0
  0
ARC
  5
290
330
6A
100
AcDbEntity
  8
1
  6
Continuous
 62
     7
100
AcDbCircle
 10
302.5917193917886
 20
1045.054058108247
 30
0.0
 40
1.0
100
AcDbArc
 50
180.0
 51
270.0
  0
ARC
  5
291
330
6A
100
AcDbEntity
  8
1
  6
Continuous
 62
     7
100
AcDbCircle
 10
328.5917193917886
 20
1024.204478413338
 30
0.0
 40
0.4999999999998863
100
AcDbArc
 50
270.0
 51
0.0
  0
ENDBLK
  5
6D
330
6A
100
AcDbEntity
  8
0
100
AcDbBlockEnd
  0
BLOCK
  5
6F
330
6E
100
AcDbEntity
  8
0
100
AcDbBlockBegin
  2
73-1-32_5-C2
 70
     0
 10
598.3605951314333
 20
713.79271932828
 30
0.0
  3
73-1-32_5-C2
  1

  0
LINE
  5
292
330
6E
100
AcDbEntity
  8
1
  6
Continuous
 62
     7
100
AcDbLine
 10
286.6029719241913
 20
771.7000000000004
 30
0.0
 11
295.5917193918017
 21
771.7000000000004
 31
0.0
  0
LINE
  5
293
330
6E
100
AcDbEntity
  8
1
  6
Continuous
 62
     7
100
AcDbLine
 10
286.5917193918017
 20
771.2000000000007
 30
0.0
 11
286.6029719241913
 21
771.7000000000004
 31
0.0
  0
LINE
  5
294
330
6E
100
AcDbEntity
  8
1
  6
Continuous
 62
     7
100
AcDbLine
 10
297.1588034722922
 20
770.2000000000004
 30
0.0
 11
297.9088034722922
 21
770.2000000000004
 31
0.0
  0
LINE
  5
295
330
6E
100
AcDbEntity
  8
1
  6
Continuous
 62
     7
100
AcDbLine
 10
302.8258587985893
 20
770.2000000000004
 30
0.0
 11
304.1248969042661
 21
770.2000000000004
 31
0.0
  0
LINE
  5
296
330
6E
100
AcDbEntity
  8
1
  6
Continuous
 62
     7
100
AcDbLine
 10
310.8417193918017
 20
770.2000000000004
 30
0.0
 11
311.5917193918017
 21
770.2000000000004
 31
0.0
  0
LINE
  5
297
330
6E
100
AcDbEntity
  8
1
  6
Continuous
 62
     7
100
AcDbLine
 10
319.0585418793373
 20
770.2000000000004
 30
0.0
 11
320.3575799850139
 21
770.2000000000004
 31
0.0
  0
LINE
  5
298
330
6E
100
AcDbEntity
  8
1
  6
Continuous
 62
     7
100
AcDbLine
 10
325.2746353113114
 20
770.2000000000004
 30
0.0
 11
326.0246353113114
 21
770.2000000000004
 31
0.0
  0
LINE
  5
299
330
6E
100
AcDbEntity
  8
1
  6
Continuous
 62
     7
100
AcDbLine
 10
297.9088034722922
 20
771.2000000000007
 30
0.0
 11
297.1588034722922
 21
771.2000000000007
 31
0.0
  0
LINE
  5
29A
330
6E
100
AcDbEntity
  8
1
  6
Continuous
 62
     7
100
AcDbLine
 10
304.1248969042661
 20
771.2000000000007
 30
0.0
 11
302.8258587985893
 21
771.2000000000007
 31
0.0
  0
LINE
  5
29B
330
6E
100
AcDbEntity
  8
1
  6
Continuous
 62
     7
100
AcDbLine
 10
311.5917193918017
 20
771.2000000000007
 30
0.0
 11
310.8417193918017
 21
771.2000000000007
 31
0.0
  0
LINE
  5
29C
330
6E
100
AcDbEntity
  8
1
  6
Continuous
 62
     7
100
AcDbLine
 10
312.3417193918017
 20
771.2000000000007
 30
0.0
 11
311.5917193918017
 21
771.2000000000007
 31
0.0
  0
LINE
  5
29D
330
6E
100
AcDbEntity
  8
1
  6
Continuous
 62
     7
100
AcDbLine
 10
320.3575799850139
 20
771.2000000000007
 30
0.0
 11
319.0585418793373
 21
771.2000000000007
 31
0.0
  0
LINE
  5
29E
330
6E
100
AcDbEntity
  8
1
  6
Continuous
 62
     7
100
AcDbLine
 10
326.0246353113114
 20
771.2000000000007
 30
0.0
 11
325.2746353113114
 21
771.2000000000007
 31
0.0
  0
LINE
  5
29F
330
6E
100
AcDbEntity
  8
1
  6
Continuous
 62
     7
100
AcDbLine
 10
311.5917193918017
 20
770.2000000000004
 30
0.0
 11
312.3417193918017
 21
770.2000000000004
 31
0.0
  0
LINE
  5
2A0
330
6E
100
AcDbEntity
  8
1
  6
Continuous
 62
     7
100
AcDbLine
 10
295.5917193918017
 20
771.7000000000004
 30
0.0
 11
333.7396351534585
 21
771.7000000000004
 31
0.0
  0
LINE
  5
2A1
330
6E
100
AcDbEntity
  8
1
  6
Continuous
 62
     7
100
AcDbLine
 10
295.3417193918017
 20
770.2000000000004
 30
0.0
 11
327.8417193918017
 21
770.2000000000004
 31
0.0
  0
LINE
  5
2A2
330
6E
100
AcDbEntity
  8
1
  6
Continuous
 62
     7
100
AcDbLine
 10
327.8417193918017
 20
771.2000000000007
 30
0.0
 11
331.3417193918017
 21
771.2000000000007
 31
0.0
  0
LINE
  5
2A3
330
6E
100
AcDbEntity
  8
1
  6
Continuous
 62
     7
100
AcDbLine
 10
327.8417193918017
 20
770.2000000000004
 30
0.0
 11
331.3417193918017
 21
770.2000000000004
 31
0.0
  0
LINE
  5
2A4
330
6E
100
AcDbEntity
  8
1
  6
Continuous
 62
     7
100
AcDbLine
 10
336.5917193918017
 20
770.7000000000004
 30
0.0
 11
333.9397956031548
 21
770.7000000000004
 31
0.0
  0
LINE
  5
2A5
330
6E
100
AcDbEntity
  8
1
  6
Continuous
 62
     7
100
AcDbLine
 10
336.5917193918017
 20
770.7000000000004
 30
0.0
 11
336.5917193918017
 21
771.7000000000007
 31
0.0
  0
LINE
  5
2A6
330
6E
100
AcDbEntity
  8
1
  6
Continuous
 62
     7
100
AcDbLine
 10
336.5917193918017
 20
771.7000000000007
 30
0.0
 11
333.7396351534585
 21
771.7000000000004
 31
0.0
  0
LINE
  5
2A7
330
6E
100
AcDbEntity
  8
1
  6
Continuous
 62
     7
100
AcDbLine
 10
289.0917193918017
 20
771.2000000000007
 30
0.0
 11
286.5917193918017
 21
771.2000000000007
 31
0.0
  0
LINE
  5
2A8
330
6E
100
AcDbEntity
  8
1
  6
Continuous
 62
     7
100
AcDbLine
 10
286.5917193918017
 20
770.2000000000004
 30
0.0
 11
286.5917193918017
 21
771.2000000000007
 31
0.0
  0
LINE
  5
2A9
330
6E
100
AcDbEntity
  8
1
  6
Continuous
 62
     7
100
AcDbLine
 10
286.5917193918017
 20
770.2000000000004
 30
0.0
 11
289.0917193918017
 21
770.2000000000004
 31
0.0
  0
LINE
  5
2AA
330
6E
100
AcDbEntity
  8
1
  6
Continuous
 62
     7
100
AcDbLine
 10
291.8417193918017
 20
770.2000000000004
 30
0.0
 11
295.3417193918017
 21
770.2000000000004
 31
0.0
  0
LINE
  5
2AB
330
6E
100
AcDbEntity
  8
1
  6
Continuous
 62
     7
100
AcDbLine
 10
291.8417193918017
 20
771.2000000000007
 30
0.0
 11
295.3417193918017
 21
771.2000000000007
 31
0.0
  0
LINE
  5
2AC
330
6E
100
AcDbEntity
  8
1
  6
Continuous
 62
     7
100
AcDbLine
 10
711.8417193918018
 20
771.2000000000007
 30
0.0
 11
715.3417193918018
 21
771.2000000000007
 31
0.0
  0
LINE
  5
2AD
330
6E
100
AcDbEntity
  8
1
  6
Continuous
 62
     7
100
AcDbLine
 10
711.8417193918018
 20
770.2000000000004
 30
0.0
 11
715.3417193918018
 21
770.2000000000004
 31
0.0
  0
LINE
  5
2AE
330
6E
100
AcDbEntity
  8
1
  6
Continuous
 62
     7
100
AcDbLine
 10
706.5917193918018
 20
770.2000000000004
 30
0.0
 11
709.0917193918018
 21
770.2000000000004
 31
0.0
  0
LINE
  5
2AF
330
6E
100
AcDbEntity
  8
1
  6
Continuous
 62
     7
100
AcDbLine
 10
706.5917193918018
 20
770.2000000000004
 30
0.0
 11
706.5917193918018
 21
771.2000000000007
 31
0.0
  0
LINE
  5
2B0
330
6E
100
AcDbEntity
  8
1
  6
Continuous
 62
     7
100
AcDbLine
 10
709.0917193918018
 20
771.2000000000007
 30
0.0
 11
706.5917193918018
 21
771.2000000000007
 31
0.0
  0
LINE
  5
2B1
330
6E
100
AcDbEntity
  8
1
  6
Continuous
 62
     7
100
AcDbLine
 10
756.5917193918018
 20
771.7000000000007
 30
0.0
 11
753.7396351534586
 21
771.7000000000004
 31
0.0
  0
LINE
  5
2B2
330
6E
100
AcDbEntity
  8
1
  6
Continuous
 62
     7
100
AcDbLine
 10
756.5917193918018
 20
770.7000000000004
 30
0.0
 11
756.5917193918018
 21
771.7000000000007
 31
0.0
  0
LINE
  5
2B3
330
6E
100
AcDbEntity
  8
1
  6
Continuous
 62
     7
100
AcDbLine
 10
756.5917193918018
 20
770.7000000000004
 30
0.0
 11
753.939795603155
 21
770.7000000000004
 31
0.0
  0
LINE
  5
2B4
330
6E
100
AcDbEntity
  8
1
  6
Continuous
 62
     7
100
AcDbLine
 10
747.8417193918018
 20
770.2000000000004
 30
0.0
 11
751.3417193918018
 21
770.2000000000004
 31
0.0
  0
LINE
  5
2B5
330
6E
100
AcDbEntity
  8
1
  6
Continuous
 62
     7
100
AcDbLine
 10
747.8417193918018
 20
771.2000000000007
 30
0.0
 11
751.3417193918018
 21
771.2000000000007
 31
0.0
  0
LINE
  5
2B6
330
6E
100
AcDbEntity
  8
1
  6
Continuous
 62
     7
100
AcDbLine
 10
715.3417193918018
 20
770.2000000000004
 30
0.0
 11
747.8417193918018
 21
770.2000000000004
 31
0.0
  0
LINE
  5
2B7
330
6E
100
AcDbEntity
  8
1
  6
Continuous
 62
     7
100
AcDbLine
 10
715.5917193918018
 20
771.7000000000004
 30
0.0
 11
753.7396351534586
 21
771.7000000000004
 31
0.0
  0
LINE
  5
2B8
330
6E
100
AcDbEntity
  8
1
  6
Continuous
 62
     7
100
AcDbLine
 10
731.5917193918018
 20
770.2000000000004
 30
0.0
 11
732.3417193918018
 21
770.2000000000004
 31
0.0
  0
LINE
  5
2B9
330
6E
100
AcDbEntity
  8
1
  6
Continuous
 62
     7
100
AcDbLine
 10
746.0246353113115
 20
771.2000000000007
 30
0.0
 11
745.2746353113115
 21
771.2000000000007
 31
0.0
  0
LINE
  5
2BA
330
6E
100
AcDbEntity
  8
1
  6
Continuous
 62
     7
100
AcDbLine
 10
740.357579985014
 20
771.2000000000007
 30
0.0
 11
739.0585418793374
 21
771.2000000000007
 31
0.0
  0
LINE
  5
2BB
330
6E
100
AcDbEntity
  8
1
  6
Continuous
 62
     7
100
AcDbLine
 10
732.3417193918018
 20
771.2000000000007
 30
0.0
 11
731.5917193918018
 21
771.2000000000007
 31
0.0
  0
LINE
  5
2BC
330
6E
100
AcDbEntity
  8
1
  6
Continuous
 62
     7
100
AcDbLine
 10
731.5917193918018
 20
771.2000000000007
 30
0.0
 11
730.8417193918018
 21
771.2000000000007
 31
0.0
  0
LINE
  5
2BD
330
6E
100
AcDbEntity
  8
1
  6
Continuous
 62
     7
100
AcDbLine
 10
724.1248969042662
 20
771.2000000000007
 30
0.0
 11
722.8258587985894
 21
771.2000000000007
 31
0.0
  0
LINE
  5
2BE
330
6E
100
AcDbEntity
  8
1
  6
Continuous
 62
     7
100
AcDbLine
 10
717.9088034722923
 20
771.2000000000007
 30
0.0
 11
717.1588034722923
 21
771.2000000000007
 31
0.0
  0
LINE
  5
2BF
330
6E
100
AcDbEntity
  8
1
  6
Continuous
 62
     7
100
AcDbLine
 10
745.2746353113115
 20
770.2000000000004
 30
0.0
 11
746.0246353113115
 21
770.2000000000004
 31
0.0
  0
LINE
  5
2C0
330
6E
100
AcDbEntity
  8
1
  6
Continuous
 62
     7
100
AcDbLine
 10
739.0585418793374
 20
770.2000000000004
 30
0.0
 11
740.357579985014
 21
770.2000000000004
 31
0.0
  0
LINE
  5
2C1
330
6E
100
AcDbEntity
  8
1
  6
Continuous
 62
     7
100
AcDbLine
 10
730.8417193918018
 20
770.2000000000004
 30
0.0
 11
731.5917193918018
 21
770.2000000000004
 31
0.0
  0
LINE
  5
2C2
330
6E
100
AcDbEntity
  8
1
  6
Continuous
 62
     7
100
AcDbLine
 10
722.8258587985894
 20
770.2000000000004
 30
0.0
 11
724.1248969042662
 21
770.2000000000004
 31
0.0
  0
LINE
  5
2C3
330
6E
100
AcDbEntity
  8
1
  6
Continuous
 62
     7
100
AcDbLine
 10
717.1588034722923
 20
770.2000000000004
 30
0.0
 11
717.9088034722923
 21
770.2000000000004
 31
0.0
  0
LINE
  5
2C4
330
6E
100
AcDbEntity
  8
1
  6
Continuous
 62
     7
100
AcDbLine
 10
706.5917193918018
 20
771.2000000000007
 30
0.0
 11
706.6029719241914
 21
771.7000000000004
 31
0.0
  0
LINE
  5
2C5
330
6E
100
AcDbEntity
  8
1
  6
Continuous
 62
     7
100
AcDbLine
 10
706.6029719241914
 20
771.7000000000004
 30
0.0
 11
715.5917193918018
 21
771.7000000000004
 31
0.0
  0
ARC
  5
2C6
330
6E
100
AcDbEntity
  8
1
  6
Continuous
 62
     7
100
AcDbCircle
 10
326.9284123218481
 20
771.0831289055349
 30
0.0
 40
0.6168710944655139
100
AcDbArc
 50
32.60202871135106
 51
147.9057037069282
  0
ARC
  5
2C7
330
6E
100
AcDbEntity
  8
1
  6
Continuous
 62
     7
100
AcDbCircle
 10
326.0246353113114
 20
771.64994179031
 30
0.0
 40
1.449941790309595
100
AcDbArc
 50
270.0
 51
297.6999132239791
  0
ARC
  5
2C8
330
6E
100
AcDbEntity
  8
1
  6
Continuous
 62
     7
100
AcDbCircle
 10
295.3417193918017
 20
771.667258709562
 30
0.0
 40
1.467258709561634
100
AcDbArc
 50
270.0
 51
297.5753084985826
  0
ARC
  5
2C9
330
6E
100
AcDbEntity
  8
1
  6
Continuous
 62
     7
100
AcDbCircle
 10
297.1588034722922
 20
771.64994179031
 30
0.0
 40
1.449941790309638
100
AcDbArc
 50
242.3000867760149
 51
270.0
  0
ARC
  5
2CA
330
6E
100
AcDbEntity
  8
1
  6
Continuous
 62
     7
100
AcDbCircle
 10
297.9088034722922
 20
772.4292638315748
 30
0.0
 40
2.229263831574372
100
AcDbArc
 50
270.0
 51
292.9913569710393
  0
ARC
  5
2CB
330
6E
100
AcDbEntity
  8
1
  6
Continuous
 62
     7
100
AcDbCircle
 10
300.3673311354407
 20
766.6349055611076
 30
0.0
 40
4.065094438892887
100
AcDbArc
 50
67.00864302895965
 51
112.9913569710381
  0
ARC
  5
2CC
330
6E
100
AcDbEntity
  8
1
  6
Continuous
 62
     7
100
AcDbCircle
 10
302.8258587985893
 20
772.4292638315748
 30
0.0
 40
2.229263831574224
100
AcDbArc
 50
247.0086430289607
 51
270.0
  0
ARC
  5
2CD
330
6E
100
AcDbEntity
  8
1
  6
Continuous
 62
     7
100
AcDbCircle
 10
304.1248969042661
 20
772.8792056218844
 30
0.0
 40
2.679205621883966
100
AcDbArc
 50
270.0
 51
286.9359833827783
  0
ARC
  5
2CE
330
6E
100
AcDbEntity
  8
1
  6
Continuous
 62
     7
100
AcDbCircle
 10
307.483308148034
 20
761.8502795396182
 30
0.0
 40
8.849720460382345
100
AcDbArc
 50
73.06401661722397
 51
106.9359833827771
  0
ARC
  5
2CF
330
6E
100
AcDbEntity
  8
1
  6
Continuous
 62
     7
100
AcDbCircle
 10
310.8417193918017
 20
772.8792056218844
 30
0.0
 40
2.679205621883759
100
AcDbArc
 50
253.0640166172217
 51
270.0
  0
ARC
  5
2D0
330
6E
100
AcDbEntity
  8
1
  6
Continuous
 62
     7
100
AcDbCircle
 10
312.3417193918017
 20
772.8792056218844
 30
0.0
 40
2.679205621883966
100
AcDbArc
 50
270.0
 51
286.935983382783
  0
ARC
  5
2D1
330
6E
100
AcDbEntity
  8
1
  6
Continuous
 62
     7
100
AcDbCircle
 10
319.0585418793373
 20
772.8792056218844
 30
0.0
 40
2.679205621883676
100
AcDbArc
 50
253.0640166172275
 51
270.0
  0
ARC
  5
2D2
330
6E
100
AcDbEntity
  8
1
  6
Continuous
 62
     7
100
AcDbCircle
 10
315.7001306355694
 20
761.8502795396182
 30
0.0
 40
8.849720460382494
100
AcDbArc
 50
73.06401661722082
 51
106.9359833827746
  0
ARC
  5
2D3
330
6E
100
AcDbEntity
  8
1
  6
Continuous
 62
     7
100
AcDbCircle
 10
320.3575799850141
 20
772.4292638315748
 30
0.0
 40
2.229263831574372
100
AcDbArc
 50
269.9999999999941
 51
292.9913569710393
  0
ARC
  5
2D4
330
6E
100
AcDbEntity
  8
1
  6
Continuous
 62
     7
100
AcDbCircle
 10
322.8161076481626
 20
766.6349055611076
 30
0.0
 40
4.065094438892887
100
AcDbArc
 50
67.00864302895965
 51
112.9913569710381
  0
ARC
  5
2D5
330
6E
100
AcDbEntity
  8
1
  6
Continuous
 62
     7
100
AcDbCircle
 10
325.2746353113114
 20
772.4292638315748
 30
0.0
 40
2.229263831574291
100
AcDbArc
 50
247.0086430289567
 51
270.0
  0
ARC
  5
2D6
330
6E
100
AcDbEntity
  8
1
  6
Continuous
 62
     7
100
AcDbCircle
 10
295.3417193918017
 20
771.667258709562
 30
0.0
 40
0.4672587095612926
100
AcDbArc
 50
270.0
 51
327.3979712886542
  0
ARC
  5
2D7
330
6E
100
AcDbEntity
  8
1
  6
Continuous
 62
     7
100
AcDbCircle
 10
296.2550264617551
 20
771.0831289055349
 30
0.0
 40
0.6168710944655701
100
AcDbArc
 50
32.094296293069
 51
147.3979712886461
  0
ARC
  5
2D8
330
6E
100
AcDbEntity
  8
1
  6
Continuous
 62
     7
100
AcDbCircle
 10
297.1588034722922
 20
771.64994179031
 30
0.0
 40
0.4499417903096797
100
AcDbArc
 50
212.0942962930466
 51
270.0
  0
ARC
  5
2D9
330
6E
100
AcDbEntity
  8
1
  6
Continuous
 62
     7
100
AcDbCircle
 10
297.9088034722922
 20
772.4292638315748
 30
0.0
 40
1.229263831574031
100
AcDbArc
 50
270.0
 51
292.9913569710356
  0
ARC
  5
2DA
330
6E
100
AcDbEntity
  8
1
  6
Continuous
 62
     7
100
AcDbCircle
 10
300.3673311354407
 20
766.6349055611076
 30
0.0
 40
5.065094438892809
100
AcDbArc
 50
67.00864302895957
 51
112.9913569710393
  0
ARC
  5
2DB
330
6E
100
AcDbEntity
  8
1
  6
Continuous
 62
     7
100
AcDbCircle
 10
302.8258587985893
 20
772.4292638315748
 30
0.0
 40
1.229263831574301
100
AcDbArc
 50
247.0086430289619
 51
270.0
  0
ARC
  5
2DC
330
6E
100
AcDbEntity
  8
1
  6
Continuous
 62
     7
100
AcDbCircle
 10
304.1248969042661
 20
772.8792056218844
 30
0.0
 40
1.679205621883625
100
AcDbArc
 50
270.0
 51
286.9359833827797
  0
ARC
  5
2DD
330
6E
100
AcDbEntity
  8
1
  6
Continuous
 62
     7
100
AcDbCircle
 10
307.483308148034
 20
761.8502795396182
 30
0.0
 40
9.84972046038209
100
AcDbArc
 50
73.06401661722272
 51
106.935983382777
  0
ARC
  5
2DE
330
6E
100
AcDbEntity
  8
1
  6
Continuous
 62
     7
100
AcDbCircle
 10
310.8417193918017
 20
772.8792056218844
 30
0.0
 40
1.679205621884015
100
AcDbArc
 50
253.0640166172276
 51
270.0
  0
ARC
  5
2DF
330
6E
100
AcDbEntity
  8
1
  6
Continuous
 62
     7
100
AcDbCircle
 10
312.3417193918017
 20
772.8792056218844
 30
0.0
 40
1.679205621883625
100
AcDbArc
 50
270.0
 51
286.9359833827797
  0
ARC
  5
2E0
330
6E
100
AcDbEntity
  8
1
  6
Continuous
 62
     7
100
AcDbCircle
 10
315.7001306355694
 20
761.8502795396182
 30
0.0
 40
9.849720460382173
100
AcDbArc
 50
73.06401661722114
 51
106.935983382776
  0
ARC
  5
2E1
330
6E
100
AcDbEntity
  8
1
  6
Continuous
 62
     7
100
AcDbCircle
 10
319.0585418793373
 20
772.8792056218844
 30
0.0
 40
1.679205621883999
100
AcDbArc
 50
253.0640166172295
 51
270.0
  0
ARC
  5
2E2
330
6E
100
AcDbEntity
  8
1
  6
Continuous
 62
     7
100
AcDbCircle
 10
320.3575799850141
 20
772.4292638315748
 30
0.0
 40
1.229263831574031
100
AcDbArc
 50
269.9999999999894
 51
292.9913569710356
  0
ARC
  5
2E3
330
6E
100
AcDbEntity
  8
1
  6
Continuous
 62
     7
100
AcDbCircle
 10
322.8161076481626
 20
766.6349055611076
 30
0.0
 40
5.065094438892809
100
AcDbArc
 50
67.00864302895957
 51
112.9913569710393
  0
ARC
  5
2E4
330
6E
100
AcDbEntity
  8
1
  6
Continuous
 62
     7
100
AcDbCircle
 10
325.2746353113114
 20
772.4292638315748
 30
0.0
 40
1.229263831574367
100
AcDbArc
 50
247.0086430289547
 51
270.0
  0
ARC
  5
2E5
330
6E
100
AcDbEntity
  8
1
  6
Continuous
 62
     7
100
AcDbCircle
 10
326.0246353113114
 20
771.64994179031
 30
0.0
 40
0.4499417903092535
100
AcDbArc
 50
270.0
 51
327.9057037069304
  0
ARC
  5
2E6
330
6E
100
AcDbEntity
  8
1
  6
Continuous
 62
     7
100
AcDbCircle
 10
327.8417193918017
 20
771.667258709562
 30
0.0
 40
0.4672587095616676
100
AcDbArc
 50
212.6020287113383
 51
270.0
  0
ARC
  5
2E7
330
6E
100
AcDbEntity
  8
1
  6
Continuous
 62
     7
100
AcDbCircle
 10
327.8417193918017
 20
771.667258709562
 30
0.0
 40
1.467258709561584
100
AcDbArc
 50
242.4246915014194
 51
270.0
  0
ARC
  5
2E8
330
6E
100
AcDbEntity
  8
1
  6
Continuous
 62
     7
100
AcDbCircle
 10
331.3417193918017
 20
774.2000000000004
 30
0.0
 40
4.0
100
AcDbArc
 50
270.0
 51
291.7867892982628
  0
ARC
  5
2E9
330
6E
100
AcDbEntity
  8
1
  6
Continuous
 62
     7
100
AcDbCircle
 10
331.3417193918017
 20
774.2000000000004
 30
0.0
 40
2.999999999999659
100
AcDbArc
 50
270.0
 51
293.5564643091091
  0
ARC
  5
2EA
330
6E
100
AcDbEntity
  8
1
  6
Continuous
 62
     7
100
AcDbCircle
 10
289.0917193918017
 20
773.2000000000004
 30
0.0
 40
1.999999999999659
100
AcDbArc
 50
270.0
 51
285.204838578393
  0
ARC
  5
2EB
330
6E
100
AcDbEntity
  8
1
  6
Continuous
 62
     7
100
AcDbCircle
 10
289.0917193918017
 20
773.2000000000004
 30
0.0
 40
3.0
100
AcDbArc
 50
270.0
 51
285.2048385783938
  0
ARC
  5
2EC
330
6E
100
AcDbEntity
  8
1
  6
Continuous
 62
     7
100
AcDbCircle
 10
290.4030727543193
 20
768.3750282530765
 30
0.0
 40
2.000000000000212
100
AcDbArc
 50
76.12677200855396
 51
105.2048385783914
  0
ARC
  5
2ED
330
6E
100
AcDbEntity
  8
1
  6
Continuous
 62
     7
100
AcDbCircle
 10
291.8417193918017
 20
774.2000000000004
 30
0.0
 40
3.999999999999873
100
AcDbArc
 50
256.126772008552
 51
270.0
  0
ARC
  5
2EE
330
6E
100
AcDbEntity
  8
1
  6
Continuous
 62
     7
100
AcDbCircle
 10
291.8417193918017
 20
774.2000000000004
 30
0.0
 40
3.000000000000126
100
AcDbArc
 50
256.1267720085553
 51
270.0
  0
ARC
  5
2EF
330
6E
100
AcDbEntity
  8
1
  6
Continuous
 62
     7
100
AcDbCircle
 10
290.4030727543193
 20
768.3750282530765
 30
0.0
 40
2.99999999999996
100
AcDbArc
 50
76.12677200855002
 51
105.2048385783927
  0
ARC
  5
2F0
330
6E
100
AcDbEntity
  8
1
  6
Continuous
 62
     7
100
AcDbCircle
 10
710.4030727543194
 20
768.3750282530765
 30
0.0
 40
2.99999999999996
100
AcDbArc
 50
76.12677200855002
 51
105.2048385783927
  0
ARC
  5
2F1
330
6E
100
AcDbEntity
  8
1
  6
Continuous
 62
     7
100
AcDbCircle
 10
711.8417193918018
 20
774.2000000000004
 30
0.0
 40
3.000000000000126
100
AcDbArc
 50
256.1267720085553
 51
270.0
  0
ARC
  5
2F2
330
6E
100
AcDbEntity
  8
1
  6
Continuous
 62
     7
100
AcDbCircle
 10
711.8417193918018
 20
774.2000000000004
 30
0.0
 40
3.999999999999873
100
AcDbArc
 50
256.126772008552
 51
270.0
  0
ARC
  5
2F3
330
6E
100
AcDbEntity
  8
1
  6
Continuous
 62
     7
100
AcDbCircle
 10
710.4030727543194
 20
768.3750282530765
 30
0.0
 40
2.000000000000212
100
AcDbArc
 50
76.12677200855396
 51
105.204838578393
  0
ARC
  5
2F4
330
6E
100
AcDbEntity
  8
1
  6
Continuous
 62
     7
100
AcDbCircle
 10
709.0917193918018
 20
773.2000000000004
 30
0.0
 40
3.0
100
AcDbArc
 50
270.0
 51
285.2048385783927
  0
ARC
  5
2F5
330
6E
100
AcDbEntity
  8
1
  6
Continuous
 62
     7
100
AcDbCircle
 10
709.0917193918018
 20
773.2000000000004
 30
0.0
 40
1.999999999999659
100
AcDbArc
 50
270.0
 51
285.204838578393
  0
ARC
  5
2F6
330
6E
100
AcDbEntity
  8
1
  6
Continuous
 62
     7
100
AcDbCircle
 10
751.3417193918018
 20
774.2000000000004
 30
0.0
 40
2.999999999999659
100
AcDbArc
 50
270.0
 51
293.5564643091091
  0
ARC
  5
2F7
330
6E
100
AcDbEntity
  8
1
  6
Continuous
 62
     7
100
AcDbCircle
 10
751.3417193918018
 20
774.2000000000004
 30
0.0
 40
4.0
100
AcDbArc
 50
270.0
 51
291.7867892982621
  0
ARC
  5
2F8
330
6E
100
AcDbEntity
  8
1
  6
Continuous
 62
     7
100
AcDbCircle
 10
747.8417193918018
 20
771.667258709562
 30
0.0
 40
1.467258709561611
100
AcDbArc
 50
242.4246915014174
 51
270.0
  0
ARC
  5
2F9
330
6E
100
AcDbEntity
  8
1
  6
Continuous
 62
     7
100
AcDbCircle
 10
747.8417193918018
 20
771.667258709562
 30
0.0
 40
0.4672587095616197
100
AcDbArc
 50
212.6020287113421
 51
270.0
  0
ARC
  5
2FA
330
6E
100
AcDbEntity
  8
1
  6
Continuous
 62
     7
100
AcDbCircle
 10
746.0246353113115
 20
771.64994179031
 30
0.0
 40
0.4499417903092535
100
AcDbArc
 50
270.0
 51
327.9057037069342
  0
ARC
  5
2FB
330
6E
100
AcDbEntity
  8
1
  6
Continuous
 62
     7
100
AcDbCircle
 10
745.2746353113115
 20
772.4292638315748
 30
0.0
 40
1.229263831574367
100
AcDbArc
 50
247.0086430289547
 51
270.0
  0
ARC
  5
2FC
330
6E
100
AcDbEntity
  8
1
  6
Continuous
 62
     7
100
AcDbCircle
 10
742.8161076481628
 20
766.6349055611076
 30
0.0
 40
5.065094438892787
100
AcDbArc
 50
67.00864302896015
 51
112.9913569710398
  0
ARC
  5
2FD
330
6E
100
AcDbEntity
  8
1
  6
Continuous
 62
     7
100
AcDbCircle
 10
740.3575799850142
 20
772.4292638315748
 30
0.0
 40
1.229263831574031
100
AcDbArc
 50
269.9999999999894
 51
292.9913569710356
  0
ARC
  5
2FE
330
6E
100
AcDbEntity
  8
1
  6
Continuous
 62
     7
100
AcDbCircle
 10
739.0585418793374
 20
772.8792056218844
 30
0.0
 40
1.679205621884015
100
AcDbArc
 50
253.0640166172276
 51
270.0
  0
ARC
  5
2FF
330
6E
100
AcDbEntity
  8
1
  6
Continuous
 62
     7
100
AcDbCircle
 10
735.7001306355695
 20
761.8502795396182
 30
0.0
 40
9.849720460382155
100
AcDbArc
 50
73.06401661722145
 51
106.935983382776
  0
ARC
  5
300
330
6E
100
AcDbEntity
  8
1
  6
Continuous
 62
     7
100
AcDbCircle
 10
732.3417193918018
 20
772.8792056218844
 30
0.0
 40
1.679205621883625
100
AcDbArc
 50
270.0
 51
286.9359833827797
  0
ARC
  5
301
330
6E
100
AcDbEntity
  8
1
  6
Continuous
 62
     7
100
AcDbCircle
 10
730.8417193918018
 20
772.8792056218844
 30
0.0
 40
1.679205621884015
100
AcDbArc
 50
253.0640166172276
 51
270.0
  0
ARC
  5
302
330
6E
100
AcDbEntity
  8
1
  6
Continuous
 62
     7
100
AcDbCircle
 10
727.4833081480341
 20
761.8502795396182
 30
0.0
 40
9.84972046038209
100
AcDbArc
 50
73.06401661722272
 51
106.9359833827773
  0
ARC
  5
303
330
6E
100
AcDbEntity
  8
1
  6
Continuous
 62
     7
100
AcDbCircle
 10
724.1248969042662
 20
772.8792056218844
 30
0.0
 40
1.679205621883625
100
AcDbArc
 50
270.0
 51
286.9359833827797
  0
ARC
  5
304
330
6E
100
AcDbEntity
  8
1
  6
Continuous
 62
     7
100
AcDbCircle
 10
722.8258587985894
 20
772.4292638315748
 30
0.0
 40
1.229263831574279
100
AcDbArc
 50
247.0086430289644
 51
270.0
  0
ARC
  5
305
330
6E
100
AcDbEntity
  8
1
  6
Continuous
 62
     7
100
AcDbCircle
 10
720.3673311354408
 20
766.6349055611076
 30
0.0
 40
5.065094438892787
100
AcDbArc
 50
67.00864302896015
 51
112.9913569710398
  0
ARC
  5
306
330
6E
100
AcDbEntity
  8
1
  6
Continuous
 62
     7
100
AcDbCircle
 10
717.9088034722923
 20
772.4292638315748
 30
0.0
 40
1.229263831574031
100
AcDbArc
 50
270.0
 51
292.9913569710356
  0
ARC
  5
307
330
6E
100
AcDbEntity
  8
1
  6
Continuous
 62
     7
100
AcDbCircle
 10
717.1588034722923
 20
771.64994179031
 30
0.0
 40
0.4499417903096316
100
AcDbArc
 50
212.0942962930504
 51
270.0
  0
ARC
  5
308
330
6E
100
AcDbEntity
  8
1
  6
Continuous
 62
     7
100
AcDbCircle
 10
716.2550264617552
 20
771.0831289055349
 30
0.0
 40
0.6168710944656665
100
AcDbArc
 50
32.09429629306339
 51
147.3979712886404
  0
ARC
  5
309
330
6E
100
AcDbEntity
  8
1
  6
Continuous
 62
     7
100
AcDbCircle
 10
715.3417193918018
 20
771.667258709562
 30
0.0
 40
0.4672587095612926
100
AcDbArc
 50
270.0
 51
327.3979712886579
  0
ARC
  5
30A
330
6E
100
AcDbEntity
  8
1
  6
Continuous
 62
     7
100
AcDbCircle
 10
745.2746353113115
 20
772.4292638315748
 30
0.0
 40
2.229263831574291
100
AcDbArc
 50
247.0086430289567
 51
270.0
  0
ARC
  5
30B
330
6E
100
AcDbEntity
  8
1
  6
Continuous
 62
     7
100
AcDbCircle
 10
742.8161076481628
 20
766.6349055611076
 30
0.0
 40
4.065094438892864
100
AcDbArc
 50
67.00864302896039
 51
112.9913569710396
  0
ARC
  5
30C
330
6E
100
AcDbEntity
  8
1
  6
Continuous
 62
     7
100
AcDbCircle
 10
740.3575799850142
 20
772.4292638315748
 30
0.0
 40
2.229263831574372
100
AcDbArc
 50
269.9999999999941
 51
292.9913569710379
  0
ARC
  5
30D
330
6E
100
AcDbEntity
  8
1
  6
Continuous
 62
     7
100
AcDbCircle
 10
735.7001306355695
 20
761.8502795396182
 30
0.0
 40
8.849720460382478
100
AcDbArc
 50
73.06401661722114
 51
106.9359833827746
  0
ARC
  5
30E
330
6E
100
AcDbEntity
  8
1
  6
Continuous
 62
     7
100
AcDbCircle
 10
739.0585418793374
 20
772.8792056218844
 30
0.0
 40
2.679205621883693
100
AcDbArc
 50
253.0640166172263
 51
270.0
  0
ARC
  5
30F
330
6E
100
AcDbEntity
  8
1
  6
Continuous
 62
     7
100
AcDbCircle
 10
732.3417193918018
 20
772.8792056218844
 30
0.0
 40
2.679205621883966
100
AcDbArc
 50
270.0
 51
286.935983382783
  0
ARC
  5
310
330
6E
100
AcDbEntity
  8
1
  6
Continuous
 62
     7
100
AcDbCircle
 10
730.8417193918018
 20
772.8792056218844
 30
0.0
 40
2.679205621883759
100
AcDbArc
 50
253.0640166172217
 51
270.0
  0
ARC
  5
311
330
6E
100
AcDbEntity
  8
1
  6
Continuous
 62
     7
100
AcDbCircle
 10
727.4833081480341
 20
761.8502795396182
 30
0.0
 40
8.849720460382345
100
AcDbArc
 50
73.06401661722397
 51
106.9359833827774
  0
ARC
  5
312
330
6E
100
AcDbEntity
  8
1
  6
Continuous
 62
     7
100
AcDbCircle
 10
724.1248969042662
 20
772.8792056218844
 30
0.0
 40
2.679205621883966
100
AcDbArc
 50
270.0
 51
286.9359833827783
  0
ARC
  5
313
330
6E
100
AcDbEntity
  8
1
  6
Continuous
 62
     7
100
AcDbCircle
 10
722.8258587985894
 20
772.4292638315748
 30
0.0
 40
2.229263831574202
100
AcDbArc
 50
247.0086430289621
 51
270.0
  0
ARC
  5
314
330
6E
100
AcDbEntity
  8
1
  6
Continuous
 62
     7
100
AcDbCircle
 10
720.3673311354408
 20
766.6349055611076
 30
0.0
 40
4.065094438892864
100
AcDbArc
 50
67.00864302896039
 51
112.9913569710396
  0
ARC
  5
315
330
6E
100
AcDbEntity
  8
1
  6
Continuous
 62
     7
100
AcDbCircle
 10
717.9088034722923
 20
772.4292638315748
 30
0.0
 40
2.229263831574372
100
AcDbArc
 50
270.0
 51
292.9913569710379
  0
ARC
  5
316
330
6E
100
AcDbEntity
  8
1
  6
Continuous
 62
     7
100
AcDbCircle
 10
717.1588034722923
 20
771.64994179031
 30
0.0
 40
1.449941790309638
100
AcDbArc
 50
242.3000867760149
 51
270.0
  0
ARC
  5
317
330
6E
100
AcDbEntity
  8
1
  6
Continuous
 62
     7
100
AcDbCircle
 10
715.3417193918018
 20
771.667258709562
 30
0.0
 40
1.467258709561634
100
AcDbArc
 50
270.0
 51
297.5753084985826
  0
ARC
  5
318
330
6E
100
AcDbEntity
  8
1
  6
Continuous
 62
     7
100
AcDbCircle
 10
746.0246353113115
 20
771.64994179031
 30
0.0
 40
1.449941790309595
100
AcDbArc
 50
270.0
 51
297.6999132239771
  0
ARC
  5
319
330
6E
100
AcDbEntity
  8
1
  6
Continuous
 62
     7
100
AcDbCircle
 10
746.9284123218482
 20
771.0831289055349
 30
0.0
 40
0.6168710944655618
100
AcDbArc
 50
32.60202871134822
 51
147.9057037069254
  0
ARC
  5
31A
330
6E
100
AcDbEntity
  8
1
  6
Continuous
 62
     7
100
AcDbCircle
 10
326.931047627382
 20
769.9234743857896
 30
0.0
 40
0.4999999999999266
100
AcDbArc
 50
62.42469150142946
 51
117.6999132239931
  0
ARC
  5
31B
330
6E
100
AcDbEntity
  8
1
  6
Continuous
 62
     7
100
AcDbCircle
 10
296.2523911562216
 20
769.9234743857896
 30
0.0
 40
0.4999999999999346
100
AcDbArc
 50
62.30008677602427
 51
117.5753084985879
  0
ARC
  5
31C
330
6E
100
AcDbEntity
  8
1
  6
Continuous
 62
     7
100
AcDbCircle
 10
333.9397956031548
 20
767.7000000000004
 30
0.0
 40
3.0
100
AcDbArc
 50
90.0
 51
111.7867892982564
  0
ARC
  5
31D
330
6E
100
AcDbEntity
  8
1
  6
Continuous
 62
     7
100
AcDbCircle
 10
333.7396351534585
 20
768.7000000000004
 30
0.0
 40
3.0
100
AcDbArc
 50
90.0
 51
113.5564643091011
  0
ARC
  5
31E
330
6E
100
AcDbEntity
  8
1
  6
Continuous
 62
     7
100
AcDbCircle
 10
753.7396351534586
 20
768.7000000000004
 30
0.0
 40
3.0
100
AcDbArc
 50
90.0
 51
113.5564643091011
  0
ARC
  5
31F
330
6E
100
AcDbEntity
  8
1
  6
Continuous
 62
     7
100
AcDbCircle
 10
753.939795603155
 20
767.7000000000004
 30
0.0
 40
3.0
100
AcDbArc
 50
90.0
 51
111.7867892982585
  0
ARC
  5
320
330
6E
100
AcDbEntity
  8
1
  6
Continuous
 62
     7
100
AcDbCircle
 10
716.2523911562217
 20
769.9234743857896
 30
0.0
 40
0.4999999999999346
100
AcDbArc
 50
62.30008677602427
 51
117.5753084985879
  0
ARC
  5
321
330
6E
100
AcDbEntity
  8
1
  6
Continuous
 62
     7
100
AcDbCircle
 10
746.9310476273821
 20
769.9234743857896
 30
0.0
 40
0.4999999999999003
100
AcDbArc
 50
62.42469150143524
 51
117.6999132239988
  0
ENDBLK
  5
70
330
6E
100
AcDbEntity
  8
0
100
AcDbBlockEnd
  0
BLOCK
  5
72
330
71
100
AcDbEntity
  8
0
100
AcDbBlockBegin
  2
32-33-32
 70
     0
 10
610.045328859244
 20
689.4495240620078
 30
0.0
  3
32-33-32
  1

  0
LINE
  5
322
330
71
100
AcDbEntity
  8
1
  6
Continuous
 62
     7
100
AcDbLine
 10
749.5917193917884
 20
770.2000000000004
 30
0.0
 11
713.5917193917884
 21
770.2000000000004
 31
0.0
  0
LINE
  5
323
330
71
100
AcDbEntity
  8
1
  6
Continuous
 62
     7
100
AcDbLine
 10
749.5917193917884
 20
770.2000000000004
 30
0.0
 11
749.5917193917884
 21
764.2000000000004
 31
0.0
  0
LINE
  5
324
330
71
100
AcDbEntity
  8
1
  6
Continuous
 62
     7
100
AcDbLine
 10
713.5917193917884
 20
764.2000000000004
 30
0.0
 11
713.5917193917884
 21
770.2000000000004
 31
0.0
  0
LINE
  5
325
330
71
100
AcDbEntity
  8
1
  6
Continuous
 62
     7
100
AcDbLine
 10
749.5917193917884
 20
764.2000000000004
 30
0.0
 11
713.5917193917884
 21
764.2000000000004
 31
0.0
  0
LINE
  5
326
330
71
100
AcDbEntity
  8
0
  6
Continuous
 62
     7
100
AcDbLine
 10
331.3417193918017
 20
770.2000000000004
 30
0.0
 11
332.3763290826282
 21
770.2000000000004
 31
0.0
  0
LINE
  5
327
330
71
100
AcDbEntity
  8
0
  6
Continuous
 62
     7
100
AcDbLine
 10
291.8417193918017
 20
770.2000000000004
 30
0.0
 11
290.8071097009752
 21
770.2000000000004
 31
0.0
  0
LINE
  5
328
330
71
100
AcDbEntity
  8
1
  6
Continuous
 62
     7
100
AcDbLine
 10
332.3763290826282
 20
770.2000000000004
 30
0.0
 11
332.3763290826282
 21
764.2000000000004
 31
0.0
  0
LINE
  5
329
330
71
100
AcDbEntity
  8
1
  6
Continuous
 62
     7
100
AcDbLine
 10
321.984024237215
 20
770.2000000000004
 30
0.0
 11
321.984024237215
 21
764.2000000000004
 31
0.0
  0
LINE
  5
32A
330
71
100
AcDbEntity
  8
1
  6
Continuous
 62
     7
100
AcDbLine
 10
301.1994145463884
 20
764.2000000000004
 30
0.0
 11
301.1994145463884
 21
770.2000000000004
 31
0.0
  0
LINE
  5
32B
330
71
100
AcDbEntity
  8
1
  6
Continuous
 62
     7
100
AcDbLine
 10
290.8071097009752
 20
764.2000000000004
 30
0.0
 11
332.3763290826282
 21
764.2000000000004
 31
0.0
  0
LINE
  5
32C
330
71
100
AcDbEntity
  8
1
  6
Continuous
 62
     7
100
AcDbLine
 10
290.8071097009752
 20
764.2000000000004
 30
0.0
 11
290.8071097009752
 21
770.2000000000004
 31
0.0
  0
ENDBLK
  5
73
330
71
100
AcDbEntity
  8
0
100
AcDbBlockEnd
  0
BLOCK
  5
75
330
74
100
AcDbEntity
  8
0
100
AcDbBlockBegin
  2
35-338-M11
 70
     0
 10
1146.330860123494
 20
1402.432947233518
 30
0.0
  3
35-338-M11
  1

  0
LINE
  5
32D
330
74
100
AcDbEntity
  8
1
  6
Continuous
 62
     7
100
AcDbLine
 10
715.5917193918018
 20
764.2000000000005
 30
0.0
 11
715.5917193918018
 21
746.6999999999997
 31
0.0
  0
LINE
  5
32E
330
74
100
AcDbEntity
  8
1
  6
Continuous
 62
     7
100
AcDbLine
 10
709.3917193917756
 20
793.2
 30
0.0
 11
753.7917193918018
 21
793.2
 31
0.0
  0
LINE
  5
32F
330
74
100
AcDbEntity
  8
1
  6
Continuous
 62
     7
100
AcDbLine
 10
753.7917193918018
 20
791.2
 30
0.0
 11
709.3917193917756
 21
791.2
 31
0.0
  0
LINE
  5
330
330
74
100
AcDbEntity
  8
1
  6
Continuous
 62
     7
100
AcDbLine
 10
709.0917193917757
 20
791.5
 30
0.0
 11
709.3917193917756
 21
791.2
 31
0.0
  0
LINE
  5
331
330
74
100
AcDbEntity
  8
1
  6
Continuous
 62
     7
100
AcDbLine
 10
709.3917193917756
 20
793.2
 30
0.0
 11
709.0917193917757
 21
792.9
 31
0.0
  0
LINE
  5
332
330
74
100
AcDbEntity
  8
1
  6
Continuous
 62
     7
100
AcDbLine
 10
709.0917193917757
 20
791.5
 30
0.0
 11
709.0917193917757
 21
792.9
 31
0.0
  0
LINE
  5
333
330
74
100
AcDbEntity
  8
1
  6
Continuous
 62
     7
100
AcDbLine
 10
715.5917193918018
 20
788.7000000000002
 30
0.0
 11
715.5917193918018
 21
773.2000000000003
 31
0.0
  0
LINE
  5
334
330
74
100
AcDbEntity
  8
1
  6
Continuous
 62
     7
100
AcDbLine
 10
747.5917193918018
 20
746.6999999999999
 30
0.0
 11
747.5917193918018
 21
764.2000000000005
 31
0.0
  0
LINE
  5
335
330
74
100
AcDbEntity
  8
1
  6
Continuous
 62
     7
100
AcDbLine
 10
754.0917193918018
 20
792.9
 30
0.0
 11
754.0917193918018
 21
791.5
 31
0.0
  0
LINE
  5
336
330
74
100
AcDbEntity
  8
1
  6
Continuous
 62
     7
100
AcDbLine
 10
754.0917193918018
 20
792.9
 30
0.0
 11
753.7917193918018
 21
793.2
 31
0.0
  0
LINE
  5
337
330
74
100
AcDbEntity
  8
1
  6
Continuous
 62
     7
100
AcDbLine
 10
753.7917193918018
 20
791.2
 30
0.0
 11
754.0917193918018
 21
791.5
 31
0.0
  0
LINE
  5
338
330
74
100
AcDbEntity
  8
1
  6
Continuous
 62
     7
100
AcDbLine
 10
747.5917193918018
 20
746.6999999999999
 30
0.0
 11
746.7797193918019
 21
745.8879999999998
 31
0.0
  0
LINE
  5
339
330
74
100
AcDbEntity
  8
1
  6
Continuous
 62
     2
100
AcDbLine
 10
746.7797193918019
 20
788.7000000000002
 30
0.0
 11
746.7797193918019
 21
773.2000000000003
 31
0.0
  0
LINE
  5
33A
330
74
100
AcDbEntity
  8
1
  6
Continuous
 62
     7
100
AcDbLine
 10
716.4037193918019
 20
745.8879999999996
 30
0.0
 11
715.5917193918018
 21
746.6999999999997
 31
0.0
  0
LINE
  5
33B
330
74
100
AcDbEntity
  8
1
  6
Continuous
 62
     7
100
AcDbLine
 10
717.9917193918019
 20
745.6999999999999
 30
0.0
 11
746.5917193918018
 21
745.6999999999999
 31
0.0
  0
LINE
  5
33C
330
74
100
AcDbEntity
  8
1
  6
Continuous
 62
     7
100
AcDbLine
 10
746.7797193918019
 20
745.8879999999998
 30
0.0
 11
746.5917193918018
 21
745.6999999999999
 31
0.0
  0
LINE
  5
33D
330
74
100
AcDbEntity
  8
1
  6
Continuous
 62
     7
100
AcDbLine
 10
716.5917193918018
 20
745.6999999999999
 30
0.0
 11
717.9917193918019
 21
745.6999999999999
 31
0.0
  0
LINE
  5
33E
330
74
100
AcDbEntity
  8
1
  6
Continuous
 62
     7
100
AcDbLine
 10
716.5917193918018
 20
745.6999999999999
 30
0.0
 11
716.4037193918019
 21
745.8879999999996
 31
0.0
  0
LINE
  5
33F
330
74
100
AcDbEntity
  8
1
  6
Continuous
 62
     2
100
AcDbLine
 10
716.4037193918019
 20
745.8879999999996
 30
0.0
 11
716.4037193918019
 21
764.2000000000005
 31
0.0
  0
LINE
  5
340
330
74
100
AcDbEntity
  8
1
  6
Continuous
 62
     7
100
AcDbLine
 10
715.5917193918018
 20
746.6999999999997
 30
0.0
 11
747.5917193918018
 21
746.6999999999999
 31
0.0
  0
LINE
  5
341
330
74
100
AcDbEntity
  8
1
  6
Continuous
 62
     7
100
AcDbLine
 10
747.5917193918018
 20
773.2000000000003
 30
0.0
 11
747.5917193918018
 21
788.7000000000002
 31
0.0
  0
LINE
  5
342
330
74
100
AcDbEntity
  8
1
  6
Continuous
 62
     2
100
AcDbLine
 10
746.7797193918019
 20
764.2000000000005
 30
0.0
 11
746.7797193918019
 21
745.8879999999998
 31
0.0
  0
LINE
  5
343
330
74
100
AcDbEntity
  8
1
  6
Continuous
 62
     2
100
AcDbLine
 10
716.4037193918019
 20
773.2000000000003
 30
0.0
 11
716.4037193918019
 21
788.7000000000002
 31
0.0
  0
LINE
  5
344
330
74
100
AcDbEntity
  8
1
  6
Continuous
 62
     2
100
AcDbLine
 10
296.4037193918018
 20
773.2000000000003
 30
0.0
 11
296.4037193918018
 21
788.7000000000002
 31
0.0
  0
LINE
  5
345
330
74
100
AcDbEntity
  8
1
  6
Continuous
 62
     2
100
AcDbLine
 10
326.7797193918018
 20
764.2000000000005
 30
0.0
 11
326.7797193918018
 21
745.8879999999998
 31
0.0
  0
LINE
  5
346
330
74
100
AcDbEntity
  8
1
  6
Continuous
 62
     7
100
AcDbLine
 10
327.5917193918017
 20
773.2000000000003
 30
0.0
 11
327.5917193918017
 21
788.7000000000002
 31
0.0
  0
LINE
  5
347
330
74
100
AcDbEntity
  8
1
  6
Continuous
 62
     7
100
AcDbLine
 10
295.5917193918017
 20
746.6999999999997
 30
0.0
 11
327.5917193918017
 21
746.6999999999999
 31
0.0
  0
LINE
  5
348
330
74
100
AcDbEntity
  8
1
  6
Continuous
 62
     2
100
AcDbLine
 10
296.4037193918018
 20
745.8879999999996
 30
0.0
 11
296.4037193918018
 21
764.2000000000005
 31
0.0
  0
LINE
  5
349
330
74
100
AcDbEntity
  8
1
  6
Continuous
 62
     7
100
AcDbLine
 10
296.5917193918017
 20
745.6999999999999
 30
0.0
 11
296.4037193918018
 21
745.8879999999996
 31
0.0
  0
LINE
  5
34A
330
74
100
AcDbEntity
  8
1
  6
Continuous
 62
     7
100
AcDbLine
 10
296.5917193918017
 20
745.6999999999999
 30
0.0
 11
297.9917193918018
 21
745.6999999999999
 31
0.0
  0
LINE
  5
34B
330
74
100
AcDbEntity
  8
1
  6
Continuous
 62
     7
100
AcDbLine
 10
326.7797193918018
 20
745.8879999999998
 30
0.0
 11
326.5917193918017
 21
745.6999999999999
 31
0.0
  0
LINE
  5
34C
330
74
100
AcDbEntity
  8
1
  6
Continuous
 62
     7
100
AcDbLine
 10
297.9917193918018
 20
745.6999999999999
 30
0.0
 11
326.5917193918017
 21
745.6999999999999
 31
0.0
  0
LINE
  5
34D
330
74
100
AcDbEntity
  8
1
  6
Continuous
 62
     7
100
AcDbLine
 10
296.4037193918018
 20
745.8879999999996
 30
0.0
 11
295.5917193918017
 21
746.6999999999997
 31
0.0
  0
LINE
  5
34E
330
74
100
AcDbEntity
  8
1
  6
Continuous
 62
     2
100
AcDbLine
 10
326.7797193918018
 20
788.7000000000002
 30
0.0
 11
326.7797193918018
 21
773.2000000000003
 31
0.0
  0
LINE
  5
34F
330
74
100
AcDbEntity
  8
1
  6
Continuous
 62
     7
100
AcDbLine
 10
327.5917193918017
 20
746.6999999999999
 30
0.0
 11
326.7797193918018
 21
745.8879999999998
 31
0.0
  0
LINE
  5
350
330
74
100
AcDbEntity
  8
1
  6
Continuous
 62
     7
100
AcDbLine
 10
333.7917193918017
 20
791.2
 30
0.0
 11
334.0917193918017
 21
791.5
 31
0.0
  0
LINE
  5
351
330
74
100
AcDbEntity
  8
1
  6
Continuous
 62
     7
100
AcDbLine
 10
334.0917193918017
 20
792.9
 30
0.0
 11
333.7917193918017
 21
793.2
 31
0.0
  0
LINE
  5
352
330
74
100
AcDbEntity
  8
1
  6
Continuous
 62
     7
100
AcDbLine
 10
334.0917193918017
 20
792.9
 30
0.0
 11
334.0917193918017
 21
791.5
 31
0.0
  0
LINE
  5
353
330
74
100
AcDbEntity
  8
1
  6
Continuous
 62
     7
100
AcDbLine
 10
327.5917193918017
 20
746.6999999999999
 30
0.0
 11
327.5917193918017
 21
764.2000000000005
 31
0.0
  0
LINE
  5
354
330
74
100
AcDbEntity
  8
1
  6
Continuous
 62
     7
100
AcDbLine
 10
295.5917193918017
 20
788.7000000000002
 30
0.0
 11
295.5917193918017
 21
773.2000000000003
 31
0.0
  0
LINE
  5
355
330
74
100
AcDbEntity
  8
1
  6
Continuous
 62
     7
100
AcDbLine
 10
289.0917193917755
 20
791.5
 30
0.0
 11
289.0917193917755
 21
792.9
 31
0.0
  0
LINE
  5
356
330
74
100
AcDbEntity
  8
1
  6
Continuous
 62
     7
100
AcDbLine
 10
289.3917193917755
 20
793.2
 30
0.0
 11
289.0917193917755
 21
792.9
 31
0.0
  0
LINE
  5
357
330
74
100
AcDbEntity
  8
1
  6
Continuous
 62
     7
100
AcDbLine
 10
289.0917193917755
 20
791.5
 30
0.0
 11
289.3917193917755
 21
791.2
 31
0.0
  0
LINE
  5
358
330
74
100
AcDbEntity
  8
1
  6
Continuous
 62
     7
100
AcDbLine
 10
333.7917193918017
 20
791.2
 30
0.0
 11
289.3917193917755
 21
791.2
 31
0.0
  0
LINE
  5
359
330
74
100
AcDbEntity
  8
1
  6
Continuous
 62
     7
100
AcDbLine
 10
289.3917193917755
 20
793.2
 30
0.0
 11
333.7917193918017
 21
793.2
 31
0.0
  0
LINE
  5
35A
330
74
100
AcDbEntity
  8
1
  6
Continuous
 62
     7
100
AcDbLine
 10
295.5917193918017
 20
764.2000000000005
 30
0.0
 11
295.5917193918017
 21
746.6999999999997
 31
0.0
  0
ENDBLK
  5
76
330
74
100
AcDbEntity
  8
0
100
AcDbBlockEnd
  0
BLOCK
  5
78
330
77
100
AcDbEntity
  8
0
100
AcDbBlockBegin
  2
37-398-M11
 70
     0
 10
351.0891018826861
 20
1586.504478413392
 30
0.0
  3
37-398-M11
  1

  0
LINE
  5
35B
330
77
100
AcDbEntity
  8
1
  6
Continuous
 62
     7
100
AcDbLine
 10
300.7688353165357
 20
1019.504478341777
 30
0.0
 11
294.5911746825042
 21
1019.504478341774
 31
0.0
  0
LINE
  5
35C
330
77
100
AcDbEntity
  8
1
  6
Continuous
 62
     7
100
AcDbLine
 10
748.2778432418401
 20
1020.530155408868
 30
0.0
 11
747.8417193917884
 21
1020.704478341788
 31
0.0
  0
LINE
  5
35D
330
77
100
AcDbEntity
  8
1
  6
Continuous
 62
     7
100
AcDbLine
 10
715.3417193917884
 20
1020.704478341788
 30
0.0
 11
714.905595541737
 21
1020.530155408868
 31
0.0
  0
LINE
  5
35E
330
77
100
AcDbEntity
  8
1
  6
Continuous
 62
     7
100
AcDbLine
 10
720.591174682504
 20
1025.904478341788
 30
0.0
 11
720.591174682504
 21
1025.904478341788
 31
0.0
  0
LINE
  5
35F
330
77
100
AcDbEntity
  8
1
  6
Continuous
 62
     7
100
AcDbLine
 10
748.5922641010733
 20
1019.5044783418
 30
0.0
 11
714.591174682504
 21
1019.504478341787
 31
0.0
  0
LINE
  5
360
330
77
100
AcDbEntity
  8
1
  6
Continuous
 62
     7
100
AcDbLine
 10
748.5922641010733
 20
1019.5044783418
 30
0.0
 11
748.5922641010733
 21
1019.504478341787
 31
0.0
  0
LINE
  5
361
330
77
100
AcDbEntity
  8
1
  6
Continuous
 62
     7
100
AcDbLine
 10
714.591174682504
 20
1019.504478341787
 30
0.0
 11
714.591174682504
 21
1020.065870601328
 31
0.0
  0
LINE
  5
362
330
77
100
AcDbEntity
  8
1
  6
Continuous
 62
     7
100
AcDbLine
 10
294.5911746825042
 20
1019.504478341774
 30
0.0
 11
294.5911746825042
 21
1020.065870601328
 31
0.0
  0
LINE
  5
363
330
77
100
AcDbEntity
  8
1
  6
Continuous
 62
     7
100
AcDbLine
 10
328.5922641010733
 20
1019.504478341788
 30
0.0
 11
323.6117609549996
 21
1019.504478341786
 31
0.0
  0
LINE
  5
364
330
77
100
AcDbEntity
  8
1
  6
Continuous
 62
     7
100
AcDbLine
 10
295.3417193917886
 20
1020.704478341788
 30
0.0
 11
294.9055955417372
 21
1020.530155408868
 31
0.0
  0
LINE
  5
365
330
77
100
AcDbEntity
  8
1
  6
Continuous
 62
     7
100
AcDbLine
 10
328.2778432418401
 20
1020.530155408868
 30
0.0
 11
327.8417193917886
 21
1020.704478341788
 31
0.0
  0
LINE
  5
366
330
77
100
AcDbEntity
  8
1
  6
Continuous
 62
     7
100
AcDbLine
 10
328.5922641010733
 20
1020.065870601328
 30
0.0
 11
328.5922641010733
 21
1019.504478341788
 31
0.0
  0
ARC
  5
367
330
77
100
AcDbEntity
  8
1
  6
Continuous
 62
     7
100
AcDbCircle
 10
713.7846550638261
 20
1024.388979756985
 30
0.0
 40
4.000000000000183
100
AcDbArc
 50
292.9088405879428
 51
351.5975486374424
  0
ARC
  5
368
330
77
100
AcDbEntity
  8
1
  6
Continuous
 62
     7
100
AcDbCircle
 10
749.3987837197509
 20
1024.388979756985
 30
0.0
 40
4.000000000000002
100
AcDbArc
 50
194.2483483872913
 51
247.0911594120542
  0
ARC
  5
369
330
77
100
AcDbEntity
  8
1
  6
Continuous
 62
     7
100
AcDbCircle
 10
329.3987837197511
 20
1024.388979756985
 30
0.0
 40
3.999999999999945
100
AcDbArc
 50
192.7751379763078
 51
247.0911594120542
  0
ARC
  5
36A
330
77
100
AcDbEntity
  8
1
  6
Continuous
 62
     7
100
AcDbCircle
 10
293.7846550638263
 20
1024.388979756985
 30
0.0
 40
4.000000000000205
100
AcDbArc
 50
292.9088405879435
 51
347.2248620236922
  0
ARC
  5
36B
330
77
100
AcDbEntity
  8
1
  6
Continuous
 62
     7
100
AcDbCircle
 10
748.092264101073
 20
1020.065870601328
 30
0.0
 40
0.5
100
AcDbArc
 50
0.00000000011725
 51
68.21293075090837
  0
ARC
  5
36C
330
77
100
AcDbEntity
  8
1
  6
Continuous
 62
     7
100
AcDbCircle
 10
715.091174682504
 20
1020.065870601328
 30
0.0
 40
0.5000000000002978
100
AcDbArc
 50
111.7870692490916
 51
180.0
  0
ARC
  5
36D
330
77
100
AcDbEntity
  8
1
  6
Continuous
 62
     7
100
AcDbCircle
 10
295.0911746825042
 20
1020.065870601328
 30
0.0
 40
0.5000000000002766
100
AcDbArc
 50
111.7870692490856
 51
180.0
  0
ARC
  5
36E
330
77
100
AcDbEntity
  8
1
  6
Continuous
 62
     7
100
AcDbCircle
 10
328.0922641010733
 20
1020.065870601328
 30
0.0
 40
0.5
100
AcDbArc
 50
0.0
 51
68.21293075092652
  0
ENDBLK
  5
79
330
77
100
AcDbEntity
  8
0
100
AcDbBlockEnd
  0
BLOCK
  5
7C
330
7A
100
AcDbEntity
  8
0
100
AcDbBlockBegin
  2
新コラム洗面混合栓ノーマル130618
 70
     0
 10
1000.0
 20
200.0
 30
0.0
  3
新コラム洗面混合栓ノーマル130618
  1

  0
INSERT
  5
7B
330
7A
100
AcDbEntity
  8
1
100
AcDbBlockReference
  2
37-398-M11
 10
351.0891018826861
 20
1586.504478413392
 30
0.0
 41
1.0
 42
1.0
 43
1.0
  0
LINE
  5
36F
330
7A
100
AcDbEntity
  8
1
  6
DASH_CENTER
 62
     2
100
AcDbLine
 10
318.4422641010737
 20
1037.304478413338
 30
0.0
 11
304.7422641010736
 21
1037.304478413338
 31
0.0
  0
ENDBLK
  5
7D
330
7A
100
AcDbEntity
  8
0
100
AcDbBlockEnd
  0
BLOCK
  5
7F
330
7E
100
AcDbEntity
  8
0
100
AcDbBlockBegin
  2
65-56-470-C2
 70
     0
 10
238.0520751304849
 20
729.604478413333
 30
0.0
  3
65-56-470-C2
  1

  0
LINE
  5
370
330
7E
100
AcDbEntity
  8
1
  6
Continuous
 62
     7
100
AcDbLine
 10
316.3417193917875
 20
422.26
 30
0.0
 11
316.3417193917886
 21
745.903877362683
 31
0.0
  0
LINE
  5
371
330
7E
100
AcDbEntity
  8
1
  6
Continuous
 62
     7
100
AcDbLine
 10
306.8417193917886
 20
745.903877362683
 30
0.0
 11
306.8417193917886
 21
422.26
 31
0.0
  0
LINE
  5
372
330
7E
100
AcDbEntity
  8
1
  6
Continuous
 62
     7
100
AcDbLine
 10
730.241719391787
 20
422.26
 30
0.0
 11
730.2417193917893
 21
745.6999999999999
 31
0.0
  0
LINE
  5
373
330
7E
100
AcDbEntity
  8
1
  6
Continuous
 62
     7
100
AcDbLine
 10
720.7417193917901
 20
725.9155675098498
 30
0.0
 11
720.7417193917901
 21
725.9220493949763
 31
0.0
  0
LINE
  5
374
330
7E
100
AcDbEntity
  8
1
  6
Continuous
 62
     7
100
AcDbLine
 10
720.7417193917951
 20
422.26
 30
0.0
 11
720.7417193917898
 21
745.6999999999999
 31
0.0
  0
ENDBLK
  5
80
330
7E
100
AcDbEntity
  8
0
100
AcDbBlockEnd
  0
BLOCK
  5
83
330
81
100
AcDbEntity
  8
0
100
AcDbBlockBegin
  2
30-360X-470-C6
 70
     0
 10
529.2308601234939
 20
982.4329472335182
 30
0.0
  3
30-360X-470-C6
  1

  0
INSERT
  5
82
330
81
100
AcDbEntity
  8
1
100
AcDbBlockReference
  2
65-56-470-C2
 10
238.0520751304849
 20
729.6044784133329
 30
0.0
 41
1.0
 42
1.0
 43
1.0
  0
ENDBLK
  5
84
330
81
100
AcDbEntity
  8
0
100
AcDbBlockEnd
  0
BLOCK
  5
3B5
330
3AC
100
AcDbEntity
  8
0
100
AcDbBlockBegin
  2
*D20
 70
     1
 10
0.0
 20
0.0
 30
0.0
  3
*D20
  1

  0
LINE
  5
3AD
330
3AC
100
AcDbEntity
  8
1
  6
Continuous
 62
     2
100
AcDbLine
 10
482.5917193917888
 20
773.2000000000002
 30
0.0
 11
482.5917193917888
 21
738.2000000000002
 31
0.0
  0
LINE
  5
3AE
330
3AC
100
AcDbEntity
  8
1
  6
Continuous
 62
     2
100
AcDbLine
 10
482.5917193917888
 20
788.6999999999999
 30
0.0
 11
482.5917193917888
 21
773.2000000000002
 31
0.0
  0
LINE
  5
3AF
330
3AC
100
AcDbEntity
  8
1
  6
Continuous
 62
     2
100
AcDbLine
 10
482.5917193917888
 20
955.960203362595
 30
0.0
 11
482.5917193917888
 21
788.6999999999999
 31
0.0
  0
LINE
  5
3B0
330
3AC
100
AcDbEntity
  8
1
  6
Continuous
 62
     2
100
AcDbLine
 10
692.5917193917887
 20
773.2000000000002
 30
0.0
 11
477.5917193917888
 21
773.2000000000002
 31
0.0
  0
LINE
  5
3B1
330
3AC
100
AcDbEntity
  8
1
  6
Continuous
 62
     2
100
AcDbLine
 10
692.5917193917887
 20
788.6999999999999
 30
0.0
 11
477.5917193917888
 21
788.6999999999999
 31
0.0
  0
SOLID
  5
3B2
330
3AC
100
AcDbEntity
  8
1
 62
     2
100
AcDbTrace
 10
480.2878006840094
 20
806.1999999999999
 30
0.0
 11
484.8956380995682
 21
806.1999999999999
 31
0.0
 12
482.5917193917888
 22
788.6999999999999
 32
0.0
 13
482.5917193917888
 23
788.6999999999999
 33
0.0
  0
SOLID
  5
3B3
330
3AC
100
AcDbEntity
  8
1
 62
     2
100
AcDbTrace
 10
484.8956380995682
 20
755.7000000000002
 30
0.0
 11
480.2878006840094
 21
755.7000000000002
 31
0.0
 12
482.5917193917888
 22
773.2000000000002
 32
0.0
 13
482.5917193917888
 23
773.2000000000002
 33
0.0
  0
MTEXT
  5
3B4
330
3AC
100
AcDbEntity
  8
1
 62
     7
100
AcDbMText
 10
477.5917193917888
 20
843.960203362595
 30
0.0
 40
17.5
 41
0.0
 71
     7
 72
     1
  1
最大30最小5
  7
CONVERTER_11
 11
0.0
 21
1.0
 31
0.0
 73
     1
 44
0.45454545454545
  0
ENDBLK
  5
3B6
330
3AC
100
AcDbEntity
  8
0
100
AcDbBlockEnd
  0
BLOCK
  5
3C0
330
3B9
100
AcDbEntity
  8
0
100
AcDbBlockBegin
  2
*D21
 70
     1
 10
0.0
 20
0.0
 30
0.0
  3
*D21
  1

  0
LINE
  5
3BA
330
3B9
100
AcDbEntity
  8
1
  6
Continuous
 62
     2
100
AcDbLine
 10
731.5917193917887
 20
1144.273620285326
 30
0.0
 11
612.7188098932247
 21
1144.273620285326
 31
0.0
  0
LINE
  5
3BB
330
3B9
100
AcDbEntity
  8
1
  6
Continuous
 62
     2
100
AcDbLine
 10
612.7188098932247
 20
992.2037987113657
 30
0.0
 11
612.7188098932247
 21
1149.273620285326
 31
0.0
  0
LINE
  5
3BC
330
3B9
100
AcDbEntity
  8
1
  6
Continuous
 62
     2
100
AcDbLine
 10
731.5917193917887
 20
1051.3026615
 30
0.0
 11
731.5917193917887
 21
1149.273620285326
 31
0.0
  0
SOLID
  5
3BD
330
3B9
100
AcDbEntity
  8
1
 62
     2
100
AcDbTrace
 10
714.0917193917887
 20
1141.969701577546
 30
0.0
 11
714.0917193917887
 21
1146.577538993105
 31
0.0
 12
731.5917193917887
 22
1144.273620285326
 32
0.0
 13
731.5917193917887
 23
1144.273620285326
 33
0.0
  0
SOLID
  5
3BE
330
3B9
100
AcDbEntity
  8
1
 62
     2
100
AcDbTrace
 10
630.2188098932247
 20
1146.577538993105
 30
0.0
 11
630.2188098932247
 21
1141.969701577546
 31
0.0
 12
612.7188098932247
 22
1144.273620285326
 32
0.0
 13
612.7188098932247
 23
1144.273620285326
 33
0.0
  0
MTEXT
  5
3BF
330
3B9
100
AcDbEntity
  8
1
 62
     7
100
AcDbMText
 10
656.4052646425067
 20
1149.273620285326
 30
0.0
 40
17.5
 41
0.0
 71
     7
 72
     1
  1
119
  7
CONVERTER_12
 11
0.9999999999970619
 21
2.424068405545306E-6
 31
0.0
 73
     1
 44
0.60024009603842
  0
ENDBLK
  5
3C1
330
3B9
100
AcDbEntity
  8
0
100
AcDbBlockEnd
  0
BLOCK
  5
3CD
330
3C4
100
AcDbEntity
  8
0
100
AcDbBlockBegin
  2
*D22
 70
     1
 10
0.0
 20
0.0
 30
0.0
  3
*D22
  1

  0
LINE
  5
3C5
330
3C4
100
AcDbEntity
  8
1
  6
Continuous
 62
     2
100
AcDbLine
 10
678.5917193917884
 20
655.6999999999999
 30
0.0
 11
713.5917193917884
 21
655.6999999999999
 31
0.0
  0
LINE
  5
3C6
330
3C4
100
AcDbEntity
  8
1
  6
Continuous
 62
     2
100
AcDbLine
 10
713.5917193917884
 20
655.6999999999999
 30
0.0
 11
749.5917193917884
 21
655.6999999999999
 31
0.0
  0
LINE
  5
3C7
330
3C4
100
AcDbEntity
  8
1
  6
Continuous
 62
     2
100
AcDbLine
 10
749.5917193917884
 20
655.6999999999999
 30
0.0
 11
936.8012482390266
 21
655.6999999999999
 31
0.0
  0
LINE
  5
3C8
330
3C4
100
AcDbEntity
  8
1
  6
Continuous
 62
     2
100
AcDbLine
 10
713.5917193917884
 20
764.2000000000004
 30
0.0
 11
713.5917193917884
 21
650.6999999999999
 31
0.0
  0
LINE
  5
3C9
330
3C4
100
AcDbEntity
  8
1
  6
Continuous
 62
     2
100
AcDbLine
 10
749.5917193917884
 20
764.2000000000004
 30
0.0
 11
749.5917193917884
 21
650.6999999999999
 31
0.0
  0
SOLID
  5
3CA
330
3C4
100
AcDbEntity
  8
1
 62
     2
100
AcDbTrace
 10
696.0917193917884
 20
653.3960812922205
 30
0.0
 11
696.0917193917884
 21
658.0039187077793
 31
0.0
 12
713.5917193917884
 22
655.6999999999999
 32
0.0
 13
713.5917193917884
 23
655.6999999999999
 33
0.0
  0
SOLID
  5
3CB
330
3C4
100
AcDbEntity
  8
1
 62
     2
100
AcDbTrace
 10
767.0917193917884
 20
658.0039187077793
 30
0.0
 11
767.0917193917884
 21
653.3960812922205
 31
0.0
 12
749.5917193917884
 22
655.6999999999999
 32
0.0
 13
749.5917193917884
 23
655.6999999999999
 33
0.0
  0
MTEXT
  5
3CC
330
3C4
100
AcDbEntity
  8
1
 62
     7
100
AcDbMText
 10
795.7512482393638
 20
660.699721716947
 30
0.0
 40
17.5
 41
0.0
 71
     7
 72
     1
  1
\C7;ロックナット対辺\C7;36
  7
CONVERTER_11
 11
0.9999999999970619
 21
2.424068405545306E-6
 31
0.0
 73
     1
 44
0.45454545454545
  0
ENDBLK
  5
3CE
330
3C4
100
AcDbEntity
  8
0
100
AcDbBlockEnd
  0
BLOCK
  5
3DA
330
3D1
100
AcDbEntity
  8
0
100
AcDbBlockBegin
  2
*D23
 70
     1
 10
0.0
 20
0.0
 30
0.0
  3
*D23
  1

  0
LINE
  5
3D2
330
3D1
100
AcDbEntity
  8
1
  6
Continuous
 62
     2
100
AcDbLine
 10
757.7063702851707
 20
1144.273620285326
 30
0.0
 11
792.7063702851707
 21
1144.273620285326
 31
0.0
  0
LINE
  5
3D3
330
3D1
100
AcDbEntity
  8
1
  6
Continuous
 62
     2
100
AcDbLine
 10
731.5917193917887
 20
1144.273620285326
 30
0.0
 11
757.7063702851707
 21
1144.273620285326
 31
0.0
  0
LINE
  5
3D4
330
3D1
100
AcDbEntity
  8
1
  6
Continuous
 62
     2
100
AcDbLine
 10
696.5917193917887
 20
1144.273620285326
 30
0.0
 11
731.5917193917887
 21
1144.273620285326
 31
0.0
  0
LINE
  5
3D5
330
3D1
100
AcDbEntity
  8
1
  6
Continuous
 62
     2
100
AcDbLine
 10
757.7063702851707
 20
1039.22483217641
 30
0.0
 11
757.7063702851707
 21
1149.273620285326
 31
0.0
  0
LINE
  5
3D6
330
3D1
100
AcDbEntity
  8
1
  6
Continuous
 62
     2
100
AcDbLine
 10
731.5917193917887
 20
1051.3026615
 30
0.0
 11
731.5917193917887
 21
1149.273620285326
 31
0.0
  0
SOLID
  5
3D7
330
3D1
100
AcDbEntity
  8
1
 62
     2
100
AcDbTrace
 10
714.0917193917887
 20
1141.969701577546
 30
0.0
 11
714.0917193917887
 21
1146.577538993105
 31
0.0
 12
731.5917193917887
 22
1144.273620285326
 32
0.0
 13
731.5917193917887
 23
1144.273620285326
 33
0.0
  0
SOLID
  5
3D8
330
3D1
100
AcDbEntity
  8
1
 62
     2
100
AcDbTrace
 10
775.2063702851707
 20
1146.577538993105
 30
0.0
 11
775.2063702851707
 21
1141.969701577546
 31
0.0
 12
757.7063702851707
 22
1144.273620285326
 32
0.0
 13
757.7063702851707
 23
1144.273620285326
 33
0.0
  0
MTEXT
  5
3D9
330
3D1
100
AcDbEntity
  8
1
 62
     7
100
AcDbMText
 10
738.4205532137107
 20
1149.273620285326
 30
0.0
 40
17.5
 41
0.0
 71
     7
 72
     1
  1
27
  7
CONVERTER_12
 11
0.9999999999970619
 21
2.424068405545306E-6
 31
0.0
 73
     1
 44
0.60024009603842
  0
ENDBLK
  5
3DB
330
3D1
100
AcDbEntity
  8
0
100
AcDbBlockEnd
  0
BLOCK
  5
3E7
330
3DE
100
AcDbEntity
  8
0
100
AcDbBlockBegin
  2
*D24
 70
     1
 10
0.0
 20
0.0
 30
0.0
  3
*D24
  1

  0
LINE
  5
3DF
330
3DE
100
AcDbEntity
  8
1
  6
Continuous
 62
     2
100
AcDbLine
 10
754.0917193918021
 20
815.178464559748
 30
0.0
 11
789.0917193918021
 21
815.178464559748
 31
0.0
  0
LINE
  5
3E0
330
3DE
100
AcDbEntity
  8
1
  6
Continuous
 62
     2
100
AcDbLine
 10
709.091719391776
 20
815.178464559748
 30
0.0
 11
754.0917193918021
 21
815.178464559748
 31
0.0
  0
LINE
  5
3E1
330
3DE
100
AcDbEntity
  8
1
  6
Continuous
 62
     2
100
AcDbLine
 10
604.228995403673
 20
815.178464559748
 30
0.0
 11
709.091719391776
 21
815.178464559748
 31
0.0
  0
LINE
  5
3E2
330
3DE
100
AcDbEntity
  8
1
  6
Continuous
 62
     2
100
AcDbLine
 10
754.0917193918021
 20
792.9
 30
0.0
 11
754.0917193918021
 21
820.178464559748
 31
0.0
  0
LINE
  5
3E3
330
3DE
100
AcDbEntity
  8
1
  6
Continuous
 62
     2
100
AcDbLine
 10
709.091719391776
 20
792.9000000000002
 30
0.0
 11
709.091719391776
 21
820.178464559748
 31
0.0
  0
SOLID
  5
3E4
330
3DE
100
AcDbEntity
  8
1
 62
     2
100
AcDbTrace
 10
691.591719391776
 20
812.8745458519686
 30
0.0
 11
691.591719391776
 21
817.4823832675274
 31
0.0
 12
709.091719391776
 22
815.178464559748
 32
0.0
 13
709.091719391776
 23
815.178464559748
 33
0.0
  0
SOLID
  5
3E5
330
3DE
100
AcDbEntity
  8
1
 62
     2
100
AcDbTrace
 10
771.5917193918021
 20
817.4823832675274
 30
0.0
 11
771.5917193918021
 21
812.8745458519686
 31
0.0
 12
754.0917193918021
 22
815.178464559748
 32
0.0
 13
754.0917193918021
 23
815.178464559748
 33
0.0
  0
MTEXT
  5
3E6
330
3DE
100
AcDbEntity
  8
1
 62
     7
100
AcDbMText
 10
610.8789954037152
 20
820.1784297743664
 30
0.0
 40
17.5
 41
0.0
 71
     7
 72
     1
  1
\C7;{\Fgdt;n}\C7;45
  7
CONVERTER_12
 11
0.9999999999970619
 21
2.424068405545306E-6
 31
0.0
 73
     1
 44
0.60024009603842
  0
ENDBLK
  5
3E8
330
3DE
100
AcDbEntity
  8
0
100
AcDbBlockEnd
  0
BLOCK
  5
3F4
330
3EB
100
AcDbEntity
  8
0
100
AcDbBlockBegin
  2
*D25
 70
     1
 10
0.0
 20
0.0
 30
0.0
  3
*D25
  1

  0
LINE
  5
3EC
330
3EB
100
AcDbEntity
  8
1
  6
Continuous
 62
     2
100
AcDbLine
 10
747.5917193918018
 20
695.6999999999999
 30
0.0
 11
844.216719391789
 21
695.6999999999999
 31
0.0
  0
LINE
  5
3ED
330
3EB
100
AcDbEntity
  8
1
  6
Continuous
 62
     2
100
AcDbLine
 10
715.5917193918018
 20
695.6999999999999
 30
0.0
 11
747.5917193918018
 21
695.6999999999999
 31
0.0
  0
LINE
  5
3EE
330
3EB
100
AcDbEntity
  8
1
  6
Continuous
 62
     2
100
AcDbLine
 10
680.5917193918017
 20
695.6999999999999
 30
0.0
 11
715.5917193918018
 21
695.6999999999999
 31
0.0
  0
LINE
  5
3EF
330
3EB
100
AcDbEntity
  8
1
  6
Continuous
 62
     2
100
AcDbLine
 10
747.5917193918018
 20
746.6999999999999
 30
0.0
 11
747.5917193918018
 21
690.6999999999999
 31
0.0
  0
LINE
  5
3F0
330
3EB
100
AcDbEntity
  8
1
  6
Continuous
 62
     2
100
AcDbLine
 10
715.5917193918018
 20
746.6999999999997
 30
0.0
 11
715.5917193918018
 21
690.6999999999999
 31
0.0
  0
SOLID
  5
3F1
330
3EB
100
AcDbEntity
  8
1
 62
     2
100
AcDbTrace
 10
698.0917193918018
 20
693.3960812922205
 30
0.0
 11
698.0917193918018
 21
698.0039187077793
 31
0.0
 12
715.5917193918018
 22
695.6999999999999
 32
0.0
 13
715.5917193918018
 23
695.6999999999999
 33
0.0
  0
SOLID
  5
3F2
330
3EB
100
AcDbEntity
  8
1
 62
     2
100
AcDbTrace
 10
765.0917193918018
 20
698.0039187077793
 30
0.0
 11
765.0917193918018
 21
693.3960812922205
 31
0.0
 12
747.5917193918018
 22
695.6999999999999
 32
0.0
 13
747.5917193918018
 23
695.6999999999999
 33
0.0
  0
MTEXT
  5
3F3
330
3EB
100
AcDbEntity
  8
1
 62
     7
100
AcDbMText
 10
803.6167193918311
 20
700.6999652146183
 30
0.0
 40
17.5
 41
0.0
 71
     7
 72
     1
  1
\C7;{\Fgdt;n}\C7;32
  7
CONVERTER_12
 11
0.9999999999970619
 21
2.424068405545306E-6
 31
0.0
 73
     1
 44
0.60024009603842
  0
ENDBLK
  5
3F5
330
3EB
100
AcDbEntity
  8
0
100
AcDbBlockEnd
  0
BLOCK
  5
3FF
330
3F8
100
AcDbEntity
  8
0
100
AcDbBlockBegin
  2
*D26
 70
     1
 10
0.0
 20
0.0
 30
0.0
  3
*D26
  1

  0
LINE
  5
3F9
330
3F8
100
AcDbEntity
  8
1
  6
Continuous
 62
     2
100
AcDbLine
 10
860.591719391789
 20
791.2
 30
0.0
 11
860.591719391789
 21
1059.266914374697
 31
0.0
  0
LINE
  5
3FA
330
3F8
100
AcDbEntity
  8
1
  6
Continuous
 62
     2
100
AcDbLine
 10
709.5855282331545
 20
1059.266914374697
 30
0.0
 11
865.591719391789
 21
1059.266914374697
 31
0.0
  0
LINE
  5
3FB
330
3F8
100
AcDbEntity
  8
1
  6
Continuous
 62
     2
100
AcDbLine
 10
753.7917193918018
 20
791.2
 30
0.0
 11
865.591719391789
 21
791.2
 31
0.0
  0
SOLID
  5
3FC
330
3F8
100
AcDbEntity
  8
1
 62
     2
100
AcDbTrace
 10
858.2878006840095
 20
808.7
 30
0.0
 11
862.8956380995684
 21
808.7
 31
0.0
 12
860.591719391789
 22
791.2
 32
0.0
 13
860.591719391789
 23
791.2
 33
0.0
  0
SOLID
  5
3FD
330
3F8
100
AcDbEntity
  8
1
 62
     2
100
AcDbTrace
 10
862.8956380995684
 20
1041.766914374697
 30
0.0
 11
858.2878006840095
 21
1041.766914374697
 31
0.0
 12
860.591719391789
 22
1059.266914374697
 32
0.0
 13
860.591719391789
 23
1059.266914374697
 33
0.0
  0
MTEXT
  5
3FE
330
3F8
100
AcDbEntity
  8
1
 62
     7
100
AcDbMText
 10
855.591719391789
 20
900.522955755706
 30
0.0
 40
17.5
 41
0.0
 71
     7
 72
     1
  1
269
  7
CONVERTER_12
 11
0.0
 21
1.0
 31
0.0
 73
     1
 44
0.60024009603842
  0
ENDBLK
  5
400
330
3F8
100
AcDbEntity
  8
0
100
AcDbBlockEnd
  0
BLOCK
  5
40C
330
403
100
AcDbEntity
  8
0
100
AcDbBlockBegin
  2
*D27
 70
     1
 10
0.0
 20
0.0
 30
0.0
  3
*D27
  1

  0
LINE
  5
404
330
403
100
AcDbEntity
  8
1
  6
Continuous
 62
     2
100
AcDbLine
 10
860.591719391789
 20
745.6999999999999
 30
0.0
 11
860.591719391789
 21
710.6999999999999
 31
0.0
  0
LINE
  5
405
330
403
100
AcDbEntity
  8
1
  6
Continuous
 62
     2
100
AcDbLine
 10
860.591719391789
 20
791.2
 30
0.0
 11
860.591719391789
 21
745.6999999999999
 31
0.0
  0
LINE
  5
406
330
403
100
AcDbEntity
  8
1
  6
Continuous
 62
     2
100
AcDbLine
 10
860.591719391789
 20
826.2
 30
0.0
 11
860.591719391789
 21
791.2
 31
0.0
  0
LINE
  5
407
330
403
100
AcDbEntity
  8
1
  6
Continuous
 62
     2
100
AcDbLine
 10
746.5917193918017
 20
745.6999999999999
 30
0.0
 11
865.591719391789
 21
745.6999999999999
 31
0.0
  0
LINE
  5
408
330
403
100
AcDbEntity
  8
1
  6
Continuous
 62
     2
100
AcDbLine
 10
753.7917193918017
 20
791.2
 30
0.0
 11
865.591719391789
 21
791.2
 31
0.0
  0
SOLID
  5
409
330
403
100
AcDbEntity
  8
1
 62
     2
100
AcDbTrace
 10
858.2878006840095
 20
808.7
 30
0.0
 11
862.8956380995684
 21
808.7
 31
0.0
 12
860.591719391789
 22
791.2
 32
0.0
 13
860.591719391789
 23
791.2
 33
0.0
  0
SOLID
  5
40A
330
403
100
AcDbEntity
  8
1
 62
     2
100
AcDbTrace
 10
862.8956380995684
 20
728.1999999999999
 30
0.0
 11
858.2878006840095
 21
728.1999999999999
 31
0.0
 12
860.591719391789
 22
745.6999999999999
 32
0.0
 13
860.591719391789
 23
745.6999999999999
 33
0.0
  0
MTEXT
  5
40B
330
403
100
AcDbEntity
  8
1
 62
     7
100
AcDbMText
 10
855.591719391789
 20
752.0155419804552
 30
0.0
 40
17.5
 41
0.0
 71
     7
 72
     1
  1
46
  7
CONVERTER_12
 11
0.0
 21
1.0
 31
0.0
 73
     1
 44
0.60024009603842
  0
ENDBLK
  5
40D
330
403
100
AcDbEntity
  8
0
100
AcDbBlockEnd
  0
BLOCK
  5
417
330
410
100
AcDbEntity
  8
0
100
AcDbBlockBegin
  2
*D28
 70
     1
 10
0.0
 20
0.0
 30
0.0
  3
*D28
  1

  0
LINE
  5
411
330
410
100
AcDbEntity
  8
1
  6
Continuous
 62
     2
100
AcDbLine
 10
820.591719391789
 20
791.2
 30
0.0
 11
820.591719391789
 21
1048.302661500001
 31
0.0
  0
LINE
  5
412
330
410
100
AcDbEntity
  8
1
  6
Continuous
 62
     2
100
AcDbLine
 10
748.4917193917883
 20
1048.302661500001
 30
0.0
 11
825.591719391789
 21
1048.302661500001
 31
0.0
  0
LINE
  5
413
330
410
100
AcDbEntity
  8
1
  6
Continuous
 62
     2
100
AcDbLine
 10
753.7917193918018
 20
791.2
 30
0.0
 11
825.591719391789
 21
791.2
 31
0.0
  0
SOLID
  5
414
330
410
100
AcDbEntity
  8
1
 62
     2
100
AcDbTrace
 10
818.2878006840095
 20
808.7
 30
0.0
 11
822.8956380995684
 21
808.7
 31
0.0
 12
820.591719391789
 22
791.2
 32
0.0
 13
820.591719391789
 23
791.2
 33
0.0
  0
SOLID
  5
415
330
410
100
AcDbEntity
  8
1
 62
     2
100
AcDbTrace
 10
822.8956380995684
 20
1030.802661500001
 30
0.0
 11
818.2878006840095
 21
1030.802661500001
 31
0.0
 12
820.591719391789
 22
1048.302661500001
 32
0.0
 13
820.591719391789
 23
1048.302661500001
 33
0.0
  0
MTEXT
  5
416
330
410
100
AcDbEntity
  8
1
 62
     7
100
AcDbMText
 10
815.591719391789
 20
904.2764862343165
 30
0.0
 40
17.5
 41
0.0
 71
     7
 72
     1
  1
258
  7
CONVERTER_12
 11
0.0
 21
1.0
 31
0.0
 73
     1
 44
0.60024009603842
  0
ENDBLK
  5
418
330
410
100
AcDbEntity
  8
0
100
AcDbBlockEnd
  0
BLOCK
  5
422
330
41B
100
AcDbEntity
  8
0
100
AcDbBlockBegin
  2
*D29
 70
     1
 10
0.0
 20
0.0
 30
0.0
  3
*D29
  1

  0
LINE
  5
41C
330
41B
100
AcDbEntity
  8
1
  6
Continuous
 62
     2
100
AcDbLine
 10
442.5917193917888
 20
992.2037987113657
 30
0.0
 11
442.5917193917888
 21
791.2
 31
0.0
  0
LINE
  5
41D
330
41B
100
AcDbEntity
  8
1
  6
Continuous
 62
     2
100
AcDbLine
 10
709.3917193917756
 20
791.2
 30
0.0
 11
437.5917193917888
 21
791.2
 31
0.0
  0
LINE
  5
41E
330
41B
100
AcDbEntity
  8
1
  6
Continuous
 62
     2
100
AcDbLine
 10
612.7188098932247
 20
992.2037987113657
 30
0.0
 11
437.5917193917888
 21
992.2037987113657
 31
0.0
  0
SOLID
  5
41F
330
41B
100
AcDbEntity
  8
1
 62
     2
100
AcDbTrace
 10
444.8956380995682
 20
974.7037987113657
 30
0.0
 11
440.2878006840094
 21
974.7037987113657
 31
0.0
 12
442.5917193917888
 22
992.2037987113657
 32
0.0
 13
442.5917193917888
 23
992.2037987113657
 33
0.0
  0
SOLID
  5
420
330
41B
100
AcDbEntity
  8
1
 62
     2
100
AcDbTrace
 10
440.2878006840094
 20
808.7
 30
0.0
 11
444.8956380995682
 21
808.7
 31
0.0
 12
442.5917193917888
 22
791.2
 32
0.0
 13
442.5917193917888
 23
791.2
 33
0.0
  0
MTEXT
  5
421
330
41B
100
AcDbEntity
  8
1
 62
     7
100
AcDbMText
 10
437.5917193917888
 20
865.577970281851
 30
0.0
 40
17.5
 41
0.0
 71
     7
 72
     1
  1
201
  7
CONVERTER_12
 11
0.0
 21
1.0
 31
0.0
 73
     1
 44
0.60024009603842
  0
ENDBLK
  5
423
330
41B
100
AcDbEntity
  8
0
100
AcDbBlockEnd
  0
BLOCK
  5
42D
330
426
100
AcDbEntity
  8
0
100
AcDbBlockBegin
  2
*D30
 70
     1
 10
0.0
 20
0.0
 30
0.0
  3
*D30
  1

  0
LINE
  5
427
330
426
100
AcDbEntity
  8
1
  6
Continuous
 62
     2
100
AcDbLine
 10
442.5917193917888
 20
791.2
 30
0.0
 11
442.5917193917888
 21
395.6999999999999
 31
0.0
  0
LINE
  5
428
330
426
100
AcDbEntity
  8
1
  6
Continuous
 62
     2
100
AcDbLine
 10
713.4917193917895
 20
395.6999999999999
 30
0.0
 11
437.5917193917888
 21
395.6999999999999
 31
0.0
  0
LINE
  5
429
330
426
100
AcDbEntity
  8
1
  6
Continuous
 62
     2
100
AcDbLine
 10
709.3917193917756
 20
791.2
 30
0.0
 11
437.5917193917888
 21
791.2
 31
0.0
  0
SOLID
  5
42A
330
426
100
AcDbEntity
  8
1
 62
     2
100
AcDbTrace
 10
444.8956380995682
 20
773.7
 30
0.0
 11
440.2878006840094
 21
773.7
 31
0.0
 12
442.5917193917888
 22
791.2
 32
0.0
 13
442.5917193917888
 23
791.2
 33
0.0
  0
SOLID
  5
42B
330
426
100
AcDbEntity
  8
1
 62
     2
100
AcDbTrace
 10
440.2878006840094
 20
413.1999999999999
 30
0.0
 11
444.8956380995682
 21
413.1999999999999
 31
0.0
 12
442.5917193917888
 22
395.6999999999999
 32
0.0
 13
442.5917193917888
 23
395.6999999999999
 33
0.0
  0
MTEXT
  5
42C
330
426
100
AcDbEntity
  8
1
 62
     7
100
AcDbMText
 10
437.5917193917888
 20
436.5642590726844
 30
0.0
 40
17.5
 41
0.0
 71
     7
 72
     1
  1
銅管直管時393(銅管曲げR60以上)
  7
CONVERTER_11
 11
0.0
 21
1.0
 31
0.0
 73
     1
 44
0.45454545454545
  0
ENDBLK
  5
42E
330
426
100
AcDbEntity
  8
0
100
AcDbBlockEnd
  0
BLOCK
  5
43A
330
431
100
AcDbEntity
  8
0
100
AcDbBlockBegin
  2
*D31
 70
     1
 10
0.0
 20
0.0
 30
0.0
  3
*D31
  1

  0
LINE
  5
432
330
431
100
AcDbEntity
  8
1
  6
Continuous
 62
     2
100
AcDbLine
 10
612.7188098932245
 20
989.1318338736119
 30
0.0
 11
612.7188098932207
 21
938.7914233163787
 31
0.0
  0
LINE
  5
433
330
431
100
AcDbEntity
  8
1
  6
Continuous
 62
     2
100
AcDbLine
 10
612.3549419553578
 20
990.491934661195
 30
0.0
 11
601.6137525758304
 21
939.9586118774342
 31
0.0
  0
LINE
  5
434
330
431
100
AcDbEntity
  8
1
  6
Continuous
 62
     2
100
AcDbLine
 10
612.7188098932207
 20
938.7914233163787
 30
0.0
 11
612.7188098932204
 21
933.7914233163787
 31
0.0
  0
LINE
  5
435
330
431
100
AcDbEntity
  8
1
  6
Continuous
 62
     2
100
AcDbLine
 10
601.6137525758304
 20
939.9586118774342
 30
0.0
 11
600.5741941181442
 21
935.0678738745298
 31
0.0
  0
ARC
  5
436
330
431
100
AcDbEntity
  8
1
  6
Continuous
 62
     2
100
AcDbCircle
 10
612.7188098932247
 20
992.2037987113657
 30
0.0
 40
53.4123753949871
100
AcDbArc
 50
189.4602069416708
 51
298.1585344425548
  0
SOLID
  5
437
330
431
100
AcDbEntity
  8
1
 62
     2
100
AcDbTrace
 10
584.4786069419105
 20
944.1947451988028
 30
0.0
 11
586.1588648519663
 21
948.4853044868116
 31
0.0
 12
601.6137525758304
 22
939.9586118774342
 32
0.0
 13
601.6137525758304
 23
939.9586118774342
 33
0.0
  0
SOLID
  5
438
330
431
100
AcDbEntity
  8
1
 62
     2
100
AcDbTrace
 10
629.6087703211991
 20
943.9185353839445
 30
0.0
 11
630.3602531250665
 21
939.37238984693
 31
0.0
 12
612.7188098932207
 22
938.7914233163787
 32
0.0
 13
612.7188098932207
 23
938.7914233163787
 33
0.0
  0
MTEXT
  5
439
330
431
100
AcDbEntity
  8
1
 62
     7
100
AcDbMText
 10
564.256368635021
 20
975.7253126255536
 30
0.0
 40
17.5
 41
0.0
 71
     7
 72
     1
  1
12{\Fgdt;~}
  7
CONVERTER_12
 11
0.6119693627380143
 21
-0.7908814696716751
 31
0.0
 73
     1
 44
0.60024009603842
  0
ENDBLK
  5
43B
330
431
100
AcDbEntity
  8
0
100
AcDbBlockEnd
  0
ENDSEC
  0
SECTION
  2
ENTITIES
  0
INSERT
  5
85
330
1F
100
AcDbEntity
  8
1
100
AcDbBlockReference
  2
30-255A-M11
 10
4318.771370360423
 20
2843.944170620258
 30
0.0
 41
1.0
 42
1.0
 43
1.0
  0
INSERT
  5
86
330
1F
100
AcDbEntity
  8
1
100
AcDbBlockReference
  2
37-399-M1
 10
294.0917193173385
 20
793.1999999999999
 30
0.0
 41
1.0
 42
1.0
 43
1.0
  0
INSERT
  5
87
330
1F
100
AcDbEntity
  8
0
100
AcDbBlockReference
  2
92-64A
 10
660.6791750130903
 20
638.4741394466232
 30
0.0
 41
1.0
 42
1.0
 43
1.0
  0
INSERT
  5
88
330
1F
100
AcDbEntity
  8
0
100
AcDbBlockReference
  2
98-126
 10
1356.330860123493
 20
1402.647727390118
 30
0.0
 41
1.0
 42
1.0
 43
1.0
  0
INSERT
  5
89
330
1F
100
AcDbEntity
  8
1
100
AcDbBlockReference
  2
T90-240
 10
298.5917193917882
 20
387.7785420656547
 30
0.0
 41
1.0
 42
1.0
 43
1.0
  0
INSERT
  5
8A
330
1F
100
AcDbEntity
  8
1
100
AcDbBlockReference
  2
開示A4
 10
0.0
 20
0.0
 30
0.0
 41
5.0
 42
5.0
 43
5.0
  0
INSERT
  5
8B
330
1F
100
AcDbEntity
  8
1
100
AcDbBlockReference
  2
30-360-M1
 10
532.3308601234933
 20
1502.534948494536
 30
0.0
 41
1.0
 42
1.0
 43
1.0
  0
INSERT
  5
8C
330
1F
100
AcDbEntity
  8
1
100
AcDbBlockReference
  2
81-414-1-SH
 10
351.0891018826861
 20
1126.704478413341
 30
0.0
 41
1.0
 42
1.0
 43
1.0
  0
INSERT
  5
8D
330
1F
100
AcDbEntity
  8
1
100
AcDbBlockReference
  2
27-21-M1
 10
582.116709991006
 20
1085.366826684177
 30
0.0
 41
1.0
 42
1.0
 43
1.0
  0
INSERT
  5
8E
330
1F
100
AcDbEntity
  8
0
100
AcDbBlockReference
  2
73-1-32_5-C2
 10
598.3605951314332
 20
713.7927193282799
 30
0.0
 41
1.0
 42
1.0
 43
1.0
  0
INSERT
  5
8F
330
1F
100
AcDbEntity
  8
0
100
AcDbBlockReference
  2
32-33-32
 10
610.0453288592439
 20
689.4495240620076
 30
0.0
 41
1.0
 42
1.0
 43
1.0
  0
INSERT
  5
90
330
1F
100
AcDbEntity
  8
1
100
AcDbBlockReference
  2
35-338-M11
 10
1146.330860123494
 20
1402.432947233518
 30
0.0
 41
1.0
 42
1.0
 43
1.0
  0
INSERT
  5
91
330
1F
100
AcDbEntity
  8
1
100
AcDbBlockReference
  2
新コラム洗面混合栓ノーマル130618
 10
1000.0
 20
200.0
 30
0.0
 41
1.0
 42
1.0
 43
1.0
  0
INSERT
  5
92
330
1F
100
AcDbEntity
  8
1
100
AcDbBlockReference
  2
30-360X-470-C6
 10
529.2308601234938
 20
982.4329472335181
 30
0.0
 41
1.0
 42
1.0
 43
1.0
  0
LINE
  5
375
330
1F
100
AcDbEntity
  8
1
  6
DASH_CENTER
 62
     2
100
AcDbLine
 10
612.7188098932247
 20
992.2037987113657
 30
0.0
 11
613.9568508763488
 21
998.0283235762718
 31
0.0
  0
LINE
  5
376
330
1F
100
AcDbEntity
  8
1
  6
DASH_CENTER
 62
     2
100
AcDbLine
 10
332.0911746825036
 20
1184.000000000001
 30
0.0
 11
291.0922641010741
 21
1184.000000000001
 31
0.0
  0
LINE
  5
377
330
1F
100
AcDbEntity
  8
1
  6
Continuous
 62
     2
100
AcDbLine
 10
635.0
 20
1020.316329185196
 30
0.0
 11
685.0
 21
1020.316329185196
 31
0.0
  0
LINE
  5
378
330
1F
100
AcDbEntity
  8
1
  6
Continuous
 62
     2
100
AcDbLine
 10
663.0
 20
1099.316329185195
 30
0.0
 11
715.0
 21
1099.316329185195
 31
0.0
  0
LINE
  5
379
102
{ACAD_REACTORS
330
43F
102
}
330
1F
100
AcDbEntity
  8
1
  6
PHANTOM
 62
     4
100
AcDbLine
 10
350.5917193917885
 20
788.6999999999999
 30
0.0
 11
350.5917193917885
 21
773.2000000000002
 31
0.0
  0
LINE
  5
37A
102
{ACAD_REACTORS
330
43F
102
}
330
1F
100
AcDbEntity
  8
1
  6
Continuous
 62
     2
100
AcDbLine
 10
330.5917193917885
 20
773.2000000000002
 30
0.0
 11
350.5917193917885
 21
773.2000000000002
 31
0.0
  0
LINE
  5
37B
102
{ACAD_REACTORS
330
43F
102
}
330
1F
100
AcDbEntity
  8
1
  6
Continuous
 62
     2
100
AcDbLine
 10
330.5917193917885
 20
773.2000000000002
 30
0.0
 11
330.5917193917885
 21
788.6999999999999
 31
0.0
  0
LINE
  5
37C
102
{ACAD_REACTORS
330
43F
102
}
330
1F
100
AcDbEntity
  8
1
  6
Continuous
 62
     2
100
AcDbLine
 10
330.5917193917885
 20
788.6999999999999
 30
0.0
 11
350.5917193917885
 21
788.6999999999999
 31
0.0
  0
LINE
  5
37D
102
{ACAD_REACTORS
330
43E
102
}
330
1F
100
AcDbEntity
  8
1
  6
PHANTOM
 62
     4
100
AcDbLine
 10
272.5917193917885
 20
788.6999999999999
 30
0.0
 11
272.5917193917885
 21
773.2000000000002
 31
0.0
  0
LINE
  5
37E
102
{ACAD_REACTORS
330
43E
102
}
330
1F
100
AcDbEntity
  8
1
  6
Continuous
 62
     2
100
AcDbLine
 10
292.5917193917885
 20
773.2000000000002
 30
0.0
 11
272.5917193917885
 21
773.2000000000002
 31
0.0
  0
LINE
  5
37F
102
{ACAD_REACTORS
330
43E
102
}
330
1F
100
AcDbEntity
  8
1
  6
Continuous
 62
     2
100
AcDbLine
 10
292.5917193917885
 20
788.6999999999999
 30
0.0
 11
292.5917193917885
 21
773.2000000000002
 31
0.0
  0
LINE
  5
380
102
{ACAD_REACTORS
330
43E
102
}
330
1F
100
AcDbEntity
  8
1
  6
Continuous
 62
     2
100
AcDbLine
 10
272.5917193917885
 20
788.6999999999999
 30
0.0
 11
292.5917193917885
 21
788.6999999999999
 31
0.0
  0
LINE
  5
381
102
{ACAD_REACTORS
330
440
102
}
330
1F
100
AcDbEntity
  8
1
  6
Continuous
 62
     2
100
AcDbLine
 10
692.5917193917887
 20
788.6999999999999
 30
0.0
 11
712.5917193917887
 21
788.6999999999999
 31
0.0
  0
LINE
  5
382
102
{ACAD_REACTORS
330
440
102
}
330
1F
100
AcDbEntity
  8
1
  6
Continuous
 62
     2
100
AcDbLine
 10
712.5917193917887
 20
788.6999999999999
 30
0.0
 11
712.5917193917887
 21
773.2000000000002
 31
0.0
  0
LINE
  5
383
102
{ACAD_REACTORS
330
440
102
}
330
1F
100
AcDbEntity
  8
1
  6
Continuous
 62
     2
100
AcDbLine
 10
712.5917193917887
 20
773.2000000000002
 30
0.0
 11
692.5917193917887
 21
773.2000000000002
 31
0.0
  0
LINE
  5
384
102
{ACAD_REACTORS
330
440
102
}
330
1F
100
AcDbEntity
  8
1
  6
PHANTOM
 62
     4
100
AcDbLine
 10
692.5917193917887
 20
788.6999999999999
 30
0.0
 11
692.5917193917887
 21
773.2000000000002
 31
0.0
  0
LINE
  5
385
102
{ACAD_REACTORS
330
441
102
}
330
1F
100
AcDbEntity
  8
1
  6
Continuous
 62
     2
100
AcDbLine
 10
750.5917193917887
 20
788.6999999999999
 30
0.0
 11
770.5917193917887
 21
788.6999999999999
 31
0.0
  0
LINE
  5
386
102
{ACAD_REACTORS
330
441
102
}
330
1F
100
AcDbEntity
  8
1
  6
Continuous
 62
     2
100
AcDbLine
 10
750.5917193917887
 20
773.2000000000002
 30
0.0
 11
750.5917193917887
 21
788.6999999999999
 31
0.0
  0
LINE
  5
387
102
{ACAD_REACTORS
330
441
102
}
330
1F
100
AcDbEntity
  8
1
  6
Continuous
 62
     2
100
AcDbLine
 10
750.5917193917887
 20
773.2000000000002
 30
0.0
 11
770.5917193917887
 21
773.2000000000002
 31
0.0
  0
LINE
  5
388
102
{ACAD_REACTORS
330
441
102
}
330
1F
100
AcDbEntity
  8
1
  6
PHANTOM
 62
     4
100
AcDbLine
 10
770.5917193917887
 20
788.6999999999999
 30
0.0
 11
770.5917193917887
 21
773.2000000000002
 31
0.0
  0
LINE
  5
389
330
1F
100
AcDbEntity
  8
1
  6
DASH_CENTER
 62
     2
100
AcDbLine
 10
311.5917193917886
 20
1051.302661500001
 30
0.0
 11
311.5917193917887
 21
384.7785420656547
 31
0.0
  0
LINE
  5
38A
330
1F
100
AcDbEntity
  8
1
  6
DASH_CENTER
 62
     2
100
AcDbLine
 10
731.5917193917887
 20
1051.302661500001
 30
0.0
 11
731.5917193917887
 21
742.7
 31
0.0
  0
LINE
  5
38B
330
1F
100
AcDbEntity
  8
1
  6
DASH_CENTER
 62
     2
100
AcDbLine
 10
311.5917193917892
 20
1204.499455290718
 30
0.0
 11
311.5917193917894
 21
1146.000000000001
 31
0.0
  0
LINE
  5
38C
330
1F
100
AcDbEntity
  8
1
  6
DASH_CENTER
 62
     2
100
AcDbLine
 10
612.3549419553578
 20
990.491934661195
 30
0.0
 11
612.7188098932247
 21
992.2037987113657
 31
0.0
  0
LINE
  5
38D
330
1F
100
AcDbEntity
  8
1
  6
DASH_CENTER
 62
     2
100
AcDbLine
 10
612.7188098932245
 20
989.1318338736119
 30
0.0
 11
612.7188098932247
 21
992.2037987113657
 31
0.0
  0
LINE
  5
38E
330
1F
100
AcDbEntity
  8
1
  6
DASH_CENTER
 62
     2
100
AcDbLine
 10
613.9568508763488
 20
998.0283235762718
 30
0.0
 11
619.1640621641282
 21
1022.526326498571
 31
0.0
  0
LINE
  5
38F
330
1F
100
AcDbEntity
  8
1
  6
DASH_CENTER
 62
     2
100
AcDbLine
 10
734.0660327286952
 20
982.2567449167899
 30
0.0
 11
595.5958958651067
 21
1011.689586854634
 31
0.0
  0
LINE
  5
390
330
1F
100
AcDbEntity
  8
1
  6
DASH_CENTER
 62
     2
100
AcDbLine
 10
730.0917193917884
 20
1037.304478413338
 30
0.0
 11
710.5911746825028
 21
1037.304478413338
 31
0.0
  0
LINE
  5
391
330
1F
100
AcDbEntity
  8
1
  6
DASH_CENTER
 62
     2
100
AcDbLine
 10
742.8292365665494
 20
1049.11830943763
 30
0.0
 11
730.4678996115407
 21
1018.52292684964
 31
0.0
  0
LINE
  5
392
330
1F
100
AcDbEntity
  8
1
  6
DASH_CENTER
 62
     2
100
AcDbLine
 10
718.391174682503
 20
1029.304478413338
 30
0.0
 11
712.9911746825029
 21
1029.304478413338
 31
0.0
  0
LINE
  5
393
330
1F
100
AcDbEntity
  8
1
  6
DASH_CENTER
 62
     2
100
AcDbLine
 10
725.4917193917865
 20
384.7785420656547
 30
0.0
 11
725.491719391789
 21
745.6999999999999
 31
0.0
  0
ARC
  5
394
330
1F
100
AcDbEntity
  8
1
  6
Continuous
 62
     2
100
AcDbCircle
 10
766.8396301693734
 20
965.2876695322657
 30
0.0
 40
149.9999999999999
100
AcDbArc
 50
133.2023811412279
 51
142.487669972412
  0
SOLID
  5
395
330
1F
100
AcDbEntity
  8
1
 62
     2
100
AcDbTrace
 10
327.1869715209796
 20
373.775056853317
 30
0.0
 11
323.1964672625973
 21
371.4711381455376
 31
0.0
 12
316.4417193917883
 22
387.7785420656549
 32
0.0
 13
316.4417193917883
 23
387.7785420656549
 33
0.0
  0
LEADER
  5
396
330
1F
100
AcDbEntity
  8
1
  6
Continuous
 62
     2
100
AcDbLeader
  3
Standard
 71
     0
 76
     3
 10
316.4417193917883
 20
387.7785420656549
 30
0.0
 10
333.7622274674769
 20
357.7785420656549
 30
0.0
 10
389.6947536887093
 20
357.7785420656549
 30
0.0
  0
SOLID
  5
397
330
1F
100
AcDbEntity
  8
1
 62
     2
100
AcDbTrace
 10
651.4524882103566
 20
1065.785717767229
 30
0.0
 11
655.2065678044055
 21
1063.113817310668
 31
0.0
 12
643.1819785665244
 22
1050.192234780951
 32
0.0
 13
643.1819785665244
 23
1050.192234780951
 33
0.0
  0
LEADER
  5
398
330
1F
100
AcDbEntity
  8
1
  6
Continuous
 62
     2
100
AcDbLeader
  3
Standard
 71
     0
 76
     2
 10
643.1819785665244
 20
1050.192234780951
 30
0.0
 10
646.1172305891681
 20
1054.316329185195
 30
0.0
  0
SOLID
  5
399
330
1F
100
AcDbEntity
  8
1
 62
     2
100
AcDbTrace
 10
658.3704085482093
 20
1066.383439253936
 30
0.0
 11
655.30319280256
 21
1069.82209498225
 31
0.0
 12
669.8963923706775
 22
1079.751675425408
 32
0.0
 13
669.8963923706775
 23
1079.751675425408
 33
0.0
  0
LEADER
  5
39A
330
1F
100
AcDbEntity
  8
1
  6
Continuous
 62
     2
100
AcDbLeader
  3
Standard
 71
     0
 76
     2
 10
669.8963923706775
 20
1079.751675425408
 30
0.0
 10
664.1530201145232
 20
1074.628696212296
 30
0.0
  0
SOLID
  5
39B
330
1F
100
AcDbEntity
  8
1
 62
     2
100
AcDbTrace
 10
695.2452521291906
 20
744.6925960798827
 30
0.0
 11
691.2547478708082
 21
746.9965147876621
 31
0.0
 12
701.9999999999995
 22
761.0
 32
0.0
 13
701.9999999999995
 23
761.0
 33
0.0
  0
LEADER
  5
39C
330
1F
100
AcDbEntity
  8
1
  6
Continuous
 62
     2
100
AcDbLeader
  3
Standard
 71
     0
 76
     3
 10
701.9999999999995
 20
761.0
 30
0.0
 10
656.389328734019
 20
682.0
 30
0.0
 10
479.1173295680571
 20
682.0
 30
0.0
  0
SOLID
  5
39D
330
1F
100
AcDbEntity
  8
1
 62
     2
100
AcDbTrace
 10
707.3369715209798
 20
735.8306601846787
 30
0.0
 11
703.3464672625973
 21
738.1345788924581
 31
0.0
 12
714.0917193917887
 22
752.138064104796
 32
0.0
 13
714.0917193917887
 23
752.138064104796
 33
0.0
  0
LEADER
  5
39E
330
1F
100
AcDbEntity
  8
1
  6
Continuous
 62
     2
100
AcDbLeader
  3
Standard
 71
     0
 76
     3
 10
714.0917193917887
 20
752.138064104796
 30
0.0
 10
654.5126502023322
 20
648.9440892009954
 30
0.0
 10
552.396102607091
 20
648.9440892009954
 30
0.0
  0
MTEXT
  5
39F
330
1F
100
AcDbEntity
  8
1
 62
     7
100
AcDbMText
 10
170.0
 20
152.5000000000001
 30
0.0
 40
17.5
 41
0.0
 71
     4
 72
     1
  1
単水栓、内地寒冷地共用、吐水口は固定式
  7
CONVERTER_11
 73
     1
 44
0.54545454545455
  0
MTEXT
  5
3A1
330
1F
100
AcDbEntity
  8
1
 62
     7
100
AcDbMText
 10
170.0
 20
187.5
 30
0.0
 40
17.5
 41
0.0
 71
     4
 72
     1
  1
JIS
  7
CONVERTER_12
 73
     1
 44
0.7202881152461
  0
MTEXT
  5
3A2
330
1F
100
AcDbEntity
  8
0
 62
     7
100
AcDbMText
 10
284.9999999999999
 20
113.7500000000001
 30
0.0
 40
17.5
 41
0.0
 71
     5
 72
     1
  1
立水栓
  7
CONVERTER_11
 73
     1
 44
0.54545454545455
  0
MTEXT
  5
3A3
330
1F
100
AcDbEntity
  8
1
 62
     7
100
AcDbMText
 10
635.9946230601374
 20
1078.105343086156
 30
0.0
 40
17.5
 41
0.0
 71
     5
 72
     1
  1
25{\Fgdt;~}
  7
CONVERTER_12
 73
     1
 44
0.7202881152461
  0
MTEXT
  5
3A4
330
1F
100
AcDbEntity
  8
1
 62
     7
100
AcDbMText
 10
468.7499999999999
 20
85.0
 30
0.0
 40
17.5
 41
0.0
 71
     5
 72
     1
  1
5
  7
CONVERTER_12
 73
     1
 44
0.7202881152461
  0
MTEXT
  5
3A5
330
1F
100
AcDbEntity
  8
1
 62
     7
100
AcDbMText
 10
426.2499999999999
 20
85.0
 30
0.0
 40
17.5
 41
0.0
 71
     5
 72
     1
  1
1
  7
CONVERTER_12
 73
     1
 44
0.7202881152461
  0
MTEXT
  5
3A6
330
1F
100
AcDbEntity
  8
0
 62
     7
100
AcDbMText
 10
284.9999999999999
 20
71.25
 30
0.0
 40
17.5
 41
0.0
 71
     5
 72
     1
  1
Y50750H-2T-13
  7
CONVERTER_12
 73
     1
 44
0.7202881152461
  0
MTEXT
  5
3A7
330
1F
100
AcDbEntity
  8
1
 62
     7
100
AcDbMText
 10
659.9618737746831
 20
1035.316329185196
 30
0.0
 40
25.0
 41
0.0
 71
     5
 72
     1
  1
止水
  7
CONVERTER_11
 73
     1
 44
0.54545454545455
  0
MTEXT
  5
3A8
330
1F
100
AcDbEntity
  8
1
 62
     7
100
AcDbMText
 10
688.9618737746832
 20
1114.316329185196
 30
0.0
 40
25.0
 41
0.0
 71
     5
 72
     1
  1
吐水
  7
CONVERTER_11
 73
     1
 44
0.54545454545455
  0
MTEXT
  5
3A9
330
1F
100
AcDbEntity
  8
1
 62
     7
100
AcDbMText
 10
363.7867680995631
 20
372.7785420656549
 30
0.0
 40
17.5
 41
0.0
 71
     5
 72
     1
  1
G1/2
  7
CONVERTER_12
 73
     1
 44
0.7202881152461
  0
MTEXT
  5
3AA
330
1F
100
AcDbEntity
  8
1
 62
     7
100
AcDbMText
 10
565.0926455875504
 20
697.0
 30
0.0
 40
17.5
 41
0.0
 71
     5
 72
     1
  1
取付穴径{\Fgdt;n}33～{\Fgdt;n}35
  7
CONVERTER_11
 73
     1
 44
0.54545454545455
  0
MTEXT
  5
3AB
330
1F
100
AcDbEntity
  8
1
 62
     7
100
AcDbMText
 10
602.1876690844065
 20
663.9440892009954
 30
0.0
 40
17.5
 41
0.0
 71
     5
 72
     1
  1
M32X1,5
  7
CONVERTER_12
 73
     1
 44
0.7202881152461
  0
DIMENSION
  5
3B8
330
1F
100
AcDbEntity
  8
1
100
AcDbDimension
  2
*D20
 10
482.5917193917888
 20
788.6999999999999
 30
0.0
 11
468.8417193917888
 21
899.960203362595
 31
0.0
 70
    32
  1
最大30最小5
 71
     5
 42
-1.0
 53
90.0
  3
ME10_DIM_10
100
AcDbAlignedDimension
 13
692.5917193917887
 23
773.2000000000002
 33
0.0
 14
692.5917193917887
 24
788.6999999999999
 34
0.0
 50
90.0
100
AcDbRotatedDimension
  0
DIMENSION
  5
3C3
330
1F
100
AcDbEntity
  8
1
100
AcDbDimension
  2
*D21
 10
731.5917193917887
 20
1144.273620285326
 30
0.0
 11
672.1552646425067
 21
1158.023620285326
 31
0.0
 70
    32
  1
119
 71
     5
 42
-1.0
 53
0.00013888888889
  3
ME10_DIM_11
100
AcDbAlignedDimension
 13
612.7188098932247
 23
992.2037987113657
 33
0.0
 14
731.5917193917887
 24
1051.302661500001
 34
0.0
100
AcDbRotatedDimension
  0
DIMENSION
  5
3D0
330
1F
100
AcDbEntity
  8
1
100
AcDbDimension
  2
*D22
 10
713.5917193917884
 20
655.6999999999999
 30
0.0
 11
850.7231232390266
 21
669.4499999999999
 31
0.0
 70
    32
  1
<>
 71
     5
 42
-1.0
 53
0.00013888888889
  3
ME10_DIM_12
100
AcDbAlignedDimension
 13
749.5917193917882
 23
764.2000000000002
 33
0.0
 14
713.5917193917883
 24
764.2000000000002
 34
0.0
100
AcDbRotatedDimension
  0
DIMENSION
  5
3DD
330
1F
100
AcDbEntity
  8
1
100
AcDbDimension
  2
*D23
 10
731.5917193917887
 20
1144.273620285326
 30
0.0
 11
751.5455532137107
 21
1158.023620285326
 31
0.0
 70
    32
  1
27
 71
     5
 42
-1.0
 53
0.00013888888889
  3
ME10_DIM_13
100
AcDbAlignedDimension
 13
757.7063702851705
 23
1039.224832176411
 33
0.0
 14
731.5917193917887
 24
1051.302661500001
 34
0.0
100
AcDbRotatedDimension
  0
DIMENSION
  5
3EA
330
1F
100
AcDbEntity
  8
1
100
AcDbDimension
  2
*D24
 10
709.091719391776
 20
815.178464559748
 30
0.0
 11
627.853995403673
 21
828.928464559748
 31
0.0
 70
    32
  1
<>
 71
     5
 42
-1.0
 53
0.00013888888889
  3
ME10_DIM_14
100
AcDbAlignedDimension
 13
754.0917193918016
 23
792.8999999999997
 33
0.0
 14
709.0917193917754
 24
792.8999999999997
 34
0.0
100
AcDbRotatedDimension
  0
DIMENSION
  5
3F7
330
1F
100
AcDbEntity
  8
1
100
AcDbDimension
  2
*D25
 10
715.5917193918018
 20
695.6999999999999
 30
0.0
 11
820.591719391789
 21
709.4499999999999
 31
0.0
 70
    32
  1
<>
 71
     5
 42
-1.0
 53
0.00013888888889
  3
ME10_DIM_15
100
AcDbAlignedDimension
 13
747.5917193918017
 23
746.6999999999997
 33
0.0
 14
715.5917193918016
 24
746.6999999999995
 34
0.0
100
AcDbRotatedDimension
  0
DIMENSION
  5
402
330
1F
100
AcDbEntity
  8
1
100
AcDbDimension
  2
*D26
 10
860.591719391789
 20
791.2
 30
0.0
 11
846.841719391789
 21
921.522955755706
 31
0.0
 70
    32
  1
269
 71
     5
 42
-1.0
 53
90.0
  3
ME10_DIM_16
100
AcDbAlignedDimension
 13
709.5855282331545
 23
1059.266914374697
 33
0.0
 14
753.7917193918017
 24
791.1999999999999
 34
0.0
 50
90.0
100
AcDbRotatedDimension
  0
DIMENSION
  5
40F
330
1F
100
AcDbEntity
  8
1
100
AcDbDimension
  2
*D27
 10
860.591719391789
 20
791.2
 30
0.0
 11
846.841719391789
 21
765.1405419804552
 31
0.0
 70
    32
  1
46
 71
     5
 42
-1.0
 53
90.0
  3
ME10_DIM_17
100
AcDbAlignedDimension
 13
746.5917193918016
 23
745.6999999999998
 33
0.0
 14
753.7917193918017
 24
791.1999999999999
 34
0.0
 50
90.0
100
AcDbRotatedDimension
  0
DIMENSION
  5
41A
330
1F
100
AcDbEntity
  8
1
100
AcDbDimension
  2
*D28
 10
820.591719391789
 20
791.2
 30
0.0
 11
806.841719391789
 21
925.2764862343165
 31
0.0
 70
    32
  1
258
 71
     5
 42
-1.0
 53
90.0
  3
ME10_DIM_18
100
AcDbAlignedDimension
 13
748.491719391788
 23
1048.302661500001
 33
0.0
 14
753.7917193918017
 24
791.1999999999999
 34
0.0
 50
90.0
100
AcDbRotatedDimension
  0
DIMENSION
  5
425
330
1F
100
AcDbEntity
  8
1
100
AcDbDimension
  2
*D29
 10
442.5917193917888
 20
992.2037987113657
 30
0.0
 11
428.8417193917888
 21
883.952970281851
 31
0.0
 70
    32
  1
<>
 71
     5
 42
-1.0
 53
90.0
  3
ME10_DIM_19
100
AcDbAlignedDimension
 13
709.3917193917754
 23
791.1999999999999
 33
0.0
 14
612.7188098932247
 24
992.2037987113657
 34
0.0
 50
90.0
100
AcDbRotatedDimension
  0
DIMENSION
  5
430
330
1F
100
AcDbEntity
  8
1
100
AcDbDimension
  2
*D30
 10
442.5917193917888
 20
791.2
 30
0.0
 11
428.8417193917888
 21
586.1892590726844
 31
0.0
 70
    32
  1
銅管直管時393(銅管曲げR60以上)
 71
     5
 42
-1.0
 53
90.0
  3
ME10_DIM_20
100
AcDbAlignedDimension
 13
713.4917193917895
 23
395.6999999999998
 33
0.0
 14
709.3917193917754
 24
791.1999999999999
 34
0.0
 50
90.0
100
AcDbRotatedDimension
  0
DIMENSION
  5
43D
330
1F
100
AcDbEntity
  8
1
100
AcDbDimension
  2
*D31
 10
607.1356963541732
 20
939.084021899475
 30
0.0
 11
581.3505721501676
 21
967.9316401162196
 31
0.0
 70
    37
  1
<>
 71
     5
 42
-1.0
  3
ME10_DIM_21
100
AcDb3PointAngularDimension
 13
612.3549419553578
 23
990.491934661195
 33
0.0
 14
612.7188098932245
 24
989.1318338736119
 34
0.0
 15
612.7188098932247
 25
992.2037987113657
 35
0.0
  0
HATCH
  5
43E
330
1F
100
AcDbEntity
  8
1
  6
Continuous
 62
     4
100
AcDbHatch
 10
0.0
 20
0.0
 30
0.0
210
0.0
220
0.0
230
1.0
  2
CUSTOM0
 70
     0
 71
     1
 91
        1
 92
        1
 93
        4
 72
     1
 10
292.5917193917885
 20
788.6999999999999
 11
292.5917193917885
 21
773.2000000000002
 72
     1
 10
292.5917193917885
 20
773.2000000000002
 11
272.5917193917885
 21
773.2000000000002
 72
     1
 10
272.5917193917885
 20
773.2000000000002
 11
272.5917193917885
 21
788.6999999999999
 72
     1
 10
272.5917193917885
 20
788.6999999999999
 11
292.5917193917885
 21
788.6999999999999
 97
        4
330
37F
330
37E
330
37D
330
380
 75
     1
 76
     2
 52
45.0
 41
2.0
 77
     0
 78
     2
 53
45.0
 43
0.0
 44
0.0
 45
-8.485281374238571
 46
0.0000000000000009
 79
     0
 53
45.0
 43
1.414213562373095
 44
-1.414213562373095
 45
-8.485281374238571
 46
0.0000000000000009
 79
     0
 98
        1
 10
0.0
 20
0.0
  0
HATCH
  5
43F
330
1F
100
AcDbEntity
  8
1
  6
Continuous
 62
     4
100
AcDbHatch
 10
0.0
 20
0.0
 30
0.0
210
0.0
220
0.0
230
1.0
  2
CUSTOM1
 70
     0
 71
     1
 91
        1
 92
        1
 93
        4
 72
     1
 10
350.5917193917885
 20
788.6999999999999
 11
350.5917193917885
 21
773.2000000000002
 72
     1
 10
350.5917193917885
 20
773.2000000000002
 11
330.5917193917885
 21
773.2000000000002
 72
     1
 10
330.5917193917885
 20
773.2000000000002
 11
330.5917193917885
 21
788.6999999999999
 72
     1
 10
330.5917193917885
 20
788.6999999999999
 11
350.5917193917885
 21
788.6999999999999
 97
        4
330
379
330
37A
330
37B
330
37C
 75
     1
 76
     2
 52
45.0
 41
2.0
 77
     0
 78
     2
 53
45.0
 43
0.0
 44
0.0
 45
-8.485281374238571
 46
0.0000000000000009
 79
     0
 53
45.0
 43
1.414213562373095
 44
-1.414213562373095
 45
-8.485281374238571
 46
0.0000000000000009
 79
     0
 98
        1
 10
0.0
 20
0.0
  0
HATCH
  5
440
330
1F
100
AcDbEntity
  8
1
  6
Continuous
 62
     4
100
AcDbHatch
 10
0.0
 20
0.0
 30
0.0
210
0.0
220
0.0
230
1.0
  2
CUSTOM2
 70
     0
 71
     1
 91
        1
 92
        1
 93
        4
 72
     1
 10
712.5917193917887
 20
788.6999999999999
 11
712.5917193917887
 21
773.2000000000002
 72
     1
 10
712.5917193917887
 20
773.2000000000002
 11
692.5917193917887
 21
773.2000000000002
 72
     1
 10
692.5917193917887
 20
773.2000000000002
 11
692.5917193917887
 21
788.6999999999999
 72
     1
 10
692.5917193917887
 20
788.6999999999999
 11
712.5917193917887
 21
788.6999999999999
 97
        4
330
382
330
383
330
384
330
381
 75
     1
 76
     2
 52
45.0
 41
2.0
 77
     0
 78
     2
 53
45.0
 43
0.0
 44
0.0
 45
-8.485281374238571
 46
0.0000000000000009
 79
     0
 53
45.0
 43
1.414213562373095
 44
-1.414213562373095
 45
-8.485281374238571
 46
0.0000000000000009
 79
     0
 98
        1
 10
0.0
 20
0.0
  0
HATCH
  5
441
330
1F
100
AcDbEntity
  8
1
  6
Continuous
 62
     4
100
AcDbHatch
 10
0.0
 20
0.0
 30
0.0
210
0.0
220
0.0
230
1.0
  2
CUSTOM3
 70
     0
 71
     1
 91
        1
 92
        1
 93
        4
 72
     1
 10
770.5917193917887
 20
788.6999999999999
 11
770.5917193917887
 21
773.2000000000002
 72
     1
 10
770.5917193917887
 20
773.2000000000002
 11
750.5917193917887
 21
773.2000000000002
 72
     1
 10
750.5917193917887
 20
773.2000000000002
 11
750.5917193917887
 21
788.6999999999999
 72
     1
 10
750.5917193917887
 20
788.6999999999999
 11
770.5917193917887
 21
788.6999999999999
 97
        4
330
388
330
387
330
386
330
385
 75
     1
 76
     2
 52
45.0
 41
2.0
 77
     0
 78
     2
 53
45.0
 43
0.0
 44
0.0
 45
-8.485281374238571
 46
0.0000000000000009
 79
     0
 53
45.0
 43
1.414213562373095
 44
-1.414213562373095
 45
-8.485281374238571
 46
0.0000000000000009
 79
     0
 98
        1
 10
0.0
 20
0.0
  0
ENDSEC
  0
SECTION
  2
OBJECTS
  0
DICTIONARY
  5
C
330
0
100
AcDbDictionary
281
     1
  3
ACAD_GROUP
350
D
  3
ACAD_LAYOUT
350
1A
  3
ACAD_MATERIAL
350
3B
  3
ACAD_MLEADERSTYLE
350
444
  3
ACAD_MLINESTYLE
350
17
  3
ACAD_PLOTSETTINGS
350
19
  3
ACAD_PLOTSTYLENAME
350
E
  3
ACAD_VISUALSTYLE
350
2A
  3
AcDbVariableDictionary
350
442
  0
DICTIONARY
  5
D
102
{ACAD_REACTORS
330
C
102
}
330
C
100
AcDbDictionary
281
     1
  0
DICTIONARY
  5
1A
102
{ACAD_REACTORS
330
C
102
}
330
C
100
AcDbDictionary
281
     1
  3
Layout1
350
1E
  3
Layout2
350
26
  3
Model
350
22
  0
DICTIONARY
  5
3B
102
{ACAD_REACTORS
330
C
102
}
330
C
100
AcDbDictionary
281
     1
  3
ByBlock
350
3D
  3
ByLayer
350
3C
  3
Global
350
3E
  0
DICTIONARY
  5
444
102
{ACAD_REACTORS
330
C
102
}
330
C
100
AcDbDictionary
281
     1
  0
DICTIONARY
  5
17
102
{ACAD_REACTORS
330
C
102
}
330
C
100
AcDbDictionary
281
     1
  3
Standard
350
18
  0
DICTIONARY
  5
19
102
{ACAD_REACTORS
330
C
102
}
330
C
100
AcDbDictionary
281
     1
  0
ACDBDICTIONARYWDFLT
  5
E
102
{ACAD_REACTORS
330
C
102
}
330
C
100
AcDbDictionary
281
     1
  3
Normal
350
F
100
AcDbDictionaryWithDefault
340
F
  0
DICTIONARY
  5
2A
102
{ACAD_REACTORS
330
C
102
}
330
C
100
AcDbDictionary
281
     1
  3
2dWireframe
350
2F
  3
3D Hidden
350
31
  3
3dWireframe
350
30
  3
Basic
350
32
  3
Brighten
350
36
  3
ColorChange
350
3A
  3
Conceptual
350
34
  3
Dim
350
35
  3
Facepattern
350
39
  3
Flat
350
2B
  3
FlatWithEdges
350
2C
  3
Gouraud
350
2D
  3
GouraudWithEdges
350
2E
  3
Linepattern
350
38
  3
Realistic
350
33
  3
Thicken
350
37
  0
DICTIONARY
  5
442
102
{ACAD_REACTORS
330
C
102
}
330
C
100
AcDbDictionary
281
     1
  3
DIMASSOC
350
445
  3
HIDETEXT
350
446
  0
LAYOUT
  5
1E
102
{ACAD_REACTORS
330
1A
102
}
330
1A
100
AcDbPlotSettings
  1

  2
none_device
  4

  6

 40
0.0
 41
0.0
 42
0.0
 43
0.0
 44
0.0
 45
0.0
 46
0.0
 47
0.0
 48
0.0
 49
0.0
140
0.0
141
0.0
142
1.0
143
1.0
 70
   688
 72
     0
 73
     0
 74
     5
  7

 75
    16
147
1.0
148
0.0
149
0.0
100
AcDbLayout
  1
Layout1
 70
     1
 71
     1
 10
0.0
 20
0.0
 11
12.0
 21
9.0
 12
0.0
 22
0.0
 32
0.0
 14
1.00000000000000E+20
 24
1.00000000000000E+20
 34
1.00000000000000E+20
 15
-1.00000000000000E+20
 25
-1.00000000000000E+20
 35
-1.00000000000000E+20
146
0.0
 13
0.0
 23
0.0
 33
0.0
 16
1.0
 26
0.0
 36
0.0
 17
0.0
 27
1.0
 37
0.0
 76
     0
330
1B
  0
LAYOUT
  5
26
102
{ACAD_REACTORS
330
1A
102
}
330
1A
100
AcDbPlotSettings
  1

  2
none_device
  4

  6

 40
0.0
 41
0.0
 42
0.0
 43
0.0
 44
0.0
 45
0.0
 46
0.0
 47
0.0
 48
0.0
 49
0.0
140
0.0
141
0.0
142
1.0
143
1.0
 70
   688
 72
     0
 73
     0
 74
     5
  7

 75
    16
147
1.0
148
0.0
149
0.0
100
AcDbLayout
  1
Layout2
 70
     1
 71
     2
 10
0.0
 20
0.0
 11
0.0
 21
0.0
 12
0.0
 22
0.0
 32
0.0
 14
0.0
 24
0.0
 34
0.0
 15
0.0
 25
0.0
 35
0.0
146
0.0
 13
0.0
 23
0.0
 33
0.0
 16
1.0
 26
0.0
 36
0.0
 17
0.0
 27
1.0
 37
0.0
 76
     0
330
23
  0
LAYOUT
  5
22
102
{ACAD_REACTORS
330
1A
102
}
330
1A
100
AcDbPlotSettings
  1

  2
none_device
  4

  6

 40
0.0
 41
0.0
 42
0.0
 43
0.0
 44
0.0
 45
0.0
 46
0.0
 47
0.0
 48
0.0
 49
0.0
140
0.0
141
0.0
142
1.0
143
1.0
 70
  1712
 72
     0
 73
     0
 74
     0
  7

 75
     0
147
1.0
148
0.0
149
0.0
100
AcDbLayout
  1
Model
 70
     1
 71
     0
 10
0.0
 20
0.0
 11
12.0
 21
9.0
 12
0.0
 22
0.0
 32
0.0
 14
0.0
 24
0.0
 34
0.0
 15
1050.0
 25
1485.0
 35
0.0
146
0.0
 13
0.0
 23
0.0
 33
0.0
 16
1.0
 26
0.0
 36
0.0
 17
0.0
 27
1.0
 37
0.0
 76
     0
330
1F
331
29
  0
MATERIAL
  5
3D
102
{ACAD_REACTORS
330
3B
102
}
102
{ACAD_XDICTIONARY
360
469
102
}
330
3B
100
AcDbMaterial
  1
ByBlock
  0
MATERIAL
  5
3C
102
{ACAD_REACTORS
330
3B
102
}
102
{ACAD_XDICTIONARY
360
467
102
}
330
3B
100
AcDbMaterial
  1
ByLayer
  0
MATERIAL
  5
3E
102
{ACAD_REACTORS
330
3B
102
}
102
{ACAD_XDICTIONARY
360
46B
102
}
330
3B
100
AcDbMaterial
  1
Global
  0
MLINESTYLE
  5
18
102
{ACAD_REACTORS
330
17
102
}
330
17
100
AcDbMlineStyle
  2
Standard
 70
     0
  3

 62
   256
 51
90.0
 52
90.0
 71
     2
 49
0.5
 62
   256
  6
BYLAYER
 49
-0.5
 62
   256
  6
BYLAYER
  0
ACDBPLACEHOLDER
  5
F
102
{ACAD_REACTORS
330
E
102
}
330
E
  0
VISUALSTYLE
  5
2F
102
{ACAD_REACTORS
330
2A
102
}
102
{ACAD_XDICTIONARY
360
44F
102
}
330
2A
100
AcDbVisualStyle
  2
2dWireframe
 70
     4
 71
     0
 72
     2
 73
     0
 90
        0
 40
-0.6
 41
-30.0
 62
     5
 63
     7
 74
     1
 91
        4
 64
     7
 65
   257
 75
     1
175
     1
 42
1.0
 92
        0
 66
   257
 43
1.0
 76
     1
 77
     6
 78
     2
 67
     7
 79
     5
170
     0
171
     0
290
     0
174
     0
 93
        1
 44
0.0
173
     0
291
     0
 45
0.0
1001
ACAD
1000
AcDbSavedByObjectVersion
1070
     0
  0
VISUALSTYLE
  5
31
102
{ACAD_REACTORS
330
2A
102
}
102
{ACAD_XDICTIONARY
360
453
102
}
330
2A
100
AcDbVisualStyle
  2
3D Hidden
 70
     6
 71
     1
 72
     2
 73
     2
 90
        0
 40
-0.6
 41
-30.0
 62
     5
 63
     7
 74
     2
 91
        2
 64
     7
 65
   257
 75
     2
175
     1
 42
40.0
 92
        0
 66
   257
 43
1.0
 76
     1
 77
     6
 78
     2
 67
     7
 79
     3
170
     0
171
     0
290
     0
174
     0
 93
        1
 44
0.0
173
     0
291
     0
 45
0.0
1001
ACAD
1000
AcDbSavedByObjectVersion
1070
     0
  0
VISUALSTYLE
  5
30
102
{ACAD_REACTORS
330
2A
102
}
102
{ACAD_XDICTIONARY
360
451
102
}
330
2A
100
AcDbVisualStyle
  2
3dWireframe
 70
     5
 71
     0
 72
     2
 73
     0
 90
        0
 40
-0.6
 41
-30.0
 62
     5
 63
     7
 74
     1
 91
        4
 64
     7
 65
   257
 75
     1
175
     1
 42
1.0
 92
        0
 66
   257
 43
1.0
 76
     1
 77
     6
 78
     2
 67
     7
 79
     5
170
     0
171
     0
290
     0
174
     0
 93
        1
 44
0.0
173
     0
291
     0
 45
0.0
1001
ACAD
1000
AcDbSavedByObjectVersion
1070
     0
  0
VISUALSTYLE
  5
32
102
{ACAD_REACTORS
330
2A
102
}
102
{ACAD_XDICTIONARY
360
455
102
}
330
2A
100
AcDbVisualStyle
  2
Basic
 70
     7
 71
     1
 72
     0
 73
     1
 90
        0
 40
-0.6
 41
-30.0
 62
     5
 63
     7
 74
     0
 91
        4
 64
     7
 65
   257
 75
     1
175
     1
 42
1.0
 92
        8
 66
     7
 43
1.0
 76
     1
 77
     6
 78
     2
 67
     7
 79
     5
170
     0
171
     0
290
     0
174
     0
 93
        1
 44
0.0
173
     0
291
     1
 45
0.0
1001
ACAD
1000
AcDbSavedByObjectVersion
1070
     0
  0
VISUALSTYLE
  5
36
102
{ACAD_REACTORS
330
2A
102
}
102
{ACAD_XDICTIONARY
360
45D
102
}
330
2A
100
AcDbVisualStyle
  2
Brighten
 70
    12
 71
     2
 72
     2
 73
     0
 90
        0
 40
-0.6
 41
-30.0
 62
     5
 63
     7
 74
     1
 91
        4
 64
     7
 65
   257
 75
     1
175
     1
 42
1.0
 92
        8
 66
     7
 43
1.0
 76
     1
 77
     6
 78
     2
 67
     7
 79
     5
170
     0
171
     0
290
     0
174
     0
 93
        1
 44
50.0
173
     0
291
     1
 45
0.0
1001
ACAD
1000
AcDbSavedByObjectVersion
1070
     0
  0
VISUALSTYLE
  5
3A
102
{ACAD_REACTORS
330
2A
102
}
102
{ACAD_XDICTIONARY
360
465
102
}
330
2A
100
AcDbVisualStyle
  2
ColorChange
 70
    16
 71
     2
 72
     2
 73
     3
 90
        0
 40
-0.6
 41
-30.0
 62
     5
 63
     8
 74
     1
 91
        4
 64
     7
 65
   257
 75
     1
175
     1
 42
1.0
 92
        8
 66
     8
 43
1.0
 76
     1
 77
     6
 78
     2
 67
     7
 79
     5
170
     0
171
     0
290
     0
174
     0
 93
        1
 44
0.0
173
     0
291
     1
 45
0.0
1001
ACAD
1000
AcDbSavedByObjectVersion
1070
     0
  0
VISUALSTYLE
  5
34
102
{ACAD_REACTORS
330
2A
102
}
102
{ACAD_XDICTIONARY
360
459
102
}
330
2A
100
AcDbVisualStyle
  2
Conceptual
 70
     9
 71
     3
 72
     2
 73
     0
 90
        0
 40
-0.6
 41
-30.0
 62
     5
 63
     7
 74
     2
 91
        2
 64
     7
 65
   257
 75
     1
175
     1
 42
40.0
 92
        8
 66
     7
 43
1.0
 76
     1
 77
     6
 78
     2
 67
     7
 79
     3
170
     0
171
     0
290
     0
174
     0
 93
        1
 44
0.0
173
     0
291
     0
 45
0.0
1001
ACAD
1000
AcDbSavedByObjectVersion
1070
     0
  0
VISUALSTYLE
  5
35
102
{ACAD_REACTORS
330
2A
102
}
102
{ACAD_XDICTIONARY
360
45B
102
}
330
2A
100
AcDbVisualStyle
  2
Dim
 70
    11
 71
     2
 72
     2
 73
     0
 90
        0
 40
-0.6
 41
-30.0
 62
     5
 63
     7
 74
     1
 91
        4
 64
     7
 65
   257
 75
     1
175
     1
 42
1.0
 92
        8
 66
     7
 43
1.0
 76
     1
 77
     6
 78
     2
 67
     7
 79
     5
170
     0
171
     0
290
     0
174
     0
 93
        1
 44
-50.0
173
     0
291
     1
 45
0.0
1001
ACAD
1000
AcDbSavedByObjectVersion
1070
     0
  0
VISUALSTYLE
  5
39
102
{ACAD_REACTORS
330
2A
102
}
102
{ACAD_XDICTIONARY
360
463
102
}
330
2A
100
AcDbVisualStyle
  2
Facepattern
 70
    15
 71
     2
 72
     2
 73
     0
 90
        0
 40
-0.6
 41
-30.0
 62
     5
 63
     7
 74
     1
 91
        4
 64
     7
 65
   257
 75
     1
175
     1
 42
1.0
 92
        8
 66
     7
 43
1.0
 76
     1
 77
     6
 78
     2
 67
     7
 79
     5
170
     0
171
     0
290
     0
174
     0
 93
        1
 44
0.0
173
     0
291
     1
 45
0.0
1001
ACAD
1000
AcDbSavedByObjectVersion
1070
     0
  0
VISUALSTYLE
  5
2B
102
{ACAD_REACTORS
330
2A
102
}
102
{ACAD_XDICTIONARY
360
447
102
}
330
2A
100
AcDbVisualStyle
  2
Flat
 70
     0
 71
     2
 72
     1
 73
     1
 90
        2
 40
-0.6
 41
30.0
 62
     5
 63
     7
 74
     0
 91
        4
 64
     7
 65
   257
 75
     1
175
     1
 42
1.0
 92
        8
 66
     7
 43
1.0
 76
     1
 77
     6
 78
     2
 67
     7
 79
     5
170
     0
171
     0
290
     0
174
     0
 93
       13
 44
0.0
173
     0
291
     1
 45
0.0
1001
ACAD
1000
AcDbSavedByObjectVersion
1070
     0
  0
VISUALSTYLE
  5
2C
102
{ACAD_REACTORS
330
2A
102
}
102
{ACAD_XDICTIONARY
360
449
102
}
330
2A
100
AcDbVisualStyle
  2
FlatWithEdges
 70
     1
 71
     2
 72
     1
 73
     1
 90
        2
 40
-0.6
 41
30.0
 62
     5
 63
     7
 74
     1
 91
        4
 64
     7
 65
   257
 75
     1
175
     1
 42
1.0
 92
        0
 66
   257
 43
1.0
 76
     1
 77
     6
 78
     2
 67
     7
 79
     5
170
     0
171
     0
290
     0
174
     0
 93
       13
 44
0.0
173
     0
291
     1
 45
0.0
1001
ACAD
1000
AcDbSavedByObjectVersion
1070
     0
  0
VISUALSTYLE
  5
2D
102
{ACAD_REACTORS
330
2A
102
}
102
{ACAD_XDICTIONARY
360
44B
102
}
330
2A
100
AcDbVisualStyle
  2
Gouraud
 70
     2
 71
     2
 72
     2
 73
     1
 90
        2
 40
-0.6
 41
30.0
 62
     5
 63
     7
 74
     0
 91
        4
 64
     7
 65
   257
 75
     1
175
     1
 42
1.0
 92
        0
 66
     7
 43
1.0
 76
     1
 77
     6
 78
     2
 67
     7
 79
     5
170
     0
171
     0
290
     0
174
     0
 93
       13
 44
0.0
173
     0
291
     1
 45
0.0
1001
ACAD
1000
AcDbSavedByObjectVersion
1070
     0
  0
VISUALSTYLE
  5
2E
102
{ACAD_REACTORS
330
2A
102
}
102
{ACAD_XDICTIONARY
360
44D
102
}
330
2A
100
AcDbVisualStyle
  2
GouraudWithEdges
 70
     3
 71
     2
 72
     2
 73
     1
 90
        2
 40
-0.6
 41
30.0
 62
     5
 63
     7
 74
     1
 91
        4
 64
     7
 65
   257
 75
     1
175
     1
 42
1.0
 92
        0
 66
   257
 43
1.0
 76
     1
 77
     6
 78
     2
 67
     7
 79
     5
170
     0
171
     0
290
     0
174
     0
 93
       13
 44
0.0
173
     0
291
     1
 45
0.0
1001
ACAD
1000
AcDbSavedByObjectVersion
1070
     0
  0
VISUALSTYLE
  5
38
102
{ACAD_REACTORS
330
2A
102
}
102
{ACAD_XDICTIONARY
360
461
102
}
330
2A
100
AcDbVisualStyle
  2
Linepattern
 70
    14
 71
     2
 72
     2
 73
     0
 90
        0
 40
-0.6
 41
-30.0
 62
     5
 63
     7
 74
     1
 91
        4
 64
     7
 65
   257
 75
     7
175
     7
 42
1.0
 92
        8
 66
     7
 43
1.0
 76
     1
 77
     6
 78
     2
 67
     7
 79
     5
170
     0
171
     0
290
     0
174
     0
 93
        1
 44
0.0
173
     0
291
     1
 45
0.0
1001
ACAD
1000
AcDbSavedByObjectVersion
1070
     0
  0
VISUALSTYLE
  5
33
102
{ACAD_REACTORS
330
2A
102
}
102
{ACAD_XDICTIONARY
360
457
102
}
330
2A
100
AcDbVisualStyle
  2
Realistic
 70
     8
 71
     2
 72
     2
 73
     0
 90
        0
 40
-0.6
 41
-30.0
 62
     5
 63
     7
 74
     1
 91
        0
 64
     7
 65
   257
 75
     1
175
     1
 42
1.0
 92
        8
 66
     8
 43
1.0
 76
     1
 77
     6
 78
     2
 67
     7
 79
     5
170
     0
171
     0
290
     0
174
     0
 93
       13
 44
0.0
173
     0
291
     0
 45
0.0
1001
ACAD
1000
AcDbSavedByObjectVersion
1070
     0
  0
VISUALSTYLE
  5
37
102
{ACAD_REACTORS
330
2A
102
}
102
{ACAD_XDICTIONARY
360
45F
102
}
330
2A
100
AcDbVisualStyle
  2
Thicken
 70
    13
 71
     2
 72
     2
 73
     0
 90
        0
 40
-0.6
 41
-30.0
 62
     5
 63
     7
 74
     1
 91
        4
 64
     7
 65
   257
 75
     1
175
     1
 42
1.0
 92
       12
 66
     7
 43
1.0
 76
     1
 77
     6
 78
     2
 67
     7
 79
     5
170
     0
171
     0
290
     0
174
     0
 93
        1
 44
0.0
173
     0
291
     1
 45
0.0
1001
ACAD
1000
AcDbSavedByObjectVersion
1070
     0
  0
DICTIONARYVAR
  5
445
102
{ACAD_REACTORS
330
442
102
}
330
442
100
DictionaryVariables
280
     0
  1
2
  0
DICTIONARYVAR
  5
446
102
{ACAD_REACTORS
330
442
102
}
330
442
100
DictionaryVariables
280
     0
  1
1
  0
DICTIONARY
  5
469
330
3D
100
AcDbDictionary
280
     1
281
     1
  3
ACAD_XREC_ROUNDTRIP
360
46A
  0
DICTIONARY
  5
467
330
3C
100
AcDbDictionary
280
     1
281
     1
  3
ACAD_XREC_ROUNDTRIP
360
468
  0
DICTIONARY
  5
46B
330
3E
100
AcDbDictionary
280
     1
281
     1
  3
ACAD_XREC_ROUNDTRIP
360
46C
  0
DICTIONARY
  5
44F
330
2F
100
AcDbDictionary
280
     1
281
     1
  3
ACAD_XREC_ROUNDTRIP
360
450
  0
DICTIONARY
  5
453
330
31
100
AcDbDictionary
280
     1
281
     1
  3
ACAD_XREC_ROUNDTRIP
360
454
  0
DICTIONARY
  5
451
330
30
100
AcDbDictionary
280
     1
281
     1
  3
ACAD_XREC_ROUNDTRIP
360
452
  0
DICTIONARY
  5
455
330
32
100
AcDbDictionary
280
     1
281
     1
  3
ACAD_XREC_ROUNDTRIP
360
456
  0
DICTIONARY
  5
45D
330
36
100
AcDbDictionary
280
     1
281
     1
  3
ACAD_XREC_ROUNDTRIP
360
45E
  0
DICTIONARY
  5
465
330
3A
100
AcDbDictionary
280
     1
281
     1
  3
ACAD_XREC_ROUNDTRIP
360
466
  0
DICTIONARY
  5
459
330
34
100
AcDbDictionary
280
     1
281
     1
  3
ACAD_XREC_ROUNDTRIP
360
45A
  0
DICTIONARY
  5
45B
330
35
100
AcDbDictionary
280
     1
281
     1
  3
ACAD_XREC_ROUNDTRIP
360
45C
  0
DICTIONARY
  5
463
330
39
100
AcDbDictionary
280
     1
281
     1
  3
ACAD_XREC_ROUNDTRIP
360
464
  0
DICTIONARY
  5
447
330
2B
100
AcDbDictionary
280
     1
281
     1
  3
ACAD_XREC_ROUNDTRIP
360
448
  0
DICTIONARY
  5
449
330
2C
100
AcDbDictionary
280
     1
281
     1
  3
ACAD_XREC_ROUNDTRIP
360
44A
  0
DICTIONARY
  5
44B
330
2D
100
AcDbDictionary
280
     1
281
     1
  3
ACAD_XREC_ROUNDTRIP
360
44C
  0
DICTIONARY
  5
44D
330
2E
100
AcDbDictionary
280
     1
281
     1
  3
ACAD_XREC_ROUNDTRIP
360
44E
  0
DICTIONARY
  5
461
330
38
100
AcDbDictionary
280
     1
281
     1
  3
ACAD_XREC_ROUNDTRIP
360
462
  0
DICTIONARY
  5
457
330
33
100
AcDbDictionary
280
     1
281
     1
  3
ACAD_XREC_ROUNDTRIP
360
458
  0
DICTIONARY
  5
45F
330
37
100
AcDbDictionary
280
     1
281
     1
  3
ACAD_XREC_ROUNDTRIP
360
460
  0
XRECORD
  5
46A
102
{ACAD_REACTORS
330
469
102
}
330
469
100
AcDbXrecord
280
     1
102
MATERIAL
148
0.0
149
0.0
149
0.0
 93
        0
 94
      127
282
     0
 72
     1
 77
     1
171
     1
175
     1
179
     1
273
     0
  0
XRECORD
  5
468
102
{ACAD_REACTORS
330
467
102
}
330
467
100
AcDbXrecord
280
     1
102
MATERIAL
148
0.0
149
0.0
149
0.0
 93
        0
 94
      127
282
     0
 72
     1
 77
     1
171
     1
175
     1
179
     1
273
     0
  0
XRECORD
  5
46C
102
{ACAD_REACTORS
330
46B
102
}
330
46B
100
AcDbXrecord
280
     1
102
MATERIAL
148
0.0
149
0.0
149
0.0
 93
        0
 94
      127
282
     0
 72
     1
 77
     1
171
     1
175
     1
179
     1
273
     0
  0
XRECORD
  5
450
102
{ACAD_REACTORS
330
44F
102
}
330
44F
100
AcDbXrecord
280
     1
102
RTVSPropertyOp0
 70
     1
102
RTVSPropertyOp1
 70
     1
102
RTVSPropertyOp2
 70
     1
102
RTVSPropertyOp3
 70
     1
102
RTVSPropertyOp4
 70
     1
102
RTVSPropertyOp5
 70
     1
102
RTVSPropertyOp6
 70
     1
102
RTVSPropertyOp7
 70
     1
102
RTVSPropertyOp8
 70
     1
102
RTVSPropertyOp9
 70
     1
102
RTVSPropertyOp10
 70
     1
102
RTVSPropertyOp11
 70
     1
102
RTVSPropertyOp12
 70
     1
102
RTVSPropertyOp13
 70
     1
102
RTVSPropertyOp14
 70
     1
102
RTVSPropertyOp15
 70
     1
102
RTVSPropertyOp16
 70
     1
102
RTVSPropertyOp17
 70
     1
102
RTVSPropertyOp18
 70
     1
102
RTVSPropertyOp19
 70
     1
102
RTVSPropertyOp20
 70
     1
102
RTVSPropertyOp21
 70
     1
102
RTVSPropertyOp22
 70
     1
102
RTVSPropertyOp23
 70
     1
102
RTVSPropertyOp24
 70
     1
102
RTVSPropertyOp25
 70
     1
102
RTVSPropertyOp26
 70
     1
102
RTVSPropertyOp27
 70
     1
102
RTVSPropertyOp28
 70
     1
102
RTVSPropertyOp29
 70
     1
102
RTVSPropertyOp30
 70
     1
102
RTVSPropertyOp31
 70
     1
102
RTVSPropertyOp32
 70
     1
  0
XRECORD
  5
454
102
{ACAD_REACTORS
330
453
102
}
330
453
100
AcDbXrecord
280
     1
102
RTVSPropertyOp0
 70
     1
102
RTVSPropertyOp1
 70
     1
102
RTVSPropertyOp2
 70
     1
102
RTVSPropertyOp3
 70
     1
102
RTVSPropertyOp4
 70
     1
102
RTVSPropertyOp5
 70
     1
102
RTVSPropertyOp6
 70
     1
102
RTVSPropertyOp7
 70
     1
102
RTVSPropertyOp8
 70
     1
102
RTVSPropertyOp9
 70
     1
102
RTVSPropertyOp10
 70
     1
102
RTVSPropertyOp11
 70
     1
102
RTVSPropertyOp12
 70
     1
102
RTVSPropertyOp13
 70
     1
102
RTVSPropertyOp14
 70
     1
102
RTVSPropertyOp15
 70
     1
102
RTVSPropertyOp16
 70
     1
102
RTVSPropertyOp17
 70
     1
102
RTVSPropertyOp18
 70
     1
102
RTVSPropertyOp19
 70
     1
102
RTVSPropertyOp20
 70
     1
102
RTVSPropertyOp21
 70
     1
102
RTVSPropertyOp22
 70
     1
102
RTVSPropertyOp23
 70
     1
102
RTVSPropertyOp24
 70
     1
102
RTVSPropertyOp25
 70
     1
102
RTVSPropertyOp26
 70
     1
102
RTVSPropertyOp27
 70
     1
102
RTVSPropertyOp28
 70
     1
102
RTVSPropertyOp29
 70
     1
102
RTVSPropertyOp30
 70
     1
102
RTVSPropertyOp31
 70
     1
102
RTVSPropertyOp32
 70
     1
  0
XRECORD
  5
452
102
{ACAD_REACTORS
330
451
102
}
330
451
100
AcDbXrecord
280
     1
102
RTVSPropertyOp0
 70
     1
102
RTVSPropertyOp1
 70
     1
102
RTVSPropertyOp2
 70
     1
102
RTVSPropertyOp3
 70
     1
102
RTVSPropertyOp4
 70
     1
102
RTVSPropertyOp5
 70
     1
102
RTVSPropertyOp6
 70
     1
102
RTVSPropertyOp7
 70
     1
102
RTVSPropertyOp8
 70
     1
102
RTVSPropertyOp9
 70
     1
102
RTVSPropertyOp10
 70
     1
102
RTVSPropertyOp11
 70
     1
102
RTVSPropertyOp12
 70
     1
102
RTVSPropertyOp13
 70
     1
102
RTVSPropertyOp14
 70
     1
102
RTVSPropertyOp15
 70
     1
102
RTVSPropertyOp16
 70
     1
102
RTVSPropertyOp17
 70
     1
102
RTVSPropertyOp18
 70
     1
102
RTVSPropertyOp19
 70
     1
102
RTVSPropertyOp20
 70
     1
102
RTVSPropertyOp21
 70
     1
102
RTVSPropertyOp22
 70
     1
102
RTVSPropertyOp23
 70
     1
102
RTVSPropertyOp24
 70
     1
102
RTVSPropertyOp25
 70
     1
102
RTVSPropertyOp26
 70
     1
102
RTVSPropertyOp27
 70
     1
102
RTVSPropertyOp28
 70
     1
102
RTVSPropertyOp29
 70
     1
102
RTVSPropertyOp30
 70
     1
102
RTVSPropertyOp31
 70
     1
102
RTVSPropertyOp32
 70
     1
  0
XRECORD
  5
456
102
{ACAD_REACTORS
330
455
102
}
330
455
100
AcDbXrecord
280
     1
102
RTVSPropertyOp0
 70
     1
102
RTVSPropertyOp1
 70
     1
102
RTVSPropertyOp2
 70
     1
102
RTVSPropertyOp3
 70
     1
102
RTVSPropertyOp4
 70
     1
102
RTVSPropertyOp5
 70
     1
102
RTVSPropertyOp6
 70
     1
102
RTVSPropertyOp7
 70
     1
102
RTVSPropertyOp8
 70
     1
102
RTVSPropertyOp9
 70
     1
102
RTVSPropertyOp10
 70
     1
102
RTVSPropertyOp11
 70
     1
102
RTVSPropertyOp12
 70
     1
102
RTVSPropertyOp13
 70
     1
102
RTVSPropertyOp14
 70
     1
102
RTVSPropertyOp15
 70
     1
102
RTVSPropertyOp16
 70
     1
102
RTVSPropertyOp17
 70
     1
102
RTVSPropertyOp18
 70
     1
102
RTVSPropertyOp19
 70
     1
102
RTVSPropertyOp20
 70
     1
102
RTVSPropertyOp21
 70
     1
102
RTVSPropertyOp22
 70
     1
102
RTVSPropertyOp23
 70
     1
102
RTVSPropertyOp24
 70
     1
102
RTVSPropertyOp25
 70
     1
102
RTVSPropertyOp26
 70
     1
102
RTVSPropertyOp27
 70
     1
102
RTVSPropertyOp28
 70
     1
102
RTVSPropertyOp29
 70
     1
102
RTVSPropertyOp30
 70
     1
102
RTVSPropertyOp31
 70
     1
102
RTVSPropertyOp32
 70
     1
  0
XRECORD
  5
45E
102
{ACAD_REACTORS
330
45D
102
}
330
45D
100
AcDbXrecord
280
     1
102
RTVSPropertyOp0
 70
     1
102
RTVSPropertyOp1
 70
     1
102
RTVSPropertyOp2
 70
     1
102
RTVSPropertyOp3
 70
     1
102
RTVSPropertyOp4
 70
     1
102
RTVSPropertyOp5
 70
     1
102
RTVSPropertyOp6
 70
     1
102
RTVSPropertyOp7
 70
     1
102
RTVSPropertyOp8
 70
     1
102
RTVSPropertyOp9
 70
     1
102
RTVSPropertyOp10
 70
     1
102
RTVSPropertyOp11
 70
     1
102
RTVSPropertyOp12
 70
     1
102
RTVSPropertyOp13
 70
     1
102
RTVSPropertyOp14
 70
     1
102
RTVSPropertyOp15
 70
     1
102
RTVSPropertyOp16
 70
     1
102
RTVSPropertyOp17
 70
     1
102
RTVSPropertyOp18
 70
     1
102
RTVSPropertyOp19
 70
     1
102
RTVSPropertyOp20
 70
     1
102
RTVSPropertyOp21
 70
     1
102
RTVSPropertyOp22
 70
     1
102
RTVSPropertyOp23
 70
     1
102
RTVSPropertyOp24
 70
     1
102
RTVSPropertyOp25
 70
     1
102
RTVSPropertyOp26
 70
     1
102
RTVSPropertyOp27
 70
     1
102
RTVSPropertyOp28
 70
     1
102
RTVSPropertyOp29
 70
     1
102
RTVSPropertyOp30
 70
     1
102
RTVSPropertyOp31
 70
     1
102
RTVSPropertyOp32
 70
     1
  0
XRECORD
  5
466
102
{ACAD_REACTORS
330
465
102
}
330
465
100
AcDbXrecord
280
     1
102
RTVSPropertyOp0
 70
     1
102
RTVSPropertyOp1
 70
     1
102
RTVSPropertyOp2
 70
     1
102
RTVSPropertyOp3
 70
     1
102
RTVSPropertyOp4
 70
     1
102
RTVSPropertyOp5
 70
     1
102
RTVSPropertyOp6
 70
     1
102
RTVSPropertyOp7
 70
     1
102
RTVSPropertyOp8
 70
     1
102
RTVSPropertyOp9
 70
     1
102
RTVSPropertyOp10
 70
     1
102
RTVSPropertyOp11
 70
     1
102
RTVSPropertyOp12
 70
     1
102
RTVSPropertyOp13
 70
     1
102
RTVSPropertyOp14
 70
     1
102
RTVSPropertyOp15
 70
     1
102
RTVSPropertyOp16
 70
     1
102
RTVSPropertyOp17
 70
     1
102
RTVSPropertyOp18
 70
     1
102
RTVSPropertyOp19
 70
     1
102
RTVSPropertyOp20
 70
     1
102
RTVSPropertyOp21
 70
     1
102
RTVSPropertyOp22
 70
     1
102
RTVSPropertyOp23
 70
     1
102
RTVSPropertyOp24
 70
     1
102
RTVSPropertyOp25
 70
     1
102
RTVSPropertyOp26
 70
     1
102
RTVSPropertyOp27
 70
     1
102
RTVSPropertyOp28
 70
     1
102
RTVSPropertyOp29
 70
     1
102
RTVSPropertyOp30
 70
     1
102
RTVSPropertyOp31
 70
     1
102
RTVSPropertyOp32
 70
     1
  0
XRECORD
  5
45A
102
{ACAD_REACTORS
330
459
102
}
330
459
100
AcDbXrecord
280
     1
102
RTVSPropertyOp0
 70
     1
102
RTVSPropertyOp1
 70
     1
102
RTVSPropertyOp2
 70
     1
102
RTVSPropertyOp3
 70
     1
102
RTVSPropertyOp4
 70
     1
102
RTVSPropertyOp5
 70
     1
102
RTVSPropertyOp6
 70
     1
102
RTVSPropertyOp7
 70
     1
102
RTVSPropertyOp8
 70
     1
102
RTVSPropertyOp9
 70
     1
102
RTVSPropertyOp10
 70
     1
102
RTVSPropertyOp11
 70
     1
102
RTVSPropertyOp12
 70
     1
102
RTVSPropertyOp13
 70
     1
102
RTVSPropertyOp14
 70
     1
102
RTVSPropertyOp15
 70
     1
102
RTVSPropertyOp16
 70
     1
102
RTVSPropertyOp17
 70
     1
102
RTVSPropertyOp18
 70
     1
102
RTVSPropertyOp19
 70
     1
102
RTVSPropertyOp20
 70
     1
102
RTVSPropertyOp21
 70
     1
102
RTVSPropertyOp22
 70
     1
102
RTVSPropertyOp23
 70
     1
102
RTVSPropertyOp24
 70
     1
102
RTVSPropertyOp25
 70
     1
102
RTVSPropertyOp26
 70
     1
102
RTVSPropertyOp27
 70
     1
102
RTVSPropertyOp28
 70
     1
102
RTVSPropertyOp29
 70
     1
102
RTVSPropertyOp30
 70
     1
102
RTVSPropertyOp31
 70
     1
102
RTVSPropertyOp32
 70
     1
  0
XRECORD
  5
45C
102
{ACAD_REACTORS
330
45B
102
}
330
45B
100
AcDbXrecord
280
     1
102
RTVSPropertyOp0
 70
     1
102
RTVSPropertyOp1
 70
     1
102
RTVSPropertyOp2
 70
     1
102
RTVSPropertyOp3
 70
     1
102
RTVSPropertyOp4
 70
     1
102
RTVSPropertyOp5
 70
     1
102
RTVSPropertyOp6
 70
     1
102
RTVSPropertyOp7
 70
     1
102
RTVSPropertyOp8
 70
     1
102
RTVSPropertyOp9
 70
     1
102
RTVSPropertyOp10
 70
     1
102
RTVSPropertyOp11
 70
     1
102
RTVSPropertyOp12
 70
     1
102
RTVSPropertyOp13
 70
     1
102
RTVSPropertyOp14
 70
     1
102
RTVSPropertyOp15
 70
     1
102
RTVSPropertyOp16
 70
     1
102
RTVSPropertyOp17
 70
     1
102
RTVSPropertyOp18
 70
     1
102
RTVSPropertyOp19
 70
     1
102
RTVSPropertyOp20
 70
     1
102
RTVSPropertyOp21
 70
     1
102
RTVSPropertyOp22
 70
     1
102
RTVSPropertyOp23
 70
     1
102
RTVSPropertyOp24
 70
     1
102
RTVSPropertyOp25
 70
     1
102
RTVSPropertyOp26
 70
     1
102
RTVSPropertyOp27
 70
     1
102
RTVSPropertyOp28
 70
     1
102
RTVSPropertyOp29
 70
     1
102
RTVSPropertyOp30
 70
     1
102
RTVSPropertyOp31
 70
     1
102
RTVSPropertyOp32
 70
     1
  0
XRECORD
  5
464
102
{ACAD_REACTORS
330
463
102
}
330
463
100
AcDbXrecord
280
     1
102
RTVSPropertyOp0
 70
     1
102
RTVSPropertyOp1
 70
     1
102
RTVSPropertyOp2
 70
     1
102
RTVSPropertyOp3
 70
     1
102
RTVSPropertyOp4
 70
     1
102
RTVSPropertyOp5
 70
     1
102
RTVSPropertyOp6
 70
     1
102
RTVSPropertyOp7
 70
     1
102
RTVSPropertyOp8
 70
     1
102
RTVSPropertyOp9
 70
     1
102
RTVSPropertyOp10
 70
     1
102
RTVSPropertyOp11
 70
     1
102
RTVSPropertyOp12
 70
     1
102
RTVSPropertyOp13
 70
     1
102
RTVSPropertyOp14
 70
     1
102
RTVSPropertyOp15
 70
     1
102
RTVSPropertyOp16
 70
     1
102
RTVSPropertyOp17
 70
     1
102
RTVSPropertyOp18
 70
     1
102
RTVSPropertyOp19
 70
     1
102
RTVSPropertyOp20
 70
     1
102
RTVSPropertyOp21
 70
     1
102
RTVSPropertyOp22
 70
     1
102
RTVSPropertyOp23
 70
     1
102
RTVSPropertyOp24
 70
     1
102
RTVSPropertyOp25
 70
     1
102
RTVSPropertyOp26
 70
     1
102
RTVSPropertyOp27
 70
     1
102
RTVSPropertyOp28
 70
     1
102
RTVSPropertyOp29
 70
     1
102
RTVSPropertyOp30
 70
     1
102
RTVSPropertyOp31
 70
     1
102
RTVSPropertyOp32
 70
     1
  0
XRECORD
  5
448
102
{ACAD_REACTORS
330
447
102
}
330
447
100
AcDbXrecord
280
     1
102
RTVSPropertyOp0
 70
     1
102
RTVSPropertyOp1
 70
     1
102
RTVSPropertyOp2
 70
     1
102
RTVSPropertyOp3
 70
     1
102
RTVSPropertyOp4
 70
     1
102
RTVSPropertyOp5
 70
     1
102
RTVSPropertyOp6
 70
     1
102
RTVSPropertyOp7
 70
     1
102
RTVSPropertyOp8
 70
     1
102
RTVSPropertyOp9
 70
     1
102
RTVSPropertyOp10
 70
     1
102
RTVSPropertyOp11
 70
     1
102
RTVSPropertyOp12
 70
     1
102
RTVSPropertyOp13
 70
     1
102
RTVSPropertyOp14
 70
     1
102
RTVSPropertyOp15
 70
     1
102
RTVSPropertyOp16
 70
     1
102
RTVSPropertyOp17
 70
     1
102
RTVSPropertyOp18
 70
     1
102
RTVSPropertyOp19
 70
     1
102
RTVSPropertyOp20
 70
     1
102
RTVSPropertyOp21
 70
     1
102
RTVSPropertyOp22
 70
     1
102
RTVSPropertyOp23
 70
     1
102
RTVSPropertyOp24
 70
     1
102
RTVSPropertyOp25
 70
     1
102
RTVSPropertyOp26
 70
     1
102
RTVSPropertyOp27
 70
     1
102
RTVSPropertyOp28
 70
     1
102
RTVSPropertyOp29
 70
     1
102
RTVSPropertyOp30
 70
     1
102
RTVSPropertyOp31
 70
     1
102
RTVSPropertyOp32
 70
     1
  0
XRECORD
  5
44A
102
{ACAD_REACTORS
330
449
102
}
330
449
100
AcDbXrecord
280
     1
102
RTVSPropertyOp0
 70
     1
102
RTVSPropertyOp1
 70
     1
102
RTVSPropertyOp2
 70
     1
102
RTVSPropertyOp3
 70
     1
102
RTVSPropertyOp4
 70
     1
102
RTVSPropertyOp5
 70
     1
102
RTVSPropertyOp6
 70
     1
102
RTVSPropertyOp7
 70
     1
102
RTVSPropertyOp8
 70
     1
102
RTVSPropertyOp9
 70
     1
102
RTVSPropertyOp10
 70
     1
102
RTVSPropertyOp11
 70
     1
102
RTVSPropertyOp12
 70
     1
102
RTVSPropertyOp13
 70
     1
102
RTVSPropertyOp14
 70
     1
102
RTVSPropertyOp15
 70
     1
102
RTVSPropertyOp16
 70
     1
102
RTVSPropertyOp17
 70
     1
102
RTVSPropertyOp18
 70
     1
102
RTVSPropertyOp19
 70
     1
102
RTVSPropertyOp20
 70
     1
102
RTVSPropertyOp21
 70
     1
102
RTVSPropertyOp22
 70
     1
102
RTVSPropertyOp23
 70
     1
102
RTVSPropertyOp24
 70
     1
102
RTVSPropertyOp25
 70
     1
102
RTVSPropertyOp26
 70
     1
102
RTVSPropertyOp27
 70
     1
102
RTVSPropertyOp28
 70
     1
102
RTVSPropertyOp29
 70
     1
102
RTVSPropertyOp30
 70
     1
102
RTVSPropertyOp31
 70
     1
102
RTVSPropertyOp32
 70
     1
  0
XRECORD
  5
44C
102
{ACAD_REACTORS
330
44B
102
}
330
44B
100
AcDbXrecord
280
     1
102
RTVSPropertyOp0
 70
     1
102
RTVSPropertyOp1
 70
     1
102
RTVSPropertyOp2
 70
     1
102
RTVSPropertyOp3
 70
     1
102
RTVSPropertyOp4
 70
     1
102
RTVSPropertyOp5
 70
     1
102
RTVSPropertyOp6
 70
     1
102
RTVSPropertyOp7
 70
     1
102
RTVSPropertyOp8
 70
     1
102
RTVSPropertyOp9
 70
     1
102
RTVSPropertyOp10
 70
     1
102
RTVSPropertyOp11
 70
     1
102
RTVSPropertyOp12
 70
     1
102
RTVSPropertyOp13
 70
     1
102
RTVSPropertyOp14
 70
     1
102
RTVSPropertyOp15
 70
     1
102
RTVSPropertyOp16
 70
     1
102
RTVSPropertyOp17
 70
     1
102
RTVSPropertyOp18
 70
     1
102
RTVSPropertyOp19
 70
     1
102
RTVSPropertyOp20
 70
     1
102
RTVSPropertyOp21
 70
     1
102
RTVSPropertyOp22
 70
     1
102
RTVSPropertyOp23
 70
     1
102
RTVSPropertyOp24
 70
     1
102
RTVSPropertyOp25
 70
     1
102
RTVSPropertyOp26
 70
     1
102
RTVSPropertyOp27
 70
     1
102
RTVSPropertyOp28
 70
     1
102
RTVSPropertyOp29
 70
     1
102
RTVSPropertyOp30
 70
     1
102
RTVSPropertyOp31
 70
     1
102
RTVSPropertyOp32
 70
     1
  0
XRECORD
  5
44E
102
{ACAD_REACTORS
330
44D
102
}
330
44D
100
AcDbXrecord
280
     1
102
RTVSPropertyOp0
 70
     1
102
RTVSPropertyOp1
 70
     1
102
RTVSPropertyOp2
 70
     1
102
RTVSPropertyOp3
 70
     1
102
RTVSPropertyOp4
 70
     1
102
RTVSPropertyOp5
 70
     1
102
RTVSPropertyOp6
 70
     1
102
RTVSPropertyOp7
 70
     1
102
RTVSPropertyOp8
 70
     1
102
RTVSPropertyOp9
 70
     1
102
RTVSPropertyOp10
 70
     1
102
RTVSPropertyOp11
 70
     1
102
RTVSPropertyOp12
 70
     1
102
RTVSPropertyOp13
 70
     1
102
RTVSPropertyOp14
 70
     1
102
RTVSPropertyOp15
 70
     1
102
RTVSPropertyOp16
 70
     1
102
RTVSPropertyOp17
 70
     1
102
RTVSPropertyOp18
 70
     1
102
RTVSPropertyOp19
 70
     1
102
RTVSPropertyOp20
 70
     1
102
RTVSPropertyOp21
 70
     1
102
RTVSPropertyOp22
 70
     1
102
RTVSPropertyOp23
 70
     1
102
RTVSPropertyOp24
 70
     1
102
RTVSPropertyOp25
 70
     1
102
RTVSPropertyOp26
 70
     1
102
RTVSPropertyOp27
 70
     1
102
RTVSPropertyOp28
 70
     1
102
RTVSPropertyOp29
 70
     1
102
RTVSPropertyOp30
 70
     1
102
RTVSPropertyOp31
 70
     1
102
RTVSPropertyOp32
 70
     1
  0
XRECORD
  5
462
102
{ACAD_REACTORS
330
461
102
}
330
461
100
AcDbXrecord
280
     1
102
RTVSPropertyOp0
 70
     1
102
RTVSPropertyOp1
 70
     1
102
RTVSPropertyOp2
 70
     1
102
RTVSPropertyOp3
 70
     1
102
RTVSPropertyOp4
 70
     1
102
RTVSPropertyOp5
 70
     1
102
RTVSPropertyOp6
 70
     1
102
RTVSPropertyOp7
 70
     1
102
RTVSPropertyOp8
 70
     1
102
RTVSPropertyOp9
 70
     1
102
RTVSPropertyOp10
 70
     1
102
RTVSPropertyOp11
 70
     1
102
RTVSPropertyOp12
 70
     1
102
RTVSPropertyOp13
 70
     1
102
RTVSPropertyOp14
 70
     1
102
RTVSPropertyOp15
 70
     1
102
RTVSPropertyOp16
 70
     1
102
RTVSPropertyOp17
 70
     1
102
RTVSPropertyOp18
 70
     1
102
RTVSPropertyOp19
 70
     1
102
RTVSPropertyOp20
 70
     1
102
RTVSPropertyOp21
 70
     1
102
RTVSPropertyOp22
 70
     1
102
RTVSPropertyOp23
 70
     1
102
RTVSPropertyOp24
 70
     1
102
RTVSPropertyOp25
 70
     1
102
RTVSPropertyOp26
 70
     1
102
RTVSPropertyOp27
 70
     1
102
RTVSPropertyOp28
 70
     1
102
RTVSPropertyOp29
 70
     1
102
RTVSPropertyOp30
 70
     1
102
RTVSPropertyOp31
 70
     1
102
RTVSPropertyOp32
 70
     1
  0
XRECORD
  5
458
102
{ACAD_REACTORS
330
457
102
}
330
457
100
AcDbXrecord
280
     1
102
RTVSPropertyOp0
 70
     1
102
RTVSPropertyOp1
 70
     1
102
RTVSPropertyOp2
 70
     1
102
RTVSPropertyOp3
 70
     1
102
RTVSPropertyOp4
 70
     1
102
RTVSPropertyOp5
 70
     1
102
RTVSPropertyOp6
 70
     1
102
RTVSPropertyOp7
 70
     1
102
RTVSPropertyOp8
 70
     1
102
RTVSPropertyOp9
 70
     1
102
RTVSPropertyOp10
 70
     1
102
RTVSPropertyOp11
 70
     1
102
RTVSPropertyOp12
 70
     1
102
RTVSPropertyOp13
 70
     1
102
RTVSPropertyOp14
 70
     1
102
RTVSPropertyOp15
 70
     1
102
RTVSPropertyOp16
 70
     1
102
RTVSPropertyOp17
 70
     1
102
RTVSPropertyOp18
 70
     1
102
RTVSPropertyOp19
 70
     1
102
RTVSPropertyOp20
 70
     1
102
RTVSPropertyOp21
 70
     1
102
RTVSPropertyOp22
 70
     1
102
RTVSPropertyOp23
 70
     1
102
RTVSPropertyOp24
 70
     1
102
RTVSPropertyOp25
 70
     1
102
RTVSPropertyOp26
 70
     1
102
RTVSPropertyOp27
 70
     1
102
RTVSPropertyOp28
 70
     1
102
RTVSPropertyOp29
 70
     1
102
RTVSPropertyOp30
 70
     1
102
RTVSPropertyOp31
 70
     1
102
RTVSPropertyOp32
 70
     1
  0
XRECORD
  5
460
102
{ACAD_REACTORS
330
45F
102
}
330
45F
100
AcDbXrecord
280
     1
102
RTVSPropertyOp0
 70
     1
102
RTVSPropertyOp1
 70
     1
102
RTVSPropertyOp2
 70
     1
102
RTVSPropertyOp3
 70
     1
102
RTVSPropertyOp4
 70
     1
102
RTVSPropertyOp5
 70
     1
102
RTVSPropertyOp6
 70
     1
102
RTVSPropertyOp7
 70
     1
102
RTVSPropertyOp8
 70
     1
102
RTVSPropertyOp9
 70
     1
102
RTVSPropertyOp10
 70
     1
102
RTVSPropertyOp11
 70
     1
102
RTVSPropertyOp12
 70
     1
102
RTVSPropertyOp13
 70
     1
102
RTVSPropertyOp14
 70
     1
102
RTVSPropertyOp15
 70
     1
102
RTVSPropertyOp16
 70
     1
102
RTVSPropertyOp17
 70
     1
102
RTVSPropertyOp18
 70
     1
102
RTVSPropertyOp19
 70
     1
102
RTVSPropertyOp20
 70
     1
102
RTVSPropertyOp21
 70
     1
102
RTVSPropertyOp22
 70
     1
102
RTVSPropertyOp23
 70
     1
102
RTVSPropertyOp24
 70
     1
102
RTVSPropertyOp25
 70
     1
102
RTVSPropertyOp26
 70
     1
102
RTVSPropertyOp27
 70
     1
102
RTVSPropertyOp28
 70
     1
102
RTVSPropertyOp29
 70
     1
102
RTVSPropertyOp30
 70
     1
102
RTVSPropertyOp31
 70
     1
102
RTVSPropertyOp32
 70
     1
  0
ENDSEC
  0
EOF
