  0
SECTION
  2
HEADER
  9
$ACADVER
  1
AC1015
  9
$ACADMAINTVER
 70
     6
  9
$DWGCODEPAGE
  3
ANSI_932
  9
$INSBASE
 10
0.0
 20
0.0
 30
0.0
  9
$EXTMIN
 10
0.0
 20
0.0
 30
0.0
  9
$EXTMAX
 10
1050.0
 20
1485.0
 30
0.0
  9
$LIMMIN
 10
0.0
 20
0.0
  9
$LIMMAX
 10
12.0
 20
9.0
  9
$ORTHOMODE
 70
     0
  9
$REGENMODE
 70
     1
  9
$FILLMODE
 70
     1
  9
$QTEXTMODE
 70
     0
  9
$MIRRTEXT
 70
     1
  9
$LTSCALE
 40
1.0
  9
$ATTMODE
 70
     1
  9
$TEXTSIZE
 40
0.2
  9
$TRACEWID
 40
0.05
  9
$TEXTSTYLE
  7
Standard
  9
$CLAYER
  8
0
  9
$CELTYPE
  6
ByLayer
  9
$CECOLOR
 62
   256
  9
$CELTSCALE
 40
1.0
  9
$DISPSILH
 70
     0
  9
$DIMSCALE
 40
1.0
  9
$DIMASZ
 40
0.18
  9
$DIMEXO
 40
0.0625
  9
$DIMDLI
 40
0.38
  9
$DIMRND
 40
0.0
  9
$DIMDLE
 40
0.0
  9
$DIMEXE
 40
0.18
  9
$DIMTP
 40
0.0
  9
$DIMTM
 40
0.0
  9
$DIMTXT
 40
0.18
  9
$DIMCEN
 40
0.09
  9
$DIMTSZ
 40
0.0
  9
$DIMTOL
 70
     0
  9
$DIMLIM
 70
     0
  9
$DIMTIH
 70
     1
  9
$DIMTOH
 70
     1
  9
$DIMSE1
 70
     0
  9
$DIMSE2
 70
     0
  9
$DIMTAD
 70
     0
  9
$DIMZIN
 70
     0
  9
$DIMBLK
  1

  9
$DIMASO
 70
     1
  9
$DIMSHO
 70
     1
  9
$DIMPOST
  1

  9
$DIMAPOST
  1

  9
$DIMALT
 70
     0
  9
$DIMALTD
 70
     2
  9
$DIMALTF
 40
25.4
  9
$DIMLFAC
 40
1.0
  9
$DIMTOFL
 70
     0
  9
$DIMTVP
 40
0.0
  9
$DIMTIX
 70
     0
  9
$DIMSOXD
 70
     0
  9
$DIMSAH
 70
     0
  9
$DIMBLK1
  1

  9
$DIMBLK2
  1

  9
$DIMSTYLE
  2
Standard
  9
$DIMCLRD
 70
     0
  9
$DIMCLRE
 70
     0
  9
$DIMCLRT
 70
     0
  9
$DIMTFAC
 40
1.0
  9
$DIMGAP
 40
0.09
  9
$DIMJUST
 70
     0
  9
$DIMSD1
 70
     0
  9
$DIMSD2
 70
     0
  9
$DIMTOLJ
 70
     1
  9
$DIMTZIN
 70
     0
  9
$DIMALTZ
 70
     0
  9
$DIMALTTZ
 70
     0
  9
$DIMUPT
 70
     0
  9
$DIMDEC
 70
     4
  9
$DIMTDEC
 70
     4
  9
$DIMALTU
 70
     2
  9
$DIMALTTD
 70
     2
  9
$DIMTXSTY
  7
Standard
  9
$DIMAUNIT
 70
     0
  9
$DIMADEC
 70
     0
  9
$DIMALTRND
 40
0.0
  9
$DIMAZIN
 70
     0
  9
$DIMDSEP
 70
    46
  9
$DIMATFIT
 70
     3
  9
$DIMFRAC
 70
     0
  9
$DIMLDRBLK
  1

  9
$DIMLUNIT
 70
     2
  9
$DIMLWD
 70
    -2
  9
$DIMLWE
 70
    -2
  9
$DIMTMOVE
 70
     0
  9
$LUNITS
 70
     2
  9
$LUPREC
 70
     4
  9
$SKETCHINC
 40
0.1
  9
$FILLETRAD
 40
0.5
  9
$AUNITS
 70
     0
  9
$AUPREC
 70
     0
  9
$MENU
  1
.
  9
$ELEVATION
 40
0.0
  9
$PELEVATION
 40
0.0
  9
$THICKNESS
 40
0.0
  9
$LIMCHECK
 70
     0
  9
$CHAMFERA
 40
0.5
  9
$CHAMFERB
 40
0.5
  9
$CHAMFERC
 40
1.0
  9
$CHAMFERD
 40
0.0
  9
$SKPOLY
 70
     0
  9
$TDCREATE
 40
2457246.706863299
  9
$TDUCREATE
 40
2457246.331863299
  9
$TDUPDATE
 40
2457246.70686456
  9
$TDUUPDATE
 40
2457246.33186456
  9
$TDINDWG
 40
0.0000000116
  9
$TDUSRTIMER
 40
0.0000000116
  9
$USRTIMER
 70
     1
  9
$ANGBASE
 50
0.0
  9
$ANGDIR
 70
     0
  9
$PDMODE
 70
     0
  9
$PDSIZE
 40
0.0
  9
$PLINEWID
 40
0.0
  9
$SPLFRAME
 70
     0
  9
$SPLINETYPE
 70
     6
  9
$SPLINESEGS
 70
     8
  9
$HANDSEED
  5
490
  9
$SURFTAB1
 70
     6
  9
$SURFTAB2
 70
     6
  9
$SURFTYPE
 70
     6
  9
$SURFU
 70
     6
  9
$SURFV
 70
     6
  9
$UCSBASE
  2

  9
$UCSNAME
  2

  9
$UCSORG
 10
0.0
 20
0.0
 30
0.0
  9
$UCSXDIR
 10
1.0
 20
0.0
 30
0.0
  9
$UCSYDIR
 10
0.0
 20
1.0
 30
0.0
  9
$UCSORTHOREF
  2

  9
$UCSORTHOVIEW
 70
     0
  9
$UCSORGTOP
 10
0.0
 20
0.0
 30
0.0
  9
$UCSORGBOTTOM
 10
0.0
 20
0.0
 30
0.0
  9
$UCSORGLEFT
 10
0.0
 20
0.0
 30
0.0
  9
$UCSORGRIGHT
 10
0.0
 20
0.0
 30
0.0
  9
$UCSORGFRONT
 10
0.0
 20
0.0
 30
0.0
  9
$UCSORGBACK
 10
0.0
 20
0.0
 30
0.0
  9
$PUCSBASE
  2

  9
$PUCSNAME
  2

  9
$PUCSORG
 10
0.0
 20
0.0
 30
0.0
  9
$PUCSXDIR
 10
1.0
 20
0.0
 30
0.0
  9
$PUCSYDIR
 10
0.0
 20
1.0
 30
0.0
  9
$PUCSORTHOREF
  2

  9
$PUCSORTHOVIEW
 70
     0
  9
$PUCSORGTOP
 10
0.0
 20
0.0
 30
0.0
  9
$PUCSORGBOTTOM
 10
0.0
 20
0.0
 30
0.0
  9
$PUCSORGLEFT
 10
0.0
 20
0.0
 30
0.0
  9
$PUCSORGRIGHT
 10
0.0
 20
0.0
 30
0.0
  9
$PUCSORGFRONT
 10
0.0
 20
0.0
 30
0.0
  9
$PUCSORGBACK
 10
0.0
 20
0.0
 30
0.0
  9
$USERI1
 70
     0
  9
$USERI2
 70
     0
  9
$USERI3
 70
     0
  9
$USERI4
 70
     0
  9
$USERI5
 70
     0
  9
$USERR1
 40
18.1
  9
$USERR2
 40
0.0
  9
$USERR3
 40
0.0
  9
$USERR4
 40
0.0
  9
$USERR5
 40
0.0
  9
$WORLDVIEW
 70
     1
  9
$SHADEDGE
 70
     3
  9
$SHADEDIF
 70
    70
  9
$TILEMODE
 70
     1
  9
$MAXACTVP
 70
    64
  9
$PINSBASE
 10
0.0
 20
0.0
 30
0.0
  9
$PLIMCHECK
 70
     0
  9
$PEXTMIN
 10
1.00000000000000E+20
 20
1.00000000000000E+20
 30
1.00000000000000E+20
  9
$PEXTMAX
 10
-1.00000000000000E+20
 20
-1.00000000000000E+20
 30
-1.00000000000000E+20
  9
$PLIMMIN
 10
0.0
 20
0.0
  9
$PLIMMAX
 10
12.0
 20
9.0
  9
$UNITMODE
 70
     0
  9
$VISRETAIN
 70
     1
  9
$PLINEGEN
 70
     0
  9
$PSLTSCALE
 70
     1
  9
$TREEDEPTH
 70
  3020
  9
$CMLSTYLE
  2
Standard
  9
$CMLJUST
 70
     0
  9
$CMLSCALE
 40
1.0
  9
$PROXYGRAPHICS
 70
     1
  9
$MEASUREMENT
 70
     1
  9
$CELWEIGHT
370
    -1
  9
$ENDCAPS
280
     0
  9
$JOINSTYLE
280
     0
  9
$LWDISPLAY
290
     0
  9
$INSUNITS
 70
     4
  9
$HYPERLINKBASE
  1

  9
$STYLESHEET
  1

  9
$XEDIT
290
     1
  9
$CEPSNTYPE
380
     0
  9
$PSTYLEMODE
290
     1
  9
$FINGERPRINTGUID
  2
{34AD536D-2293-4633-B39B-CADE06F9C96F}
  9
$VERSIONGUID
  2
{FAEB1C32-E019-11D5-929B-00C0DF256EC4}
  9
$EXTNAMES
290
     1
  9
$PSVPSCALE
 40
0.0
  9
$OLESTARTUP
290
     0
  0
ENDSEC
  0
SECTION
  2
CLASSES
  0
CLASS
  1
ACDBDICTIONARYWDFLT
  2
AcDbDictionaryWithDefault
  3
ObjectDBX Classes
 90
        0
280
     0
281
     0
  0
CLASS
  1
VISUALSTYLE
  2
AcDbVisualStyle
  3
ObjectDBX Classes
 90
     4095
280
     0
281
     0
  0
CLASS
  1
MATERIAL
  2
AcDbMaterial
  3
ObjectDBX Classes
 90
     1153
280
     0
281
     0
  0
CLASS
  1
DICTIONARYVAR
  2
AcDbDictionaryVar
  3
ObjectDBX Classes
 90
        0
280
     0
281
     0
  0
CLASS
  1
ACDBPLACEHOLDER
  2
AcDbPlaceHolder
  3
ObjectDBX Classes
 90
        0
280
     0
281
     0
  0
CLASS
  1
LAYOUT
  2
AcDbLayout
  3
ObjectDBX Classes
 90
        0
280
     0
281
     0
  0
ENDSEC
  0
SECTION
  2
TABLES
  0
TABLE
  2
VPORT
  5
8
330
0
100
AcDbSymbolTable
 70
     1
  0
VPORT
  5
29
330
8
100
AcDbSymbolTableRecord
100
AcDbViewportTableRecord
  2
*Active
 70
     0
 10
0.0
 20
0.0
 11
1.0
 21
1.0
 12
525.0
 22
742.5
 13
0.0
 23
0.0
 14
0.5
 24
0.5
 15
0.5
 25
0.5
 16
0.0
 26
0.0
 36
1.0
 17
0.0
 27
0.0
 37
0.0
 40
1633.5
 41
1.60267857142857
 42
50.0
 43
0.0
 44
0.0
 50
0.0
 51
0.0
 71
     0
 72
   100
 73
     1
 74
     3
 75
     0
 76
     0
 77
     0
 78
     0
281
     0
 65
     1
110
0.0
120
0.0
130
0.0
111
1.0
121
0.0
131
0.0
112
0.0
122
1.0
132
0.0
 79
     0
146
0.0
  0
ENDTAB
  0
TABLE
  2
LTYPE
  5
5
330
0
100
AcDbSymbolTable
 70
     8
  0
LTYPE
  5
14
330
5
100
AcDbSymbolTableRecord
100
AcDbLinetypeTableRecord
  2
ByBlock
 70
     0
  3

 72
    65
 73
     0
 40
0.0
  0
LTYPE
  5
15
330
5
100
AcDbSymbolTableRecord
100
AcDbLinetypeTableRecord
  2
ByLayer
 70
     0
  3

 72
    65
 73
     0
 40
0.0
  0
LTYPE
  5
16
330
5
100
AcDbSymbolTableRecord
100
AcDbLinetypeTableRecord
  2
Continuous
 70
     0
  3
Solid line
 72
    65
 73
     0
 40
0.0
  0
LTYPE
  5
3F
330
5
100
AcDbSymbolTableRecord
100
AcDbLinetypeTableRecord
  2
DASHED
 70
     0
  3
Dashed
 72
    65
 73
     2
 40
15.0
 49
7.0
 74
     0
 49
-8.0
 74
     0
  0
LTYPE
  5
40
330
5
100
AcDbSymbolTableRecord
100
AcDbLinetypeTableRecord
  2
DOTTED
 70
     0
  3
Dotted
 72
    65
 73
     2
 40
1.0
 49
0.0
 74
     0
 49
-1.0
 74
     0
  0
LTYPE
  5
41
330
5
100
AcDbSymbolTableRecord
100
AcDbLinetypeTableRecord
  2
DOT_CENTER
 70
     0
  3
Dot_Center
 72
    65
 73
     4
 40
14.0
 49
12.0
 74
     0
 49
-1.0
 74
     0
 49
0.0
 74
     0
 49
-1.0
 74
     0
  0
LTYPE
  5
42
330
5
100
AcDbSymbolTableRecord
100
AcDbLinetypeTableRecord
  2
LONG_DASHED
 70
     0
  3
Long_Dashed
 72
    65
 73
     2
 40
15.0
 49
10.0
 74
     0
 49
-5.0
 74
     0
  0
LTYPE
  5
43
330
5
100
AcDbSymbolTableRecord
100
AcDbLinetypeTableRecord
  2
DASH_CENTER
 70
     0
  3
Dash_Center
 72
    65
 73
     4
 40
14.0
 49
11.0
 74
     0
 49
-1.0
 74
     0
 49
1.0
 74
     0
 49
-1.0
 74
     0
  0
LTYPE
  5
44
330
5
100
AcDbSymbolTableRecord
100
AcDbLinetypeTableRecord
  2
PHANTOM
 70
     0
  3
Phantom
 72
    65
 73
     6
 40
13.0
 49
10.0
 74
     0
 49
-1.0
 74
     0
 49
0.0
 74
     0
 49
-1.0
 74
     0
 49
0.0
 74
     0
 49
-1.0
 74
     0
  0
LTYPE
  5
45
330
5
100
AcDbSymbolTableRecord
100
AcDbLinetypeTableRecord
  2
CENTER_DASH_DASH
 70
     0
  3
Center_Dash_Dash
 72
    65
 73
     6
 40
14.0
 49
9.0
 74
     0
 49
-1.0
 74
     0
 49
1.0
 74
     0
 49
-1.0
 74
     0
 49
1.0
 74
     0
 49
-1.0
 74
     0
  0
ENDTAB
  0
TABLE
  2
LAYER
  5
2
330
0
100
AcDbSymbolTable
 70
     2
  0
LAYER
  5
10
330
2
100
AcDbSymbolTableRecord
100
AcDbLayerTableRecord
  2
0
 70
     0
 62
     7
  6
Continuous
370
    -3
390
F
  0
LAYER
  5
46
330
2
100
AcDbSymbolTableRecord
100
AcDbLayerTableRecord
  2
1
 70
     0
 62
     7
  6
Continuous
370
    -3
390
F
  0
ENDTAB
  0
TABLE
  2
STYLE
  5
3
330
0
100
AcDbSymbolTable
 70
     3
  0
STYLE
  5
11
330
3
100
AcDbSymbolTableRecord
100
AcDbTextStyleTableRecord
  2
Standard
 70
     0
 40
0.0
 41
1.0
 50
0.0
 71
     0
 42
0.2
  3
txt
  4

  0
STYLE
  5
197
330
3
100
AcDbSymbolTableRecord
100
AcDbTextStyleTableRecord
  2
CONVERTER_11
 70
     0
 40
0.0
 41
0.89
 50
0.0
 71
     0
 42
0.2
  3
MS Mincho.ttf
  4

1001
ACAD
1000
MS Mincho
1071
    32785
  0
STYLE
  5
3B4
330
3
100
AcDbSymbolTableRecord
100
AcDbTextStyleTableRecord
  2
CONVERTER_12
 70
     0
 40
0.0
 41
0.9
 50
0.0
 71
     0
 42
0.2
  3
txt.shx
  4

  0
ENDTAB
  0
TABLE
  2
VIEW
  5
6
330
0
100
AcDbSymbolTable
 70
     0
  0
ENDTAB
  0
TABLE
  2
UCS
  5
7
330
0
100
AcDbSymbolTable
 70
     0
  0
ENDTAB
  0
TABLE
  2
APPID
  5
9
330
0
100
AcDbSymbolTable
 70
     1
  0
APPID
  5
12
330
9
100
AcDbSymbolTableRecord
100
AcDbRegAppTableRecord
  2
ACAD
 70
     0
  0
ENDTAB
  0
TABLE
  2
DIMSTYLE
  5
A
330
0
100
AcDbSymbolTable
 70
    13
100
AcDbDimStyleTable
  0
DIMSTYLE
105
27
330
A
100
AcDbSymbolTableRecord
100
AcDbDimStyleTableRecord
  2
Standard
 70
     0
178
     0
340
11
  0
DIMSTYLE
105
3DA
102
{ACAD_REACTORS
330
3DB
102
}
330
A
100
AcDbSymbolTableRecord
100
AcDbDimStyleTableRecord
  2
ME10_DIM_10
 70
     0
  3
最大<>
 41
17.5
 42
0.0
 44
5.0
 73
     0
 74
     0
 77
     1
 78
     8
140
17.5
147
5.0
172
     1
173
     1
174
     1
175
     1
176
     2
177
     2
271
     2
178
     7
271
     2
340
197
  0
DIMSTYLE
105
3E5
102
{ACAD_REACTORS
330
3E6
102
}
330
A
100
AcDbSymbolTableRecord
100
AcDbDimStyleTableRecord
  2
ME10_DIM_11
 70
     0
 41
17.5
 42
0.0
 44
5.0
 73
     0
 74
     0
 77
     1
 78
     8
140
17.5
147
5.0
172
     1
173
     1
174
     1
175
     1
176
     2
177
     2
271
     2
178
     7
271
     2
340
3B4
  0
DIMSTYLE
105
3F2
102
{ACAD_REACTORS
330
3F3
102
}
330
A
100
AcDbSymbolTableRecord
100
AcDbDimStyleTableRecord
  2
ME10_DIM_12
 70
     0
  3
ロックナット対辺<>
 41
17.5
 42
0.0
 44
5.0
 73
     0
 74
     0
 77
     1
 78
     8
140
17.5
147
5.0
172
     1
173
     1
174
     1
175
     1
176
     2
177
     2
271
     2
178
     7
271
     2
340
197
  0
DIMSTYLE
105
3FF
102
{ACAD_REACTORS
330
400
102
}
330
A
100
AcDbSymbolTableRecord
100
AcDbDimStyleTableRecord
  2
ME10_DIM_13
 70
     0
 41
17.5
 42
0.0
 44
5.0
 73
     0
 74
     0
 77
     1
 78
     8
140
17.5
147
5.0
172
     1
173
     1
174
     1
175
     1
176
     2
177
     2
271
     2
178
     7
271
     2
340
3B4
  0
DIMSTYLE
105
40C
102
{ACAD_REACTORS
330
40D
102
}
330
A
100
AcDbSymbolTableRecord
100
AcDbDimStyleTableRecord
  2
ME10_DIM_14
 70
     0
  3
{\Fgdt;n}<>
 41
17.5
 42
0.0
 44
5.0
 73
     0
 74
     0
 77
     1
 78
     8
140
17.5
147
5.0
172
     1
173
     1
174
     1
175
     1
176
     2
177
     2
271
     2
178
     7
271
     2
340
3B4
  0
DIMSTYLE
105
419
102
{ACAD_REACTORS
330
41A
102
}
330
A
100
AcDbSymbolTableRecord
100
AcDbDimStyleTableRecord
  2
ME10_DIM_15
 70
     0
  3
{\Fgdt;n}<>
 41
17.5
 42
0.0
 44
5.0
 73
     0
 74
     0
 77
     1
 78
     8
140
17.5
147
5.0
172
     1
173
     1
174
     1
175
     1
176
     2
177
     2
271
     2
178
     7
271
     2
340
3B4
  0
DIMSTYLE
105
424
102
{ACAD_REACTORS
330
425
102
}
330
A
100
AcDbSymbolTableRecord
100
AcDbDimStyleTableRecord
  2
ME10_DIM_16
 70
     0
 41
17.5
 42
0.0
 44
5.0
 73
     0
 74
     0
 77
     1
 78
     8
140
17.5
147
5.0
172
     1
173
     1
174
     1
175
     1
176
     2
177
     2
271
     2
178
     7
271
     2
340
3B4
  0
DIMSTYLE
105
431
102
{ACAD_REACTORS
330
432
102
}
330
A
100
AcDbSymbolTableRecord
100
AcDbDimStyleTableRecord
  2
ME10_DIM_17
 70
     0
 41
17.5
 42
0.0
 44
5.0
 73
     0
 74
     0
 77
     1
 78
     8
140
17.5
147
5.0
172
     1
173
     1
174
     1
175
     1
176
     2
177
     2
271
     2
178
     7
271
     2
340
3B4
  0
DIMSTYLE
105
43C
102
{ACAD_REACTORS
330
43D
102
}
330
A
100
AcDbSymbolTableRecord
100
AcDbDimStyleTableRecord
  2
ME10_DIM_18
 70
     0
 41
17.5
 42
0.0
 44
5.0
 73
     0
 74
     0
 77
     1
 78
     8
140
17.5
147
5.0
172
     1
173
     1
174
     1
175
     1
176
     2
177
     2
271
     2
178
     7
271
     2
340
3B4
  0
DIMSTYLE
105
447
102
{ACAD_REACTORS
330
448
102
}
330
A
100
AcDbSymbolTableRecord
100
AcDbDimStyleTableRecord
  2
ME10_DIM_19
 70
     0
 41
17.5
 42
0.0
 44
5.0
 73
     0
 74
     0
 77
     1
 78
     8
140
17.5
147
5.0
172
     1
173
     1
174
     1
175
     1
176
     2
177
     2
271
     2
178
     7
271
     2
340
3B4
  0
DIMSTYLE
105
452
102
{ACAD_REACTORS
330
453
102
}
330
A
100
AcDbSymbolTableRecord
100
AcDbDimStyleTableRecord
  2
ME10_DIM_20
 70
     0
  3
銅管直管時<>
 41
17.5
 42
0.0
 44
5.0
 73
     0
 74
     0
 77
     1
 78
     8
140
17.5
147
5.0
172
     1
173
     1
174
     1
175
     1
176
     2
177
     2
271
     2
178
     7
271
     2
340
197
  0
DIMSTYLE
105
45F
102
{ACAD_REACTORS
330
460
102
}
330
A
100
AcDbSymbolTableRecord
100
AcDbDimStyleTableRecord
  2
ME10_DIM_21
 70
     0
 41
17.5
 42
0.0
 44
5.0
 73
     0
 74
     0
 77
     1
 78
     8
140
17.5
147
5.0
172
     1
173
     1
174
     1
175
     1
176
     2
177
     2
271
     2
178
     7
271
     2
340
3B4
  0
ENDTAB
  0
TABLE
  2
BLOCK_RECORD
  5
1
330
0
100
AcDbSymbolTable
 70
    32
  0
BLOCK_RECORD
  5
1F
330
1
100
AcDbSymbolTableRecord
100
AcDbBlockTableRecord
  2
*Model_Space
340
22
  0
BLOCK_RECORD
  5
1B
330
1
100
AcDbSymbolTableRecord
100
AcDbBlockTableRecord
  2
*Paper_Space
340
1E
  0
BLOCK_RECORD
  5
23
330
1
100
AcDbSymbolTableRecord
100
AcDbBlockTableRecord
  2
*Paper_Space0
340
26
  0
BLOCK_RECORD
  5
47
330
1
100
AcDbSymbolTableRecord
100
AcDbBlockTableRecord
  2
37-398-_表面処理_
340
0
102
{BLKREFS
331
84
102
}
  0
BLOCK_RECORD
  5
4A
330
1
100
AcDbSymbolTableRecord
100
AcDbBlockTableRecord
  2
37-398-M11
340
0
102
{BLKREFS
331
85
102
}
  0
BLOCK_RECORD
  5
4D
330
1
100
AcDbSymbolTableRecord
100
AcDbBlockTableRecord
  2
37-399-_表面処理_
340
0
102
{BLKREFS
331
86
102
}
  0
BLOCK_RECORD
  5
50
330
1
100
AcDbSymbolTableRecord
100
AcDbBlockTableRecord
  2
92-64A
340
0
102
{BLKREFS
331
87
102
}
  0
BLOCK_RECORD
  5
53
330
1
100
AcDbSymbolTableRecord
100
AcDbBlockTableRecord
  2
98-126
340
0
102
{BLKREFS
331
88
102
}
  0
BLOCK_RECORD
  5
56
330
1
100
AcDbSymbolTableRecord
100
AcDbBlockTableRecord
  2
35-18
340
0
102
{BLKREFS
331
5D
102
}
  0
BLOCK_RECORD
  5
59
330
1
100
AcDbSymbolTableRecord
100
AcDbBlockTableRecord
  2
32-116-C2
340
0
102
{BLKREFS
331
5E
102
}
  0
BLOCK_RECORD
  5
5C
330
1
100
AcDbSymbolTableRecord
100
AcDbBlockTableRecord
  2
T90-240
340
0
102
{BLKREFS
331
89
102
}
  0
BLOCK_RECORD
  5
61
330
1
100
AcDbSymbolTableRecord
100
AcDbBlockTableRecord
  2
開示A4
340
0
102
{BLKREFS
331
8A
102
}
  0
BLOCK_RECORD
  5
64
330
1
100
AcDbSymbolTableRecord
100
AcDbBlockTableRecord
  2
30-359-_表面処理_
340
0
102
{BLKREFS
331
8B
102
}
  0
BLOCK_RECORD
  5
67
330
1
100
AcDbSymbolTableRecord
100
AcDbBlockTableRecord
  2
30-255-_表面処理_
340
0
102
{BLKREFS
331
8C
102
}
  0
BLOCK_RECORD
  5
6A
330
1
100
AcDbSymbolTableRecord
100
AcDbBlockTableRecord
  2
84-414-2-DH5
340
0
102
{BLKREFS
331
8D
102
}
  0
BLOCK_RECORD
  5
6D
330
1
100
AcDbSymbolTableRecord
100
AcDbBlockTableRecord
  2
レバー
340
0
102
{BLKREFS
331
71
102
}
  0
BLOCK_RECORD
  5
70
330
1
100
AcDbSymbolTableRecord
100
AcDbBlockTableRecord
  2
27-22-_表面処理_
340
0
102
{BLKREFS
331
8E
102
}
  0
BLOCK_RECORD
  5
74
330
1
100
AcDbSymbolTableRecord
100
AcDbBlockTableRecord
  2
73-1-32_5-C2
340
0
102
{BLKREFS
331
8F
102
}
  0
BLOCK_RECORD
  5
77
330
1
100
AcDbSymbolTableRecord
100
AcDbBlockTableRecord
  2
32-33-32
340
0
102
{BLKREFS
331
90
102
}
  0
BLOCK_RECORD
  5
7A
330
1
100
AcDbSymbolTableRecord
100
AcDbBlockTableRecord
  2
15-33-_表面処理_
340
0
102
{BLKREFS
331
91
102
}
  0
BLOCK_RECORD
  5
7D
330
1
100
AcDbSymbolTableRecord
100
AcDbBlockTableRecord
  2
65-56-470-C2
340
0
102
{BLKREFS
331
81
102
}
  0
BLOCK_RECORD
  5
80
330
1
100
AcDbSymbolTableRecord
100
AcDbBlockTableRecord
  2
30-360X-470-C6
340
0
102
{BLKREFS
331
92
102
}
  0
BLOCK_RECORD
  5
3CF
330
1
100
AcDbSymbolTableRecord
100
AcDbBlockTableRecord
  2
*D20
340
0
  0
BLOCK_RECORD
  5
3DC
330
1
100
AcDbSymbolTableRecord
100
AcDbBlockTableRecord
  2
*D21
340
0
  0
BLOCK_RECORD
  5
3E7
330
1
100
AcDbSymbolTableRecord
100
AcDbBlockTableRecord
  2
*D22
340
0
  0
BLOCK_RECORD
  5
3F4
330
1
100
AcDbSymbolTableRecord
100
AcDbBlockTableRecord
  2
*D23
340
0
  0
BLOCK_RECORD
  5
401
330
1
100
AcDbSymbolTableRecord
100
AcDbBlockTableRecord
  2
*D24
340
0
  0
BLOCK_RECORD
  5
40E
330
1
100
AcDbSymbolTableRecord
100
AcDbBlockTableRecord
  2
*D25
340
0
  0
BLOCK_RECORD
  5
41B
330
1
100
AcDbSymbolTableRecord
100
AcDbBlockTableRecord
  2
*D26
340
0
  0
BLOCK_RECORD
  5
426
330
1
100
AcDbSymbolTableRecord
100
AcDbBlockTableRecord
  2
*D27
340
0
  0
BLOCK_RECORD
  5
433
330
1
100
AcDbSymbolTableRecord
100
AcDbBlockTableRecord
  2
*D28
340
0
  0
BLOCK_RECORD
  5
43E
330
1
100
AcDbSymbolTableRecord
100
AcDbBlockTableRecord
  2
*D29
340
0
  0
BLOCK_RECORD
  5
449
330
1
100
AcDbSymbolTableRecord
100
AcDbBlockTableRecord
  2
*D30
340
0
  0
BLOCK_RECORD
  5
454
330
1
100
AcDbSymbolTableRecord
100
AcDbBlockTableRecord
  2
*D31
340
0
  0
ENDTAB
  0
ENDSEC
  0
SECTION
  2
BLOCKS
  0
BLOCK
  5
20
330
1F
100
AcDbEntity
  8
0
100
AcDbBlockBegin
  2
*Model_Space
 70
     0
 10
0.0
 20
0.0
 30
0.0
  3
*Model_Space
  1

  0
ENDBLK
  5
21
330
1F
100
AcDbEntity
  8
0
100
AcDbBlockEnd
  0
BLOCK
  5
1C
330
1B
100
AcDbEntity
 67
     1
  8
0
100
AcDbBlockBegin
  2
*Paper_Space
 70
     0
 10
0.0
 20
0.0
 30
0.0
  3
*Paper_Space
  1

  0
ENDBLK
  5
1D
330
1B
100
AcDbEntity
 67
     1
  8
0
100
AcDbBlockEnd
  0
BLOCK
  5
24
330
23
100
AcDbEntity
  8
0
100
AcDbBlockBegin
  2
*Paper_Space0
 70
     0
 10
0.0
 20
0.0
 30
0.0
  3
*Paper_Space0
  1

  0
ENDBLK
  5
25
330
23
100
AcDbEntity
  8
0
100
AcDbBlockEnd
  0
BLOCK
  5
48
330
47
100
AcDbEntity
  8
0
100
AcDbBlockBegin
  2
37-398-_表面処理_
 70
     0
 10
351.0891018826861
 20
1485.504478413392
 30
0.0
  3
37-398-_表面処理_
  1

  0
LINE
  5
93
330
47
100
AcDbEntity
  8
1
  6
Continuous
 62
     7
100
AcDbLine
 10
302.9406918859083
 20
918.504478341777
 30
0.0
 11
294.5911746825042
 21
918.504478341774
 31
0.0
  0
LINE
  5
94
330
47
100
AcDbEntity
  8
1
  6
Continuous
 62
     7
100
AcDbLine
 10
748.2778432418401
 20
919.528156753781
 30
0.0
 11
747.8417193917884
 21
919.702479686701
 31
0.0
  0
LINE
  5
95
330
47
100
AcDbEntity
  8
1
  6
Continuous
 62
     7
100
AcDbLine
 10
715.3417193917884
 20
919.702479686701
 30
0.0
 11
714.905595541737
 21
919.528156753781
 31
0.0
  0
LINE
  5
96
330
47
100
AcDbEntity
  8
1
  6
Continuous
 62
     7
100
AcDbLine
 10
720.591174682504
 20
924.9024796867011
 30
0.0
 11
720.591174682504
 21
924.9024796867011
 31
0.0
  0
LINE
  5
97
330
47
100
AcDbEntity
  8
1
  6
Continuous
 62
     7
100
AcDbLine
 10
748.5922641010733
 20
918.502479686713
 30
0.0
 11
714.591174682504
 21
918.5024796867
 31
0.0
  0
LINE
  5
98
330
47
100
AcDbEntity
  8
1
  6
Continuous
 62
     7
100
AcDbLine
 10
748.5922641010733
 20
918.502479686713
 30
0.0
 11
748.5922641010733
 21
918.5024796867
 31
0.0
  0
LINE
  5
99
330
47
100
AcDbEntity
  8
1
  6
Continuous
 62
     7
100
AcDbLine
 10
714.591174682504
 20
918.5024796867
 30
0.0
 11
714.591174682504
 21
919.063871946241
 31
0.0
  0
LINE
  5
9A
330
47
100
AcDbEntity
  8
1
  6
Continuous
 62
     7
100
AcDbLine
 10
294.5911746825042
 20
918.504478341774
 30
0.0
 11
294.5911746825042
 21
919.065870601328
 31
0.0
  0
LINE
  5
9B
330
47
100
AcDbEntity
  8
1
  6
Continuous
 62
     7
100
AcDbLine
 10
328.5922641010733
 20
918.504478341788
 30
0.0
 11
320.3472664052131
 21
918.504478341786
 31
0.0
  0
LINE
  5
9C
330
47
100
AcDbEntity
  8
1
  6
Continuous
 62
     7
100
AcDbLine
 10
295.3417193917886
 20
919.704478341788
 30
0.0
 11
294.9055955417372
 21
919.530155408868
 31
0.0
  0
LINE
  5
9D
330
47
100
AcDbEntity
  8
1
  6
Continuous
 62
     7
100
AcDbLine
 10
328.2778432418401
 20
919.530155408868
 30
0.0
 11
327.8417193917886
 21
919.704478341788
 31
0.0
  0
LINE
  5
9E
330
47
100
AcDbEntity
  8
1
  6
Continuous
 62
     7
100
AcDbLine
 10
328.5922641010733
 20
919.065870601328
 30
0.0
 11
328.5922641010733
 21
918.504478341788
 31
0.0
  0
LINE
  5
9F
330
47
100
AcDbEntity
  8
1
  6
Continuous
 62
     7
100
AcDbLine
 10
748.592264101073
 20
919.063871946242
 30
0.0
 11
748.5922641010733
 21
918.502479686713
 31
0.0
  0
LINE
  5
A0
330
47
100
AcDbEntity
  8
1
  6
Continuous
 62
     7
100
AcDbLine
 10
744.6541114223003
 20
927.977707527645
 30
0.0
 11
745.4417193917888
 21
922.802479686697
 31
0.0
  0
ARC
  5
A1
330
47
100
AcDbEntity
  8
1
  6
Continuous
 62
     7
100
AcDbCircle
 10
713.7846550638261
 20
923.3869811018981
 30
0.0
 40
4.000000000000183
100
AcDbArc
 50
292.9088405879428
 51
350.175801061167
  0
ARC
  5
A2
330
47
100
AcDbEntity
  8
1
  6
Continuous
 62
     7
100
AcDbCircle
 10
749.3987837197509
 20
923.3869811018981
 30
0.0
 40
4.000000000000321
100
AcDbArc
 50
188.4024513625583
 51
247.0911594120542
  0
ARC
  5
A3
330
47
100
AcDbEntity
  8
1
  6
Continuous
 62
     7
100
AcDbCircle
 10
329.3987837197511
 20
923.388979756985
 30
0.0
 40
4.000000000000346
100
AcDbArc
 50
189.8532549013346
 51
247.0911594120542
  0
ARC
  5
A4
330
47
100
AcDbEntity
  8
1
  6
Continuous
 62
     7
100
AcDbCircle
 10
293.7846550638263
 20
923.388979756985
 30
0.0
 40
4.000000000000205
100
AcDbArc
 50
292.9088405879435
 51
350.1467450986644
  0
ARC
  5
A5
330
47
100
AcDbEntity
  8
1
  6
Continuous
 62
     7
100
AcDbCircle
 10
744.1598030297688
 20
927.90247968429
 30
0.0
 40
0.500000015342888
100
AcDbArc
 50
8.65333491748752
 51
9.13307836087495
  0
ARC
  5
A6
330
47
100
AcDbEntity
  8
1
  6
Continuous
 62
     7
100
AcDbCircle
 10
748.092264101073
 20
919.063871946241
 30
0.0
 40
0.5
100
AcDbArc
 50
0.00000000011725
 51
68.21293075090837
  0
ARC
  5
A7
330
47
100
AcDbEntity
  8
1
  6
Continuous
 62
     7
100
AcDbCircle
 10
715.091174682504
 20
919.063871946241
 30
0.0
 40
0.5000000000002978
100
AcDbArc
 50
111.7870692490916
 51
180.0
  0
ARC
  5
A8
330
47
100
AcDbEntity
  8
1
  6
Continuous
 62
     7
100
AcDbCircle
 10
295.0911746825042
 20
919.065870601328
 30
0.0
 40
0.5000000000002766
100
AcDbArc
 50
111.7870692490856
 51
180.0
  0
ARC
  5
A9
330
47
100
AcDbEntity
  8
1
  6
Continuous
 62
     7
100
AcDbCircle
 10
328.0922641010733
 20
919.065870601328
 30
0.0
 40
0.5
100
AcDbArc
 50
0.0
 51
68.21293075092652
  0
ENDBLK
  5
49
330
47
100
AcDbEntity
  8
0
100
AcDbBlockEnd
  0
BLOCK
  5
4B
330
4A
100
AcDbEntity
  8
0
100
AcDbBlockBegin
  2
37-398-M11
 70
     0
 10
1255.99072535688
 20
828.2590240416001
 30
0.0
  3
37-398-M11
  1

  0
LINE
  5
AA
330
4A
100
AcDbEntity
  8
1
  6
Continuous
 62
     7
100
AcDbLine
 10
111.9932581359976
 20
855.7241295108595
 30
0.0
 11
89.49271342669772
 21
855.7241295108595
 31
0.0
  0
ENDBLK
  5
4C
330
4A
100
AcDbEntity
  8
0
100
AcDbBlockEnd
  0
BLOCK
  5
4E
330
4D
100
AcDbEntity
  8
0
100
AcDbBlockBegin
  2
37-399-_表面処理_
 70
     0
 10
294.0917193173386
 20
692.2
 30
0.0
  3
37-399-_表面処理_
  1

  0
LINE
  5
AB
330
4D
100
AcDbEntity
  8
1
  6
Continuous
 62
     7
100
AcDbLine
 10
294.0917193173386
 20
692.2
 30
0.0
 11
294.0917193173386
 21
792.2
 31
0.0
  0
LINE
  5
AC
330
4D
100
AcDbEntity
  8
1
  6
Continuous
 62
     7
100
AcDbLine
 10
329.0917194663387
 20
692.2
 30
0.0
 11
294.0917193173386
 21
692.2
 31
0.0
  0
LINE
  5
AD
330
4D
100
AcDbEntity
  8
1
  6
Continuous
 62
     7
100
AcDbLine
 10
329.0917194663387
 20
792.2
 30
0.0
 11
329.0917194663387
 21
692.2
 31
0.0
  0
LINE
  5
AE
330
4D
100
AcDbEntity
  8
1
  6
Continuous
 62
     7
100
AcDbLine
 10
294.0917193173386
 20
792.2
 30
0.0
 11
329.0917194663387
 21
792.2
 31
0.0
  0
LINE
  5
AF
330
4D
100
AcDbEntity
  8
1
  6
Continuous
 62
     7
100
AcDbLine
 10
714.0913514628681
 20
692.2
 30
0.0
 11
714.0913514628681
 21
792.2000040532001
 31
0.0
  0
LINE
  5
B0
330
4D
100
AcDbEntity
  8
1
  6
Continuous
 62
     7
100
AcDbLine
 10
749.0913516118683
 20
692.2
 30
0.0
 11
714.0913514628681
 21
692.2
 31
0.0
  0
LINE
  5
B1
330
4D
100
AcDbEntity
  8
1
  6
Continuous
 62
     7
100
AcDbLine
 10
749.0913516118683
 20
792.2000040532001
 30
0.0
 11
749.0913516118683
 21
692.2
 31
0.0
  0
LINE
  5
B2
330
4D
100
AcDbEntity
  8
1
  6
Continuous
 62
     7
100
AcDbLine
 10
714.0913514628681
 20
792.2000040532001
 30
0.0
 11
749.0913516118683
 21
792.2000040532001
 31
0.0
  0
ENDBLK
  5
4F
330
4D
100
AcDbEntity
  8
0
100
AcDbBlockEnd
  0
BLOCK
  5
51
330
50
100
AcDbEntity
  8
0
100
AcDbBlockBegin
  2
92-64A
 70
     0
 10
660.6791750130905
 20
537.4741394466233
 30
0.0
  3
92-64A
  1

  0
LINE
  5
B3
330
50
100
AcDbEntity
  8
0
  6
Continuous
 62
     7
100
AcDbLine
 10
286.5917193918019
 20
672.2000000000006
 30
0.0
 11
286.5917193918019
 21
670.7000000000004
 31
0.0
  0
LINE
  5
B4
330
50
100
AcDbEntity
  8
0
  6
Continuous
 62
     7
100
AcDbLine
 10
336.5917193918019
 20
670.7000000000004
 30
0.0
 11
336.5917193918019
 21
672.2000000000006
 31
0.0
  0
LINE
  5
B5
330
50
100
AcDbEntity
  8
1
  6
Continuous
 62
     7
100
AcDbLine
 10
286.5917193918019
 20
672.2000000000006
 30
0.0
 11
336.5917193918019
 21
672.2000000000006
 31
0.0
  0
LINE
  5
B6
330
50
100
AcDbEntity
  8
1
  6
Continuous
 62
     7
100
AcDbLine
 10
286.6029719241913
 20
670.7000000000004
 30
0.0
 11
336.5917193918019
 21
670.7000000000004
 31
0.0
  0
LINE
  5
B7
330
50
100
AcDbEntity
  8
1
  6
Continuous
 62
     7
100
AcDbLine
 10
706.6029719241914
 20
670.7000000000004
 30
0.0
 11
756.591719391802
 21
670.7000000000004
 31
0.0
  0
LINE
  5
B8
330
50
100
AcDbEntity
  8
1
  6
Continuous
 62
     7
100
AcDbLine
 10
706.591719391802
 20
672.2000000000006
 30
0.0
 11
756.591719391802
 21
672.2000000000006
 31
0.0
  0
LINE
  5
B9
330
50
100
AcDbEntity
  8
0
  6
Continuous
 62
     7
100
AcDbLine
 10
756.591719391802
 20
670.7000000000004
 30
0.0
 11
756.591719391802
 21
672.2000000000006
 31
0.0
  0
LINE
  5
BA
330
50
100
AcDbEntity
  8
0
  6
Continuous
 62
     7
100
AcDbLine
 10
706.591719391802
 20
672.2000000000006
 30
0.0
 11
706.591719391802
 21
670.7000000000004
 31
0.0
  0
ENDBLK
  5
52
330
50
100
AcDbEntity
  8
0
100
AcDbBlockEnd
  0
BLOCK
  5
54
330
53
100
AcDbEntity
  8
0
100
AcDbBlockBegin
  2
98-126
 70
     0
 10
1356.330860123493
 20
1301.647727390118
 30
0.0
  3
98-126
  1

  0
LINE
  5
BB
330
53
100
AcDbEntity
  8
1
  6
Continuous
 62
     7
100
AcDbLine
 10
331.8417193918019
 20
687.6999999999998
 30
0.0
 11
291.3417193918019
 21
687.7000000000002
 31
0.0
  0
LINE
  5
BC
330
53
100
AcDbEntity
  8
1
  6
Continuous
 62
     7
100
AcDbLine
 10
291.3417193918019
 20
687.7000000000002
 30
0.0
 11
291.3417193918019
 21
690.2
 31
0.0
  0
LINE
  5
BD
330
53
100
AcDbEntity
  8
1
  6
Continuous
 62
     7
100
AcDbLine
 10
331.8417193918019
 20
690.2
 30
0.0
 11
331.8417193918019
 21
687.6999999999998
 31
0.0
  0
LINE
  5
BE
330
53
100
AcDbEntity
  8
1
  6
Continuous
 62
     7
100
AcDbLine
 10
751.841719391802
 20
690.2
 30
0.0
 11
751.841719391802
 21
687.6999999999998
 31
0.0
  0
LINE
  5
BF
330
53
100
AcDbEntity
  8
1
  6
Continuous
 62
     7
100
AcDbLine
 10
711.341719391802
 20
687.7000000000002
 30
0.0
 11
711.341719391802
 21
690.2
 31
0.0
  0
LINE
  5
C0
330
53
100
AcDbEntity
  8
1
  6
Continuous
 62
     7
100
AcDbLine
 10
751.841719391802
 20
687.6999999999998
 30
0.0
 11
711.341719391802
 21
687.7000000000002
 31
0.0
  0
ENDBLK
  5
55
330
53
100
AcDbEntity
  8
0
100
AcDbBlockEnd
  0
BLOCK
  5
57
330
56
100
AcDbEntity
  8
0
100
AcDbBlockBegin
  2
35-18
 70
     0
 10
1191.034849246653
 20
475.3708632020213
 30
0.0
  3
35-18
  1

  0
LINE
  5
C1
330
56
100
AcDbEntity
  8
1
  6
Continuous
 62
     7
100
AcDbLine
 10
323.5622821402659
 20
286.7785420656549
 30
0.0
 11
316.4417193917883
 21
286.7785420656549
 31
0.0
  0
LINE
  5
C2
330
56
100
AcDbEntity
  8
1
  6
Continuous
 62
     7
100
AcDbLine
 10
320.0917193917886
 20
300.7785420656549
 30
0.0
 11
311.5917193917886
 21
300.7785420656549
 31
0.0
  0
LINE
  5
C3
330
56
100
AcDbEntity
  8
1
  6
Continuous
 62
     2
100
AcDbLine
 10
319.5507193917885
 20
300.7785420656549
 30
0.0
 11
319.5507193917885
 21
303.7352086140684
 31
0.0
  0
LINE
  5
C4
330
56
100
AcDbEntity
  8
1
  6
Continuous
 62
     7
100
AcDbLine
 10
311.5917193917886
 20
298.7785420656549
 30
0.0
 11
323.5622821402659
 21
298.7785420656549
 31
0.0
  0
LINE
  5
C5
330
56
100
AcDbEntity
  8
1
  6
Continuous
 62
     7
100
AcDbLine
 10
320.0917193917886
 20
303.7352086140684
 30
0.0
 11
320.0917193917886
 21
298.7785420656549
 31
0.0
  0
LINE
  5
C6
330
56
100
AcDbEntity
  8
1
  6
Continuous
 62
     2
100
AcDbLine
 10
320.0917193917886
 20
299.8415025787602
 30
0.0
 11
319.5507193917885
 21
300.7785420656549
 31
0.0
  0
LINE
  5
C7
330
56
100
AcDbEntity
  8
1
  6
Continuous
 62
     7
100
AcDbLine
 10
316.4417193917883
 20
286.7785420656549
 30
0.0
 11
311.5917193917886
 21
286.7785420656549
 31
0.0
  0
LINE
  5
C8
330
56
100
AcDbEntity
  8
1
  6
Continuous
 62
     7
100
AcDbLine
 10
311.5917193917886
 20
286.7785420656549
 30
0.0
 11
306.7417193917883
 21
286.7785420656549
 31
0.0
  0
LINE
  5
C9
330
56
100
AcDbEntity
  8
1
  6
Continuous
 62
     2
100
AcDbLine
 10
303.6327193917881
 20
300.7785420656549
 30
0.0
 11
303.0917193917884
 21
299.8415025787602
 31
0.0
  0
LINE
  5
CA
330
56
100
AcDbEntity
  8
1
  6
Continuous
 62
     7
100
AcDbLine
 10
303.0917193917884
 20
298.7785420656549
 30
0.0
 11
303.0917193917884
 21
303.7352086140684
 31
0.0
  0
LINE
  5
CB
330
56
100
AcDbEntity
  8
1
  6
Continuous
 62
     7
100
AcDbLine
 10
299.6211566433111
 20
298.7785420656549
 30
0.0
 11
311.5917193917886
 21
298.7785420656549
 31
0.0
  0
LINE
  5
CC
330
56
100
AcDbEntity
  8
1
  6
Continuous
 62
     2
100
AcDbLine
 10
303.6327193917881
 20
303.7352086140684
 30
0.0
 11
303.6327193917881
 21
300.7785420656549
 31
0.0
  0
LINE
  5
CD
330
56
100
AcDbEntity
  8
1
  6
Continuous
 62
     7
100
AcDbLine
 10
311.5917193917886
 20
300.7785420656549
 30
0.0
 11
303.0917193917884
 21
300.7785420656549
 31
0.0
  0
LINE
  5
CE
330
56
100
AcDbEntity
  8
1
  6
Continuous
 62
     7
100
AcDbLine
 10
306.7417193917883
 20
286.7785420656549
 30
0.0
 11
299.6211566433111
 21
286.7785420656549
 31
0.0
  0
LINE
  5
CF
330
56
100
AcDbEntity
  8
1
  6
Continuous
 62
     7
100
AcDbLine
 10
725.4917193917868
 20
286.7785420656549
 30
0.0
 11
713.4917193917895
 21
286.7785420656549
 31
0.0
  0
LINE
  5
D0
330
56
100
AcDbEntity
  8
1
  6
Continuous
 62
     7
100
AcDbLine
 10
725.488494591727
 20
300.7785420656549
 30
0.0
 11
716.9884945917267
 21
300.7785420656549
 31
0.0
  0
LINE
  5
D1
330
56
100
AcDbEntity
  8
1
  6
Continuous
 62
     2
100
AcDbLine
 10
717.5294945917267
 20
303.7352086140684
 30
0.0
 11
717.5294945917267
 21
300.7785420656549
 31
0.0
  0
LINE
  5
D2
330
56
100
AcDbEntity
  8
1
  6
Continuous
 62
     7
100
AcDbLine
 10
713.4917193917895
 20
298.7785420656549
 30
0.0
 11
725.488494591727
 21
298.7785420656549
 31
0.0
  0
LINE
  5
D3
330
56
100
AcDbEntity
  8
1
  6
Continuous
 62
     7
100
AcDbLine
 10
716.9884945917267
 20
298.7785420656549
 30
0.0
 11
716.9884945917267
 21
303.7352086140684
 31
0.0
  0
LINE
  5
D4
330
56
100
AcDbEntity
  8
1
  6
Continuous
 62
     2
100
AcDbLine
 10
717.5294945917267
 20
300.7785420656549
 30
0.0
 11
716.9884945917267
 21
299.8415025787602
 31
0.0
  0
LINE
  5
D5
330
56
100
AcDbEntity
  8
1
  6
Continuous
 62
     2
100
AcDbLine
 10
733.988494591727
 20
299.8415025787602
 30
0.0
 11
733.4474945917268
 21
300.7785420656549
 31
0.0
  0
LINE
  5
D6
330
56
100
AcDbEntity
  8
1
  6
Continuous
 62
     7
100
AcDbLine
 10
733.988494591727
 20
303.7352086140684
 30
0.0
 11
733.988494591727
 21
298.7785420656549
 31
0.0
  0
LINE
  5
D7
330
56
100
AcDbEntity
  8
1
  6
Continuous
 62
     7
100
AcDbLine
 10
725.488494591727
 20
298.7785420656549
 30
0.0
 11
737.4917193917852
 21
298.7785420656549
 31
0.0
  0
LINE
  5
D8
330
56
100
AcDbEntity
  8
1
  6
Continuous
 62
     2
100
AcDbLine
 10
733.4474945917268
 20
300.7785420656549
 30
0.0
 11
733.4474945917268
 21
303.7352086140684
 31
0.0
  0
LINE
  5
D9
330
56
100
AcDbEntity
  8
1
  6
Continuous
 62
     7
100
AcDbLine
 10
733.988494591727
 20
300.7785420656549
 30
0.0
 11
725.488494591727
 21
300.7785420656549
 31
0.0
  0
LINE
  5
DA
330
56
100
AcDbEntity
  8
1
  6
Continuous
 62
     7
100
AcDbLine
 10
737.4917193917852
 20
286.7785420656549
 30
0.0
 11
725.4917193917868
 21
286.7785420656549
 31
0.0
  0
LINE
  5
DB
330
56
100
AcDbEntity
  8
1
  6
Continuous
 62
     7
100
AcDbLine
 10
713.4917193917895
 20
298.7785420656549
 30
0.0
 11
713.4917193917896
 21
294.6999999999999
 31
0.0
  0
LINE
  5
DC
330
56
100
AcDbEntity
  8
1
  6
Continuous
 62
     7
100
AcDbLine
 10
737.4917193917852
 20
298.7785420656549
 30
0.0
 11
737.4917193917852
 21
286.7785420656549
 31
0.0
  0
LINE
  5
DD
330
56
100
AcDbEntity
  8
1
  6
Continuous
 62
     7
100
AcDbLine
 10
713.4917193917896
 20
294.6999999999999
 30
0.0
 11
713.4917193917895
 21
286.7785420656549
 31
0.0
  0
ARC
  5
DE
330
56
100
AcDbEntity
  8
1
  6
Continuous
 62
     7
100
AcDbCircle
 10
311.574010920136
 20
291.1865655365148
 30
0.0
 40
4.325962428302649
100
AcDbArc
 50
270.2345428416979
 51
282.9894887311206
  0
ARC
  5
DF
330
56
100
AcDbEntity
  8
1
  6
Continuous
 62
     7
100
AcDbCircle
 10
311.5589174227681
 20
291.2519974197551
 30
0.0
 40
4.39311259588319
100
AcDbArc
 50
282.989488731166
 51
291.0659229021124
  0
ARC
  5
E0
330
56
100
AcDbEntity
  8
1
  6
Continuous
 62
     7
100
AcDbCircle
 10
311.5022612999456
 20
291.3990856050752
 30
0.0
 40
4.55073508957001
100
AcDbArc
 50
291.0659229020271
 51
296.7062519136246
  0
ARC
  5
E1
330
56
100
AcDbEntity
  8
1
  6
Continuous
 62
     7
100
AcDbCircle
 10
311.4337970817761
 20
291.5351745552055
 30
0.0
 40
4.703075338746128
100
AcDbArc
 50
296.70625191375
 51
303.3109308598096
  0
ARC
  5
E2
330
56
100
AcDbEntity
  8
1
  6
Continuous
 62
     7
100
AcDbCircle
 10
311.2849564717764
 20
291.761668551355
 30
0.0
 40
4.974097584096003
100
AcDbArc
 50
303.3109308597657
 51
308.6293150115463
  0
ARC
  5
E3
330
56
100
AcDbEntity
  8
1
  6
Continuous
 62
     7
100
AcDbCircle
 10
311.1943916955571
 20
291.8749981144539
 30
0.0
 40
5.119168492836572
100
AcDbArc
 50
308.6293150114777
 51
313.8250370141307
  0
ARC
  5
E4
330
56
100
AcDbEntity
  8
1
  6
Continuous
 62
     7
100
AcDbCircle
 10
310.9827896525165
 20
292.0954617589853
 30
0.0
 40
5.42474932204644
100
AcDbArc
 50
313.8250370141881
 51
318.8440935973284
  0
ARC
  5
E5
330
56
100
AcDbEntity
  8
1
  6
Continuous
 62
     7
100
AcDbCircle
 10
310.8569992402264
 20
292.2054120597043
 30
0.0
 40
5.591819057337926
100
AcDbArc
 50
318.8440935973824
 51
323.7415247076932
  0
ARC
  5
E6
330
56
100
AcDbEntity
  8
1
  6
Continuous
 62
     7
100
AcDbCircle
 10
310.5982633258174
 20
292.3951839367059
 30
0.0
 40
5.912689184812065
100
AcDbArc
 50
323.7415247076063
 51
328.4767095436211
  0
ARC
  5
E7
330
56
100
AcDbEntity
  8
1
  6
Continuous
 62
     7
100
AcDbCircle
 10
310.4679180052082
 20
292.4751325518959
 30
0.0
 40
6.06559988973067
100
AcDbArc
 50
328.4767095436039
 51
333.1178845086283
  0
ARC
  5
E8
330
56
100
AcDbEntity
  8
1
  6
Continuous
 62
     7
100
AcDbCircle
 10
310.1902138394981
 20
292.6159109390958
 30
0.0
 40
6.376948822527253
100
AcDbArc
 50
333.1178845086118
 51
337.6147948227897
  0
ARC
  5
E9
330
56
100
AcDbEntity
  8
1
  6
Continuous
 62
     7
100
AcDbCircle
 10
309.7320886310773
 20
292.7638035280453
 30
0.0
 40
6.858920039792824
100
AcDbArc
 50
343.8246760880567
 51
355.8168315728502
  0
ARC
  5
EA
330
56
100
AcDbEntity
  8
1
  6
Continuous
 62
     7
100
AcDbCircle
 10
309.5665454841657
 20
292.7759113646355
 30
0.0
 40
7.02490538010346
100
AcDbArc
 50
355.8168315728347
 51
10.09801881296326
  0
ARC
  5
EB
330
56
100
AcDbEntity
  8
1
  6
Continuous
 62
     7
100
AcDbCircle
 10
309.9306685833579
 20
292.8407585771751
 30
0.0
 40
6.655052987461653
100
AcDbArc
 50
10.09801881294956
 51
17.13916899220655
  0
ARC
  5
EC
330
56
100
AcDbEntity
  8
1
  6
Continuous
 62
     7
100
AcDbCircle
 10
309.9010584293466
 20
292.8316271415954
 30
0.0
 40
6.686039183359969
100
AcDbArc
 50
17.13916899221343
 51
22.309550632002
  0
ARC
  5
ED
330
56
100
AcDbEntity
  8
1
  6
Continuous
 62
     7
100
AcDbCircle
 10
310.3789565036969
 20
293.0277204926554
 30
0.0
 40
6.169474403497263
100
AcDbArc
 50
22.30955063197463
 51
26.95777003634388
  0
ARC
  5
EE
330
56
100
AcDbEntity
  8
1
  6
Continuous
 62
     7
100
AcDbCircle
 10
310.2894417528952
 20
292.9821935235451
 30
0.0
 40
6.26990146920908
100
AcDbArc
 50
26.95777003640842
 51
31.44763591124843
  0
ARC
  5
EF
330
56
100
AcDbEntity
  8
1
  6
Continuous
 62
     7
100
AcDbCircle
 10
310.7502883771159
 20
293.2640216792154
 30
0.0
 40
5.729710095359393
100
AcDbArc
 50
31.44763591121684
 51
36.3341298375055
  0
ARC
  5
F0
330
56
100
AcDbEntity
  8
1
  6
Continuous
 62
     7
100
AcDbCircle
 10
310.7178458514062
 20
293.2401605086455
 30
0.0
 40
5.769982578954854
100
AcDbArc
 50
36.33412983754088
 51
41.08025185767215
  0
ARC
  5
F1
330
56
100
AcDbEntity
  8
1
  6
Continuous
 62
     7
100
AcDbCircle
 10
311.0976683384178
 20
293.5712703126158
 30
0.0
 40
5.266098838472882
100
AcDbArc
 50
41.08025185761761
 51
46.25061753093883
  0
ARC
  5
F2
330
56
100
AcDbEntity
  8
1
  6
Continuous
 62
     7
100
AcDbCircle
 10
311.0931615488954
 20
293.5665623572843
 30
0.0
 40
5.272616199540249
100
AcDbArc
 50
46.25061753092191
 51
51.29503044336794
  0
ARC
  5
F3
330
56
100
AcDbEntity
  8
1
  6
Continuous
 62
     7
100
AcDbCircle
 10
311.365807949638
 20
293.9068202097845
 30
0.0
 40
4.836598463628741
100
AcDbArc
 50
51.29503044338595
 51
56.76472368529273
  0
ARC
  5
F4
330
56
100
AcDbEntity
  8
1
  6
Continuous
 62
     7
100
AcDbCircle
 10
311.3667093314872
 20
293.9081958163845
 30
0.0
 40
4.834953841249697
100
AcDbArc
 50
56.76472368536524
 51
62.11842739235604
  0
ARC
  5
F5
330
56
100
AcDbEntity
  8
1
  6
Continuous
 62
     7
100
AcDbCircle
 10
311.5246454566587
 20
294.2067173765555
 30
0.0
 40
4.497227707346872
100
AcDbArc
 50
62.11842739235859
 51
68.97709546416696
  0
ARC
  5
F6
330
56
100
AcDbEntity
  8
1
  6
Continuous
 62
     7
100
AcDbCircle
 10
311.5410830188158
 20
294.2494875776339
 30
0.0
 40
4.451407585684363
100
AcDbArc
 50
68.97709546411242
 51
75.80904192828758
  0
ARC
  5
F7
330
56
100
AcDbEntity
  8
1
  6
Continuous
 62
     7
100
AcDbCircle
 10
311.5914805644753
 20
294.4487889894047
 30
0.0
 40
4.245832866068381
100
AcDbArc
 50
75.80904192829341
 51
89.99677712299962
  0
ARC
  5
F8
330
56
100
AcDbEntity
  8
1
  6
Continuous
 62
     7
100
AcDbCircle
 10
310.0669969353659
 20
292.666660064044
 30
0.0
 40
6.510207515101423
100
AcDbArc
 50
337.614794822862
 51
343.8246760880648
  0
ARC
  5
F9
330
56
100
AcDbEntity
  8
1
  6
Continuous
 62
     7
100
AcDbCircle
 10
306.5917193917886
 20
292.7785420656549
 30
0.0
 40
18.00000000000013
100
AcDbArc
 50
340.5287793655095
 51
19.47122063449055
  0
ARC
  5
FA
330
56
100
AcDbEntity
  8
1
  6
Continuous
 62
     7
100
AcDbCircle
 10
316.5917193917884
 20
292.7785420656549
 30
0.0
 40
18.00000000000013
100
AcDbArc
 50
160.5287793655095
 51
199.4712206344905
  0
ARC
  5
FB
330
56
100
AcDbEntity
  8
1
  6
Continuous
 62
     7
100
AcDbCircle
 10
313.1164418482114
 20
292.666660064044
 30
0.0
 40
6.510207515097956
100
AcDbArc
 50
196.1753239119331
 51
202.3852051771374
  0
ARC
  5
FC
330
56
100
AcDbEntity
  8
1
  6
Continuous
 62
     7
100
AcDbCircle
 10
311.5919582191017
 20
294.4487889894047
 30
0.0
 40
4.245832866066316
100
AcDbArc
 50
90.00322287699731
 51
104.1909580717051
  0
ARC
  5
FD
330
56
100
AcDbEntity
  8
1
  6
Continuous
 62
     7
100
AcDbCircle
 10
311.6423557647614
 20
294.2494875776339
 30
0.0
 40
4.451407585677468
100
AcDbArc
 50
104.1909580717138
 51
111.0229045358903
  0
ARC
  5
FE
330
56
100
AcDbEntity
  8
1
  6
Continuous
 62
     7
100
AcDbCircle
 10
311.6587933269185
 20
294.2067173765555
 30
0.0
 40
4.497227707355532
100
AcDbArc
 50
111.0229045358351
 51
117.881572607642
  0
ARC
  5
FF
330
56
100
AcDbEntity
  8
1
  6
Continuous
 62
     7
100
AcDbCircle
 10
311.81672945209
 20
293.9081958163845
 30
0.0
 40
4.834953841249988
100
AcDbArc
 50
117.8815726076446
 51
123.2352763146365
  0
ARC
  5
100
330
56
100
AcDbEntity
  8
1
  6
Continuous
 62
     7
100
AcDbCircle
 10
311.817630833939
 20
293.9068202097845
 30
0.0
 40
4.836598463624587
100
AcDbArc
 50
123.2352763147073
 51
128.704969556613
  0
ARC
  5
101
330
56
100
AcDbEntity
  8
1
  6
Continuous
 62
     7
100
AcDbCircle
 10
312.0902772346816
 20
293.5665623572843
 30
0.0
 40
5.272616199536209
100
AcDbArc
 50
128.7049695566311
 51
133.7493824690767
  0
ARC
  5
102
330
56
100
AcDbEntity
  8
1
  6
Continuous
 62
     7
100
AcDbCircle
 10
312.0857704451593
 20
293.5712703126158
 30
0.0
 40
5.266098838478952
100
AcDbArc
 50
133.7493824690607
 51
138.9197481423832
  0
ARC
  5
103
330
56
100
AcDbEntity
  8
1
  6
Continuous
 62
     7
100
AcDbCircle
 10
312.4655929321708
 20
293.2401605086455
 30
0.0
 40
5.769982578957677
100
AcDbArc
 50
138.9197481423279
 51
143.6658701624578
  0
ARC
  5
104
330
56
100
AcDbEntity
  8
1
  6
Continuous
 62
     7
100
AcDbCircle
 10
312.4331504064611
 20
293.2640216792154
 30
0.0
 40
5.729710095353698
100
AcDbArc
 50
143.6658701624932
 51
148.5523640887823
  0
ARC
  5
105
330
56
100
AcDbEntity
  8
1
  6
Continuous
 62
     7
100
AcDbCircle
 10
312.893997030682
 20
292.9821935235451
 30
0.0
 40
6.26990146921142
100
AcDbArc
 50
148.5523640887516
 51
153.0422299635918
  0
ARC
  5
106
330
56
100
AcDbEntity
  8
1
  6
Continuous
 62
     7
100
AcDbCircle
 10
312.8044822798803
 20
293.0277204926554
 30
0.0
 40
6.169474403497435
100
AcDbArc
 50
153.0422299636564
 51
157.6904493680254
  0
ARC
  5
107
330
56
100
AcDbEntity
  8
1
  6
Continuous
 62
     7
100
AcDbCircle
 10
313.2823803542304
 20
292.8316271415954
 30
0.0
 40
6.686039183362751
100
AcDbArc
 50
157.6904493679974
 51
162.8608310077859
  0
ARC
  5
108
330
56
100
AcDbEntity
  8
1
  6
Continuous
 62
     7
100
AcDbCircle
 10
313.2527702002191
 20
292.8407585771751
 30
0.0
 40
6.655052987460274
100
AcDbArc
 50
162.8608310077927
 51
169.9019811870511
  0
ARC
  5
109
330
56
100
AcDbEntity
  8
1
  6
Continuous
 62
     7
100
AcDbCircle
 10
313.6168932994113
 20
292.7759113646355
 30
0.0
 40
7.024905380099258
100
AcDbArc
 50
169.9019811870373
 51
184.1831684271656
  0
ARC
  5
10A
330
56
100
AcDbEntity
  8
1
  6
Continuous
 62
     7
100
AcDbCircle
 10
313.4513501524997
 20
292.7638035280453
 30
0.0
 40
6.858920039797745
100
AcDbArc
 50
184.18316842715
 51
196.1753239119422
  0
ARC
  5
10B
330
56
100
AcDbEntity
  8
1
  6
Continuous
 62
     7
100
AcDbCircle
 10
312.9932249440791
 20
292.6159109390958
 30
0.0
 40
6.376948822525957
100
AcDbArc
 50
202.3852051772103
 51
206.8821154913879
  0
ARC
  5
10C
330
56
100
AcDbEntity
  8
1
  6
Continuous
 62
     7
100
AcDbCircle
 10
312.7155207783688
 20
292.4751325518959
 30
0.0
 40
6.065599889727698
100
AcDbArc
 50
206.8821154913722
 51
211.5232904563969
  0
ARC
  5
10D
330
56
100
AcDbEntity
  8
1
  6
Continuous
 62
     7
100
AcDbCircle
 10
312.5851754577597
 20
292.3951839367059
 30
0.0
 40
5.912689184822453
100
AcDbArc
 50
211.5232904563792
 51
216.2584752923943
  0
ARC
  5
10E
330
56
100
AcDbEntity
  8
1
  6
Continuous
 62
     7
100
AcDbCircle
 10
312.3264395433506
 20
292.2054120597043
 30
0.0
 40
5.591819057336977
100
AcDbArc
 50
216.2584752923082
 51
221.1559064026175
  0
ARC
  5
10F
330
56
100
AcDbEntity
  8
1
  6
Continuous
 62
     7
100
AcDbCircle
 10
312.2006491310605
 20
292.0954617589853
 30
0.0
 40
5.424749322040634
100
AcDbArc
 50
221.1559064026716
 51
226.1749629858132
  0
ARC
  5
110
330
56
100
AcDbEntity
  8
1
  6
Continuous
 62
     7
100
AcDbCircle
 10
311.9890470880199
 20
291.8749981144539
 30
0.0
 40
5.119168492838983
100
AcDbArc
 50
226.1749629858706
 51
231.3706849885233
  0
ARC
  5
111
330
56
100
AcDbEntity
  8
1
  6
Continuous
 62
     7
100
AcDbCircle
 10
311.8984823118007
 20
291.761668551355
 30
0.0
 40
4.974097584092474
100
AcDbArc
 50
231.3706849884537
 51
236.6890691402332
  0
ARC
  5
112
330
56
100
AcDbEntity
  8
1
  6
Continuous
 62
     7
100
AcDbCircle
 10
311.7496417018009
 20
291.5351745552055
 30
0.0
 40
4.703075338741781
100
AcDbArc
 50
236.6890691401904
 51
243.29374808625
  0
ARC
  5
113
330
56
100
AcDbEntity
  8
1
  6
Continuous
 62
     7
100
AcDbCircle
 10
311.6811774836316
 20
291.3990856050752
 30
0.0
 40
4.550735089576349
100
AcDbArc
 50
243.2937480863735
 51
248.9340770979709
  0
ARC
  5
114
330
56
100
AcDbEntity
  8
1
  6
Continuous
 62
     7
100
AcDbCircle
 10
311.6245213608089
 20
291.2519974197551
 30
0.0
 40
4.393112595889611
100
AcDbArc
 50
248.9340770978876
 51
257.0105112688383
  0
ARC
  5
115
330
56
100
AcDbEntity
  8
1
  6
Continuous
 62
     7
100
AcDbCircle
 10
311.6094278634411
 20
291.1865655365148
 30
0.0
 40
4.325962428294606
100
AcDbArc
 50
257.0105112688824
 51
269.7654571583037
  0
SPLINE
  5
116
330
56
100
AcDbEntity
  8
1
  6
Continuous
 62
     7
100
AcDbSpline
210
0.0
220
0.0
230
1.0
 70
    11
 71
     3
 72
    79
 73
    75
 74
    73
 42
0.000000001
 43
0.0000000001
 44
0.00000001
 40
0.0
 40
0.0
 40
0.0
 40
0.0
 40
0.2225000690942616
 40
0.4454529018399392
 40
0.6952882065579253
 40
0.9454455518454382
 40
1.239993946652651
 40
1.534557112328311
 40
1.880264551311748
 40
2.226011325368249
 40
2.622017349745021
 40
3.018033708789052
 40
3.458642982997318
 40
3.899263362110794
 40
4.375669331264964
 40
4.852080848189195
 40
5.353408544684106
 40
5.854739607891807
 40
6.368837099456313
 40
6.882935579596444
 40
7.397034059738505
 40
7.911131551317451
 40
8.412462614559054
 40
8.913790311096935
 40
9.390201828063168
 40
9.866607797260155
 40
10.30722817640316
 40
10.74783745062919
 40
11.14385380967843
 40
11.53985983402657
 40
11.88560660800725
 40
12.23131404684682
 40
12.52587721231036
 40
12.82042560677406
 40
13.07058295158343
 40
13.32041825549929
 40
13.54337108619552
 40
13.76587115992831
 40
13.98837123365595
 40
14.21132406434674
 40
14.46115936826232
 40
14.71131671307184
 40
15.00586510753955
 40
15.30042827300632
 40
15.64613571184383
 40
15.99188248582303
 40
16.38788851017139
 40
16.78390486922038
 40
17.22451414344562
 40
17.66513452258837
 40
18.14154049178597
 40
18.6179520087523
 40
19.11927970528912
 40
19.62061076853049
 40
20.13470826011033
 40
20.6488067402522
 40
21.1629052203922
 40
21.67700271195754
 40
22.17833377516495
 40
22.67966147165886
 40
23.15607298858313
 40
23.63247895773797
 40
24.07309933685123
 40
24.51370861105868
 40
24.90972497010243
 40
25.30573099447945
 40
25.65147776853446
 40
25.99718520751586
 40
26.29174837319474
 40
26.58629676800596
 40
26.8364541132936
 40
27.08628941801132
 40
27.30924225075172
 40
27.53174231984069
 40
27.53174231984069
 40
27.53174231984069
 40
27.53174231984069
 10
321.9840242371976
 20
298.694621848754
 30
0.0
 10
322.0582919485331
 20
298.6898327117101
 30
0.0
 10
322.2069784992003
 20
298.6802447044711
 30
0.0
 10
322.4293019989772
 20
298.6074569488483
 30
0.0
 10
322.6428561574525
 20
298.4937631928891
 30
0.0
 10
322.8542006151436
 20
298.3325865032862
 30
0.0
 10
323.0532021703046
 20
298.1349208545761
 30
0.0
 10
323.2481018958237
 20
297.8911471258793
 30
0.0
 10
323.4288311959904
 20
297.6160753258586
 30
0.0
 10
323.6023455741367
 20
297.2974601893277
 30
0.0
 10
323.7603567692799
 20
296.9523606765645
 30
0.0
 10
323.9076877236191
 20
296.5685754416887
 30
0.0
 10
324.0383950414223
 20
296.1631673325842
 30
0.0
 10
324.155301651014
 20
295.7258138030377
 30
0.0
 10
324.254674650688
 20
295.2719251424463
 30
0.0
 10
324.3377610473029
 20
294.79424736357
 30
0.0
 10
324.4026368948009
 20
294.3053767197703
 30
0.0
 10
324.4495167865333
 20
293.8018487440328
 30
0.0
 10
324.4777671283261
 20
293.2926700378572
 30
0.0
 10
324.4871527949333
 20
292.7785420756509
 30
0.0
 10
324.4777671280681
 20
292.2644141134533
 30
0.0
 10
324.4495167860252
 20
291.7552354072488
 30
0.0
 10
324.4026368940558
 20
291.251707431596
 30
0.0
 10
324.3377610463434
 20
290.7628367874458
 30
0.0
 10
324.2546746495406
 20
290.2851590097654
 30
0.0
 10
324.1553016497149
 20
289.8312703448277
 30
0.0
 10
324.0383950400108
 20
289.3939168303206
 30
0.0
 10
323.9076877221468
 20
288.9885086678936
 30
0.0
 10
323.7603567678086
 20
288.6047236128848
 30
0.0
 10
323.6023455727303
 20
288.2596234721731
 30
0.0
 10
323.4288311947292
 20
287.9410103973846
 30
0.0
 10
323.2481018947914
 20
287.6659315009658
 30
0.0
 10
323.0532021696212
 20
287.4221805549458
 30
0.0
 10
322.8542006149321
 20
287.2244370167174
 30
0.0
 10
322.6428561578939
 20
287.0635095959705
 30
0.0
 10
322.4293020007188
 20
286.9489524550895
 30
0.0
 10
322.2069785004018
 20
286.8790569954773
 30
0.0
 10
321.9840242371993
 20
286.8541733744972
 30
0.0
 10
321.7610699739989
 20
286.8790569954784
 30
0.0
 10
321.5387464736855
 20
286.9489524550903
 30
0.0
 10
321.3251923165125
 20
287.0635095959713
 30
0.0
 10
321.1138478594734
 20
287.2244370167188
 30
0.0
 10
320.914846304779
 20
287.4221805549451
 30
0.0
 10
320.7199465796036
 20
287.6659315009635
 30
0.0
 10
320.5392172796684
 20
287.9410103973841
 30
0.0
 10
320.3657029016725
 20
288.2596234721741
 30
0.0
 10
320.2076917065943
 20
288.6047236128851
 30
0.0
 10
320.0603607522548
 20
288.9885086678933
 30
0.0
 10
319.9296534343939
 20
289.3939168303207
 30
0.0
 10
319.8127468246918
 20
289.8312703448282
 30
0.0
 10
319.7133738248621
 20
290.2851590097651
 30
0.0
 10
319.6302874280574
 20
290.7628367874452
 30
0.0
 10
319.5654115803542
 20
291.2517074315963
 30
0.0
 10
319.5185316883914
 20
291.7552354072494
 30
0.0
 10
319.4902813463348
 20
292.2644141134531
 30
0.0
 10
319.4808956794581
 20
292.7785420756509
 30
0.0
 10
319.4902813460769
 20
293.2926700378574
 30
0.0
 10
319.5185316878832
 20
293.8018487440322
 30
0.0
 10
319.5654115796092
 20
294.3053767197701
 30
0.0
 10
319.6302874270975
 20
294.7942473635705
 30
0.0
 10
319.7133738237147
 20
295.2719251424467
 30
0.0
 10
319.8127468233927
 20
295.7258138030371
 30
0.0
 10
319.929653432982
 20
296.1631673325842
 30
0.0
 10
320.0603607507825
 20
296.5685754416891
 30
0.0
 10
320.207691705123
 20
296.9523606765641
 30
0.0
 10
320.3657029002661
 20
297.2974601893267
 30
0.0
 10
320.5392172784072
 20
297.6160753258592
 30
0.0
 10
320.7199465785715
 20
297.8911471258816
 30
0.0
 10
320.9148463040955
 20
298.1349208545768
 30
0.0
 10
321.1138478592618
 20
298.332586503285
 30
0.0
 10
321.3251923169541
 20
298.4937631928881
 30
0.0
 10
321.5387464754271
 20
298.6074569488477
 30
0.0
 10
321.7610699752003
 20
298.6802447044699
 30
0.0
 10
321.909756525864
 20
298.6898327117097
 30
0.0
 10
321.9840242371976
 20
298.694621848754
 30
0.0
 11
321.9840242371976
 21
298.694621848754
 31
0.0
 11
322.2052681205677
 21
298.6710119583412
 31
0.0
 11
322.4181446813672
 21
298.6047433034948
 31
0.0
 11
322.6390909517634
 21
298.4881224446353
 31
0.0
 11
322.8390745955184
 21
298.3378385818144
 31
0.0
 11
323.0489832379204
 21
298.131205770878
 31
0.0
 11
323.2340242371976
 21
297.9020174486343
 31
0.0
 11
323.4247218952078
 21
297.6136634361538
 31
0.0
 11
323.5909932614158
 21
297.3105221085446
 31
0.0
 11
323.756523520395
 21
296.9507714939794
 31
0.0
 11
323.8991353449964
 21
296.5813248481557
 31
0.0
 11
324.034819544867
 21
296.1621276028945
 31
0.0
 11
324.1490877466678
 21
295.7365819572043
 31
0.0
 11
324.2512971837036
 21
295.2712692897947
 31
0.0
 11
324.3332557891664
 21
294.801960520994
 31
0.0
 11
324.3993895093281
 21
294.3050140547081
 31
0.0
 11
324.446043619737
 21
293.8058585389247
 31
0.0
 11
324.4745837020619
 21
293.2925538588894
 31
0.0
 11
324.4840242371976
 21
292.7785420656549
 31
0.0
 11
324.4745837020616
 21
292.264530272425
 31
0.0
 11
324.446043619737
 21
291.7512255923942
 31
0.0
 11
324.3993895093281
 21
291.2520700766063
 31
0.0
 11
324.3332557891664
 21
290.7551236103157
 31
0.0
 11
324.2512971837043
 21
290.2858148415147
 31
0.0
 11
324.1490877466678
 21
289.8205021741053
 31
0.0
 11
324.0348195448662
 21
289.3949565284209
 31
0.0
 11
323.8991353449964
 21
288.975759283165
 31
0.0
 11
323.7565235203952
 21
288.6063126373357
 31
0.0
 11
323.5909932614158
 21
288.2465620227652
 31
0.0
 11
323.4247218952078
 21
287.9434206951563
 31
0.0
 11
323.2340242371976
 21
287.6550666826754
 31
0.0
 11
323.0489832379211
 21
287.4258783604302
 31
0.0
 11
322.8390745955184
 21
287.2192455494954
 31
0.0
 11
322.639090951763
 21
287.0689616866821
 31
0.0
 11
322.4181446813672
 21
286.9523408278258
 31
0.0
 11
322.205268120567
 21
286.8860721729732
 31
0.0
 11
321.9840242371976
 21
286.8624622825558
 31
0.0
 11
321.7627803538335
 21
286.8860721729741
 31
0.0
 11
321.5499037930387
 21
286.9523408278258
 31
0.0
 11
321.3289575226436
 21
287.0689616866827
 31
0.0
 11
321.1289738788875
 21
287.2192455494954
 31
0.0
 11
320.9190652364789
 21
287.4258783604299
 31
0.0
 11
320.7340242371976
 21
287.6550666826754
 31
0.0
 11
320.5433265791902
 21
287.9434206951557
 31
0.0
 11
320.3770552129864
 21
288.2465620227652
 31
0.0
 11
320.2115249540075
 21
288.6063126373361
 31
0.0
 11
320.0689131294058
 21
288.975759283165
 31
0.0
 11
319.9332289295382
 21
289.3949565284208
 31
0.0
 11
319.818960727738
 21
289.8205021741053
 31
0.0
 11
319.7167512906987
 21
290.2858148415147
 31
0.0
 11
319.634792685236
 21
290.7551236103157
 31
0.0
 11
319.5686589650815
 21
291.2520700766062
 31
0.0
 11
319.5220048546763
 21
291.7512255923942
 31
0.0
 11
319.4934647723417
 21
292.2645302724253
 31
0.0
 11
319.4840242371976
 21
292.7785420656549
 31
0.0
 11
319.4934647723414
 21
293.2925538588891
 31
0.0
 11
319.5220048546763
 21
293.8058585389247
 31
0.0
 11
319.5686589650815
 21
294.3050140547082
 31
0.0
 11
319.634792685236
 21
294.801960520994
 31
0.0
 11
319.7167512906993
 21
295.2712692897946
 31
0.0
 11
319.818960727738
 21
295.7365819572043
 31
0.0
 11
319.9332289295373
 21
296.1621276028947
 31
0.0
 11
320.0689131294058
 21
296.5813248481557
 31
0.0
 11
320.2115249540076
 21
296.9507714939789
 31
0.0
 11
320.3770552129864
 21
297.3105221085446
 31
0.0
 11
320.5433265791903
 21
297.6136634361544
 31
0.0
 11
320.7340242371976
 21
297.9020174486343
 31
0.0
 11
320.9190652364796
 21
298.1312057708782
 31
0.0
 11
321.1289738788875
 21
298.3378385818144
 31
0.0
 11
321.3289575226432
 21
298.4881224446347
 31
0.0
 11
321.5499037930387
 21
298.6047433034948
 31
0.0
 11
321.7627803538329
 21
298.6710119583404
 31
0.0
 11
321.9840242371976
 21
298.694621848754
 31
0.0
  0
SPLINE
  5
117
330
56
100
AcDbEntity
  8
1
  6
Continuous
 62
     7
100
AcDbSpline
210
0.0
220
0.0
230
1.0
 70
    11
 71
     3
 72
    79
 73
    75
 74
    73
 42
0.000000001
 43
0.0000000001
 44
0.00000001
 40
0.0
 40
0.0
 40
0.0
 40
0.0
 40
0.2225000690942051
 40
0.4454529018398285
 40
0.6952882065578146
 40
0.9454455518453275
 40
1.23999394665254
 40
1.534557112328272
 40
1.88026455131163
 40
2.226011325368153
 40
2.622017349744949
 40
3.01803370878896
 40
3.458642982997227
 40
3.899263362110732
 40
4.375669331264901
 40
4.852080848189132
 40
5.353408544684043
 40
5.854739607891744
 40
6.36883709945625
 40
6.882935579596381
 40
7.397034059738443
 40
7.911131551317389
 40
8.412462614558992
 40
8.913790311096873
 40
9.390201828063152
 40
9.866607797260096
 40
10.30722817640311
 40
10.74783745062916
 40
11.14385380967843
 40
11.53985983402654
 40
11.88560660800717
 40
12.23131404684674
 40
12.52587721231028
 40
12.82042560677406
 40
13.07058295158347
 40
13.32041825549929
 40
13.54337108619551
 40
13.76587115992819
 40
13.98837123365582
 40
14.21132406434674
 40
14.46115936826229
 40
14.71131671307185
 40
15.00586510753956
 40
15.30042827300625
 40
15.64613571184375
 40
15.99188248582288
 40
16.38788851017127
 40
16.78390486922029
 40
17.22451414344551
 40
17.6651345225883
 40
18.1415404917859
 40
18.61795200875223
 40
19.11927970528905
 40
19.62061076853042
 40
20.13470826011026
 40
20.64880674025213
 40
21.16290522039212
 40
21.67700271195747
 40
22.17833377516488
 40
22.67966147165879
 40
23.15607298858307
 40
23.63247895773789
 40
24.07309933685115
 40
24.5137086110586
 40
24.9097249701024
 40
25.30573099447944
 40
25.65147776853441
 40
25.99718520751575
 40
26.29174837319463
 40
26.58629676800577
 40
26.83645411329336
 40
27.08628941801113
 40
27.30924225075153
 40
27.53174231984062
 40
27.53174231984062
 40
27.53174231984062
 40
27.53174231984062
 10
301.1994145463794
 20
298.694621848754
 30
0.0
 10
301.125146835044
 20
298.6898327117101
 30
0.0
 10
300.9764602843766
 20
298.6802447044711
 30
0.0
 10
300.7541367845998
 20
298.6074569488483
 30
0.0
 10
300.5405826261247
 20
298.4937631928892
 30
0.0
 10
300.3292381684335
 20
298.3325865032861
 30
0.0
 10
300.1302366132725
 20
298.134920854576
 30
0.0
 10
299.9353368877535
 20
297.8911471258795
 30
0.0
 10
299.7546075875865
 20
297.6160753258586
 30
0.0
 10
299.5810932094405
 20
297.2974601893278
 30
0.0
 10
299.4230820142971
 20
296.9523606765644
 30
0.0
 10
299.2757510599581
 20
296.5685754416887
 30
0.0
 10
299.1450437421548
 20
296.1631673325842
 30
0.0
 10
299.028137132563
 20
295.7258138030377
 30
0.0
 10
298.928764132889
 20
295.2719251424464
 30
0.0
 10
298.845677736274
 20
294.79424736357
 30
0.0
 10
298.7808018887761
 20
294.3053767197704
 30
0.0
 10
298.7339219970437
 20
293.8018487440328
 30
0.0
 10
298.7056716552509
 20
293.2926700378571
 30
0.0
 10
298.6962859886439
 20
292.7785420756509
 30
0.0
 10
298.7056716555088
 20
292.2644141134533
 30
0.0
 10
298.7339219975518
 20
291.7552354072488
 30
0.0
 10
298.7808018895212
 20
291.251707431596
 30
0.0
 10
298.8456777372337
 20
290.7628367874457
 30
0.0
 10
298.9287641340363
 20
290.2851590097654
 30
0.0
 10
299.0281371338621
 20
289.8312703448277
 30
0.0
 10
299.1450437435664
 20
289.3939168303206
 30
0.0
 10
299.2757510614302
 20
288.9885086678936
 30
0.0
 10
299.4230820157687
 20
288.6047236128848
 30
0.0
 10
299.5810932108467
 20
288.2596234721731
 30
0.0
 10
299.7546075888478
 20
287.9410103973846
 30
0.0
 10
299.9353368887855
 20
287.6659315009658
 30
0.0
 10
300.1302366139559
 20
287.4221805549458
 30
0.0
 10
300.329238168645
 20
287.2244370167174
 30
0.0
 10
300.5405826256832
 20
287.0635095959705
 30
0.0
 10
300.7541367828583
 20
286.9489524550895
 30
0.0
 10
300.9764602831755
 20
286.8790569954774
 30
0.0
 10
301.1994145463777
 20
286.8541733744973
 30
0.0
 10
301.4223688095781
 20
286.8790569954783
 30
0.0
 10
301.6446923098916
 20
286.9489524550903
 30
0.0
 10
301.8582464670645
 20
287.0635095959713
 30
0.0
 10
302.0695909241038
 20
287.2244370167186
 30
0.0
 10
302.2685924787981
 20
287.4221805549451
 30
0.0
 10
302.4634922039734
 20
287.6659315009636
 30
0.0
 10
302.6442215039085
 20
287.9410103973841
 30
0.0
 10
302.8177358819042
 20
288.2596234721742
 30
0.0
 10
302.9757470769826
 20
288.6047236128851
 30
0.0
 10
303.1230780313222
 20
288.9885086678933
 30
0.0
 10
303.2537853491833
 20
289.3939168303206
 30
0.0
 10
303.3706919588851
 20
289.8312703448282
 30
0.0
 10
303.470064958715
 20
290.2851590097652
 30
0.0
 10
303.5531513555197
 20
290.7628367874451
 30
0.0
 10
303.6180272032228
 20
291.2517074315963
 30
0.0
 10
303.6649070951856
 20
291.7552354072494
 30
0.0
 10
303.6931574372421
 20
292.2644141134531
 30
0.0
 10
303.7025431041188
 20
292.7785420756509
 30
0.0
 10
303.6931574375002
 20
293.2926700378574
 30
0.0
 10
303.6649070956937
 20
293.8018487440322
 30
0.0
 10
303.6180272039679
 20
294.3053767197701
 30
0.0
 10
303.5531513564794
 20
294.7942473635707
 30
0.0
 10
303.4700649598623
 20
295.2719251424466
 30
0.0
 10
303.3706919601842
 20
295.7258138030371
 30
0.0
 10
303.2537853505951
 20
296.1631673325843
 30
0.0
 10
303.1230780327944
 20
296.5685754416891
 30
0.0
 10
302.9757470784539
 20
296.9523606765641
 30
0.0
 10
302.8177358833107
 20
297.2974601893267
 30
0.0
 10
302.6442215051696
 20
297.616075325859
 30
0.0
 10
302.4634922050055
 20
297.8911471258817
 30
0.0
 10
302.2685924794815
 20
298.1349208545767
 30
0.0
 10
302.0695909243153
 20
298.3325865032849
 30
0.0
 10
301.8582464666231
 20
298.4937631928882
 30
0.0
 10
301.64469230815
 20
298.6074569488477
 30
0.0
 10
301.4223688083768
 20
298.6802447044699
 30
0.0
 10
301.2736822577131
 20
298.6898327117097
 30
0.0
 10
301.1994145463794
 20
298.694621848754
 30
0.0
 11
301.1994145463794
 21
298.694621848754
 31
0.0
 11
300.9781706630093
 21
298.6710119583412
 31
0.0
 11
300.7652941022099
 21
298.6047433034948
 31
0.0
 11
300.5443478318138
 21
298.4881224446353
 31
0.0
 11
300.3443641880587
 21
298.3378385818144
 31
0.0
 11
300.1344555456567
 21
298.131205770878
 31
0.0
 11
299.9494145463794
 21
297.9020174486343
 31
0.0
 11
299.7587168883693
 21
297.6136634361539
 31
0.0
 11
299.5924455221613
 21
297.3105221085446
 31
0.0
 11
299.426915263182
 21
296.9507714939794
 31
0.0
 11
299.2843034385807
 21
296.5813248481557
 31
0.0
 11
299.1486192387101
 21
296.1621276028945
 31
0.0
 11
299.0343510369092
 21
295.7365819572043
 31
0.0
 11
298.9321415998734
 21
295.2712692897947
 31
0.0
 11
298.8501829944106
 21
294.801960520994
 31
0.0
 11
298.7840492742489
 21
294.3050140547081
 31
0.0
 11
298.73739516384
 21
293.8058585389247
 31
0.0
 11
298.7088550815151
 21
293.2925538588894
 31
0.0
 11
298.6994145463794
 21
292.7785420656549
 31
0.0
 11
298.7088550815154
 21
292.264530272425
 31
0.0
 11
298.73739516384
 21
291.7512255923942
 31
0.0
 11
298.7840492742489
 21
291.2520700766063
 31
0.0
 11
298.8501829944106
 21
290.7551236103157
 31
0.0
 11
298.9321415998727
 21
290.2858148415147
 31
0.0
 11
299.0343510369092
 21
289.8205021741053
 31
0.0
 11
299.1486192387109
 21
289.3949565284209
 31
0.0
 11
299.2843034385807
 21
288.975759283165
 31
0.0
 11
299.426915263182
 21
288.6063126373357
 31
0.0
 11
299.5924455221613
 21
288.2465620227652
 31
0.0
 11
299.7587168883692
 21
287.9434206951563
 31
0.0
 11
299.9494145463794
 21
287.6550666826754
 31
0.0
 11
300.1344555456559
 21
287.4258783604302
 31
0.0
 11
300.3443641880587
 21
287.2192455494954
 31
0.0
 11
300.5443478318142
 21
287.0689616866821
 31
0.0
 11
300.7652941022099
 21
286.9523408278258
 31
0.0
 11
300.9781706630101
 21
286.8860721729732
 31
0.0
 11
301.1994145463794
 21
286.8624622825558
 31
0.0
 11
301.4206584297435
 21
286.886072172974
 31
0.0
 11
301.6335349905384
 21
286.9523408278258
 31
0.0
 11
301.8544812609335
 21
287.0689616866826
 31
0.0
 11
302.0544649046896
 21
287.2192455494954
 31
0.0
 11
302.2643735470982
 21
287.4258783604299
 31
0.0
 11
302.4494145463794
 21
287.6550666826754
 31
0.0
 11
302.6401122043866
 21
287.9434206951557
 31
0.0
 11
302.8063835705904
 21
288.2465620227652
 31
0.0
 11
302.9719138295694
 21
288.6063126373361
 31
0.0
 11
303.1145256541712
 21
288.975759283165
 31
0.0
 11
303.2502098540389
 21
289.3949565284208
 31
0.0
 11
303.364478055839
 21
289.8205021741053
 31
0.0
 11
303.4666874928783
 21
290.2858148415147
 31
0.0
 11
303.548646098341
 21
290.7551236103157
 31
0.0
 11
303.6147798184955
 21
291.2520700766062
 31
0.0
 11
303.6614339289007
 21
291.7512255923942
 31
0.0
 11
303.6899740112353
 21
292.2645302724253
 31
0.0
 11
303.6994145463794
 21
292.7785420656549
 31
0.0
 11
303.6899740112356
 21
293.2925538588891
 31
0.0
 11
303.6614339289007
 21
293.8058585389247
 31
0.0
 11
303.6147798184955
 21
294.3050140547082
 31
0.0
 11
303.548646098341
 21
294.801960520994
 31
0.0
 11
303.4666874928776
 21
295.2712692897946
 31
0.0
 11
303.364478055839
 21
295.7365819572043
 31
0.0
 11
303.2502098540397
 21
296.1621276028947
 31
0.0
 11
303.1145256541712
 21
296.5813248481557
 31
0.0
 11
302.9719138295693
 21
296.9507714939789
 31
0.0
 11
302.8063835705904
 21
297.3105221085446
 31
0.0
 11
302.6401122043866
 21
297.6136634361544
 31
0.0
 11
302.4494145463794
 21
297.9020174486343
 31
0.0
 11
302.2643735470974
 21
298.1312057708782
 31
0.0
 11
302.0544649046896
 21
298.3378385818144
 31
0.0
 11
301.854481260934
 21
298.4881224446347
 31
0.0
 11
301.6335349905384
 21
298.6047433034948
 31
0.0
 11
301.4206584297442
 21
298.6710119583404
 31
0.0
 11
301.1994145463794
 21
298.694621848754
 31
0.0
  0
SPLINE
  5
118
330
56
100
AcDbEntity
  8
1
  6
Continuous
 62
     7
100
AcDbSpline
210
0.0
220
0.0
230
1.0
 70
    11
 71
     3
 72
    79
 73
    75
 74
    73
 42
0.000000001
 43
0.0000000001
 44
0.00000001
 40
0.0
 40
0.0
 40
0.0
 40
0.0
 40
0.3840904972706656
 40
0.7680482159497899
 40
1.165594404044893
 40
1.562931463944774
 40
1.980235353029858
 40
2.397320515395158
 40
2.83767560489424
 40
3.27784300277535
 40
3.741506292416218
 40
4.20502607674752
 40
4.689598155922079
 40
5.174069747158073
 40
5.675055359956682
 40
6.175978112650736
 40
6.687394598361216
 40
7.198780983883164
 40
7.713762195432379
 40
8.228743406977385
 40
8.740129792486353
 40
9.251546278174246
 40
9.752469030835316
 40
10.25345464358781
 40
10.73792623476351
 40
11.22249831385851
 40
11.6860180980903
 40
12.1496813876022
 40
12.58984878532583
 40
13.03020387462265
 40
13.44728903674023
 40
13.86459292550053
 40
14.26192998496819
 40
14.65947617236779
 40
15.04343388922285
 40
15.42752439459615
 40
15.80678202830402
 40
16.18603966201063
 40
16.57013016738022
 40
16.95408788422965
 40
17.35163407162132
 40
17.74897113107949
 40
18.16627501982891
 40
18.58336018193478
 40
19.0237152712185
 40
19.46388266892885
 40
19.92754595842676
 40
20.39106574264451
 40
20.87563782172512
 40
21.36010941288692
 40
21.86109502562538
 40
22.36201777827286
 40
22.87343426394722
 40
23.38482064944307
 40
23.89980186097505
 40
24.41478307251165
 40
24.92616945802128
 40
25.43758594371944
 40
25.93850869640166
 40
26.43949430918821
 40
26.92396590041225
 40
27.40853797957417
 40
27.87205776389209
 40
28.33572105351744
 40
28.77588845138016
 40
29.2162435408544
 40
29.63332870318446
 40
30.05063259220999
 40
30.44796965199304
 40
30.84551583978822
 40
31.22947355715009
 40
31.61356406327882
 40
31.99282169888235
 40
32.37207932458765
 40
32.37207932458765
 40
32.37207932458765
 40
32.37207932458765
 10
731.8702880310097
 20
298.6717715042605
 30
0.0
 10
731.9969712310821
 20
298.6522006388834
 30
0.0
 10
732.2502938385273
 20
298.6130656808639
 30
0.0
 10
732.6222798987835
 20
298.4964229067041
 30
0.0
 10
732.983718550944
 20
298.3406839332125
 30
0.0
 10
733.3352542867897
 20
298.1398082269968
 30
0.0
 10
733.6697535348012
 20
297.9005487549049
 30
0.0
 10
733.989762623045
 20
297.6200399660181
 30
0.0
 10
734.2877938992156
 20
297.3057395629903
 30
0.0
 10
734.5667506726854
 20
296.9544375696953
 30
0.0
 10
734.8199196634491
 20
296.5748177387266
 30
0.0
 10
735.0496831671369
 20
296.1636229782308
 30
0.0
 10
735.2507831826823
 20
295.7300238339883
 30
0.0
 10
735.4247041175138
 20
295.2714941577119
 30
0.0
 10
735.5678847419113
 20
294.7967624909709
 30
0.0
 10
735.6809675131657
 20
294.3047859172785
 30
0.0
 10
735.7619545451364
 20
293.8030080977832
 30
0.0
 10
735.8110039108252
 20
293.2924153740096
 30
0.0
 10
735.8272866458401
 20
292.7785420755136
 30
0.0
 10
735.8110039109756
 20
292.2646687770039
 30
0.0
 10
735.7619545454347
 20
291.7540760532684
 30
0.0
 10
735.6809675136412
 20
291.2522982336284
 30
0.0
 10
735.5678847424945
 20
290.7603216604511
 30
0.0
 10
735.4247041185104
 20
290.2855899917958
 30
0.0
 10
735.2507831830479
 20
289.8270603224056
 30
0.0
 10
735.0496831707653
 20
289.3934611529614
 30
0.0
 10
734.8199196564453
 20
288.9822664825544
 30
0.0
 10
734.5667507055124
 20
288.602646323964
 30
0.0
 10
734.2877937918466
 20
288.2513454943225
 30
0.0
 10
733.989763025691
 20
287.9370408702248
 30
0.0
 10
733.6697521311356
 20
287.6565470445213
 30
0.0
 10
733.3352594455232
 20
287.4172332266699
 30
0.0
 10
732.9837003305705
 20
287.2165511511123
 30
0.0
 10
732.6223470854661
 20
287.0601048471219
 30
0.0
 10
732.2500525797685
 20
286.9460166005971
 30
0.0
 10
731.8727790481172
 20
286.8781298875567
 30
0.0
 10
731.4917193922466
 20
286.8546780919912
 30
0.0
 10
731.1106597363762
 20
286.8781298875412
 30
0.0
 10
730.733386204726
 20
286.9460166005664
 30
0.0
 10
730.3610916990297
 20
287.0601048470761
 30
0.0
 10
729.9997384539272
 20
287.2165511510515
 30
0.0
 10
729.6481793389768
 20
287.4172332265945
 30
0.0
 10
729.3136866533673
 20
287.6565470444318
 30
0.0
 10
728.9936757588159
 20
287.9370408701215
 30
0.0
 10
728.6956449926646
 20
288.2513454942061
 30
0.0
 10
728.4166880790042
 20
288.6026463238345
 30
0.0
 10
728.1635191280767
 20
288.9822664824122
 30
0.0
 10
727.9337556137639
 20
289.3934611528069
 30
0.0
 10
727.7326556014889
 20
289.8270603222392
 30
0.0
 10
727.5587346660352
 20
290.2855899916177
 30
0.0
 10
727.415554042061
 20
290.7603216602615
 30
0.0
 10
727.302471270925
 20
291.2522982334273
 30
0.0
 10
727.2214842391434
 20
291.7540760530554
 30
0.0
 10
727.1724348736159
 20
292.2646687767798
 30
0.0
 10
727.1561521387666
 20
292.7785420752743
 30
0.0
 10
727.1724348737962
 20
293.2924153737672
 30
0.0
 10
727.2214842395075
 20
293.8030080974907
 30
0.0
 10
727.3024712714774
 20
294.3047859171028
 30
0.0
 10
727.4155540428187
 20
294.7967624902963
 30
0.0
 10
727.5587346669894
 20
295.2714941587906
 30
0.0
 10
727.7326556027327
 20
295.7300238286425
 30
0.0
 10
727.9337556150394
 20
296.1636229962527
 30
0.0
 10
728.1635191304013
 20
296.5748176730422
 30
0.0
 10
728.4166880788024
 20
296.9544378082057
 30
0.0
 10
728.6956450028134
 20
297.3057387207929
 30
0.0
 10
728.9936757329596
 20
297.620043043681
 30
0.0
 10
729.3136867567937
 20
297.9005379367375
 30
0.0
 10
729.6481789747077
 20
298.1398478774916
 30
0.0
 10
729.9997397580269
 20
298.340543766301
 30
0.0
 10
730.3610869108918
 20
298.4969396098493
 30
0.0
 10
730.733403421382
 20
298.6112100936156
 30
0.0
 10
731.1105957510498
 20
298.6784242836927
 30
0.0
 10
731.4919548912757
 20
298.7043564137982
 30
0.0
 10
731.7441769853452
 20
298.6826331381966
 30
0.0
 10
731.8702880310097
 20
298.6717715042605
 30
0.0
 11
731.8702880310097
 21
298.6717715042605
 31
0.0
 11
732.2482847186911
 21
298.6036244533846
 31
0.0
 11
732.6155789872912
 21
298.4917385798233
 31
0.0
 11
732.9804813998494
 21
298.3339754645506
 31
0.0
 11
733.3258918364322
 21
298.1375871521935
 31
0.0
 11
733.6655278550556
 21
297.8951208441611
 31
0.0
 11
733.979587330804
 21
297.6206637833275
 31
0.0
 11
734.2829592455789
 21
297.3014803155818
 31
0.0
 11
734.5570781486438
 21
296.9570878576572
 31
0.0
 11
734.8147517747252
 21
296.5716167841217
 31
0.0
 11
735.0411869856432
 21
296.167169401031
 31
0.0
 11
735.2454503239948
 21
295.7277532105048
 31
0.0
 11
735.4175145424464
 21
295.274866218609
 31
0.0
 11
735.5624788888372
 21
294.7953123399901
 31
0.0
 11
735.6748359187968
 21
294.3071530401885
 31
0.0
 11
735.7565210275677
 21
293.8023022059176
 31
0.0
 11
735.8054538623268
 21
293.2932623126022
 31
0.0
 11
735.8218464107041
 21
292.7785420656548
 31
0.0
 11
735.8054538623267
 21
292.2638218187075
 31
0.0
 11
735.7565210275675
 21
291.7547819253922
 31
0.0
 11
735.6748359187968
 21
291.2499310911213
 31
0.0
 11
735.5624788888372
 21
290.7617717913196
 31
0.0
 11
735.4175145424464
 21
290.2822179127008
 31
0.0
 11
735.2454503239948
 21
289.8293309208051
 31
0.0
 11
735.0411869856432
 21
289.3899147302787
 31
0.0
 11
734.8147517747251
 21
288.985467347188
 31
0.0
 11
734.5570781486435
 21
288.5999962736527
 31
0.0
 11
734.2829592455786
 21
288.2556038157281
 31
0.0
 11
733.9795873308037
 21
287.9364203479824
 31
0.0
 11
733.6655278550556
 21
287.6619632871489
 31
0.0
 11
733.3258918364324
 21
287.4194969791164
 31
0.0
 11
732.9804813998494
 21
287.2231086667593
 31
0.0
 11
732.6155789872911
 21
287.0653455514865
 31
0.0
 11
732.2482847186911
 21
286.9534596779253
 31
0.0
 11
731.8702880310097
 21
286.8853126270493
 31
0.0
 11
731.4917193917827
 21
286.8624622825559
 31
0.0
 11
731.1131507525556
 21
286.8853126270493
 31
0.0
 11
730.7351540648745
 21
286.9534596779253
 31
0.0
 11
730.3678597962744
 21
287.0653455514866
 31
0.0
 11
730.0029573837163
 21
287.2231086667594
 31
0.0
 11
729.6575469471334
 21
287.4194969791164
 31
0.0
 11
729.31791092851
 21
287.6619632871489
 31
0.0
 11
729.0038514527616
 21
287.9364203479824
 31
0.0
 11
728.700479537987
 21
288.2556038157282
 31
0.0
 11
728.426360634922
 21
288.5999962736527
 31
0.0
 11
728.1686870088404
 21
288.985467347188
 31
0.0
 11
727.9422517979224
 21
289.3899147302786
 31
0.0
 11
727.7379884595708
 21
289.8293309208049
 31
0.0
 11
727.5659242411193
 21
290.2822179127007
 31
0.0
 11
727.4209598947284
 21
290.7617717913196
 31
0.0
 11
727.3086028647687
 21
291.2499310911213
 31
0.0
 11
727.2269177559979
 21
291.7547819253922
 31
0.0
 11
727.1779849212388
 21
292.2638218187076
 31
0.0
 11
727.1615923728616
 21
292.7785420656549
 31
0.0
 11
727.1779849212389
 21
293.2932623126023
 31
0.0
 11
727.2269177559981
 21
293.8023022059176
 31
0.0
 11
727.3086028647687
 21
294.3071530401885
 31
0.0
 11
727.4209598947285
 21
294.7953123399902
 31
0.0
 11
727.5659242411193
 21
295.274866218609
 31
0.0
 11
727.7379884595708
 21
295.7277532105048
 31
0.0
 11
727.9422517979224
 21
296.1671694010311
 31
0.0
 11
728.1686870088403
 21
296.5716167841219
 31
0.0
 11
728.4263606349218
 21
296.9570878576573
 31
0.0
 11
728.7004795379867
 21
297.3014803155818
 31
0.0
 11
729.0038514527614
 21
297.6206637833275
 31
0.0
 11
729.3179109285098
 21
297.8951208441611
 31
0.0
 11
729.6575469471331
 21
298.1375871521935
 31
0.0
 11
730.002957383716
 21
298.3339754645505
 31
0.0
 11
730.3678597962745
 21
298.4917385798233
 31
0.0
 11
730.7351540648747
 21
298.6036244533846
 31
0.0
 11
731.1131507525558
 21
298.6717715042605
 31
0.0
 11
731.4917193917828
 21
298.694621848754
 31
0.0
 11
731.8702880310097
 21
298.6717715042605
 31
0.0
  0
SPLINE
  5
119
330
56
100
AcDbEntity
  8
1
  6
Continuous
 62
     7
100
AcDbSpline
210
0.0
220
0.0
230
1.0
 70
    11
 71
     3
 72
    79
 73
    75
 74
    73
 42
0.000000001
 43
0.0000000001
 44
0.00000001
 40
0.0
 40
0.0
 40
0.0
 40
0.0
 40
0.3840904972705537
 40
0.768048215949678
 40
1.165594404044781
 40
1.56293146394486
 40
1.980235353029666
 40
2.397320515395137
 40
2.837675604894219
 40
3.277843002775258
 40
3.741506292416127
 40
4.205026076747429
 40
4.689598155921987
 40
5.174069747157981
 40
5.675055359956589
 40
6.175978112650694
 40
6.687394598361138
 40
7.198780983883086
 40
7.713762195432297
 40
8.228743406977296
 40
8.740129792486243
 40
9.251546278174153
 40
9.752469030835274
 40
10.2534546435878
 40
10.73792623476346
 40
11.22249831385836
 40
11.68601809809005
 40
12.14968138760207
 40
12.58984878532577
 40
13.03020387462259
 40
13.44728903674025
 40
13.86459292550075
 40
14.2619299849684
 40
14.65947617236769
 40
15.04343388922286
 40
15.42752439459593
 40
15.80678202830381
 40
16.18603966201042
 40
16.57013016738012
 40
16.95408788422955
 40
17.35163407162143
 40
17.7489711310797
 40
18.16627501982912
 40
18.5833601819349
 40
19.02371527121886
 40
19.46388266892907
 40
19.92754595842685
 40
20.39106574264461
 40
20.87563782172517
 40
21.36010941288701
 40
21.86109502562547
 40
22.36201777827293
 40
22.87343426394726
 40
23.38482064944314
 40
23.89980186097512
 40
24.41478307251173
 40
24.92616945802136
 40
25.43758594371956
 40
25.93850869640172
 40
26.43949430918827
 40
26.92396590041239
 40
27.40853797957426
 40
27.87205776389213
 40
28.33572105351754
 40
28.77588845138026
 40
29.21624354085466
 40
29.63332870318472
 40
30.05063259221025
 40
30.4479696519934
 40
30.84551583978837
 40
31.22947355715024
 40
31.61356406327909
 40
31.99282169888261
 40
32.37207932458768
 40
32.37207932458768
 40
32.37207932458768
 40
32.37207932458768
 10
719.1131507525635
 20
298.6717715042605
 30
0.0
 10
718.9864675524913
 20
298.6522006388834
 30
0.0
 10
718.733144945046
 20
298.6130656808639
 30
0.0
 10
718.3611588847895
 20
298.496422906704
 30
0.0
 10
717.999720232629
 20
298.3406839332125
 30
0.0
 10
717.6481844967839
 20
298.139808226997
 30
0.0
 10
717.3136852487723
 20
297.9005487549047
 30
0.0
 10
716.993676160528
 20
297.6200399660182
 30
0.0
 10
716.6956448843578
 20
297.3057395629904
 30
0.0
 10
716.4166881108879
 20
296.9544375696952
 30
0.0
 10
716.1635191201242
 20
296.5748177387266
 30
0.0
 10
715.9337556164367
 20
296.1636229782308
 30
0.0
 10
715.7326556008908
 20
295.7300238339882
 30
0.0
 10
715.5587346660596
 20
295.2714941577119
 30
0.0
 10
715.4155540416621
 20
294.7967624909709
 30
0.0
 10
715.3024712704073
 20
294.3047859172785
 30
0.0
 10
715.2214842384369
 20
293.803008097783
 30
0.0
 10
715.172434872748
 20
293.2924153740098
 30
0.0
 10
715.1561521377336
 20
292.7785420755135
 30
0.0
 10
715.1724348725975
 20
292.2646687770039
 30
0.0
 10
715.2214842381379
 20
291.7540760532682
 30
0.0
 10
715.3024712699321
 20
291.2522982336285
 30
0.0
 10
715.4155540410791
 20
290.760321660451
 30
0.0
 10
715.558734665063
 20
290.2855899917959
 30
0.0
 10
715.7326556005254
 20
289.8270603224057
 30
0.0
 10
715.9337556128078
 20
289.3934611529614
 30
0.0
 10
716.1635191271278
 20
288.9822664825543
 30
0.0
 10
716.4166880780606
 20
288.602646323964
 30
0.0
 10
716.6956449917266
 20
288.2513454943226
 30
0.0
 10
716.9936757578822
 20
287.9370408702248
 30
0.0
 10
717.3136866524378
 20
287.6565470445213
 30
0.0
 10
717.6481793380502
 20
287.4172332266699
 30
0.0
 10
717.9997384530033
 20
287.2165511511124
 30
0.0
 10
718.361091698107
 20
287.0601048471218
 30
0.0
 10
718.7333862038047
 20
286.9460166005972
 30
0.0
 10
719.1106597354559
 20
286.8781298875567
 30
0.0
 10
719.4917193913265
 20
286.8546780919913
 30
0.0
 10
719.8727790471967
 20
286.8781298875412
 30
0.0
 10
720.2500525788474
 20
286.9460166005664
 30
0.0
 10
720.6223470845435
 20
287.0601048470761
 30
0.0
 10
720.9837003296461
 20
287.2165511510514
 30
0.0
 10
721.3352594445967
 20
287.4172332265946
 30
0.0
 10
721.6697521302062
 20
287.6565470444318
 30
0.0
 10
721.9897630247577
 20
287.9370408701215
 30
0.0
 10
722.2877937909091
 20
288.251345494206
 30
0.0
 10
722.5667507045696
 20
288.6026463238345
 30
0.0
 10
722.8199196554963
 20
288.9822664824123
 30
0.0
 10
723.0496831698098
 20
289.393461152807
 30
0.0
 10
723.2507831820841
 20
289.8270603222392
 30
0.0
 10
723.4247041175381
 20
290.2855899916178
 30
0.0
 10
723.5678847415122
 20
290.7603216602614
 30
0.0
 10
723.6809675126483
 20
291.2522982334274
 30
0.0
 10
723.7619545444297
 20
291.7540760530554
 30
0.0
 10
723.8110039099577
 20
292.2646687767797
 30
0.0
 10
723.8272866448066
 20
292.7785420752743
 30
0.0
 10
723.8110039097776
 20
293.2924153737671
 30
0.0
 10
723.7619545440659
 20
293.8030080974907
 30
0.0
 10
723.6809675120957
 20
294.3047859171027
 30
0.0
 10
723.5678847407548
 20
294.7967624902963
 30
0.0
 10
723.4247041165842
 20
295.2714941587906
 30
0.0
 10
723.2507831808405
 20
295.7300238286423
 30
0.0
 10
723.0496831685336
 20
296.1636229962527
 30
0.0
 10
722.8199196531723
 20
296.5748176730423
 30
0.0
 10
722.5667507047708
 20
296.9544378082057
 30
0.0
 10
722.2877937807601
 20
297.3057387207929
 30
0.0
 10
721.9897630506134
 20
297.6200430436808
 30
0.0
 10
721.6697520267794
 20
297.9005379367375
 30
0.0
 10
721.3352598088654
 20
298.1398478774917
 30
0.0
 10
720.9836990255462
 20
298.340543766301
 30
0.0
 10
720.6223518726811
 20
298.4969396098493
 30
0.0
 10
720.2500353621913
 20
298.6112100936157
 30
0.0
 10
719.872843032523
 20
298.6784242836926
 30
0.0
 10
719.4914838922979
 20
298.7043564137982
 30
0.0
 10
719.2392617982282
 20
298.6826331381965
 30
0.0
 10
719.1131507525636
 20
298.6717715042605
 30
0.0
 11
719.1131507525635
 21
298.6717715042605
 31
0.0
 11
718.7351540648822
 21
298.6036244533846
 31
0.0
 11
718.3678597962821
 21
298.4917385798233
 31
0.0
 11
718.0029573837239
 21
298.3339754645506
 31
0.0
 11
717.6575469471409
 21
298.1375871521935
 31
0.0
 11
717.3179109285178
 21
297.8951208441611
 31
0.0
 11
717.0038514527693
 21
297.6206637833275
 31
0.0
 11
716.7004795379943
 21
297.3014803155818
 31
0.0
 11
716.4263606349296
 21
296.9570878576572
 31
0.0
 11
716.1686870088481
 21
296.5716167841217
 31
0.0
 11
715.9422517979301
 21
296.167169401031
 31
0.0
 11
715.7379884595786
 21
295.7277532105048
 31
0.0
 11
715.5659242411269
 21
295.274866218609
 31
0.0
 11
715.4209598947361
 21
294.7953123399901
 31
0.0
 11
715.3086028647763
 21
294.3071530401885
 31
0.0
 11
715.2269177560056
 21
293.8023022059176
 31
0.0
 11
715.1779849212465
 21
293.2932623126022
 31
0.0
 11
715.1615923728693
 21
292.7785420656548
 31
0.0
 11
715.1779849212465
 21
292.2638218187075
 31
0.0
 11
715.2269177560055
 21
291.7547819253922
 31
0.0
 11
715.3086028647763
 21
291.2499310911213
 31
0.0
 11
715.4209598947361
 21
290.7617717913196
 31
0.0
 11
715.565924241127
 21
290.2822179127008
 31
0.0
 11
715.7379884595786
 21
289.8293309208051
 31
0.0
 11
715.9422517979299
 21
289.3899147302787
 31
0.0
 11
716.1686870088478
 21
288.985467347188
 31
0.0
 11
716.4263606349296
 21
288.5999962736527
 31
0.0
 11
716.7004795379946
 21
288.2556038157281
 31
0.0
 11
717.0038514527695
 21
287.9364203479824
 31
0.0
 11
717.3179109285177
 21
287.6619632871489
 31
0.0
 11
717.6575469471411
 21
287.4194969791164
 31
0.0
 11
718.0029573837242
 21
287.2231086667593
 31
0.0
 11
718.3678597962821
 21
287.0653455514865
 31
0.0
 11
718.7351540648822
 21
286.9534596779253
 31
0.0
 11
719.1131507525633
 21
286.8853126270493
 31
0.0
 11
719.4917193917904
 21
286.8624622825559
 31
0.0
 11
719.8702880310175
 21
286.8853126270493
 31
0.0
 11
720.2482847186988
 21
286.9534596779253
 31
0.0
 11
720.6155789872988
 21
287.0653455514866
 31
0.0
 11
720.9804813998571
 21
287.2231086667594
 31
0.0
 11
721.3258918364402
 21
287.4194969791164
 31
0.0
 11
721.6655278550636
 21
287.6619632871489
 31
0.0
 11
721.9795873308118
 21
287.9364203479824
 31
0.0
 11
722.2829592455868
 21
288.2556038157282
 31
0.0
 11
722.5570781486515
 21
288.5999962736527
 31
0.0
 11
722.8147517747329
 21
288.985467347188
 31
0.0
 11
723.0411869856509
 21
289.3899147302786
 31
0.0
 11
723.2454503240024
 21
289.8293309208049
 31
0.0
 11
723.417514542454
 21
290.2822179127007
 31
0.0
 11
723.5624788888449
 21
290.7617717913196
 31
0.0
 11
723.6748359188045
 21
291.2499310911213
 31
0.0
 11
723.7565210275752
 21
291.7547819253922
 31
0.0
 11
723.8054538623345
 21
292.2638218187076
 31
0.0
 11
723.8218464107119
 21
292.7785420656549
 31
0.0
 11
723.8054538623345
 21
293.2932623126023
 31
0.0
 11
723.7565210275753
 21
293.8023022059176
 31
0.0
 11
723.6748359188045
 21
294.3071530401885
 31
0.0
 11
723.5624788888449
 21
294.7953123399902
 31
0.0
 11
723.4175145424541
 21
295.274866218609
 31
0.0
 11
723.2454503240024
 21
295.7277532105048
 31
0.0
 11
723.0411869856509
 21
296.1671694010311
 31
0.0
 11
722.8147517747332
 21
296.5716167841219
 31
0.0
 11
722.5570781486515
 21
296.9570878576573
 31
0.0
 11
722.2829592455867
 21
297.3014803155818
 31
0.0
 11
721.9795873308117
 21
297.6206637833275
 31
0.0
 11
721.6655278550633
 21
297.8951208441611
 31
0.0
 11
721.32589183644
 21
298.1375871521935
 31
0.0
 11
720.980481399857
 21
298.3339754645505
 31
0.0
 11
720.6155789872987
 21
298.4917385798233
 31
0.0
 11
720.2482847186985
 21
298.6036244533846
 31
0.0
 11
719.8702880310173
 21
298.6717715042605
 31
0.0
 11
719.4917193917903
 21
298.694621848754
 31
0.0
 11
719.1131507525636
 21
298.6717715042605
 31
0.0
  0
ENDBLK
  5
58
330
56
100
AcDbEntity
  8
0
100
AcDbBlockEnd
  0
BLOCK
  5
5A
330
59
100
AcDbEntity
  8
0
100
AcDbBlockBegin
  2
32-116-C2
 70
     0
 10
1193.038176326962
 20
492.3275297504348
 30
0.0
  3
32-116-C2
  1

  0
LINE
  5
11A
330
59
100
AcDbEntity
  8
1
  6
Continuous
 62
     7
100
AcDbLine
 10
317.960685582155
 20
314.3317967697243
 30
0.0
 11
316.1742950867444
 21
314.3317967697243
 31
0.0
  0
LINE
  5
11B
330
59
100
AcDbEntity
  8
1
  6
Continuous
 62
     7
100
AcDbLine
 10
316.1742950867444
 20
314.3317967697243
 30
0.0
 11
316.1742950867444
 21
303.8373502691894
 31
0.0
  0
LINE
  5
11C
330
59
100
AcDbEntity
  8
1
  6
Continuous
 62
     7
100
AcDbLine
 10
316.1742950867444
 20
303.8373502691894
 30
0.0
 11
317.960685582155
 21
303.8373502691894
 31
0.0
  0
LINE
  5
11D
330
59
100
AcDbEntity
  8
1
  6
Continuous
 62
     7
100
AcDbLine
 10
317.960685582155
 20
303.8373502691894
 30
0.0
 11
317.960685582155
 21
314.3317967697243
 31
0.0
  0
LINE
  5
11E
330
59
100
AcDbEntity
  8
0
  6
Continuous
 62
     7
100
AcDbLine
 10
322.5917193917887
 20
303.8373502691894
 30
0.0
 11
322.5917193917887
 21
314.3317967697243
 31
0.0
  0
LINE
  5
11F
330
59
100
AcDbEntity
  8
0
  6
Continuous
 62
     7
100
AcDbLine
 10
322.5917193917887
 20
314.3317967697243
 30
0.0
 11
318.5917193917887
 21
321.26
 31
0.0
  0
LINE
  5
120
330
59
100
AcDbEntity
  8
0
  6
Continuous
 62
     7
100
AcDbLine
 10
321.5917193917887
 20
303.26
 30
0.0
 11
322.5917193917887
 21
303.8373502691894
 31
0.0
  0
LINE
  5
121
330
59
100
AcDbEntity
  8
0
  6
Continuous
 62
     7
100
AcDbLine
 10
311.5917193917887
 20
303.26
 30
0.0
 11
321.5917193917887
 21
303.26
 31
0.0
  0
LINE
  5
122
330
59
100
AcDbEntity
  8
0
  6
Continuous
 62
     7
100
AcDbLine
 10
311.5917193917887
 20
321.26
 30
0.0
 11
318.5917193917887
 21
321.26
 31
0.0
  0
LINE
  5
123
330
59
100
AcDbEntity
  8
0
  6
Continuous
 62
     7
100
AcDbLine
 10
304.5917193917882
 20
321.26
 30
0.0
 11
311.5917193917887
 21
321.26
 31
0.0
  0
LINE
  5
124
330
59
100
AcDbEntity
  8
0
  6
Continuous
 62
     7
100
AcDbLine
 10
301.5917193917882
 20
303.26
 30
0.0
 11
311.5917193917887
 21
303.26
 31
0.0
  0
LINE
  5
125
330
59
100
AcDbEntity
  8
0
  6
Continuous
 62
     7
100
AcDbLine
 10
300.5917193917882
 20
303.8373502691894
 30
0.0
 11
301.5917193917882
 21
303.26
 31
0.0
  0
LINE
  5
126
330
59
100
AcDbEntity
  8
0
  6
Continuous
 62
     7
100
AcDbLine
 10
304.5917193917882
 20
321.26
 30
0.0
 11
300.5917193917882
 21
314.3317967697243
 31
0.0
  0
LINE
  5
127
330
59
100
AcDbEntity
  8
0
  6
Continuous
 62
     7
100
AcDbLine
 10
300.5917193917882
 20
314.3317967697243
 30
0.0
 11
300.5917193917882
 21
303.8373502691894
 31
0.0
  0
LINE
  5
128
330
59
100
AcDbEntity
  8
1
  6
Continuous
 62
     7
100
AcDbLine
 10
305.2227532014217
 20
314.3317967697243
 30
0.0
 11
305.2227532014217
 21
303.8373502691894
 31
0.0
  0
LINE
  5
129
330
59
100
AcDbEntity
  8
1
  6
Continuous
 62
     7
100
AcDbLine
 10
305.2227532014217
 20
303.8373502691894
 30
0.0
 11
307.0091436968325
 21
303.8373502691894
 31
0.0
  0
LINE
  5
12A
330
59
100
AcDbEntity
  8
1
  6
Continuous
 62
     7
100
AcDbLine
 10
307.0091436968325
 20
303.8373502691894
 30
0.0
 11
307.0091436968325
 21
314.3317967697243
 31
0.0
  0
LINE
  5
12B
330
59
100
AcDbEntity
  8
1
  6
Continuous
 62
     7
100
AcDbLine
 10
307.0091436968325
 20
314.3317967697243
 30
0.0
 11
305.2227532014217
 21
314.3317967697243
 31
0.0
  0
LINE
  5
12C
330
59
100
AcDbEntity
  8
0
  6
Continuous
 62
     7
100
AcDbLine
 10
714.4917193917863
 20
314.3317967697243
 30
0.0
 11
714.4917193917863
 21
303.8373502691894
 31
0.0
  0
LINE
  5
12D
330
59
100
AcDbEntity
  8
0
  6
Continuous
 62
     7
100
AcDbLine
 10
718.4917193917863
 20
321.26
 30
0.0
 11
714.4917193917863
 21
314.3317967697243
 31
0.0
  0
LINE
  5
12E
330
59
100
AcDbEntity
  8
0
  6
Continuous
 62
     7
100
AcDbLine
 10
714.4917193917863
 20
303.8373502691894
 30
0.0
 11
715.4917193917863
 21
303.26
 31
0.0
  0
LINE
  5
12F
330
59
100
AcDbEntity
  8
0
  6
Continuous
 62
     7
100
AcDbLine
 10
715.4917193917863
 20
303.26
 30
0.0
 11
725.4917193917868
 21
303.26
 31
0.0
  0
LINE
  5
130
330
59
100
AcDbEntity
  8
0
  6
Continuous
 62
     7
100
AcDbLine
 10
718.4917193917863
 20
321.26
 30
0.0
 11
725.4917193917868
 21
321.26
 31
0.0
  0
LINE
  5
131
330
59
100
AcDbEntity
  8
0
  6
Continuous
 62
     7
100
AcDbLine
 10
725.4917193917868
 20
321.26
 30
0.0
 11
732.4917193917868
 21
321.26
 31
0.0
  0
LINE
  5
132
330
59
100
AcDbEntity
  8
0
  6
Continuous
 62
     7
100
AcDbLine
 10
725.4917193917868
 20
303.26
 30
0.0
 11
735.4917193917868
 21
303.26
 31
0.0
  0
LINE
  5
133
330
59
100
AcDbEntity
  8
0
  6
Continuous
 62
     7
100
AcDbLine
 10
735.4917193917868
 20
303.26
 30
0.0
 11
736.4917193917868
 21
303.8373502691894
 31
0.0
  0
LINE
  5
134
330
59
100
AcDbEntity
  8
0
  6
Continuous
 62
     7
100
AcDbLine
 10
736.4917193917868
 20
314.3317967697243
 30
0.0
 11
732.4917193917868
 21
321.26
 31
0.0
  0
LINE
  5
135
330
59
100
AcDbEntity
  8
0
  6
Continuous
 62
     7
100
AcDbLine
 10
736.4917193917868
 20
303.8373502691894
 30
0.0
 11
736.4917193917868
 21
314.3317967697243
 31
0.0
  0
LINE
  5
136
330
59
100
AcDbEntity
  8
1
  6
Continuous
 62
     7
100
AcDbLine
 10
724.4603463583833
 20
314.3317967697243
 30
0.0
 11
726.5230924251896
 21
314.3317967697243
 31
0.0
  0
LINE
  5
137
330
59
100
AcDbEntity
  8
1
  6
Continuous
 62
     7
100
AcDbLine
 10
726.5230924251896
 20
314.3317967697243
 30
0.0
 11
726.5230924251896
 21
303.8373502691894
 31
0.0
  0
LINE
  5
138
330
59
100
AcDbEntity
  8
1
  6
Continuous
 62
     7
100
AcDbLine
 10
714.4917193917863
 20
314.3317967697243
 30
0.0
 11
716.5230924251894
 21
314.3317967697243
 31
0.0
  0
LINE
  5
139
330
59
100
AcDbEntity
  8
1
  6
Continuous
 62
     7
100
AcDbLine
 10
716.5230924251894
 20
314.3317967697243
 30
0.0
 11
716.5230924251894
 21
303.8373502691894
 31
0.0
  0
LINE
  5
13A
330
59
100
AcDbEntity
  8
1
  6
Continuous
 62
     7
100
AcDbLine
 10
734.460346358384
 20
314.3317967697243
 30
0.0
 11
736.4917193917868
 21
314.3317967697243
 31
0.0
  0
LINE
  5
13B
330
59
100
AcDbEntity
  8
1
  6
Continuous
 62
     7
100
AcDbLine
 10
724.4603463583833
 20
303.8373502691894
 30
0.0
 11
726.5230924251896
 21
303.8373502691894
 31
0.0
  0
LINE
  5
13C
330
59
100
AcDbEntity
  8
1
  6
Continuous
 62
     7
100
AcDbLine
 10
724.4603463583833
 20
303.8373502691894
 30
0.0
 11
724.4603463583833
 21
314.3317967697243
 31
0.0
  0
LINE
  5
13D
330
59
100
AcDbEntity
  8
1
  6
Continuous
 62
     7
100
AcDbLine
 10
734.460346358384
 20
303.8373502691894
 30
0.0
 11
736.4917193917868
 21
303.8373502691894
 31
0.0
  0
LINE
  5
13E
330
59
100
AcDbEntity
  8
1
  6
Continuous
 62
     7
100
AcDbLine
 10
734.460346358384
 20
303.8373502691894
 30
0.0
 11
734.460346358384
 21
314.3317967697243
 31
0.0
  0
LINE
  5
13F
330
59
100
AcDbEntity
  8
1
  6
Continuous
 62
     7
100
AcDbLine
 10
716.5230924251894
 20
303.8373502691894
 30
0.0
 11
714.4917193917863
 21
303.8373502691894
 31
0.0
  0
ARC
  5
140
330
59
100
AcDbEntity
  8
1
  6
Continuous
 62
     7
100
AcDbCircle
 10
311.5917193917887
 20
321.7352086140684
 30
0.0
 40
18.47520861406844
100
AcDbArc
 50
270.0
 51
284.3615115629157
  0
ARC
  5
141
330
59
100
AcDbEntity
  8
1
  6
Continuous
 62
     7
100
AcDbCircle
 10
311.5917193917887
 20
309.1356443470179
 30
0.0
 40
6.92820323027526
100
AcDbArc
 50
48.59037789072864
 51
90.0
  0
ARC
  5
142
330
59
100
AcDbEntity
  8
1
  6
Continuous
 62
     7
100
AcDbCircle
 10
320.2762024869716
 20
308.1897428477696
 30
0.0
 40
4.930004025816945
100
AcDbArc
 50
241.9865705819905
 51
298.0134294180142
  0
ARC
  5
143
330
59
100
AcDbEntity
  8
1
  6
Continuous
 62
     7
100
AcDbCircle
 10
320.2762024869716
 20
313.6525547089458
 30
0.0
 40
2.413086884806307
100
AcDbArc
 50
16.34871308827555
 51
163.6512869117214
  0
ARC
  5
144
330
59
100
AcDbEntity
  8
1
  6
Continuous
 62
     7
100
AcDbCircle
 10
302.9072362966051
 20
313.6525547089458
 30
0.0
 40
2.413086884805871
100
AcDbArc
 50
16.34871308827859
 51
163.6512869117233
  0
ARC
  5
145
330
59
100
AcDbEntity
  8
1
  6
Continuous
 62
     7
100
AcDbCircle
 10
302.9072362966051
 20
308.1897428477696
 30
0.0
 40
4.930004025817079
100
AcDbArc
 50
241.9865705819875
 51
298.0134294180095
  0
ARC
  5
146
330
59
100
AcDbEntity
  8
1
  6
Continuous
 62
     7
100
AcDbCircle
 10
311.5917193917887
 20
309.1356443470179
 30
0.0
 40
6.928203230275415
100
AcDbArc
 50
90.0
 51
131.4096221092742
  0
ARC
  5
147
330
59
100
AcDbEntity
  8
1
  6
Continuous
 62
     7
100
AcDbCircle
 10
311.5917193917887
 20
321.7352086140684
 30
0.0
 40
18.4752086140687
100
AcDbArc
 50
255.6384884370829
 51
270.0
  0
ARC
  5
148
330
59
100
AcDbEntity
  8
1
  6
Continuous
 62
     7
100
AcDbCircle
 10
720.4917193917863
 20
310.6522309829386
 30
0.0
 40
5.411950145676182
100
AcDbArc
 50
42.83555318522092
 51
137.1644468147791
  0
ARC
  5
149
330
59
100
AcDbEntity
  8
1
  6
Continuous
 62
     7
100
AcDbCircle
 10
730.491719391787
 20
310.6522309829386
 30
0.0
 40
5.411950145676182
100
AcDbArc
 50
42.83555318522092
 51
137.1644468147824
  0
ARC
  5
14A
330
59
100
AcDbEntity
  8
1
  6
Continuous
 62
     7
100
AcDbCircle
 10
720.4917193917863
 20
317.1877264499939
 30
0.0
 40
13.92776163527333
100
AcDbArc
 50
253.4445208525354
 51
286.5554791474646
  0
ARC
  5
14B
330
59
100
AcDbEntity
  8
1
  6
Continuous
 62
     7
100
AcDbCircle
 10
730.4917193917868
 20
317.1624842987388
 30
0.0
 40
13.90356777613058
100
AcDbArc
 50
253.4148806128089
 51
286.5851193871911
  0
ENDBLK
  5
5B
330
59
100
AcDbEntity
  8
0
100
AcDbBlockEnd
  0
BLOCK
  5
5F
330
5C
100
AcDbEntity
  8
0
100
AcDbBlockBegin
  2
T90-240
 70
     0
 10
298.5917193917883
 20
286.7785420656549
 30
0.0
  3
T90-240
  1

  0
INSERT
  5
5D
330
5C
100
AcDbEntity
  8
0
100
AcDbBlockReference
  2
35-18
 10
1191.034849246653
 20
475.3708632020213
 30
0.0
 41
1.0
 42
1.0
 43
1.0
  0
INSERT
  5
5E
330
5C
100
AcDbEntity
  8
0
100
AcDbBlockReference
  2
32-116-C2
 10
1193.038176326962
 20
492.3275297504347
 30
0.0
 41
1.0
 42
1.0
 43
1.0
  0
ENDBLK
  5
60
330
5C
100
AcDbEntity
  8
0
100
AcDbBlockEnd
  0
BLOCK
  5
62
330
61
100
AcDbEntity
  8
0
100
AcDbBlockBegin
  2
開示A4
 70
     0
 10
0.0
 20
0.0
 30
0.0
  3
開示A4
  1

  0
POINT
  5
14C
330
61
100
AcDbEntity
  8
1
 62
     4
100
AcDbPoint
 10
34.0
 20
34.00000000000001
 30
0.0
  0
POINT
  5
14D
330
61
100
AcDbEntity
  8
1
 62
     4
100
AcDbPoint
 10
57.0
 20
12.25
 30
0.0
  0
POINT
  5
14E
330
61
100
AcDbEntity
  8
1
 62
     4
100
AcDbPoint
 10
57.0
 20
20.75000000000001
 30
0.0
  0
POINT
  5
14F
330
61
100
AcDbEntity
  8
1
 62
     4
100
AcDbPoint
 10
57.0
 20
24.75000000000001
 30
0.0
  0
POINT
  5
150
330
61
100
AcDbEntity
  8
1
 62
     4
100
AcDbPoint
 10
57.0
 20
16.25
 30
0.0
  0
POINT
  5
151
330
61
100
AcDbEntity
  8
1
 62
     4
100
AcDbPoint
 10
157.5
 20
19.00000000000001
 30
0.0
  0
POINT
  5
152
330
61
100
AcDbEntity
  8
1
 62
     4
100
AcDbPoint
 10
47.5
 20
282.0000000000003
 30
0.0
  0
POINT
  5
153
330
61
100
AcDbEntity
  8
1
 62
     4
100
AcDbPoint
 10
57.0
 20
22.75000000000001
 30
0.0
  0
POINT
  5
154
330
61
100
AcDbEntity
  8
1
 62
     4
100
AcDbPoint
 10
57.0
 20
14.25
 30
0.0
  0
POINT
  5
155
330
61
100
AcDbEntity
  8
1
 62
     4
100
AcDbPoint
 10
157.5
 20
12.5
 30
0.0
  0
POINT
  5
156
330
61
100
AcDbEntity
  8
1
 62
     4
100
AcDbPoint
 10
163.25
 20
12.5
 30
0.0
  0
POINT
  5
157
330
61
100
AcDbEntity
  8
1
 62
     4
100
AcDbPoint
 10
151.75
 20
12.5
 30
0.0
  0
POINT
  5
158
330
61
100
AcDbEntity
  8
1
 62
     4
100
AcDbPoint
 10
134.75
 20
12.5
 30
0.0
  0
POINT
  5
159
330
61
100
AcDbEntity
  8
1
 62
     4
100
AcDbPoint
 10
146.25
 20
12.5
 30
0.0
  0
POINT
  5
15A
330
61
100
AcDbEntity
  8
1
 62
     4
100
AcDbPoint
 10
140.5
 20
12.5
 30
0.0
  0
POINT
  5
15B
330
61
100
AcDbEntity
  8
1
 62
     4
100
AcDbPoint
 10
140.5
 20
19.00000000000001
 30
0.0
  0
POINT
  5
15C
330
61
100
AcDbEntity
  8
1
 62
     4
100
AcDbPoint
 10
117.75
 20
12.5
 30
0.0
  0
POINT
  5
15D
330
61
100
AcDbEntity
  8
1
 62
     4
100
AcDbPoint
 10
129.25
 20
12.5
 30
0.0
  0
POINT
  5
15E
330
61
100
AcDbEntity
  8
1
 62
     4
100
AcDbPoint
 10
123.5
 20
12.5
 30
0.0
  0
POINT
  5
15F
330
61
100
AcDbEntity
  8
1
 62
     4
100
AcDbPoint
 10
123.5
 20
19.00000000000001
 30
0.0
  0
POINT
  5
160
330
61
100
AcDbEntity
  8
1
 62
     4
100
AcDbPoint
 10
100.75
 20
12.5
 30
0.0
  0
POINT
  5
161
330
61
100
AcDbEntity
  8
1
 62
     4
100
AcDbPoint
 10
112.25
 20
12.5
 30
0.0
  0
POINT
  5
162
330
61
100
AcDbEntity
  8
1
 62
     4
100
AcDbPoint
 10
106.5
 20
12.5
 30
0.0
  0
POINT
  5
163
330
61
100
AcDbEntity
  8
1
 62
     4
100
AcDbPoint
 10
106.5
 20
19.00000000000001
 30
0.0
  0
POINT
  5
164
330
61
100
AcDbEntity
  8
1
 62
     4
100
AcDbPoint
 10
85.25
 20
17.0
 30
0.0
  0
POINT
  5
165
330
61
100
AcDbEntity
  8
1
 62
     4
100
AcDbPoint
 10
93.75
 20
17.0
 30
0.0
  0
LINE
  5
166
330
61
100
AcDbEntity
  8
1
  6
Continuous
 62
     2
100
AcDbLine
 10
81.0
 20
27.00000000000001
 30
0.0
 11
81.0
 21
10.0
 31
0.0
  0
LINE
  5
167
330
61
100
AcDbEntity
  8
1
  6
DOT_CENTER
 62
     2
100
AcDbLine
 10
187.0
 20
26.50000000000001
 30
0.0
 11
187.0
 21
20.50000000000001
 31
0.0
  0
LINE
  5
168
330
61
100
AcDbEntity
  8
1
  6
DOT_CENTER
 62
     2
100
AcDbLine
 10
184.0
 20
23.50000000000001
 30
0.0
 11
197.0
 21
23.50000000000001
 31
0.0
  0
LINE
  5
169
330
61
100
AcDbEntity
  8
1
  6
Continuous
 62
     7
100
AcDbLine
 10
196.0
 20
21.50000000000001
 30
0.0
 11
191.0
 21
22.30000000000001
 31
0.0
  0
LINE
  5
16A
330
61
100
AcDbEntity
  8
1
  6
Continuous
 62
     7
100
AcDbLine
 10
196.0
 20
25.50000000000001
 30
0.0
 11
196.0
 21
21.50000000000001
 31
0.0
  0
LINE
  5
16B
330
61
100
AcDbEntity
  8
1
  6
Continuous
 62
     7
100
AcDbLine
 10
191.0
 20
24.70000000000001
 30
0.0
 11
196.0
 21
25.50000000000001
 31
0.0
  0
LINE
  5
16C
330
61
100
AcDbEntity
  8
1
  6
Continuous
 62
     7
100
AcDbLine
 10
191.0
 20
24.70000000000001
 30
0.0
 11
191.0
 21
22.30000000000001
 31
0.0
  0
LINE
  5
16D
330
61
100
AcDbEntity
  8
1
  6
Continuous
 62
     2
100
AcDbLine
 10
33.0
 20
27.0
 30
0.0
 11
33.0
 21
10.0
 31
0.0
  0
LINE
  5
16E
330
61
100
AcDbEntity
  8
1
  6
Continuous
 62
     2
100
AcDbLine
 10
25.0
 20
18.50000000000001
 30
0.0
 11
81.0
 21
18.50000000000001
 31
0.0
  0
LINE
  5
16F
330
61
100
AcDbEntity
  8
1
  6
Continuous
 62
     7
100
AcDbLine
 10
200.0
 20
287.0000000000003
 30
0.0
 11
105.0
 21
287.0000000000003
 31
0.0
  0
LINE
  5
170
330
61
100
AcDbEntity
  8
1
  6
Continuous
 62
     7
100
AcDbLine
 10
200.0
 20
10.0
 30
0.0
 11
200.0
 21
148.5
 31
0.0
  0
LINE
  5
171
330
61
100
AcDbEntity
  8
1
  6
Continuous
 62
     7
100
AcDbLine
 10
25.0
 20
10.0
 30
0.0
 11
105.0
 21
9.99999999999999
 31
0.0
  0
LINE
  5
172
330
61
100
AcDbEntity
  8
1
  6
PHANTOM
 62
     4
100
AcDbLine
 10
0.0
 20
297.0
 30
0.0
 11
0.0
 21
0.0
 31
0.0
  0
LINE
  5
173
330
61
100
AcDbEntity
  8
1
  6
PHANTOM
 62
     4
100
AcDbLine
 10
210.0
 20
297.0
 30
0.0
 11
0.0
 21
297.0
 31
0.0
  0
LINE
  5
174
330
61
100
AcDbEntity
  8
1
  6
PHANTOM
 62
     4
100
AcDbLine
 10
210.0
 20
0.0
 30
0.0
 11
210.0
 21
297.0
 31
0.0
  0
LINE
  5
175
330
61
100
AcDbEntity
  8
1
  6
PHANTOM
 62
     4
100
AcDbLine
 10
0.0
 20
0.0
 30
0.0
 11
210.0
 21
0.0
 31
0.0
  0
LINE
  5
176
330
61
100
AcDbEntity
  8
1
  6
Continuous
 62
     7
100
AcDbLine
 10
25.0
 20
41.0
 30
0.0
 11
200.0
 21
41.0
 31
0.0
  0
LINE
  5
177
330
61
100
AcDbEntity
  8
1
  6
Continuous
 62
     7
100
AcDbLine
 10
200.0
 20
27.00000000000001
 30
0.0
 11
25.0
 21
27.00000000000001
 31
0.0
  0
LINE
  5
178
330
61
100
AcDbEntity
  8
1
  6
Continuous
 62
     2
100
AcDbLine
 10
33.0
 20
41.00000000000001
 30
0.0
 11
33.0
 21
27.0
 31
0.0
  0
LINE
  5
179
330
61
100
AcDbEntity
  8
1
  6
Continuous
 62
     2
100
AcDbLine
 10
55.0
 20
287.0000000000003
 30
0.0
 11
55.0
 21
277.0000000000003
 31
0.0
  0
LINE
  5
17A
330
61
100
AcDbEntity
  8
1
  6
Continuous
 62
     2
100
AcDbLine
 10
40.0
 20
287.0000000000003
 30
0.0
 11
40.0
 21
277.0000000000003
 31
0.0
  0
LINE
  5
17B
330
61
100
AcDbEntity
  8
1
  6
Continuous
 62
     7
100
AcDbLine
 10
25.0
 20
10.0
 30
0.0
 11
25.0
 21
148.5
 31
0.0
  0
LINE
  5
17C
330
61
100
AcDbEntity
  8
1
  6
Continuous
 62
     2
100
AcDbLine
 10
55.0
 20
277.0000000000003
 30
0.0
 11
25.0
 21
277.0000000000003
 31
0.0
  0
LINE
  5
17D
330
61
100
AcDbEntity
  8
1
  6
Continuous
 62
     2
100
AcDbLine
 10
166.0
 20
27.00000000000001
 30
0.0
 11
166.0
 21
10.0
 31
0.0
  0
LINE
  5
17E
330
61
100
AcDbEntity
  8
1
  6
Continuous
 62
     2
100
AcDbLine
 10
132.0
 20
27.00000000000001
 30
0.0
 11
132.0
 21
9.99999999999999
 31
0.0
  0
LINE
  5
17F
330
61
100
AcDbEntity
  8
1
  6
Continuous
 62
     2
100
AcDbLine
 10
149.0
 20
27.00000000000001
 30
0.0
 11
149.0
 21
10.0
 31
0.0
  0
LINE
  5
180
330
61
100
AcDbEntity
  8
1
  6
Continuous
 62
     2
100
AcDbLine
 10
115.0
 20
27.00000000000001
 30
0.0
 11
115.0
 21
9.99999999999999
 31
0.0
  0
LINE
  5
181
330
61
100
AcDbEntity
  8
1
  6
Continuous
 62
     2
100
AcDbLine
 10
98.0
 20
27.00000000000001
 30
0.0
 11
98.0
 21
9.99999999999999
 31
0.0
  0
LINE
  5
182
330
61
100
AcDbEntity
  8
1
  6
Continuous
 62
     2
100
AcDbLine
 10
166.0
 20
20.00000000000001
 30
0.0
 11
200.0
 21
20.00000000000001
 31
0.0
  0
LINE
  5
183
330
61
100
AcDbEntity
  8
1
  6
Continuous
 62
     2
100
AcDbLine
 10
105.0
 20
287.0000000000003
 30
0.0
 11
105.0
 21
292.0000000000003
 31
0.0
  0
LINE
  5
184
330
61
100
AcDbEntity
  8
1
  6
Continuous
 62
     7
100
AcDbLine
 10
105.0
 20
287.0000000000003
 30
0.0
 11
25.0
 21
287.0000000000003
 31
0.0
  0
LINE
  5
185
330
61
100
AcDbEntity
  8
1
  6
Continuous
 62
     2
100
AcDbLine
 10
25.0
 20
148.5
 30
0.0
 11
20.0
 21
148.5
 31
0.0
  0
LINE
  5
186
330
61
100
AcDbEntity
  8
1
  6
Continuous
 62
     7
100
AcDbLine
 10
25.0
 20
148.5
 30
0.0
 11
25.0
 21
287.0000000000003
 31
0.0
  0
LINE
  5
187
330
61
100
AcDbEntity
  8
1
  6
Continuous
 62
     2
100
AcDbLine
 10
200.0
 20
148.5
 30
0.0
 11
205.0
 21
148.5
 31
0.0
  0
LINE
  5
188
330
61
100
AcDbEntity
  8
1
  6
Continuous
 62
     7
100
AcDbLine
 10
200.0
 20
148.5
 30
0.0
 11
200.0
 21
287.0000000000003
 31
0.0
  0
LINE
  5
189
330
61
100
AcDbEntity
  8
1
  6
Continuous
 62
     2
100
AcDbLine
 10
105.0
 20
9.99999999999999
 30
0.0
 11
105.0
 21
5.0
 31
0.0
  0
LINE
  5
18A
330
61
100
AcDbEntity
  8
1
  6
Continuous
 62
     7
100
AcDbLine
 10
105.0
 20
9.99999999999999
 30
0.0
 11
200.0
 21
10.0
 31
0.0
  0
CIRCLE
  5
18B
330
61
100
AcDbEntity
  8
1
  6
DOT_CENTER
 62
     7
100
AcDbCircle
 10
89.5
 20
18.0
 30
0.0
 40
0.1000000000000227
  0
CIRCLE
  5
18C
330
61
100
AcDbEntity
  8
1
  6
DOT_CENTER
 62
     7
100
AcDbCircle
 10
89.5
 20
16.0
 30
0.0
 40
0.1000000000000227
  0
CIRCLE
  5
18D
330
61
100
AcDbEntity
  8
1
  6
Continuous
 62
     7
100
AcDbCircle
 10
187.0
 20
23.50000000000001
 30
0.0
 40
2.0
  0
CIRCLE
  5
18E
330
61
100
AcDbEntity
  8
1
  6
Continuous
 62
     7
100
AcDbCircle
 10
187.0
 20
23.50000000000001
 30
0.0
 40
1.200000000000102
  0
CIRCLE
  5
18F
330
61
100
AcDbEntity
  8
1
  6
Continuous
 62
     7
100
AcDbCircle
 10
154.5
 20
12.5
 30
0.0
 40
0.3000000000000114
  0
CIRCLE
  5
190
330
61
100
AcDbEntity
  8
1
  6
Continuous
 62
     7
100
AcDbCircle
 10
160.5
 20
12.5
 30
0.0
 40
0.3000000000000114
  0
CIRCLE
  5
191
330
61
100
AcDbEntity
  8
1
  6
Continuous
 62
     7
100
AcDbCircle
 10
143.5
 20
12.5
 30
0.0
 40
0.3000000000000114
  0
CIRCLE
  5
192
330
61
100
AcDbEntity
  8
1
  6
Continuous
 62
     7
100
AcDbCircle
 10
137.5
 20
12.5
 30
0.0
 40
0.3000000000000114
  0
CIRCLE
  5
193
330
61
100
AcDbEntity
  8
1
  6
Continuous
 62
     7
100
AcDbCircle
 10
126.5
 20
12.5
 30
0.0
 40
0.2999999999999972
  0
CIRCLE
  5
194
330
61
100
AcDbEntity
  8
1
  6
Continuous
 62
     7
100
AcDbCircle
 10
120.5
 20
12.5
 30
0.0
 40
0.2999999999999972
  0
CIRCLE
  5
195
330
61
100
AcDbEntity
  8
1
  6
Continuous
 62
     7
100
AcDbCircle
 10
109.5
 20
12.5
 30
0.0
 40
0.2999999999999972
  0
CIRCLE
  5
196
330
61
100
AcDbEntity
  8
1
  6
Continuous
 62
     7
100
AcDbCircle
 10
103.5
 20
12.5
 30
0.0
 40
0.2999999999999972
  0
MTEXT
  5
198
330
61
100
AcDbEntity
  8
1
 62
   250
100
AcDbMText
 10
25.0
 20
5.0
 30
0.0
 40
3.5
 41
0.0
 71
     4
 72
     1
  1
備考欄の文字列 原点位置=4
  7
CONVERTER_11
 73
     1
 44
0.54545454545455
  0
MTEXT
  5
199
330
61
100
AcDbEntity
  8
1
 62
     2
100
AcDbMText
 10
89.5
 20
24.00000000000001
 30
0.0
 40
3.5
 41
0.0
 71
     5
 72
     1
  1
尺度
  7
CONVERTER_11
 73
     1
 44
0.54545454545455
  0
MTEXT
  5
19A
330
61
100
AcDbEntity
  8
1
 62
     2
100
AcDbMText
 10
135.5
 20
25.00000000000001
 30
0.0
 40
3.0
 41
0.0
 71
     5
 72
     1
  1
製図
  7
CONVERTER_11
 73
     1
 44
0.59090909090909
  0
MTEXT
  5
19B
330
61
100
AcDbEntity
  8
1
 62
     2
100
AcDbMText
 10
152.5
 20
25.00000000000001
 30
0.0
 40
3.0
 41
0.0
 71
     5
 72
     1
  1
設計
  7
CONVERTER_11
 73
     1
 44
0.59090909090909
  0
MTEXT
  5
19C
330
61
100
AcDbEntity
  8
1
 62
     2
100
AcDbMText
 10
118.5
 20
25.00000000000001
 30
0.0
 40
3.0
 41
0.0
 71
     5
 72
     1
  1
検図
  7
CONVERTER_11
 73
     1
 44
0.59090909090909
  0
MTEXT
  5
19D
330
61
100
AcDbEntity
  8
1
 62
     2
100
AcDbMText
 10
175.0
 20
23.50000000000001
 30
0.0
 40
3.5
 41
0.0
 71
     5
 72
     1
  1
第三角法
  7
CONVERTER_11
 73
     1
 44
0.54545454545455
  0
MTEXT
  5
19E
330
61
100
AcDbEntity
  8
1
 62
     2
100
AcDbMText
 10
101.5
 20
25.00000000000001
 30
0.0
 40
3.0
 41
0.0
 71
     5
 72
     1
  1
承認
  7
CONVERTER_11
 73
     1
 44
0.59090909090909
  0
MTEXT
  5
19F
330
61
100
AcDbEntity
  8
1
 62
     2
100
AcDbMText
 10
29.0
 20
14.25
 30
0.0
 40
3.5
 41
0.0
 71
     5
 72
     1
  1
品番
  7
CONVERTER_11
 73
     1
 44
0.72727272727273
  0
MTEXT
  5
1A0
330
61
100
AcDbEntity
  8
1
 62
     2
100
AcDbMText
 10
29.0
 20
22.75
 30
0.0
 40
3.5
 41
0.0
 71
     5
 72
     1
  1
品名
  7
CONVERTER_11
 73
     1
 44
0.72727272727273
  0
MTEXT
  5
1A1
330
61
100
AcDbEntity
  8
1
 62
     2
100
AcDbMText
 10
29.0
 20
34.00000000000001
 30
0.0
 40
3.5
 41
0.0
 71
     5
 72
     1
  1
備考
  7
CONVERTER_11
 73
     1
 44
0.45454545454545
  0
MTEXT
  5
1A2
330
61
100
AcDbEntity
  8
1
 62
     2
100
AcDbMText
 10
32.5
 20
282.0000000000003
 30
0.0
 40
5.0
 41
0.0
 71
     5
 72
     1
  1
図番
  7
CONVERTER_11
 73
     1
 44
0.45454545454545
  0
MTEXT
  5
1A3
330
61
100
AcDbEntity
  8
1
 62
     7
100
AcDbMText
 10
171.5
 20
15.0
 30
0.0
 40
2.5
 41
0.0
 71
     5
 72
     1
  1
株式会社
  7
CONVERTER_11
 73
     1
 44
1.0
  0
MTEXT
  5
1A4
330
61
100
AcDbEntity
  8
1
 62
     7
100
AcDbMText
 10
188.5
 20
15.0
 30
0.0
 40
3.0
 41
0.0
 71
     5
 72
     1
  1
三栄水栓製作所
  7
CONVERTER_11
 73
     1
 44
1.0
  0
ENDBLK
  5
63
330
61
100
AcDbEntity
  8
0
100
AcDbBlockEnd
  0
BLOCK
  5
65
330
64
100
AcDbEntity
  8
0
100
AcDbBlockBegin
  2
30-359-_表面処理_
 70
     0
 10
532.3308601234934
 20
1401.534948494536
 30
0.0
  3
30-359-_表面処理_
  1

  0
LINE
  5
1A5
330
64
100
AcDbEntity
  8
1
  6
Continuous
 62
     7
100
AcDbLine
 10
599.2974918726507
 20
1145.500000000001
 30
0.0
 11
718.6398855448067
 21
1145.500000000001
 31
0.0
  0
LINE
  5
1A6
330
64
100
AcDbEntity
  8
1
  6
Continuous
 62
     7
100
AcDbLine
 10
599.2974918726507
 20
1120.500000000001
 30
0.0
 11
718.6398855448067
 21
1120.500000000001
 31
0.0
  0
LINE
  5
1A7
330
64
100
AcDbEntity
  8
1
  6
Continuous
 62
     7
100
AcDbLine
 10
294.5917193918388
 20
918.504478341787
 30
0.0
 11
302.9406918859083
 21
918.504478341788
 31
0.0
  0
LINE
  5
1A8
330
64
100
AcDbEntity
  8
1
  6
Continuous
 62
     7
100
AcDbLine
 10
328.5917193918388
 20
918.504478341787
 30
0.0
 11
320.3472664052131
 21
918.5044783417878
 31
0.0
  0
LINE
  5
1A9
330
64
100
AcDbEntity
  8
0
  6
Continuous
 62
     7
100
AcDbLine
 10
597.5658954523252
 20
897.4918381628175
 30
0.0
 11
603.3233614109253
 21
896.2680355962175
 31
0.0
  0
LINE
  5
1AA
330
64
100
AcDbEntity
  8
0
  6
Continuous
 62
     7
100
AcDbLine
 10
596.7777283333252
 20
898.5645047706175
 30
0.0
 11
596.7779965542253
 21
898.5695171487175
 31
0.0
  0
LINE
  5
1AB
330
64
100
AcDbEntity
  8
0
  6
Continuous
 62
     7
100
AcDbLine
 10
601.6055704496251
 20
921.281241657218
 30
0.0
 11
601.6083569668252
 21
921.287265451618
 31
0.0
  0
LINE
  5
1AC
330
64
100
AcDbEntity
  8
0
  6
Continuous
 62
     8
100
AcDbLine
 10
596.7807681701253
 20
898.5683231931175
 30
0.0
 11
596.7777283333252
 21
898.5645047706175
 31
0.0
  0
LINE
  5
1AD
330
64
100
AcDbEntity
  8
0
  6
Continuous
 62
     7
100
AcDbLine
 10
623.356706037325
 20
892.0097642895175
 30
0.0
 11
714.1080146863682
 21
872.7197026134002
 31
0.0
  0
LINE
  5
1AE
330
64
100
AcDbEntity
  8
0
  6
Continuous
 62
     7
100
AcDbLine
 10
714.1029184891682
 20
898.2793105066002
 30
0.0
 11
602.7636737964252
 21
921.945282569217
 31
0.0
  0
LINE
  5
1AF
330
64
100
AcDbEntity
  8
0
  6
Continuous
 62
     7
100
AcDbLine
 10
714.0913514628681
 20
918.0024796775
 30
0.0
 11
714.0913514628681
 21
898.2722603947001
 31
0.0
  0
LINE
  5
1B0
330
64
100
AcDbEntity
  8
0
  6
Continuous
 62
     7
100
AcDbLine
 10
714.5913506134681
 20
918.5024796867
 30
0.0
 11
748.5913524611682
 21
918.5024796867
 31
0.0
  0
LINE
  5
1B1
330
64
100
AcDbEntity
  8
0
  6
Continuous
 62
     7
100
AcDbLine
 10
749.0913516118682
 20
792.2000040532001
 30
0.0
 11
749.0913516118682
 21
918.0024796775
 31
0.0
  0
LINE
  5
1B2
330
64
100
AcDbEntity
  8
0
  6
Continuous
 62
     7
100
AcDbLine
 10
714.0913514628681
 20
872.7530588627001
 30
0.0
 11
714.0913514628681
 21
792.2000040532001
 31
0.0
  0
LINE
  5
1B3
330
64
100
AcDbEntity
  8
0
  6
Continuous
 62
     7
100
AcDbLine
 10
714.0913514628681
 20
792.2000040532001
 30
0.0
 11
749.0913516118682
 21
792.2000040532001
 31
0.0
  0
LINE
  5
1B4
330
64
100
AcDbEntity
  8
0
  6
Continuous
 62
     7
100
AcDbLine
 10
294.0917193173386
 20
918.004478346887
 30
0.0
 11
294.0917193173386
 21
792.2
 31
0.0
  0
LINE
  5
1B5
330
64
100
AcDbEntity
  8
0
  6
Continuous
 62
     7
100
AcDbLine
 10
329.0917194663387
 20
791.9000000000003
 30
0.0
 11
329.0917194663387
 21
792.2
 31
0.0
  0
LINE
  5
1B6
330
64
100
AcDbEntity
  8
0
  6
Continuous
 62
     7
100
AcDbLine
 10
299.14338887023
 20
909.745103036771
 30
0.0
 11
299.0917104047574
 21
884.0897705564355
 31
0.0
  0
LINE
  5
216
330
64
100
AcDbEntity
  8
0
  6
Continuous
 62
     7
100
AcDbLine
 10
324.0917283788199
 20
884.0897705564356
 30
0.0
 11
324.1431391833406
 21
909.764916412136
 31
0.0
  0
LINE
  5
217
330
64
100
AcDbEntity
  8
1
  6
Continuous
 62
     7
100
AcDbLine
 10
294.0917193173386
 20
792.2
 30
0.0
 11
329.0917194663387
 21
792.2
 31
0.0
  0
LINE
  5
218
330
64
100
AcDbEntity
  8
0
  6
Continuous
 62
     7
100
AcDbLine
 10
294.0917193173386
 20
792.2
 30
0.0
 11
294.0917193173386
 21
791.9000000000003
 31
0.0
  0
LINE
  5
219
330
64
100
AcDbEntity
  8
0
  6
Continuous
 62
     7
100
AcDbLine
 10
329.0917194663387
 20
792.2
 30
0.0
 11
329.0917194663387
 21
918.004478346888
 31
0.0
  0
ARC
  5
21A
330
64
100
AcDbEntity
  8
0
  6
Continuous
 62
     7
100
AcDbCircle
 10
696.3450900648254
 20
889.2746418837175
 30
0.0
 40
100.0000000000002
100
AcDbArc
 50
161.3330839216996
 51
174.6667303835001
  0
ARC
  5
21B
330
64
100
AcDbEntity
  8
0
  6
Continuous
 62
     7
100
AcDbCircle
 10
714.5913515373683
 20
918.0024796725
 30
0.0
 40
0.5
100
AcDbArc
 50
90.0
 51
180.0
  0
ARC
  5
21C
330
64
100
AcDbEntity
  8
0
  6
Continuous
 62
     7
100
AcDbCircle
 10
748.5913515373683
 20
918.0024796725
 30
0.0
 40
0.5
100
AcDbArc
 50
0.0
 51
90.0
  0
ARC
  5
21D
330
64
100
AcDbEntity
  8
0
  6
Continuous
 62
     7
100
AcDbCircle
 10
328.5917193918388
 20
918.004478341787
 30
0.0
 40
0.5
100
AcDbArc
 50
0.0
 51
90.0
  0
ARC
  5
21E
330
64
100
AcDbEntity
  8
0
  6
Continuous
 62
     7
100
AcDbCircle
 10
294.5917193918388
 20
918.004478341787
 30
0.0
 40
0.5
100
AcDbArc
 50
90.0
 51
180.0
  0
SPLINE
  5
21F
330
64
100
AcDbEntity
  8
0
  6
Continuous
 62
     7
100
AcDbSpline
210
0.0
220
0.0
230
1.0
 70
     8
 71
     3
 72
    41
 73
    37
 74
    35
 42
0.000000001
 43
0.0000000001
 44
0.00000001
 40
0.0
 40
0.0
 40
0.0
 40
0.0
 40
0.1596628737076286
 40
0.3192065992066569
 40
1.11277562399075
 40
1.9035263134932
 40
2.710870172258204
 40
3.506328814958616
 40
4.227043428666442
 40
4.93932909214505
 40
5.65759558269483
 40
6.369133116327905
 40
7.206671996479558
 40
8.040974330011574
 40
8.891814443907412
 40
9.745507080716393
 40
10.75250319208153
 40
11.77038615214748
 40
12.83226062145988
 40
13.90890385540031
 40
14.94631141826699
 40
15.99572845305652
 40
17.09372280496343
 40
18.19852278754652
 40
19.15414470110398
 40
20.10892266276006
 40
21.08941730380311
 40
22.06359208346421
 40
22.97784898737723
 40
23.88263899688899
 40
24.79938602732883
 40
25.70637818928369
 40
26.71441823043292
 40
27.70949586534683
 40
28.72220462248629
 40
29.73330143174712
 40
29.73330143174712
 40
29.73330143174712
 40
29.73330143174712
 10
324.0758266163622
 20
884.0891574909393
 30
0.0
 10
324.0783650613575
 20
884.0359969651807
 30
0.0
 10
324.0834400439709
 20
883.9297155840411
 30
0.0
 10
324.0960047135745
 20
883.5589784998713
 30
0.0
 10
324.0673349761128
 20
882.9767925204069
 30
0.0
 10
323.9550444393863
 20
882.1871138207684
 30
0.0
 10
323.8051244858524
 20
881.4031278340791
 30
0.0
 10
323.6122144126333
 20
880.6523213956236
 30
0.0
 10
323.3743342824833
 20
879.9479684050091
 30
0.0
 10
323.0992819121448
 20
879.2851787063469
 30
0.0
 10
322.7830142840744
 20
878.6444306868731
 30
0.0
 10
322.4040577545672
 20
877.9898979730867
 30
0.0
 10
321.9567067084321
 20
877.3323491010481
 30
0.0
 10
321.4308748786605
 20
876.6751118510153
 30
0.0
 10
320.8527813097377
 20
876.0559143015928
 30
0.0
 10
320.1871810007437
 20
875.4432262527905
 30
0.0
 10
319.4304372115199
 20
874.8513338187196
 30
0.0
 10
318.5683705656596
 20
874.2874688014715
 30
0.0
 10
317.6417157644659
 20
873.7865635806679
 30
0.0
 10
316.6708280110453
 20
873.3615446606273
 30
0.0
 10
315.6733446999867
 20
873.0163746776535
 30
0.0
 10
314.6456125301677
 20
872.7463014175247
 30
0.0
 10
313.5779707706269
 20
872.5520905578837
 30
0.0
 10
312.5296579366389
 20
872.4439496549162
 30
0.0
 10
311.5243426041308
 20
872.413051015008
 30
0.0
 10
310.5606093585133
 20
872.447451813339
 30
0.0
 10
309.5952287162159
 20
872.5478105402829
 30
0.0
 10
308.6523257418723
 20
872.7118910791803
 30
0.0
 10
307.7472478343404
 20
872.9332194579601
 30
0.0
 10
306.8772130252953
 20
873.2087975923155
 30
0.0
 10
306.0306963325755
 20
873.5434507893747
 30
0.0
 10
305.1780298362297
 20
873.9499085432265
 30
0.0
 10
304.3327734667054
 20
874.4278376201212
 30
0.0
 10
303.5042376990274
 20
875.0005099000466
 30
0.0
 10
302.7432581395195
 20
875.6610875401238
 30
0.0
 10
302.2595918870469
 20
876.1313459669717
 30
0.0
 10
302.0179513842856
 20
876.3662879067309
 30
0.0
 11
324.0758266163622
 21
884.0891574909393
 31
0.0
 11
324.0830739905405
 21
883.9296591828597
 31
0.0
 11
324.0881051474386
 21
883.7701948031903
 31
0.0
 11
324.0551610284687
 21
882.9773098883551
 31
0.0
 11
323.9496867829711
 21
882.1936251072518
 31
0.0
 11
323.7960880952851
 21
881.4010271323168
 31
0.0
 11
323.5961089611455
 21
880.6311162296596
 31
0.0
 11
323.3657828032932
 21
879.9481964574832
 31
0.0
 11
323.0930285512094
 21
879.2902025485178
 31
0.0
 11
322.7749874757431
 21
878.6461865349901
 31
0.0
 11
322.4183978044065
 21
878.0304516342115
 31
0.0
 11
321.9473948311739
 21
877.3379001379232
 31
0.0
 11
321.4263671002053
 21
876.6862940549231
 31
0.0
 11
320.8458836969057
 21
876.0642266003304
 31
0.0
 11
320.2179901701731
 21
875.485831547258
 31
0.0
 11
319.425090897616
 21
874.8650643508181
 31
0.0
 11
318.573532468487
 21
874.3074498222377
 31
0.0
 11
317.6396596054716
 21
873.8020204358372
 31
0.0
 11
316.6535637872273
 21
873.369844903491
 31
0.0
 11
315.6733233989599
 21
873.0302227119538
 31
0.0
 11
314.6584243013926
 21
872.7632846387472
 31
0.0
 11
313.5782187065806
 21
872.5664408681549
 31
0.0
 11
312.4792526086513
 21
872.4530542844379
 31
0.0
 11
311.5240838223211
 21
872.4236292699919
 31
0.0
 11
310.5699171253021
 21
872.4577887570916
 31
0.0
 11
309.594680193907
 21
872.5591922530587
 31
0.0
 11
308.6349619031989
 21
872.7263966312812
 31
0.0
 11
307.7469407481872
 21
872.9438457401097
 31
0.0
 11
306.884508791347
 21
873.2174441347508
 31
0.0
 11
306.0318819719466
 21
873.5542714276224
 31
0.0
 11
305.2130313587297
 21
873.9442950882191
 31
0.0
 11
304.3369859155143
 21
874.442982472515
 31
0.0
 11
303.5202547615475
 21
875.0114274770399
 31
0.0
 11
302.749482580367
 21
875.6683059078723
 31
0.0
 11
302.0179513842856
 21
876.3662879067309
 31
0.0
  0
SPLINE
  5
220
330
64
100
AcDbEntity
  8
0
  6
Continuous
 62
     7
100
AcDbSpline
210
0.0
220
0.0
230
1.0
 70
     8
 71
     3
 72
    21
 73
    17
 74
    15
 42
0.000000001
 43
0.0000000001
 44
0.00000001
 40
0.0
 40
0.0
 40
0.0
 40
0.0
 40
0.1623071236232859
 40
0.3245817870852323
 40
1.019834220520546
 40
1.717629476926636
 40
2.415411723555419
 40
3.112778942294611
 40
3.811206508957131
 40
4.510385615046715
 40
5.209859741578511
 40
5.909676576242469
 40
6.610037982646898
 40
7.310173407014848
 40
7.682051818634426
 40
8.054019825226979
 40
8.054019825226979
 40
8.054019825226979
 40
8.054019825226979
 10
318.9583079697212
 20
919.670370821172
 30
0.0
 10
318.9154122548998
 20
919.703340997202
 30
0.0
 10
318.8296293954276
 20
919.7692747442112
 30
0.0
 10
318.5572096438042
 20
919.9726639619024
 30
0.0
 10
318.1190861187228
 20
920.2518198553545
 30
0.0
 10
317.5035419951641
 20
920.5791897567319
 30
0.0
 10
316.8753002463082
 20
920.8829725425587
 30
0.0
 10
316.2325224326336
 20
921.1556620148782
 30
0.0
 10
315.5741841344225
 20
921.3898014700939
 30
0.0
 10
314.9029843030335
 20
921.5863371586952
 30
0.0
 10
314.2216123209236
 20
921.7460177686281
 30
0.0
 10
313.5322953268613
 20
921.8690355933655
 30
0.0
 10
312.8372436228914
 20
921.9557247733349
 30
0.0
 10
312.2472772419349
 20
921.9943427678644
 30
0.0
 10
311.7659535236153
 20
922.0017390392079
 30
0.0
 10
311.5180044751469
 20
922.0012493168131
 30
0.0
 10
311.3940150183959
 20
922.001004418893
 30
0.0
 11
318.9583079697212
 21
919.670370821172
 31
0.0
 11
318.8293907889689
 21
919.7689809788388
 31
0.0
 11
318.6991320621248
 21
919.8657576840578
 31
0.0
 11
318.1153925773473
 21
920.2434138299586
 31
0.0
 11
317.5015252102905
 21
920.5752045367899
 31
0.0
 11
316.8727841671976
 21
920.8778342863126
 31
0.0
 11
316.2303314108491
 21
921.1490823200982
 31
0.0
 11
315.5723898884124
 21
921.3834197293678
 31
0.0
 11
314.9014585315414
 21
921.5801493370122
 31
0.0
 11
314.2204644495087
 21
921.7398713249362
 31
0.0
 11
313.5315552390851
 21
921.8629473112105
 31
0.0
 11
312.8364893496109
 21
921.9489095419945
 31
0.0
 11
312.1377992897145
 21
921.9938740918758
 31
0.0
 11
311.7659828680858
 21
922.0006638979504
 31
0.0
 11
311.3940150183959
 21
922.001004418893
 31
0.0
  0
SPLINE
  5
221
330
64
100
AcDbEntity
  8
0
  6
Continuous
 62
     7
100
AcDbSpline
210
0.0
220
0.0
230
1.0
 70
     8
 71
     3
 72
    19
 73
    15
 74
    13
 42
0.000000001
 43
0.0000000001
 44
0.00000001
 40
0.0
 40
0.0
 40
0.0
 40
0.0
 40
0.3825241400939677
 40
0.7649205982302099
 40
1.464784712728985
 40
2.164930449972779
 40
2.864984231873946
 40
3.564298060995543
 40
4.263025762298521
 40
4.961889546681269
 40
5.660562127876362
 40
6.357497632704805
 40
6.793448043293751
 40
7.229588622201192
 40
7.229588622201192
 40
7.229588622201192
 40
7.229588622201192
 10
311.3940150183959
 20
922.001004418893
 30
0.0
 10
311.2665966877058
 20
921.9962128748309
 30
0.0
 10
311.0118025576214
 20
921.9866313715447
 30
0.0
 10
310.5242349717938
 20
921.9595241321637
 30
0.0
 10
309.9330181508887
 20
921.8963883901615
 30
0.0
 10
309.2421763440603
 20
921.7814170908593
 30
0.0
 10
308.5583681453478
 20
921.6309983997494
 30
0.0
 10
307.8842156835045
 20
921.44346516466
 30
0.0
 10
307.2224916559925
 20
921.2171895256804
 30
0.0
 10
306.5738266967169
 20
920.9566994057473
 30
0.0
 10
305.93847559654
 20
920.6665780721908
 30
0.0
 10
305.4006773105089
 20
920.3760526190324
 30
0.0
 10
304.9593846847002
 20
920.0950241579852
 30
0.0
 10
304.7185921685142
 20
919.9321639156021
 30
0.0
 10
304.5981696608362
 20
919.850716031703
 30
0.0
 11
311.3940150183959
 21
922.001004418893
 31
0.0
 11
311.0118057920948
 21
921.9854858797439
 31
0.0
 11
310.630064341378
 21
921.9631136627291
 31
0.0
 11
309.9340679291805
 21
921.889637317899
 31
0.0
 11
309.2432887684606
 21
921.7754961565141
 31
0.0
 11
308.5596617768304
 21
921.6247333153748
 31
0.0
 11
307.8860368617931
 21
921.4369320747048
 31
0.0
 11
307.2246770912922
 21
921.2114910508715
 31
0.0
 11
306.5758965187725
 21
920.951694285973
 31
0.0
 11
305.9413476989749
 21
920.6593055506065
 31
0.0
 11
305.329350837772
 21
920.3258704879528
 31
0.0
 11
304.9605589899412
 21
920.093393964883
 31
0.0
 11
304.5981696608362
 21
919.850716031703
 31
0.0
  0
SPLINE
  5
222
330
64
100
AcDbEntity
  8
0
  6
Continuous
 62
     7
100
AcDbSpline
210
0.0
220
0.0
230
1.0
 70
     8
 71
     3
 72
    45
 73
    41
 74
    39
 42
0.000000001
 43
0.0000000001
 44
0.00000001
 40
0.0
 40
0.0
 40
0.0
 40
0.0
 40
0.1357204665149679
 40
0.2643647551726781
 40
0.4918544541627804
 40
0.6691231745495696
 40
0.8054851264682445
 40
0.9023657349957617
 40
0.9706510808616173
 40
1.040680372459224
 40
1.16495349871069
 40
1.340614943307803
 40
1.564849513040735
 40
1.832370564365435
 40
2.315219215788765
 40
2.875675019081029
 40
3.504045616642886
 40
4.19386322896906
 40
4.958861924133382
 40
5.781123061472166
 40
6.656597197012345
 40
7.582937544098144
 40
8.238247575550087
 40
8.912941826124198
 40
9.603847986813127
 40
10.30814580248519
 40
11.0255751961549
 40
11.74845800213506
 40
12.47195101741037
 40
13.19117361861531
 40
13.85134086839529
 40
14.50094730531131
 40
15.13757312324027
 40
15.75826078430576
 40
16.40468621859866
 40
17.02935392102576
 40
17.63148170246386
 40
18.20737607371676
 40
18.40637442103254
 40
18.60347756446436
 40
18.60347756446436
 40
18.60347756446436
 40
18.60347756446436
 10
321.5917228043754
 20
898.6147871627236
 30
0.0
 10
321.6107888924844
 20
898.6558137173724
 30
0.0
 10
321.647926999087
 20
898.735727790853
 30
0.0
 10
321.7145858018961
 20
898.8855318206621
 30
0.0
 10
321.7772572253505
 20
899.052173047755
 30
0.0
 10
321.8236232913645
 20
899.226967204394
 30
0.0
 10
321.8431240188467
 20
899.3624610087192
 30
0.0
 10
321.8412644133126
 20
899.4644001624289
 30
0.0
 10
321.7963823487917
 20
899.5373480012482
 30
0.0
 10
321.7028021032487
 20
899.5518332441578
 30
0.0
 10
321.5848846068286
 20
899.5121327053572
 30
0.0
 10
321.4282315611005
 20
899.4345743434169
 30
0.0
 10
321.2372574483048
 20
899.3201088172216
 30
0.0
 10
320.9631322497713
 20
899.1458508002318
 30
0.0
 10
320.5957796061632
 20
898.9092267141135
 30
0.0
 10
320.1226252960059
 20
898.6148316189784
 30
0.0
 10
319.5812343572297
 20
898.2998635322325
 30
0.0
 10
318.9672109668735
 20
897.9750675473842
 30
0.0
 10
318.2792054556735
 20
897.6536993833654
 30
0.0
 10
317.5183605190295
 20
897.3445032061343
 30
0.0
 10
316.6915168032523
 20
897.0578945228978
 30
0.0
 10
315.903320697185
 20
896.8334125366222
 30
0.0
 10
315.1703652416537
 20
896.6638838114651
 30
0.0
 10
314.508345429756
 20
896.5383547459116
 30
0.0
 10
313.8257228892641
 20
896.4367076525796
 30
0.0
 10
313.1253093064481
 20
896.3616520376398
 30
0.0
 10
312.4116642264587
 20
896.3162455078535
 30
0.0
 10
311.6903708801366
 20
896.3003442784174
 30
0.0
 10
310.9684309020613
 20
896.3137989191048
 30
0.0
 10
310.2685191224177
 20
896.355889599385
 30
0.0
 10
309.5955099841771
 20
896.4245923216437
 30
0.0
 10
308.9529129306669
 20
896.5151841363611
 30
0.0
 10
308.3270643314137
 20
896.6271432967035
 30
0.0
 10
307.7068388953476
 20
896.7620567278981
 30
0.0
 10
307.0962370298021
 20
896.9202621181971
 30
0.0
 10
306.4981388423909
 20
897.1000975864237
 30
0.0
 10
305.9291857883205
 20
897.2937996155263
 30
0.0
 10
305.5004449117158
 20
897.4581015815018
 30
0.0
 10
305.2012977556199
 20
897.582558883652
 30
0.0
 10
305.0797849890808
 20
897.6342080141491
 30
0.0
 10
305.0193193061209
 20
897.6599090246062
 30
0.0
 11
321.5917228043754
 21
898.6147871627236
 31
0.0
 11
321.6485758172709
 21
898.738025884529
 31
0.0
 11
321.7003518082774
 21
898.8557909041243
 31
0.0
 11
321.7790909279615
 21
899.0692193800039
 31
0.0
 11
321.8233027799232
 21
899.2408862415854
 31
0.0
 11
321.8407207744037
 21
899.3761311874098
 31
0.0
 11
321.8305943239959
 21
899.4724811085637
 31
0.0
 11
321.7911341526784
 21
899.5282106648043
 31
0.0
 11
321.723083618752
 21
899.5447402401155
 31
0.0
 11
321.6022864259561
 21
899.5155537890889
 31
0.0
 11
321.4437296574876
 21
899.4399449624219
 31
0.0
 11
321.2501414333701
 21
899.3267869233066
 31
0.0
 11
321.0237946148756
 21
899.1841873769006
 31
0.0
 11
320.6169036536808
 21
898.9242209064445
 31
0.0
 11
320.1404900170169
 21
898.629024778213
 31
0.0
 11
319.5969742289291
 21
898.3136833824697
 31
0.0
 11
318.9869528691819
 21
897.9916239487761
 31
0.0
 11
318.2940001244502
 21
897.6675259742598
 31
0.0
 11
317.5323487817212
 21
897.3576863221456
 31
0.0
 11
316.7051281797766
 21
897.0710488548605
 31
0.0
 11
315.8141757727923
 21
896.8174542037546
 31
0.0
 11
315.1757763997417
 21
896.6695438329663
 31
0.0
 11
314.5129226398391
 21
896.5436977971958
 31
0.0
 11
313.8295404360007
 21
896.4420115821331
 31
0.0
 11
313.1292350108358
 21
896.3671268398624
 31
0.0
 11
312.4132706810706
 21
896.321300936848
 31
0.0
 11
311.6905661301432
 21
896.3052484220092
 31
0.0
 11
310.9672006670812
 21
896.3188333394318
 31
0.0
 11
310.249290525909
 21
896.3622635048097
 31
0.0
 11
309.5925224459663
 21
896.4291700577979
 31
0.0
 11
308.9492664727926
 21
896.519780630252
 31
0.0
 11
308.3226088035431
 21
896.6319973741068
 31
0.0
 11
307.7161446183865
 21
896.764112341818
 31
0.0
 11
307.0903574219441
 21
896.926150074563
 31
0.0
 11
306.4921110958669
 21
897.1059028818806
 31
0.0
 11
305.9222170636314
 21
897.3002702070372
 31
0.0
 11
305.3846325416228
 21
897.5068064224214
 31
0.0
 11
305.2008138538268
 21
897.5830365490632
 31
0.0
 11
305.0193193061209
 21
897.6599090246062
 31
0.0
  0
SPLINE
  5
223
330
64
100
AcDbEntity
  8
0
  6
Continuous
 62
     7
100
AcDbSpline
210
0.0
220
0.0
230
1.0
 70
     8
 71
     3
 72
    25
 73
    21
 74
    19
 42
0.000000001
 43
0.0000000001
 44
0.00000001
 40
0.0
 40
0.0
 40
0.0
 40
0.0
 40
0.763455170104309
 40
1.487530931595429
 40
2.141066041629235
 40
2.71989116837314
 40
3.081147196763733
 40
3.399494358261149
 40
3.667558603281011
 40
3.878364454183306
 40
3.992144616579732
 40
4.076493542562292
 40
4.143202462818746
 40
4.219998459027768
 40
4.332494646096671
 40
4.482560941532904
 40
4.66801867382133
 40
4.905311108798448
 40
5.01131690938679
 40
5.122653975273244
 40
5.122653975273244
 40
5.122653975273244
 40
5.122653975273244
 10
305.0193193061209
 20
897.6599090246062
 30
0.0
 10
304.7892184924823
 20
897.7685980829415
 30
0.0
 10
304.3408855848013
 20
897.9803699661032
 30
0.0
 10
303.7021896198627
 20
898.2993266846233
 30
0.0
 10
303.1352380102718
 20
898.6222055195936
 30
0.0
 10
302.6844756426053
 20
898.9033798809223
 30
0.0
 10
302.3312467504555
 20
899.1295751649793
 30
0.0
 10
302.0645978505419
 20
899.2990808807126
 30
0.0
 10
301.8373138272802
 20
899.4364690533102
 30
0.0
 10
301.661855789114
 20
899.5288312049263
 30
0.0
 10
301.532948030209
 20
899.5734637220844
 30
0.0
 10
301.4431578149076
 20
899.5840640422342
 30
0.0
 10
301.3690734376979
 20
899.5483190161489
 30
0.0
 10
301.3396538785788
 20
899.461831708346
 30
0.0
 10
301.3449227054911
 20
899.3489117552922
 30
0.0
 10
301.3698823991173
 20
899.2012548923826
 30
0.0
 10
301.4174003103738
 20
899.0161036470323
 30
0.0
 10
301.4808905781321
 20
898.8511896623692
 30
0.0
 10
301.5443153031838
 20
898.713566712411
 30
0.0
 10
301.575659469149
 20
898.6482477544271
 30
0.0
 10
301.5917159792017
 20
898.6147871627237
 30
0.0
 11
305.0193193061209
 21
897.6599090246062
 31
0.0
 11
304.3302262869837
 21
897.9885647610157
 31
0.0
 11
303.684389139297
 21
898.3159484607086
 31
0.0
 11
303.1159907654048
 21
898.6384874947366
 31
0.0
 11
302.6237065559274
 21
898.9429456770018
 31
0.0
 11
302.3190714127071
 21
899.1371191773845
 31
0.0
 11
302.0498061762319
 21
899.3069459996433
 31
0.0
 11
301.8193450266499
 21
899.4438624008952
 31
0.0
 11
301.6305059324614
 21
899.5375582126803
 31
0.0
 11
301.522114698843
 21
899.5721597484403
 31
0.0
 11
301.4378317804692
 21
899.5754960978944
 31
0.0
 11
301.3788720645461
 21
899.5442898150822
 31
0.0
 11
301.3478207144029
 21
899.4740513727643
 31
0.0
 11
301.3462763038129
 21
899.361565787216
 31
0.0
 11
301.3697392620147
 21
899.2133450644301
 31
0.0
 11
301.4161204087462
 21
899.0337807033525
 31
0.0
 11
301.4998420235286
 21
898.8117482933882
 31
0.0
 11
301.543814989822
 21
898.7152930808556
 31
0.0
 11
301.5917159792017
 21
898.6147871627237
 31
0.0
  0
SPLINE
  5
224
330
64
100
AcDbEntity
  8
0
  6
Continuous
 62
     7
100
AcDbSpline
210
0.0
220
0.0
230
1.0
 70
     8
 71
     3
 72
    17
 73
    13
 74
    11
 42
0.000000001
 43
0.0000000001
 44
0.00000001
 40
0.0
 40
0.0
 40
0.0
 40
0.0
 40
0.8378680591887442
 40
1.677484415489687
 40
2.544086701897177
 40
3.422172934960713
 40
4.293838706251496
 40
5.178931105963137
 40
6.113457730798821
 40
7.057470468886476
 40
7.755757098890775
 40
8.45655846964862
 40
8.45655846964862
 40
8.45655846964862
 40
8.45655846964862
 10
302.0179513842856
 20
876.3662879067309
 30
0.0
 10
301.8373317314211
 20
876.5793096494303
 30
0.0
 10
301.4757155555951
 20
877.0057976357631
 30
0.0
 10
300.9596145368724
 20
877.6798297017435
 30
0.0
 10
300.5057032808742
 20
878.4136980632481
 30
0.0
 10
300.1141154062183
 20
879.1940111907048
 30
0.0
 10
299.7818180059196
 20
880.0079170664657
 30
0.0
 10
299.5065186905832
 20
880.862605205067
 30
0.0
 10
299.29147328823
 20
881.7593591646292
 30
0.0
 10
299.1650017996803
 20
882.6104116944236
 30
0.0
 10
299.1177645257668
 20
883.3904552642538
 30
0.0
 10
299.1066059697278
 20
883.8566839275431
 30
0.0
 10
299.1010166707174
 20
884.0902172624352
 30
0.0
 11
302.0179513842856
 21
876.3662879067309
 31
0.0
 11
301.4814104968501
 21
877.0098302612896
 31
0.0
 11
300.976336020091
 21
877.6805428671038
 31
0.0
 11
300.5189000574434
 21
878.4165808172353
 31
0.0
 11
300.1235330750438
 21
879.2006218768322
 31
0.0
 11
299.7938150773603
 21
880.0075216599811
 31
0.0
 11
299.5221147864631
 21
880.8498799621273
 31
0.0
 11
299.3055691596588
 21
881.7589718196472
 31
0.0
 11
299.168634412945
 21
882.6930001522865
 31
0.0
 11
299.1220617253412
 21
883.3897319536312
 31
0.0
 11
299.1010166707174
 21
884.0902172624352
 31
0.0
  0
SPLINE
  5
225
330
64
100
AcDbEntity
  8
0
  6
Continuous
 62
     7
100
AcDbSpline
210
0.0
220
0.0
230
1.0
 70
     8
 71
     3
 72
    69
 73
    65
 74
    63
 42
0.000000001
 43
0.0000000001
 44
0.00000001
 40
0.0
 40
0.0
 40
0.0
 40
0.0
 40
0.0223043361400994
 40
0.0583467145993965
 40
0.1219060659782115
 40
0.2174224882611038
 40
0.3451279159771717
 40
0.5000023544890658
 40
0.6825667580193624
 40
0.8881998851676322
 40
1.116699665190045
 40
1.450385020742281
 40
1.819631789334499
 40
2.220980461507308
 40
2.663940606439491
 40
3.134770268775831
 40
3.631032115163835
 40
4.297226303030782
 40
4.99693480476564
 40
5.72631116709768
 40
6.503779138661717
 40
7.305843580011928
 40
8.129883535159664
 40
9.148809750731022
 40
10.19311644914414
 40
10.91933004601043
 40
11.65470603187547
 40
12.39794059748267
 40
12.92072254431021
 40
13.44627077895632
 40
13.97407115597106
 40
14.51740944845541
 40
15.06165205167577
 40
15.60582117482211
 40
16.1359750375735
 40
16.66425176127648
 40
17.18964266163936
 40
17.72838152087093
 40
18.26207779666518
 40
18.78971930339697
 40
19.50444010078552
 40
20.20396117205385
 40
20.8999731371773
 40
21.57650451364745
 40
22.35067292476217
 40
23.09200399762345
 40
23.5757975494855
 40
24.04185870739691
 40
24.4890921384568
 40
24.98738374522949
 40
25.45664298041255
 40
25.89518164124961
 40
26.31254564365464
 40
26.6919736803221
 40
27.02991876673802
 40
27.31046292762126
 40
27.55289839757822
 40
27.75984078430078
 40
27.89635930171051
 40
28.00537806141746
 40
28.07926466220291
 40
28.1104035212247
 40
28.11458164961246
 40
28.12899037506757
 40
28.12899037506757
 40
28.12899037506757
 40
28.12899037506757
 10
714.0969673379612
 20
898.2722603947391
 30
0.0
 10
714.1013799498147
 20
898.2662758386742
 30
0.0
 10
714.1129230738433
 20
898.2506206336127
 30
0.0
 10
714.1355185844789
 20
898.2168324378974
 30
0.0
 10
714.1706739679278
 20
898.1621161486646
 30
0.0
 10
714.2215304244503
 20
898.0811696427096
 30
0.0
 10
714.2880681488057
 20
897.9741338208677
 30
0.0
 10
714.369411098932
 20
897.84213591959
 30
0.0
 10
714.4638635543589
 20
897.687706317272
 30
0.0
 10
714.5704921035965
 20
897.5119569341452
 30
0.0
 10
714.7024525850508
 20
897.292658771345
 30
0.0
 10
714.8613730796662
 20
897.0259354898992
 30
0.0
 10
715.0480791643146
 20
896.708705022657
 30
0.0
 10
715.2511987496903
 20
896.3588768658647
 30
0.0
 10
715.4688285602829
 20
895.9783285611081
 30
0.0
 10
715.6991063549832
 20
895.5685810629371
 30
0.0
 10
715.9619075918858
 20
895.0917741869172
 30
0.0
 10
716.2558766968777
 20
894.5450585677534
 30
0.0
 10
716.5782922537709
 20
893.9254766492105
 30
0.0
 10
716.9077291252169
 20
893.2678256626348
 30
0.0
 10
717.2402784385145
 20
892.5736896849982
 30
0.0
 10
717.5710718464827
 20
891.8438976221798
 30
0.0
 10
717.9153669157918
 20
891.0321224871733
 30
0.0
 10
718.2639431266857
 20
890.1348104442774
 30
0.0
 10
718.5650868059104
 20
889.2547651223231
 30
0.0
 10
718.8035240060556
 20
888.4540525056382
 30
0.0
 10
718.9870270277977
 20
887.7421951696494
 30
0.0
 10
719.1265800129709
 20
887.0895899301267
 30
0.0
 10
719.2285169436076
 20
886.5010605607531
 30
0.0
 10
719.3003680846266
 20
885.9805077015192
 30
0.0
 10
719.3538199626423
 20
885.4508427924998
 30
0.0
 10
719.3867371048356
 20
884.9132402838044
 30
0.0
 10
719.3976712109225
 20
884.3692768736597
 30
0.0
 10
719.3855810929879
 20
883.8297185924447
 30
0.0
 10
719.3502806987262
 20
883.2965210290108
 30
0.0
 10
719.2929803703369
 20
882.771540528569
 30
0.0
 10
719.2130708538785
 20
882.2466260519868
 30
0.0
 10
719.1102493913204
 20
881.7238685517939
 30
0.0
 10
718.985516840252
 20
881.2051466462915
 30
0.0
 10
718.8242127868721
 20
880.6353763574638
 30
0.0
 10
718.6196997578182
 20
880.0209321114367
 30
0.0
 10
718.3657420284727
 20
879.3647034734528
 30
0.0
 10
718.0884745804888
 20
878.7318879912297
 30
0.0
 10
717.7755818561753
 20
878.0881744678078
 30
0.0
 10
717.4314193264902
 20
877.4434168041853
 30
0.0
 10
717.0966421056145
 20
876.8670313932087
 30
0.0
 10
716.8010760783209
 20
876.3869622554694
 30
0.0
 10
716.5495081505609
 20
875.9950304726636
 30
0.0
 10
716.2886840100218
 20
875.6033856254107
 30
0.0
 10
716.0209918676504
 20
875.2151026690369
 30
0.0
 10
715.7489097888509
 20
874.8334444816768
 30
0.0
 10
715.4874974428919
 20
874.4773626152563
 30
0.0
 10
715.2398365869351
 20
874.1483904988727
 30
0.0
 10
715.0090291507856
 20
873.8486736895059
 30
0.0
 10
714.8036099076619
 20
873.5871774676962
 30
0.0
 10
714.6243820529189
 20
873.362632437905
 30
0.0
 10
714.4717147438544
 20
873.1744207363854
 30
0.0
 10
714.3461751037305
 20
873.0213393415193
 30
0.0
 10
714.2532836515704
 20
872.9104609028138
 30
0.0
 10
714.1763733249893
 20
872.8164069886495
 30
0.0
 10
714.1475360486671
 20
872.7878043337535
 30
0.0
 10
714.1012339376638
 20
872.7276321042013
 30
0.0
 10
714.1089488402744
 20
872.7449002850843
 30
0.0
 10
714.1127340024642
 20
872.7494961194435
 30
0.0
 10
714.1156682952602
 20
872.7530588627332
 30
0.0
 11
714.0969673379612
 21
898.2722603947391
 31
0.0
 11
714.1100987249695
 21
898.2542312506409
 31
0.0
 11
714.1303507346925
 21
898.2244166706352
 31
0.0
 11
714.1648439898446
 21
898.1710312188143
 31
0.0
 11
714.2157668057756
 21
898.0902212339209
 31
0.0
 11
714.2832231924634
 21
897.9817854835354
 31
0.0
 11
714.3645009233906
 21
897.8499521732801
 31
0.0
 11
714.4597638011671
 21
897.6942128257832
 31
0.0
 11
714.5664372577859
 21
897.5184124986351
 31
0.0
 11
714.6842593535141
 21
897.322631743597
 31
0.0
 11
714.8550609234911
 21
897.035973860835
 31
0.0
 11
715.0423508962441
 21
896.7177512296233
 31
0.0
 11
715.2438724621489
 21
896.3706636101474
 31
0.0
 11
715.463750980649
 21
895.9861286606005
 31
0.0
 11
715.6944009748431
 21
895.5756641050725
 31
0.0
 11
715.9339210226493
 21
895.1410309643024
 31
0.0
 11
716.2492905043704
 21
894.5542117534958
 31
0.0
 11
716.5721587372866
 21
893.9334476342407
 31
0.0
 11
716.8986883222415
 21
893.2812449753756
 31
0.0
 11
717.2342855236519
 21
892.5799383624343
 31
0.0
 11
717.5650965942948
 21
891.8492733203353
 31
0.0
 11
717.8865216880398
 21
891.0905060589785
 31
0.0
 11
718.2544530153033
 21
890.1403286169434
 31
0.0
 11
718.5915384649593
 21
889.1519208670134
 31
0.0
 11
718.7983502036873
 21
888.4557778550844
 31
0.0
 11
718.9814355684769
 21
887.7435576715452
 31
0.0
 11
719.136353789206
 21
887.0166477978701
 31
0.0
 11
719.2254107050895
 21
886.5015072057192
 31
0.0
 11
719.2970899522998
 21
885.9808700648282
 31
0.0
 11
719.3498930170492
 21
885.4557176352016
 31
0.0
 11
719.3830062977586
 21
884.9133893114624
 31
0.0
 11
719.3938153562548
 21
884.3692540567512
 31
0.0
 11
719.3814639210058
 21
883.8252251267905
 31
0.0
 11
719.3464814504168
 21
883.2962266911231
 31
0.0
 11
719.2891670916736
 21
882.771068275898
 31
0.0
 11
719.2100651770187
 21
882.25166623001
 31
0.0
 11
719.1062433716857
 21
881.7230259069445
 31
0.0
 11
718.9815916637205
 21
881.2040907795121
 31
0.0
 11
718.837955242331
 21
880.6963761568538
 31
0.0
 11
718.6126709216819
 21
880.0180894969094
 31
0.0
 11
718.3605974748087
 21
879.3655646265021
 31
0.0
 11
718.0816528894774
 21
878.727894983285
 31
0.0
 11
717.786262950237
 21
878.1192575812804
 31
0.0
 11
717.4221343287057
 21
877.4360686793507
 31
0.0
 11
717.0502340629056
 21
876.7947715938559
 31
0.0
 11
716.7966716792224
 21
876.3827493633929
 31
0.0
 11
716.5449982243373
 21
875.990482266872
 31
0.0
 11
716.2971796675877
 21
875.6181870818607
 31
0.0
 11
716.0143971963004
 21
875.2079083969317
 31
0.0
 11
715.7420518718247
 21
874.8257667294355
 31
0.0
 11
715.4825983777005
 21
874.4722132802476
 31
0.0
 11
715.2315927178865
 21
874.1387633301158
 31
0.0
 11
715.0001005237302
 21
873.8381356549879
 31
0.0
 11
714.7913633122404
 21
873.5723619580737
 31
0.0
 11
714.6163018355946
 21
873.3531394555788
 31
0.0
 11
714.4636223394582
 21
873.1648207667752
 31
0.0
 11
714.3322045191483
 21
873.004962992715
 31
0.0
 11
714.2449447287656
 21
872.8999723522834
 31
0.0
 11
714.1748055029515
 21
872.8165123081275
 31
0.0
 11
714.1267404413766
 21
872.7603965382144
 31
0.0
 11
714.1057031437115
 21
872.7374387205114
 31
0.0
 11
714.1074071253147
 21
872.7412535848756
 31
0.0
 11
714.1156682952602
 21
872.7530588627332
 31
0.0
  0
SPLINE
  5
226
330
64
100
AcDbEntity
  8
0
  6
Continuous
 62
     7
100
AcDbSpline
210
0.0
220
0.0
230
1.0
 70
     8
 71
     3
 72
   117
 73
   113
 74
   111
 42
0.000000001
 43
0.0000000001
 44
0.00000001
 40
0.0
 40
0.0
 40
0.0
 40
0.0
 40
0.0075005537167956
 40
0.0172719677277036
 40
0.0315954659814934
 40
0.0527562730900298
 40
0.083039021645133
 40
0.1256819338960129
 40
0.1794358379106257
 40
0.2432652351058845
 40
0.3161343822970687
 40
0.3970074500697427
 40
0.5111208426352574
 40
0.6367118698087133
 40
0.7738031099105327
 40
0.9224174473873833
 40
1.089719693058009
 40
1.268920408632204
 40
1.459341782505667
 40
1.660306782335389
 40
1.875612110620275
 40
2.100726312154561
 40
2.335182512788559
 40
2.57851540471813
 40
2.866784408090006
 40
3.165399915199697
 40
3.473733399968931
 40
3.791162390234954
 40
4.117071106268169
 40
4.460609155600966
 40
4.811975998177062
 40
5.17068682478885
 40
5.536277723286492
 40
5.908308073109566
 40
6.272628585290959
 40
6.64225346978829
 40
7.016937607812301
 40
7.396491017952446
 40
7.710361070381705
 40
8.027115834750244
 40
8.346521775458855
 40
8.668403118204182
 40
8.992647888950868
 40
9.254798684476656
 40
9.51830385714007
 40
9.783060410125193
 40
10.04900893485622
 40
10.32264432972213
 40
10.59726976795716
 40
10.87267742866845
 40
11.14870291316819
 40
11.41907176231345
 40
11.68970549830539
 40
11.96039112707349
 40
12.23091739128753
 40
12.4545701828027
 40
12.67791275262845
 40
12.90086656502506
 40
13.12333440848885
 40
13.34520186322902
 40
13.60936320951269
 40
13.87245502513952
 40
14.13440693651782
 40
14.39510646825232
 40
14.65440235405995
 40
14.98523790400553
 40
15.31344437169151
 40
15.63894624727473
 40
15.96160150868153
 40
16.34284197661297
 40
16.71953742654874
 40
17.09142655350729
 40
17.45819287692333
 40
17.81947068242018
 40
18.18471881798913
 40
18.54334040710037
 40
18.89491985770519
 40
19.23902317882921
 40
19.57519982055341
 40
19.84646511095615
 40
20.11162684930287
 40
20.3702997074468
 40
20.62209534505246
 40
20.86662266437826
 40
21.10348805669337
 40
21.3070443572432
 40
21.50395372808517
 40
21.69392018641063
 40
21.87664709042551
 40
22.05183718727105
 40
22.21919266047266
 40
22.37841517808164
 40
22.51733357162919
 40
22.64858255994125
 40
22.77162126054242
 40
22.88590862287904
 40
22.99090345213887
 40
23.08874852715454
 40
23.1771222614292
 40
23.25692711996861
 40
23.32906554234983
 40
23.39443995019581
 40
23.43112553136203
 40
23.46461534164245
 40
23.49388834190152
 40
23.5179235624217
 40
23.53570023678691
 40
23.54619846743776
 40
23.54841333685114
 40
23.55555131183838
 40
23.55904021854931
 40
23.56288657331759
 40
23.56288657331759
 40
23.56288657331759
 40
23.56288657331759
 10
623.3588518045398
 20
892.0199138429216
 30
0.0
 10
623.3575217949988
 20
892.0220310533443
 30
0.0
 10
623.3544591170646
 20
892.0269064873352
 30
0.0
 10
623.3485615669782
 20
892.0356347468963
 30
0.0
 10
623.3397709706718
 20
892.0478953848802
 30
0.0
 10
623.3266830151099
 20
892.0654830507774
 30
0.0
 10
623.307681912732
 20
892.090434317313
 30
0.0
 10
623.2818640526281
 20
892.1238489076359
 30
0.0
 10
623.2490345070041
 20
892.1659763822468
 30
0.0
 10
623.2098588099406
 20
892.2159314848758
 30
0.0
 10
623.1649668141907
 20
892.2728913745091
 30
0.0
 10
623.1095527134268
 20
892.3428994806096
 30
0.0
 10
623.0430444669864
 20
892.426538938766
 30
0.0
 10
622.9646189210989
 20
892.524643303097
 30
0.0
 10
622.8787288240596
 20
892.6315031937926
 30
0.0
 10
622.7838105310923
 20
892.7489440740563
 30
0.0
 10
622.6797092756136
 20
892.8770101244833
 30
0.0
 10
622.5663884196014
 20
893.0155397781001
 30
0.0
 10
622.4454750712259
 20
893.1623543115927
 30
0.0
 10
622.3163595411492
 20
893.318003152315
 30
0.0
 10
622.1792363510854
 20
893.482032755247
 30
0.0
 10
622.0342320644073
 20
893.6540223950477
 30
0.0
 10
621.8823994108907
 20
893.8324719784374
 30
0.0
 10
621.7159886399147
 20
894.0261546329332
 30
0.0
 10
621.5344853046529
 20
894.2350615192166
 30
0.0
 10
621.3372903789299
 20
894.4590296605202
 30
0.0
 10
621.1319935165711
 20
894.6888048958656
 30
0.0
 10
620.9187603561379
 20
894.9236768412756
 30
0.0
 10
620.6955501320117
 20
895.1653248468865
 30
0.0
 10
620.462320854546
 20
895.4131001534458
 30
0.0
 10
620.2188102665707
 20
895.6661876492562
 30
0.0
 10
619.967041408772
 20
895.9214956487083
 30
0.0
 10
619.7069121390124
 20
896.1781884405411
 30
0.0
 10
619.4416274002724
 20
896.4322639354575
 30
0.0
 10
619.1713417368546
 20
896.6829974423977
 30
0.0
 10
618.8959469678579
 20
896.9294450654982
 30
0.0
 10
618.6117970881838
 20
897.1736178343688
 30
0.0
 10
618.3366372639834
 20
897.3996098277422
 30
0.0
 10
618.0717390518854
 20
897.6075268584864
 30
0.0
 10
617.8183287614379
 20
897.7974894989227
 30
0.0
 10
617.5581665179143
 20
897.9827478213116
 30
0.0
 10
617.2910671704074
 20
898.1623807427277
 30
0.0
 10
617.0350019377134
 20
898.3240053219768
 30
0.0
 10
616.7912390647126
 20
898.4684216606531
 30
0.0
 10
616.5610069115565
 20
898.5965934492345
 30
0.0
 10
616.3260715397012
 20
898.7187050871072
 30
0.0
 10
616.0844812354518
 20
898.8350773690412
 30
0.0
 10
615.8362060991913
 20
898.9448365608225
 30
0.0
 10
615.5813899403284
 20
899.0472101883347
 30
0.0
 10
615.3223414826474
 20
899.1407313468243
 30
0.0
 10
615.0613572737249
 20
899.224177267253
 30
0.0
 10
614.7989194170294
 20
899.2971976991012
 30
0.0
 10
614.535661295345
 20
899.3599165356034
 30
0.0
 10
614.2701872652133
 20
899.4127383787024
 30
0.0
 10
614.0183788174437
 20
899.4530683856196
 30
0.0
 10
613.7810110385346
 20
899.4827043548577
 30
0.0
 10
613.5586438301445
 20
899.5036333761757
 30
0.0
 10
613.3361534794036
 20
899.5179816698952
 30
0.0
 10
613.1138369053917
 20
899.5259496078886
 30
0.0
 10
612.8776502914608
 20
899.527853459412
 30
0.0
 10
612.6279590197221
 20
899.5224630036568
 30
0.0
 10
612.3652096744897
 20
899.5087595655773
 30
0.0
 10
612.1041174993757
 20
899.4875968613226
 30
0.0
 10
611.8449552186916
 20
899.4595156007983
 30
0.0
 10
611.5638340796297
 20
899.4218169341067
 30
0.0
 10
611.261605654722
 20
899.3729186684752
 30
0.0
 10
610.9392003948813
 20
899.3114098819682
 30
0.0
 10
610.6211518652814
 20
899.2422204678938
 30
0.0
 10
610.2876221914349
 20
899.1614975449365
 30
0.0
 10
609.9395215523532
 20
899.0687988938411
 30
0.0
 10
609.5778673436898
 20
898.9636222178291
 30
0.0
 10
609.2230716072471
 20
898.8524432852608
 30
0.0
 10
608.8752761490653
 20
898.7363394043185
 30
0.0
 10
608.5315204913618
 20
898.6152942223102
 30
0.0
 10
608.1920884162959
 20
898.4902636279829
 30
0.0
 10
607.8573848985968
 20
898.3618473138624
 30
0.0
 10
607.5308331396561
 20
898.2319397674721
 30
0.0
 10
607.2126648770748
 20
898.1012605976898
 30
0.0
 10
606.9204679745296
 20
897.9778582377946
 30
0.0
 10
606.6534156185159
 20
897.862582839946
 30
0.0
 10
606.4107876252206
 20
897.7559278241789
 30
0.0
 10
606.1747508248412
 20
897.6504189965324
 30
0.0
 10
605.945586130208
 20
897.5464017378105
 30
0.0
 10
605.7235745656601
 20
897.4442213826896
 30
0.0
 10
605.5166265840443
 20
897.3477784670426
 30
0.0
 10
605.3244266290368
 20
897.2572705138684
 30
0.0
 10
605.1466681033379
 20
897.1727926097708
 30
0.0
 10
604.9754525257142
 20
897.0907252800542
 30
0.0
 10
604.8110108622777
 20
897.0112774434839
 30
0.0
 10
604.6535741263438
 20
896.9346579459894
 30
0.0
 10
604.5033733143505
 20
896.8610756642239
 30
0.0
 10
604.3641893774474
 20
896.7924885660624
 30
0.0
 10
604.2359241136327
 20
896.7289729785714
 30
0.0
 10
604.1185645085448
 20
896.6706142621233
 30
0.0
 10
604.0086370670123
 20
896.6157495037689
 30
0.0
 10
603.9066039320301
 20
896.5646648421884
 30
0.0
 10
603.8121277671719
 20
896.5172446643253
 30
0.0
 10
603.7254024486407
 20
896.473638177665
 30
0.0
 10
603.6462039866366
 20
896.4337530160603
 30
0.0
 10
603.5746786412935
 20
896.3976848233085
 30
0.0
 10
603.5100061104429
 20
896.3650461637994
 30
0.0
 10
603.4581779892243
 20
896.3388801222486
 30
0.0
 10
603.4178210717358
 20
896.3185264730046
 30
0.0
 10
603.3882642964277
 20
896.3036142726403
 30
0.0
 10
603.3622680655266
 20
896.2906115884646
 30
0.0
 10
603.3414731057412
 20
896.2800455519887
 30
0.0
 10
603.3249111862548
 20
896.2722297630442
 30
0.0
 10
603.317343265305
 20
896.2679192841779
 30
0.0
 10
603.3092443992375
 20
896.2649998681018
 30
0.0
 10
603.3176120726037
 20
896.2692756866827
 30
0.0
 10
603.3210270783429
 20
896.2712042232257
 30
0.0
 10
603.3232622493108
 20
896.2724149655917
 30
0.0
 10
603.3244342945071
 20
896.2730498369975
 30
0.0
 11
623.3588518045398
 21
892.0199138429216
 31
0.0
 11
623.3548313654776
 21
892.026245854903
 31
0.0
 11
623.3493811864417
 21
892.034356100193
 31
0.0
 11
623.341071527459
 21
892.0460228121004
 31
0.0
 11
623.3284726485556
 21
892.063024223934
 31
0.0
 11
623.3101548097582
 21
892.0871385690023
 31
0.0
 11
623.2841079427309
 21
892.1209021392982
 31
0.0
 11
623.2510791819673
 21
892.1633118452046
 31
0.0
 11
623.2116993649329
 21
892.2135455186936
 31
0.0
 11
623.1665993290939
 21
892.2707809917367
 31
0.0
 11
623.1164099119159
 21
892.334196096306
 31
0.0
 11
623.0453890242077
 21
892.4235151863963
 31
0.0
 11
622.9669711440422
 21
892.5216158598911
 31
0.0
 11
622.8810890185395
 21
892.6284721582363
 31
0.0
 11
622.7876753948183
 21
892.744058122878
 31
0.0
 11
622.6821463991278
 21
892.8738798206447
 31
0.0
 11
622.5686823380873
 21
893.0125838342906
 31
0.0
 11
622.4476252060413
 21
893.159571828517
 31
0.0
 11
622.3193169973345
 21
893.3142454680251
 31
0.0
 11
622.1812209849484
 21
893.4794298370472
 31
0.0
 11
622.0361128047606
 21
893.6515345138872
 31
0.0
 11
621.8841762542077
 21
893.8300982129847
 31
0.0
 11
621.7255951307268
 21
894.0146596487807
 31
0.0
 11
621.5365130254684
 21
894.2322532511502
 31
0.0
 11
621.339164217635
 21
894.456361861313
 31
0.0
 11
621.1337142838952
 21
894.6862745894782
 31
0.0
 11
620.920328800918
 21
894.9212805458548
 31
0.0
 11
620.6991733453722
 21
895.1606688406516
 31
0.0
 11
620.4636603157036
 21
895.4107728274539
 31
0.0
 11
620.219996607601
 21
895.6639262501741
 31
0.0
 11
619.9680807249297
 21
895.919292350521
 31
0.0
 11
619.7078111715533
 21
896.1760343702027
 31
0.0
 11
619.4390864513368
 21
896.4333155509279
 31
0.0
 11
619.1719104401801
 21
896.6809976348154
 31
0.0
 11
618.896391833616
 21
896.9273957936915
 31
0.0
 11
618.6121383101128
 21
897.171502609827
 31
0.0
 11
618.3187575481387
 21
897.4123106654931
 31
0.0
 11
618.0717909989436
 21
897.6060164563323
 31
0.0
 11
617.818276193972
 21
897.7959212335874
 31
0.0
 11
617.5580308665056
 21
897.9811036423234
 31
0.0
 11
617.2908727498259
 21
898.1606423276046
 31
0.0
 11
617.0166195772143
 21
898.3336159344958
 31
0.0
 11
616.7910434344872
 21
898.4671765702916
 31
0.0
 11
616.5607761231704
 21
898.5952856697563
 31
0.0
 11
616.3258234126399
 21
898.7173235989767
 31
0.0
 11
616.0861910722705
 21
898.8326707240391
 31
0.0
 11
615.8359016948849
 21
898.9432670933052
 31
0.0
 11
615.581052158742
 21
899.0455942414898
 31
0.0
 11
615.3219878190904
 21
899.1390557175106
 31
0.0
 11
615.0590540311786
 21
899.2230550702861
 31
0.0
 11
614.7985824385698
 21
899.2955386134496
 31
0.0
 11
614.535317334806
 21
899.3582610511668
 31
0.0
 11
614.2698347499704
 21
899.4110787259087
 31
0.0
 11
614.0027107141467
 21
899.4538479801472
 31
0.0
 11
613.7807852883875
 21
899.4815910251968
 31
0.0
 11
613.5584284909368
 21
899.5025518963082
 31
0.0
 11
613.3359387990844
 21
899.5169303341572
 31
0.0
 11
613.1136146901217
 21
899.5249260794196
 31
0.0
 11
612.8917546413393
 21
899.5267388727717
 31
0.0
 11
612.6276532815516
 21
899.5211096083675
 31
0.0
 11
612.364914841897
 21
899.5074781826721
 31
0.0
 11
612.1038136094837
 21
899.4863843377002
 31
0.0
 11
611.8446238714204
 21
899.4583678154665
 31
0.0
 11
611.587619914815
 21
899.4239683579855
 31
0.0
 11
611.2610123088539
 21
899.371246134791
 31
0.0
 11
610.9385979307327
 21
899.3098583982711
 31
0.0
 11
610.6205095687901
 21
899.2407840543422
 31
0.0
 11
610.306880011365
 21
899.16500200892
 31
0.0
 11
609.9384489250435
 21
899.0670079835834
 31
0.0
 11
609.5767070616859
 21
898.961925700205
 31
0.0
 11
609.2217988087534
 21
898.8508326998159
 31
0.0
 11
608.8738685537079
 21
898.7348065234462
 31
0.0
 11
608.5330606840105
 21
898.614924712126
 31
0.0
 11
608.1903061078345
 21
898.4887284323211
 31
0.0
 11
607.8554630797585
 21
898.3603166310077
 31
0.0
 11
607.5287640595885
 21
898.2304095091861
 31
0.0
 11
607.2104415071309
 21
898.099727267856
 31
0.0
 11
606.9007278821917
 21
897.9689901080176
 31
0.0
 11
606.651669329132
 21
897.8614973411819
 31
0.0
 11
606.4089199993196
 21
897.7548038064388
 31
0.0
 11
606.1727608894039
 21
897.6492551335814
 31
0.0
 11
605.9434729960353
 21
897.545196952404
 31
0.0
 11
605.7213373158643
 21
897.4429748927006
 31
0.0
 11
605.5066348455401
 21
897.3429345842644
 31
0.0
 11
605.3224743647814
 21
897.2562161616577
 31
0.0
 11
605.1446256915817
 21
897.1716990050223
 31
0.0
 11
604.9733197776185
 21
897.0895921287615
 31
0.0
 11
604.8087875745692
 21
897.0101045472779
 31
0.0
 11
604.6512600341123
 21
896.9334452749756
 31
0.0
 11
604.5009681079251
 21
896.8598233262569
 31
0.0
 11
604.3581427476853
 21
896.7894477155253
 31
0.0
 11
604.2336507771456
 21
896.7278030131025
 31
0.0
 11
604.1161288157034
 21
896.669365991348
 31
0.0
 11
604.0060389180794
 21
896.6144229637044
 31
0.0
 11
603.9038431389946
 21
896.5632602436144
 31
0.0
 11
603.8100035331697
 21
896.5161641445208
 31
0.0
 11
603.7225866849468
 21
896.4722101532169
 31
0.0
 11
603.6436567898412
 21
896.4324610831873
 31
0.0
 11
603.5723983506159
 21
896.3965298949851
 31
0.0
 11
603.5079958700339
 21
896.3640295491639
 31
0.0
 11
603.4496338508577
 21
896.3345730062769
 31
0.0
 11
603.416879592356
 21
896.3180505846777
 31
0.0
 11
603.3869700210278
 21
896.3029845654438
 31
0.0
 11
603.3608113148939
 21
896.289845667562
 31
0.0
 11
603.3393096519751
 21
896.2791046100183
 31
0.0
 11
603.3233712102926
 21
896.2712321117995
 31
0.0
 11
603.3139021678674
 21
896.266698891892
 31
0.0
 11
603.3118087027199
 21
896.2659756692822
 31
0.0
 11
603.3179969928713
 21
896.2695331629562
 31
0.0
 11
603.3210568545205
 21
896.2712093839637
 31
0.0
 11
603.3244342945071
 21
896.2730498369975
 31
0.0
  0
SPLINE
  5
227
330
64
100
AcDbEntity
  8
0
  6
Continuous
 62
     7
100
AcDbSpline
210
0.0
220
0.0
230
1.0
 70
     8
 71
     3
 72
    17
 73
    13
 74
    11
 42
0.000000001
 43
0.0000000001
 44
0.00000001
 40
0.0
 40
0.0
 40
0.0
 40
0.0
 40
0.194158911369957
 40
0.385655175101857
 40
0.5118594824907418
 40
0.6383067948816907
 40
0.746534939828618
 40
0.8549007470377458
 40
0.9438705513022227
 40
1.027543329878763
 40
1.055070717976455
 40
1.081891675684552
 40
1.081891675684552
 40
1.081891675684552
 40
1.081891675684552
 10
602.5557280920001
 20
921.967138847356
 30
0.0
 10
602.4914042658091
 20
921.9600940776995
 30
0.0
 10
602.363638736475
 20
921.9461011342131
 30
0.0
 10
602.1964823454348
 20
921.9059490380973
 30
0.0
 10
602.0625322801278
 20
921.8413336463519
 30
0.0
 10
601.9620844485385
 20
921.7746251999789
 30
0.0
 10
601.8741097039222
 20
921.7012783152547
 30
0.0
 10
601.8030561035455
 20
921.6280200047368
 30
0.0
 10
601.7443716213984
 20
921.5548992154866
 30
0.0
 10
601.7073381112538
 20
921.4992032245418
 30
0.0
 10
601.6854150431448
 20
921.4587420246966
 30
0.0
 10
601.6772108749633
 20
921.4425899234774
 30
0.0
 10
601.6731621168109
 20
921.434618843739
 30
0.0
 11
602.5557280920001
 21
921.967138847356
 31
0.0
 11
602.363218754315
 21
921.9418834030691
 31
0.0
 11
602.1780432603807
 21
921.8930893894483
 31
0.0
 11
602.0640711126546
 21
921.8388872053861
 31
0.0
 11
601.9585044525118
 21
921.769284022992
 31
0.0
 11
601.8754387269013
 21
921.6999052328488
 31
0.0
 11
601.7999560974092
 21
921.6221522856704
 31
0.0
 11
601.7443577850846
 21
921.5526939962415
 31
0.0
 11
601.6985983989687
 21
921.4826424922994
 31
0.0
 11
601.6854127401841
 21
921.4584785613943
 31
0.0
 11
601.6731621168109
 21
921.434618843739
 31
0.0
  0
SPLINE
  5
228
330
64
100
AcDbEntity
  8
0
  6
Continuous
 62
     7
100
AcDbSpline
210
0.0
220
0.0
230
1.0
 70
     8
 71
     3
 72
    23
 73
    19
 74
    17
 42
0.000000001
 43
0.0000000001
 44
0.00000001
 40
0.0
 40
0.0
 40
0.0
 40
0.0
 40
0.0072345063634152
 40
0.014592059592474
 40
0.0696430217413594
 40
0.1319062341022501
 40
0.197230280687868
 40
0.3207034604276828
 40
0.4426124225505786
 40
0.5525900052980738
 40
0.6637500454434868
 40
0.7760444943489471
 40
0.8654796697377054
 40
0.9545558156524039
 40
1.042770563978529
 40
1.130216179299339
 40
1.219829992785872
 40
1.310218962632584
 40
1.310218962632584
 40
1.310218962632584
 40
1.310218962632584
 10
596.7753292463275
 20
898.4189902749106
 30
0.0
 10
596.7753689923184
 20
898.4165791011342
 30
0.0
 10
596.7754491746605
 20
898.4117157437985
 30
0.0
 10
596.7760477738211
 20
898.3885082451361
 30
0.0
 10
596.7798853620601
 20
898.3470606692115
 30
0.0
 10
596.7896575412624
 20
898.2869402559872
 30
0.0
 10
596.8078787825847
 20
898.2052200509703
 30
0.0
 10
596.8392077023511
 20
898.1062197287313
 30
0.0
 10
596.8891475339185
 20
897.9984356362945
 30
0.0
 10
596.9497401635597
 20
897.9011800905301
 30
0.0
 10
597.0183566237245
 20
897.8134976605829
 30
0.0
 10
597.0905618712541
 20
897.738016212614
 30
0.0
 10
597.1632224374521
 20
897.673709501913
 30
0.0
 10
597.2349421394363
 20
897.6209092077228
 30
0.0
 10
597.3114787328234
 20
897.5765819866285
 30
0.0
 10
597.3935174650745
 20
897.5426507193725
 30
0.0
 10
597.4804817494838
 20
897.5219294129301
 30
0.0
 10
597.5397531240808
 20
897.512620707072
 30
0.0
 10
597.569516434476
 20
897.5079463180356
 30
0.0
 11
596.7753292463275
 21
898.4189902749106
 31
0.0
 11
596.7754596086806
 21
898.4117569421022
 31
0.0
 11
596.7756570718735
 21
898.4044020381016
 31
0.0
 11
596.7802504060386
 21
898.3495430389199
 31
0.0
 11
596.7900732604849
 21
898.2880595522843
 31
0.0
 11
596.8042971036882
 21
898.2243028786227
 31
0.0
 11
596.8418321140047
 21
898.1066731638628
 31
0.0
 11
596.8931378267262
 21
897.9960860070038
 31
0.0
 11
596.9511260720244
 21
897.902638523973
 31
0.0
 11
597.0195045513968
 21
897.8149975640589
 31
0.0
 11
597.0970304153415
 21
897.7337585147666
 31
0.0
 11
597.1641648075778
 21
897.6746685519203
 31
0.0
 11
597.2360785034089
 21
897.6221044952507
 31
0.0
 11
597.3125939815652
 21
897.5782043418379
 31
0.0
 11
597.3935337207766
 21
897.5451060887619
 31
0.0
 11
597.480413391354
 21
897.5231388740469
 31
0.0
 11
597.569516434476
 21
897.5079463180356
 31
0.0
  0
SPLINE
  5
229
330
64
100
AcDbEntity
  8
0
  6
Continuous
 62
     7
100
AcDbSpline
210
0.0
220
0.0
230
1.0
 70
     8
 71
     3
 72
    11
 73
     7
 74
     5
 42
0.000000001
 43
0.0000000001
 44
0.00000001
 40
0.0
 40
0.0
 40
0.0
 40
0.0
 40
0.008142954034365
 40
0.0162636415303786
 40
0.0694423936871689
 40
0.1235821582787505
 40
0.1235821582787505
 40
0.1235821582787505
 40
0.1235821582787505
 10
602.6781709335297
 20
921.956774158423
 30
0.0
 10
602.6755816803434
 20
921.9575883933087
 30
0.0
 10
602.6704102499311
 20
921.9592146229285
 30
0.0
 10
602.6481691342156
 20
921.9656553689626
 30
0.0
 10
602.6094703398888
 20
921.9696815063751
 30
0.0
 10
602.5737488009559
 20
921.9679914511232
 30
0.0
 10
602.5557280920001
 20
921.967138847356
 30
0.0
 11
602.6781709335297
 21
921.956774158423
 31
0.0
 11
602.6703937675577
 21
921.9591873322076
 31
0.0
 11
602.6625843189211
 21
921.96141400749
 31
0.0
 11
602.6098550997438
 21
921.9683139732717
 31
0.0
 11
602.5557280920001
 21
921.967138847356
 31
0.0
  0
SPLINE
  5
22A
330
64
100
AcDbEntity
  8
1
  6
Continuous
 62
     7
100
AcDbSpline
210
0.0
220
0.0
230
1.0
 70
     8
 71
     3
 72
    45
 73
    41
 74
    39
 42
0.000000001
 43
0.0000000001
 44
0.00000001
 40
0.0
 40
0.0
 40
0.0
 40
0.0
 40
0.1185009365494669
 40
0.2437097023074792
 40
0.5534604268796812
 40
0.8548354938474028
 40
1.288544097565485
 40
1.719573054278035
 40
2.297737075237416
 40
2.875782375776236
 40
3.595565396065891
 40
4.315015510941094
 40
5.159472469571394
 40
6.003859950700213
 40
6.950885072113565
 40
7.89785436319528
 40
8.92090379577529
 40
9.94392933197392
 40
11.01370365880213
 40
12.08346698734118
 40
13.16899521075136
 40
14.25452343416201
 40
15.32428676270105
 40
16.39406108952926
 40
17.4170866257272
 40
18.44013605830744
 40
19.38710534938962
 40
20.33413047080365
 40
21.17851795193312
 40
22.02297491056267
 40
22.7424250254376
 40
23.46220804572712
 40
24.04025334626576
 40
24.61841736722505
 40
25.0494463239374
 40
25.48315492765586
 40
25.78452999462374
 40
26.09428071919645
 40
26.21948948495023
 40
26.33799042149523
 40
26.33799042149523
 40
26.33799042149523
 40
26.33799042149523
 10
599.2974918726586
 20
1145.500000000001
 30
0.0
 10
599.3371375339506
 20
1145.497212529707
 30
0.0
 10
599.4186730289679
 20
1145.491479817019
 30
0.0
 10
599.5913380498886
 20
1145.421476496586
 30
0.0
 10
599.8005677956684
 20
1145.287531554215
 30
0.0
 10
600.0300539384242
 20
1145.021190086094
 30
0.0
 10
600.2270783593851
 20
1144.685054966194
 30
0.0
 10
600.4378448428408
 20
1144.252358832575
 30
0.0
 10
600.627043053542
 20
1143.757567121112
 30
0.0
 10
600.8176283380445
 20
1143.16180131547
 30
0.0
 10
600.9884825313133
 20
1142.511137063992
 30
0.0
 10
601.1547373244762
 20
1141.768164872656
 30
0.0
 10
601.3021212343476
 20
1140.978879174618
 30
0.0
 10
601.4391002682652
 20
1140.110906803796
 30
0.0
 10
601.5571285015
 20
1139.205669931789
 30
0.0
 10
601.6608557879608
 20
1138.238796909222
 30
0.0
 10
601.7453409337744
 20
1137.244620811455
 30
0.0
 10
601.8127976336918
 20
1136.208134186076
 30
0.0
 10
601.8607115112735
 20
1135.154971128505
 30
0.0
 10
601.8900043022577
 20
1134.080289793164
 30
0.0
 10
601.8995787396394
 20
1133.000000000001
 30
0.0
 10
601.8900043022576
 20
1131.919710206837
 30
0.0
 10
601.8607115112734
 20
1130.845028871496
 30
0.0
 10
601.8127976336918
 20
1129.791865813925
 30
0.0
 10
601.7453409337745
 20
1128.755379188547
 30
0.0
 10
601.6608557879608
 20
1127.76120309078
 30
0.0
 10
601.5571285014998
 20
1126.794330068213
 30
0.0
 10
601.4391002682655
 20
1125.889093196204
 30
0.0
 10
601.3021212343475
 20
1125.021120825383
 30
0.0
 10
601.154737324477
 20
1124.231835127345
 30
0.0
 10
600.988482531314
 20
1123.488862936009
 30
0.0
 10
600.817628338045
 20
1122.838198684531
 30
0.0
 10
600.6270430535425
 20
1122.242432878889
 30
0.0
 10
600.4378448428406
 20
1121.747641167427
 30
0.0
 10
600.227078359385
 20
1121.314945033807
 30
0.0
 10
600.0300539384242
 20
1120.978809913907
 30
0.0
 10
599.8005677956686
 20
1120.712468445786
 30
0.0
 10
599.5913380498889
 20
1120.578523503415
 30
0.0
 10
599.4186730289715
 20
1120.508520182984
 30
0.0
 10
599.3371375339569
 20
1120.502787470295
 30
0.0
 10
599.2974918726666
 20
1120.500000000001
 30
0.0
 11
599.2974918726586
 21
1145.500000000001
 31
0.0
 11
599.4151274389975
 21
1145.48570505737
 31
0.0
 11
599.5327630053364
 21
1145.442820229481
 31
0.0
 11
599.7928195467924
 21
1145.274546327606
 31
0.0
 11
599.9947262820938
 21
1145.050804063558
 31
0.0
 11
600.2225525725459
 21
1144.681753479478
 31
0.0
 11
600.4114057306406
 21
1144.294299681266
 31
0.0
 11
600.6219665466715
 21
1143.755840976024
 31
0.0
 11
600.7988788586745
 21
1143.205533423097
 31
0.0
 11
600.9842290179076
 21
1142.510024318892
 31
0.0
 11
601.1417966102213
 21
1141.808040757154
 31
0.0
 11
601.2982276626227
 21
1140.978199278392
 31
0.0
 11
601.4302378098849
 21
1140.144194759018
 31
0.0
 11
601.5535593690008
 21
1139.205233432674
 31
0.0
 11
601.654812976419
 21
1138.263692916348
 31
0.0
 11
601.7419769427892
 21
1137.244363439297
 31
0.0
 11
601.8085353672245
 21
1136.223505358046
 31
0.0
 11
601.8574662342239
 21
1135.154850653045
 31
0.0
 11
601.8866070438778
 21
1134.08548430322
 31
0.0
 11
601.8963717256337
 21
1133.000000000001
 31
0.0
 11
601.8866070438777
 21
1131.914515696781
 31
0.0
 11
601.8574662342238
 21
1130.845149346956
 31
0.0
 11
601.8085353672245
 21
1129.776494641955
 31
0.0
 11
601.7419769427893
 21
1128.755636560705
 31
0.0
 11
601.6548129764191
 21
1127.736307083654
 31
0.0
 11
601.5535593690008
 21
1126.794766567327
 31
0.0
 11
601.4302378098849
 21
1125.855805240983
 31
0.0
 11
601.2982276626228
 21
1125.021800721608
 31
0.0
 11
601.1417966102218
 21
1124.191959242846
 31
0.0
 11
600.9842290179084
 21
1123.489975681109
 31
0.0
 11
600.7988788586749
 21
1122.794466576904
 31
0.0
 11
600.6219665466718
 21
1122.244159023978
 31
0.0
 11
600.4114057306406
 21
1121.705700318735
 31
0.0
 11
600.2225525725459
 21
1121.318246520524
 31
0.0
 11
599.9947262820938
 21
1120.949195936443
 31
0.0
 11
599.7928195467922
 21
1120.725453672396
 31
0.0
 11
599.5327630053357
 21
1120.55717977052
 31
0.0
 11
599.4151274390009
 21
1120.514294942632
 31
0.0
 11
599.2974918726666
 21
1120.500000000001
 31
0.0
  0
SPLINE
  5
22B
330
64
100
AcDbEntity
  8
1
  6
Continuous
 62
     7
100
AcDbSpline
210
0.0
220
0.0
230
1.0
 70
     8
 71
     3
 72
    45
 73
    41
 74
    39
 42
0.000000001
 43
0.0000000001
 44
0.00000001
 40
0.0
 40
0.0
 40
0.0
 40
0.0
 40
0.118500936549336
 40
0.2437097023158374
 40
0.5534604268876016
 40
0.8548354938552305
 40
1.288544097573372
 40
1.719573054286077
 40
2.297737075245711
 40
2.875782375784601
 40
3.595565396073934
 40
4.315015510948865
 40
5.159472469579123
 40
6.003859950708131
 40
6.950885072121694
 40
7.897854363203421
 40
8.920903795783431
 40
9.943929331981607
 40
11.01370365881027
 40
12.08346698734932
 40
13.16899521075973
 40
14.25452343417014
 40
15.32428676270897
 40
16.3940610895374
 40
17.41708662573604
 40
18.44013605831603
 40
19.38710534939775
 40
20.3341304708111
 40
21.17851795194013
 40
22.02297491057015
 40
22.74242502544527
 40
23.46220804573507
 40
24.04025334627393
 40
24.61841736723339
 40
25.04944632394594
 40
25.48315492766383
 40
25.78452999463171
 40
26.09428071920379
 40
26.21948948496795
 40
26.33799042151925
 40
26.33799042151925
 40
26.33799042151925
 40
26.33799042151925
 10
599.2974918726507
 20
1120.500000000001
 30
0.0
 10
599.2578462113585
 20
1120.502787470294
 30
0.0
 10
599.1763107163383
 20
1120.50852018298
 30
0.0
 10
599.003645695415
 20
1120.578523503415
 30
0.0
 10
598.7944159496326
 20
1120.712468445786
 30
0.0
 10
598.564929806877
 20
1120.978809913908
 30
0.0
 10
598.3679053859157
 20
1121.314945033806
 30
0.0
 10
598.1571389024606
 20
1121.747641167426
 30
0.0
 10
597.9679406917589
 20
1122.24243287889
 30
0.0
 10
597.7773554072564
 20
1122.838198684531
 30
0.0
 10
597.606501213987
 20
1123.488862936009
 30
0.0
 10
597.4402464208245
 20
1124.231835127345
 30
0.0
 10
597.2928625109532
 20
1125.021120825384
 30
0.0
 10
597.1558834770358
 20
1125.889093196205
 30
0.0
 10
597.0378552438012
 20
1126.794330068212
 30
0.0
 10
596.9341279573405
 20
1127.76120309078
 30
0.0
 10
596.8496428115266
 20
1128.755379188547
 30
0.0
 10
596.782186111609
 20
1129.791865813925
 30
0.0
 10
596.7342722340278
 20
1130.845028871496
 30
0.0
 10
596.7049794430432
 20
1131.919710206837
 30
0.0
 10
596.695405005662
 20
1133.000000000001
 30
0.0
 10
596.7049794430429
 20
1134.080289793164
 30
0.0
 10
596.7342722340279
 20
1135.154971128505
 30
0.0
 10
596.7821861116089
 20
1136.208134186076
 30
0.0
 10
596.849642811527
 20
1137.244620811455
 30
0.0
 10
596.9341279573399
 20
1138.238796909222
 30
0.0
 10
597.0378552438015
 20
1139.205669931789
 30
0.0
 10
597.1558834770357
 20
1140.110906803797
 30
0.0
 10
597.2928625109533
 20
1140.978879174617
 30
0.0
 10
597.4402464208245
 20
1141.768164872656
 30
0.0
 10
597.6065012139869
 20
1142.511137063992
 30
0.0
 10
597.7773554072564
 20
1143.16180131547
 30
0.0
 10
597.9679406917588
 20
1143.757567121112
 30
0.0
 10
598.1571389024605
 20
1144.252358832575
 30
0.0
 10
598.3679053859161
 20
1144.685054966195
 30
0.0
 10
598.564929806877
 20
1145.021190086094
 30
0.0
 10
598.7944159496326
 20
1145.287531554215
 30
0.0
 10
599.0036456954144
 20
1145.421476496587
 30
0.0
 10
599.1763107163379
 20
1145.49147981702
 30
0.0
 10
599.257846211358
 20
1145.497212529707
 30
0.0
 10
599.2974918726507
 20
1145.500000000001
 30
0.0
 11
599.2974918726507
 21
1120.500000000001
 31
0.0
 11
599.1798563063115
 21
1120.514294942629
 31
0.0
 11
599.0622207399647
 21
1120.557179770521
 31
0.0
 11
598.8021641985089
 21
1120.725453672396
 31
0.0
 11
598.6002574632074
 21
1120.949195936443
 31
0.0
 11
598.3724311727552
 21
1121.318246520523
 31
0.0
 11
598.1835780146606
 21
1121.705700318735
 31
0.0
 11
597.9730171986296
 21
1122.244159023978
 31
0.0
 11
597.7961048866264
 21
1122.794466576905
 31
0.0
 11
597.6107547273928
 21
1123.489975681109
 31
0.0
 11
597.4531871350794
 21
1124.191959242847
 31
0.0
 11
597.2967560826781
 21
1125.021800721609
 31
0.0
 11
597.1647459354161
 21
1125.855805240983
 31
0.0
 11
597.0414243763004
 21
1126.794766567327
 31
0.0
 11
596.9401707688821
 21
1127.736307083654
 31
0.0
 11
596.8530068025119
 21
1128.755636560704
 31
0.0
 11
596.7864483780766
 21
1129.776494641955
 31
0.0
 11
596.7375175110773
 21
1130.845149346956
 31
0.0
 11
596.7083767014233
 21
1131.914515696781
 31
0.0
 11
596.6986120196674
 21
1133.000000000001
 31
0.0
 11
596.7083767014233
 21
1134.08548430322
 31
0.0
 11
596.7375175110773
 21
1135.154850653045
 31
0.0
 11
596.7864483780766
 21
1136.223505358046
 31
0.0
 11
596.853006802512
 21
1137.244363439297
 31
0.0
 11
596.940170768882
 21
1138.263692916348
 31
0.0
 11
597.0414243763003
 21
1139.205233432674
 31
0.0
 11
597.1647459354161
 21
1140.144194759018
 31
0.0
 11
597.2967560826783
 21
1140.978199278393
 31
0.0
 11
597.4531871350794
 21
1141.808040757154
 31
0.0
 11
597.6107547273926
 21
1142.510024318892
 31
0.0
 11
597.7961048866264
 21
1143.205533423097
 31
0.0
 11
597.9730171986295
 21
1143.755840976024
 31
0.0
 11
598.1835780146606
 21
1144.294299681266
 31
0.0
 11
598.3724311727553
 21
1144.681753479478
 31
0.0
 11
598.6002574632074
 21
1145.050804063558
 31
0.0
 11
598.802164198509
 21
1145.274546327606
 31
0.0
 11
599.062220739965
 21
1145.44282022948
 31
0.0
 11
599.1798563063097
 21
1145.485705057371
 31
0.0
 11
599.2974918726507
 21
1145.500000000001
 31
0.0
  0
LWPOLYLINE
  5
22C
330
64
100
AcDbEntity
  8
0
  6
Continuous
 62
     7
100
AcDbPolyline
 90
       45
 70
     0
 43
0.0
 10
318.9747585634597
 20
919.657935451523
 10
319.6127196145211
 20
919.174608609709
 10
320.6957404358043
 20
918.186563950976
 10
321.6516841767809
 20
917.080158071075
 10
322.4671312898452
 20
915.870922594752
 10
323.1306357755823
 20
914.575832247722
 10
323.6328816668959
 20
913.21306735899
 10
323.9668203037655
 20
911.801758289297
 10
324.1277631609175
 20
910.361716414444
 10
324.1134506100457
 20
908.913157185144
 10
323.9240845145004
 20
907.476415026902
 10
323.5623226226945
 20
906.071658657171
 10
323.0332431212669
 20
904.718608146369
 10
322.3442727808581
 20
903.436255924452
 10
321.5050849505033
 20
902.242605360681
 10
320.5274574677
 20
901.154410888941
 10
319.4251159625737
 20
900.186950447898
 10
318.2135342204568
 20
899.353802671499
 10
316.9097202410325
 20
898.6666647839488
 10
315.531976919435
 20
898.1351821086548
 10
314.099644735773
 20
897.7668163470025
 10
312.6328301381312
 20
897.566736865656
 10
311.1521242017194
 20
897.5377537103531
 10
309.6783128006042
 20
897.680273741228
 10
308.2320849268797
 20
897.992294923487
 10
306.8337425905215
 20
898.4694388406384
 10
305.502915675449
 20
899.105006592394
 10
304.2582856362768
 20
899.890076782445
 10
303.1173242782152
 20
900.813627090033
 10
302.0960486473645
 20
901.86269527886
 10
301.2087945414327
 20
903.022552681186
 10
300.4680180823082
 20
904.276919215658
 10
299.8841176654137
 20
905.608184394863
 10
299.4652892576738
 20
906.997661586384
 10
299.2174133090226
 20
908.425845222802
 10
299.1439692422727
 20
909.872686714896
 10
299.2459880291236
 20
911.317875768523
 10
299.5220363799602
 20
912.741124648251
 10
299.9682409490829
 20
914.122454389271
 10
300.5783378273335
 20
915.442474052258
 10
301.3437612887465
 20
916.68265329415
 10
302.2537672347501
 20
917.825583042995
 10
303.2955807295023
 20
918.855218946458
 10
304.4545778777541
 20
919.757107326865
 10
304.5803143639361
 20
919.842450173378
  0
LWPOLYLINE
  5
22D
330
64
100
AcDbEntity
  8
0
  6
Continuous
 62
     7
100
AcDbPolyline
 90
       52
 70
     1
 43
0.0
 10
311.411101429856
 20
921.32133524076
 10
312.8400504192039
 20
921.263168951609
 10
314.2508547808403
 20
921.033681211037
 10
315.6221280412412
 20
920.636350337164
 10
316.9330834594227
 20
920.077199604147
 10
318.1638485233274
 20
919.36470512457
 10
319.2957648422361
 20
918.509667583513
 10
320.3116756911188
 20
917.525048566589
 10
321.1961790375756
 20
916.425773842637
 10
321.9358676379659
 20
915.228507225823
 10
322.5195277301642
 20
913.951398185654
 10
322.9383130277604
 20
912.613806326193
 10
323.1858743494185
 20
911.236008172174
 10
323.2584587875309
 20
909.838889676752
 10
323.1549661985446
 20
908.443630035175
 10
322.8769657479224
 20
907.071379883439
 10
322.4286714480442
 20
905.742940616449
 10
321.8168784372429
 20
904.478450622001
 10
321.0508618759787
 20
903.297077769474
 10
320.1422326190555
 20
902.216731079698
 10
319.1047655934916
 20
901.253786764619
 10
317.9541870959267
 20
900.422842805183
 10
316.7079388412712
 20
899.736495430226
 10
315.3849129543629
 20
899.205148560239
 10
314.0051651221307
 20
898.8368563582602
 10
312.5896108383249
 20
898.6372027093672
 10
311.1597083266183
 20
898.609213974031
 10
309.7371335113886
 20
898.7533144341211
 10
308.3434511925026
 20
899.067319856521
 10
306.9997882961867
 20
899.546469289293
 10
305.7265134810286
 20
900.183499830552
 10
304.5429275973274
 20
900.968755144389
 10
303.4669733415894
 20
901.890331612072
 10
302.514960433377
 20
902.934258321682
 10
301.701321563503
 20
904.084711193705
 10
301.0383893191977
 20
905.324249873291
 10
300.5362144380261
 20
906.634084773804
 10
300.2024084451585
 20
907.994359501702
 10
300.0420305934218
 20
909.384454175831
 10
300.0575147061804
 20
910.783296514201
 10
300.2486228728921
 20
912.169681130661
 10
300.6124605624802
 20
913.522591955909
 10
301.1435123169532
 20
914.821520228226
 10
301.8337260172101
 20
916.046775576245
 10
302.6726402506549
 20
917.179784263264
 10
303.6475371474939
 20
918.203371105367
 10
304.7436389595631
 20
919.102019598416
 10
305.9443293457226
 20
919.862107086968
 10
307.2314075856529
 20
920.472111410252
 10
308.5853622828989
 20
920.922785559917
 10
309.9856693836262
 20
921.207297649405
 10
311.411101429856
 20
921.32133524076
  0
ENDBLK
  5
66
330
64
100
AcDbEntity
  8
0
100
AcDbBlockEnd
  0
BLOCK
  5
68
330
67
100
AcDbEntity
  8
0
100
AcDbBlockBegin
  2
30-255-_表面処理_
 70
     0
 10
1546.363102955559
 20
958.7739273576101
 30
0.0
  3
30-255-_表面処理_
  1

  0
LINE
  5
22E
330
67
100
AcDbEntity
  8
0
  6
Continuous
 62
     7
100
AcDbLine
 10
603.6862748229976
 20
894.4015385257044
 30
0.0
 11
604.9089593239141
 21
894.1416489121823
 31
0.0
  0
LINE
  5
22F
330
67
100
AcDbEntity
  8
0
  6
Continuous
 62
     7
100
AcDbLine
 10
603.6129631152344
 20
896.4615012303562
 30
0.0
 11
603.3011568680395
 21
894.9945681714803
 31
0.0
  0
LINE
  5
230
330
67
100
AcDbEntity
  8
0
  6
Continuous
 62
     7
100
AcDbLine
 10
604.9089593239146
 20
894.1416489121871
 30
0.0
 11
612.9786770299693
 21
892.4263774629367
 31
0.0
  0
LINE
  5
231
330
67
100
AcDbEntity
  8
0
  6
Continuous
 62
     7
100
AcDbLine
 10
612.9786770299693
 20
892.4263774629367
 30
0.0
 11
621.0483947360253
 21
890.7111060136937
 31
0.0
  0
LINE
  5
232
330
67
100
AcDbEntity
  8
0
  6
Continuous
 62
     7
100
AcDbLine
 10
622.8641088827164
 20
890.8363343551248
 30
0.0
 11
623.1759151299113
 21
892.3032674140015
 31
0.0
  0
LINE
  5
233
330
67
100
AcDbEntity
  8
0
  6
Continuous
 62
     7
100
AcDbLine
 10
621.048394736024
 20
890.711106013689
 30
0.0
 11
622.2710792369407
 21
890.4512164001667
 31
0.0
  0
LINE
  5
256
330
67
100
AcDbEntity
  8
0
  6
Continuous
 62
     7
100
AcDbLine
 10
321.6057449607276
 20
892.9539065151517
 30
0.0
 11
321.6001840336277
 21
899.507513576652
 31
0.0
  0
LINE
  5
257
330
67
100
AcDbEntity
  8
0
  6
Continuous
 62
     7
100
AcDbLine
 10
301.6001639915277
 20
899.522936278452
 30
0.0
 11
301.6057528583277
 21
892.9369359551517
 31
0.0
  0
ARC
  5
258
330
67
100
AcDbEntity
  8
0
  6
Continuous
 62
     7
100
AcDbCircle
 10
311.6541794642276
 20
864.0842483629517
 30
0.0
 40
30.4484219479703
100
AcDbArc
 50
73.7490801553005
 51
106.6235617618002
  0
ARC
  5
259
330
67
100
AcDbEntity
  8
0
  6
Continuous
 62
     7
100
AcDbCircle
 10
303.3572846542278
 20
891.9949649809517
 30
0.0
 40
1.331088391538423
100
AcDbArc
 50
108.1147672107929
 51
160.0380933991071
  0
ARC
  5
25A
330
67
100
AcDbEntity
  8
0
  6
Continuous
 62
     7
100
AcDbCircle
 10
311.5266337021276
 20
927.3258116469519
 30
0.0
 40
36.87377674410557
100
AcDbArc
 50
259.6171948468001
 51
281.5349533945001
  0
ARC
  5
25B
330
67
100
AcDbEntity
  8
0
  6
Continuous
 62
     7
100
AcDbCircle
 10
304.8720359177275
 20
894.4973317426517
 30
0.0
 40
3.44152285067038
100
AcDbArc
 50
216.5174655286033
 51
270.1508293658513
  0
SPLINE
  5
25C
330
67
100
AcDbEntity
  8
0
  6
Continuous
 62
     7
100
AcDbSpline
210
0.0
220
0.0
230
1.0
 70
     8
 71
     3
 72
    50
 73
    46
 74
    44
 42
0.000000001
 43
0.0000000001
 44
0.00000001
 40
0.0
 40
0.0
 40
0.0
 40
0.0
 40
0.0021653604015113
 40
0.0043298644520933
 40
0.1140513680079364
 40
0.2197128298849944
 40
0.3217739577218548
 40
0.4206861672944402
 40
0.5168921975527876
 40
0.610826074589435
 40
0.7029134850850256
 40
0.7935725921310361
 40
0.9143511734054333
 40
1.033008284262838
 40
1.149285223787464
 40
1.262931956191622
 40
1.373709298913946
 40
1.481391623385325
 40
1.588394805414738
 40
1.692205233126159
 40
1.793108297975283
 40
1.89139703383707
 40
1.987371703684002
 40
2.081339100711932
 40
2.17944949736529
 40
2.27571508633143
 40
2.370287441348465
 40
2.463412254935486
 40
2.555443390542566
 40
2.628533636107352
 40
2.701850044912388
 40
2.776005862513854
 40
2.851592681441289
 40
2.929174010264967
 40
2.969790920636286
 40
3.010761051263269
 40
3.051807541993647
 40
3.092700100353378
 40
3.133270003356773
 40
3.173428330758496
 40
3.213187340955122
 40
3.252683668933469
 40
3.292199992777401
 40
3.296905741096178
 40
3.301614998464273
 40
3.301614998464273
 40
3.301614998464273
 40
3.301614998464273
 10
319.0475024310866
 20
891.2075686542797
 30
0.0
 10
319.0482071364374
 20
891.207724752316
 30
0.0
 10
319.0496162684136
 20
891.2080368867935
 30
0.0
 10
319.0867322055597
 20
891.2162653901715
 30
0.0
 10
319.1573835571386
 20
891.2326252979194
 30
0.0
 10
319.2600214538795
 20
891.258381011033
 30
0.0
 10
319.3587122518258
 20
891.2849961524616
 30
0.0
 10
319.453921180929
 20
891.3123624584364
 30
0.0
 10
319.546114313242
 20
891.3403715947662
 30
0.0
 10
319.6357578560973
 20
891.3689150672874
 30
0.0
 10
319.7233185546311
 20
891.3978840425027
 30
0.0
 10
319.8190869134019
 20
891.4305179391739
 30
0.0
 10
319.9229742572139
 20
891.4667769266711
 30
0.0
 10
320.0345128355861
 20
891.5070113633909
 30
0.0
 10
320.1433149429654
 20
891.5478020608131
 30
0.0
 10
320.2490570142886
 20
891.5892409879401
 30
0.0
 10
320.3514154349553
 20
891.6314208568797
 30
0.0
 10
320.4508699628981
 20
891.6747827945939
 30
0.0
 10
320.5471562855823
 20
891.7195312284196
 30
0.0
 10
320.6402237829093
 20
891.7657631547389
 30
0.0
 10
320.7294106862082
 20
891.8131933561817
 30
0.0
 10
320.8148977636474
 20
891.8619297849776
 30
0.0
 10
320.8968665162143
 20
891.9120798709752
 30
0.0
 10
320.9771221076425
 20
891.9648202438646
 30
0.0
 10
321.0555957421795
 20
892.0203582124491
 30
0.0
 10
321.1318033586664
 20
892.0793138341044
 30
0.0
 10
321.2037198537457
 20
892.1409262560846
 30
0.0
 10
321.2709657980899
 20
892.2056011912434
 30
0.0
 10
321.3290429058059
 20
892.269237500971
 30
0.0
 10
321.3787077045951
 20
892.3313444305596
 30
0.0
 10
321.4212798588854
 20
892.3913337271676
 30
0.0
 10
321.4609022685727
 20
892.4542926742424
 30
0.0
 10
321.4978584272223
 20
892.5204810721801
 30
0.0
 10
321.526581560442
 20
892.5783655044302
 30
0.0
 10
321.5485817221262
 20
892.6266504937245
 30
0.0
 10
321.564373383451
 20
892.6643643815858
 30
0.0
 10
321.5786816073692
 20
892.702768713349
 30
0.0
 10
321.5910302117389
 20
892.7417145175936
 30
0.0
 10
321.6009402518291
 20
892.7810551496286
 30
0.0
 10
321.6079286651191
 20
892.8206461207096
 30
0.0
 10
321.6115047975884
 20
892.86034642153
 30
0.0
 10
321.6111708095416
 20
892.9000039143
 30
0.0
 10
321.6078220002537
 20
892.9277843779405
 30
0.0
 10
321.6047689417618
 20
892.9438063127004
 30
0.0
 10
321.6041593106258
 20
892.94688488944
 30
0.0
 10
321.6038543758917
 20
892.9484247504288
 30
0.0
 11
319.0475024310866
 21
891.2075686542797
 31
0.0
 11
319.0496165231828
 21
891.2080370098829
 31
0.0
 11
319.051729704253
 21
891.20850556479
 31
0.0
 11
319.1586217760439
 21
891.2332622502004
 31
0.0
 11
319.2611062689429
 21
891.2589774839447
 31
0.0
 11
319.3596492258348
 21
891.2855436176965
 31
0.0
 11
319.4547166896043
 21
891.3128530031283
 31
0.0
 11
319.5467747031362
 21
891.3407979919134
 31
0.0
 11
319.6362893093151
 21
891.369270935724
 31
0.0
 11
319.723726551026
 21
891.3981641862339
 31
0.0
 11
319.8095524711533
 21
891.4273700951153
 31
0.0
 11
319.9235714874856
 21
891.4672088900879
 31
0.0
 11
320.0351731674058
 21
891.5075149066442
 31
0.0
 11
320.1440322469111
 21
891.5483808759861
 31
0.0
 11
320.249823461998
 21
891.5898995293145
 31
0.0
 11
320.3522215486634
 21
891.6321635978305
 31
0.0
 11
320.4509012429041
 21
891.6752658127361
 31
0.0
 11
320.5479177542229
 21
891.7204042384814
 31
0.0
 11
320.6408696395038
 21
891.7666270889853
 31
0.0
 11
320.729938891737
 21
891.8140411880263
 31
0.0
 11
320.8153075039131
 21
891.8627533593827
 31
0.0
 11
320.8971574690222
 21
891.9128704268323
 31
0.0
 11
320.975670780055
 21
891.9644992141536
 31
0.0
 11
321.0556812297933
 21
892.0212792973393
 31
0.0
 11
321.1317409681277
 21
892.0802876001912
 31
0.0
 11
321.2034735181041
 21
892.141918530656
 31
0.0
 11
321.2705024027679
 21
892.2065664966801
 31
0.0
 11
321.3324511451648
 21
892.2746259062104
 31
0.0
 11
321.3781031796071
 21
892.3317054624895
 31
0.0
 11
321.4205570760919
 21
892.3914797251302
 31
0.0
 11
321.4600949556203
 21
892.4542160094533
 31
0.0
 11
321.4969989391932
 21
892.5201816307792
 31
0.0
 11
321.5315511478113
 21
892.5896439044288
 31
0.0
 11
321.5483418412794
 21
892.6266277660042
 31
0.0
 11
321.5641106184971
 21
892.6644417483562
 31
0.0
 11
321.5783784364396
 21
892.7029286781041
 31
0.0
 11
321.5906662520826
 21
892.7419313818664
 31
0.0
 11
321.6004950224014
 21
892.7812926862618
 31
0.0
 11
321.6073857043716
 21
892.8208554179096
 31
0.0
 11
321.6108592549684
 21
892.8604624034278
 31
0.0
 11
321.6104366311677
 21
892.8999564694361
 31
0.0
 11
321.6056387899446
 21
892.9391804425529
 31
0.0
 11
321.6047636264967
 21
892.9438040966463
 31
0.0
 11
321.6038543758917
 21
892.9484247504288
 31
0.0
  0
SPLINE
  5
25D
330
67
100
AcDbEntity
  8
0
  6
Continuous
 62
     7
100
AcDbSpline
210
0.0
220
0.0
230
1.0
 70
     8
 71
     3
 72
    23
 73
    19
 74
    17
 42
0.000000001
 43
0.0000000001
 44
0.00000001
 40
0.0
 40
0.0
 40
0.0
 40
0.0
 40
0.1472846370991382
 40
0.2915794409539238
 40
0.4726044561108918
 40
0.6521942516859447
 40
0.8454144876107543
 40
1.040358229846718
 40
1.287291488897528
 40
1.549721657583296
 40
1.871641819454083
 40
2.222986772492788
 40
2.598095111805145
 40
2.999311105439598
 40
3.413744302119049
 40
3.869907963723946
 40
3.896468772731503
 40
3.923128692562194
 40
3.923128692562194
 40
3.923128692562194
 40
3.923128692562194
 10
301.6057537896556
 20
892.9393890588098
 30
0.0
 10
301.6104892703564
 20
892.8905293353782
 30
0.0
 10
301.6198641153701
 20
892.7938017273955
 30
0.0
 10
301.6490741270784
 20
892.6383673151417
 30
0.0
 10
301.7157951885449
 20
892.482187666658
 30
0.0
 10
301.8182986786626
 20
892.3279371412034
 30
0.0
 10
301.9430491535359
 20
892.1849146933403
 30
0.0
 10
302.1012301927638
 20
892.0435617103375
 30
0.0
 10
302.2928251185002
 20
891.9070826394543
 30
0.0
 10
302.5329513673593
 20
891.7682275205259
 30
0.0
 10
302.8141796964512
 20
891.6327039587475
 30
0.0
 10
303.1388495049751
 20
891.5028074063856
 30
0.0
 10
303.4952330282727
 20
891.3828777841201
 30
0.0
 10
303.8757111434401
 20
891.2696974970701
 30
0.0
 10
304.2847983596457
 20
891.158191981437
 30
0.0
 10
304.5771548919781
 20
891.0942905124748
 30
0.0
 10
304.7440880650849
 20
891.0632529148121
 30
0.0
 10
304.7615347095668
 20
891.0600386469547
 30
0.0
 10
304.770274276845
 20
891.0584285198267
 30
0.0
 11
301.6057537896556
 21
892.9393890588098
 31
0.0
 11
301.6221664574745
 21
892.7930217459227
 31
0.0
 11
301.6513057081027
 21
892.6516997902205
 31
0.0
 11
301.7207951847006
 21
892.4845433658857
 31
0.0
 11
301.8187733395023
 21
892.3340349732453
 31
0.0
 11
301.9454923682048
 21
892.188170833714
 31
0.0
 11
302.0902566639705
 21
892.0576091198741
 31
0.0
 11
302.2906240372396
 21
891.9132867380519
 31
0.0
 11
302.517145129852
 21
891.7807809351502
 31
0.0
 11
302.8067418199353
 21
891.6401880923803
 31
0.0
 11
303.1325686750934
 21
891.5087341605241
 31
0.0
 11
303.4876147538861
 21
891.3877029751881
 31
0.0
 11
303.8719084141776
 21
891.2724091945701
 31
0.0
 11
304.2722066332033
 21
891.1650955876564
 31
0.0
 11
304.7179451240223
 21
891.0681291757637
 31
0.0
 11
304.7440569361932
 21
891.0632660649106
 31
0.0
 11
304.770274276845
 21
891.0584285198267
 31
0.0
  0
ARC
  5
25E
330
67
100
AcDbEntity
  8
1
  6
Continuous
 62
     7
100
AcDbCircle
 10
603.7902306684064
 20
894.8906123260712
 30
0.0
 40
0.5000000000000455
100
AcDbArc
 50
167.9999999999715
 51
258.000000000007
  0
ARC
  5
25F
330
67
100
AcDbEntity
  8
1
  6
Continuous
 62
     7
100
AcDbCircle
 10
622.3750350823495
 20
890.9402902005336
 30
0.0
 40
0.4999999999999746
100
AcDbArc
 50
258.0000000000098
 51
348.0000000000098
  0
LWPOLYLINE
  5
260
330
67
100
AcDbEntity
  8
0
  6
Continuous
 62
     7
100
AcDbPolyline
 90
       25
 70
     0
 43
0.0
 10
301.6057528583277
 20
892.9381001083517
 10
301.6954904450276
 20
893.2152821956518
 10
301.9620759440277
 20
893.4876493452517
 10
302.4007530911277
 20
893.7503419159517
 10
303.0036941198276
 20
893.9986679045518
 10
303.7601385293277
 20
894.2281998036517
 10
304.6565881958277
 20
894.4348397939517
 10
305.6770457914276
 20
894.6149035631518
 10
306.8033011658276
 20
894.7651724605518
 10
308.0152563778278
 20
894.8829698650517
 10
309.2912840219277
 20
894.9661891250518
 10
310.6086133483275
 20
895.0133494375517
 10
311.9437366402277
 20
895.0236088870518
 10
313.2728284253277
 20
894.9967812089518
 10
314.5721712643277
 20
894.9333469657518
 10
315.8185781939276
 20
894.8344386457517
 10
316.9898071354277
 20
894.7018201737518
 10
318.0649571148277
 20
894.5378589718517
 10
319.0248424215276
 20
894.3454812555517
 10
319.8523346362277
 20
894.1281180171517
 10
320.5326657770278
 20
893.8896510093517
 10
321.0536960540277
 20
893.6343326507517
 10
321.4061271427278
 20
893.3667226968518
 10
321.5836698217278
 20
893.0915932445517
 10
321.6057393728278
 20
892.9513006745517
  0
LWPOLYLINE
  5
261
330
67
100
AcDbEntity
  8
0
  6
Continuous
 62
     7
100
AcDbPolyline
 90
       11
 70
     0
 43
0.0
 10
318.9001243589376
 20
891.1967783508877
 10
318.9731158344276
 20
891.2152483402517
 10
319.7212491212277
 20
891.4360332577518
 10
320.3182138530277
 20
891.6758227436518
 10
320.7528900383277
 20
891.9301539002518
 10
321.0171798272278
 20
892.1942862956518
 10
321.1061602486275
 20
892.4633006839517
 10
321.0181735484276
 20
892.7321846871517
 10
320.7548588542277
 20
892.9959315149517
 10
320.3211214421277
 20
893.2496256469518
 10
320.1750006555205
 20
893.3161146281708
  0
ENDBLK
  5
69
330
67
100
AcDbEntity
  8
0
100
AcDbBlockEnd
  0
BLOCK
  5
6B
330
6A
100
AcDbEntity
  8
0
100
AcDbBlockBegin
  2
84-414-2-DH5
 70
     0
 10
351.0891018826861
 20
1025.704478413341
 30
0.0
  3
84-414-2-DH5
  1

  0
LINE
  5
262
330
6A
100
AcDbEntity
  8
1
  6
Continuous
 62
     7
100
AcDbLine
 10
315.5917193917886
 20
922.704478413338
 30
0.0
 11
307.5917193917886
 21
922.704478413338
 31
0.0
  0
LINE
  5
263
330
6A
100
AcDbEntity
  8
1
  6
Continuous
 62
     7
100
AcDbLine
 10
713.5911746825028
 20
922.704478413338
 30
0.0
 11
714.7911746825033
 21
922.704478413338
 31
0.0
  0
LINE
  5
264
330
6A
100
AcDbEntity
  8
1
  6
Continuous
 62
     7
100
AcDbLine
 10
713.5911746825028
 20
941.104477988338
 30
0.0
 11
714.7911746825024
 21
941.104477988338
 31
0.0
  0
LINE
  5
265
330
6A
100
AcDbEntity
  8
1
  6
Continuous
 62
     7
100
AcDbLine
 10
713.5911746825028
 20
941.104477988338
 30
0.0
 11
713.5911746825028
 21
922.704478413338
 31
0.0
  0
LINE
  5
266
330
6A
100
AcDbEntity
  8
1
  6
Continuous
 62
     7
100
AcDbLine
 10
307.5917193917886
 20
941.054477988338
 30
0.0
 11
315.5917193917886
 21
941.054477988338
 31
0.0
  0
LINE
  5
267
330
6A
100
AcDbEntity
  8
1
  6
Continuous
 62
     7
100
AcDbLine
 10
316.0917193917886
 20
940.554477988338
 30
0.0
 11
316.0917193917886
 21
923.2044784133379
 31
0.0
  0
LINE
  5
268
330
6A
100
AcDbEntity
  8
1
  6
Continuous
 62
     7
100
AcDbLine
 10
307.0917193917886
 20
940.554477988338
 30
0.0
 11
307.0917193917886
 21
923.2044784133379
 31
0.0
  0
LINE
  5
269
330
6A
100
AcDbEntity
  8
1
  6
Continuous
 62
     7
100
AcDbLine
 10
714.7911746825024
 20
941.104477988338
 30
0.0
 11
714.7911746825033
 21
922.704478413338
 31
0.0
  0
ARC
  5
26A
330
6A
100
AcDbEntity
  8
1
  6
Continuous
 62
     7
100
AcDbCircle
 10
315.5917193917886
 20
923.2044784133379
 30
0.0
 40
0.4999999999998863
100
AcDbArc
 50
270.0
 51
0.0
  0
ARC
  5
26B
330
6A
100
AcDbEntity
  8
1
  6
Continuous
 62
     7
100
AcDbCircle
 10
307.5917193917886
 20
923.2044784133379
 30
0.0
 40
0.5
100
AcDbArc
 50
180.0
 51
270.0
  0
ARC
  5
26C
330
6A
100
AcDbEntity
  8
1
  6
Continuous
 62
     7
100
AcDbCircle
 10
307.5917193917886
 20
940.554477988338
 30
0.0
 40
0.5
100
AcDbArc
 50
90.0
 51
180.0
  0
ARC
  5
26D
330
6A
100
AcDbEntity
  8
1
  6
Continuous
 62
     7
100
AcDbCircle
 10
315.5917193917886
 20
940.554477988338
 30
0.0
 40
0.5
100
AcDbArc
 50
0.0
 51
90.0
  0
ENDBLK
  5
6C
330
6A
100
AcDbEntity
  8
0
100
AcDbBlockEnd
  0
BLOCK
  5
6E
330
6D
100
AcDbEntity
  8
0
100
AcDbBlockBegin
  2
レバー
 70
     0
 10
830.5929570124421
 20
997.7489163438361
 30
0.0
  3
レバー
  1

  0
LINE
  5
26E
330
6D
100
AcDbEntity
  8
1
  6
PHANTOM
 62
     5
100
AcDbLine
 10
717.2273307035267
 20
928.265137646842
 30
0.0
 11
732.4907752159869
 21
922.5297196643
 31
0.0
  0
LINE
  5
26F
330
6D
100
AcDbEntity
  8
1
  6
PHANTOM
 62
     5
100
AcDbLine
 10
751.365133212844
 20
922.529719664299
 30
0.0
 11
732.4907752159869
 21
922.5297196643
 31
0.0
  0
LINE
  5
270
330
6D
100
AcDbEntity
  8
1
  6
PHANTOM
 62
     5
100
AcDbLine
 10
722.5275406757397
 20
949.328492977321
 30
0.0
 11
708.6789702108133
 21
955.4383508148819
 31
0.0
  0
LINE
  5
271
330
6D
100
AcDbEntity
  8
1
  6
PHANTOM
 62
     5
100
AcDbLine
 10
708.3527091500586
 20
956.217260367016
 30
0.0
 11
709.0292179204043
 21
957.891678330747
 31
0.0
  0
LINE
  5
272
330
6D
100
AcDbEntity
  8
1
  6
PHANTOM
 62
     5
100
AcDbLine
 10
757.7063702851707
 20
938.2248321764109
 30
0.0
 11
751.365133212844
 21
922.529719664299
 31
0.0
  0
LINE
  5
273
330
6D
100
AcDbEntity
  8
1
  6
PHANTOM
 62
     5
100
AcDbLine
 10
709.8102921892043
 20
958.2232246874371
 30
0.0
 11
757.3748239284802
 21
939.0059064452009
 31
0.0
  0
LINE
  5
274
330
6D
100
AcDbEntity
  8
1
  6
PHANTOM
 62
     5
100
AcDbLine
 10
716.9510420729513
 20
928.9160328708331
 30
0.0
 11
723.8869617622191
 21
946.083036510091
 31
0.0
  0
ARC
  5
275
330
6D
100
AcDbEntity
  8
1
  6
PHANTOM
 62
     5
100
AcDbCircle
 10
757.1500599724305
 20
938.449596132461
 30
0.0
 40
0.6000000000002743
100
AcDbArc
 50
337.9999999999554
 51
67.99999999998754
  0
ARC
  5
276
330
6D
100
AcDbEntity
  8
1
  6
PHANTOM
 62
     5
100
AcDbCircle
 10
709.5855282331494
 20
957.666914374689
 30
0.0
 40
0.6000000000080945
100
AcDbArc
 50
89.99999999950062
 51
157.9999999994257
  0
ARC
  5
277
330
6D
100
AcDbEntity
  8
1
  6
PHANTOM
 62
     5
100
AcDbCircle
 10
708.9090194627986
 20
955.9924964109671
 30
0.0
 40
0.5999999999997431
100
AcDbArc
 50
158.000000000052
 51
247.4545972306666
  0
ARC
  5
278
330
6D
100
AcDbEntity
  8
1
  6
PHANTOM
 62
     5
100
AcDbCircle
 10
717.4146340002347
 20
928.728729574125
 30
0.0
 40
0.5000000000000866
100
AcDbArc
 50
157.9999999999957
 51
247.9999999999761
  0
ARC
  5
279
330
6D
100
AcDbEntity
  8
1
  6
PHANTOM
 62
     5
100
AcDbCircle
 10
721.5690021258023
 20
947.0195529936309
 30
0.0
 40
2.499999999999926
100
AcDbArc
 50
337.9999999999966
 51
67.45459723071126
  0
ARC
  5
27A
330
6D
100
AcDbEntity
  8
1
  6
PHANTOM
 62
     5
100
AcDbCircle
 10
709.5855282331546
 20
957.666914374696
 30
0.0
 40
0.6000000000009899
100
AcDbArc
 50
68.00000000001815
 51
90.0
  0
ENDBLK
  5
6F
330
6D
100
AcDbEntity
  8
0
100
AcDbBlockEnd
  0
BLOCK
  5
72
330
70
100
AcDbEntity
  8
0
100
AcDbBlockBegin
  2
27-22-_表面処理_
 70
     0
 10
582.1167099910061
 20
984.3668266841771
 30
0.0
  3
27-22-_表面処理_
  1

  0
INSERT
  5
71
330
70
100
AcDbEntity
  8
1
100
AcDbBlockReference
  2
レバー
 10
830.592957012442
 20
997.748916343836
 30
0.0
 41
1.0
 42
1.0
 43
1.0
  0
LINE
  5
27B
330
70
100
AcDbEntity
  8
0
  6
Continuous
 62
     7
100
AcDbLine
 10
699.0917193917885
 20
1143.000000000021
 30
0.0
 11
715.0992968893477
 21
1143.000000000023
 31
0.0
  0
LINE
  5
27C
330
70
100
AcDbEntity
  8
0
  6
Continuous
 62
     7
100
AcDbLine
 10
715.0992968893886
 20
1123.000000000001
 30
0.0
 11
699.0917193917885
 21
1123.000000000001
 31
0.0
  0
LINE
  5
27D
330
70
100
AcDbEntity
  8
0
  6
Continuous
 62
     7
100
AcDbLine
 10
696.5917193917885
 20
1125.500000000001
 30
0.0
 11
696.5917193917885
 21
1140.500000000021
 31
0.0
  0
LINE
  5
27E
330
70
100
AcDbEntity
  8
1
  6
Continuous
 62
     7
100
AcDbLine
 10
316.4917193917888
 20
922.704478413338
 30
0.0
 11
316.4917193917887
 21
943.0540581082471
 31
0.0
  0
LINE
  5
27F
330
70
100
AcDbEntity
  8
1
  6
Continuous
 62
     7
100
AcDbLine
 10
316.4917193917888
 20
922.704478413338
 30
0.0
 11
328.5917193917886
 21
922.704478413338
 31
0.0
  0
LINE
  5
280
330
70
100
AcDbEntity
  8
1
  6
Continuous
 62
     7
100
AcDbLine
 10
716.0917193918013
 20
922.704478413339
 30
0.0
 11
731.5915266779949
 21
922.704478413339
 31
0.0
  0
LINE
  5
281
330
70
100
AcDbEntity
  8
1
  6
Continuous
 62
     7
100
AcDbLine
 10
746.0906299732052
 20
928.562496395698
 30
0.0
 11
731.5915266779949
 21
922.704478413339
 31
0.0
  0
LINE
  5
282
330
70
100
AcDbEntity
  8
1
  6
Continuous
 62
     7
100
AcDbLine
 10
321.5917193917886
 20
944.0540581082471
 30
0.0
 11
321.5917193917886
 21
946.302661500001
 31
0.0
  0
LINE
  5
283
330
70
100
AcDbEntity
  8
1
  6
Continuous
 62
     7
100
AcDbLine
 10
302.5917193917886
 20
947.302661500001
 30
0.0
 11
320.5917193917886
 21
947.302661500001
 31
0.0
  0
LINE
  5
284
330
70
100
AcDbEntity
  8
1
  6
Continuous
 62
     7
100
AcDbLine
 10
301.5917193917886
 20
944.0540581082471
 30
0.0
 11
301.5917193917886
 21
946.302661500001
 31
0.0
  0
LINE
  5
285
330
70
100
AcDbEntity
  8
1
  6
Continuous
 62
     7
100
AcDbLine
 10
294.0917193917886
 20
946.302661500001
 30
0.0
 11
294.0917193917886
 21
923.2044784133379
 31
0.0
  0
LINE
  5
286
330
70
100
AcDbEntity
  8
1
  6
Continuous
 62
     7
100
AcDbLine
 10
329.0917193917886
 20
946.302661500001
 30
0.0
 11
329.0917193917886
 21
923.2044784133379
 31
0.0
  0
LINE
  5
287
330
70
100
AcDbEntity
  8
1
  6
Continuous
 62
     7
100
AcDbLine
 10
294.5917193917886
 20
922.704478413338
 30
0.0
 11
306.6917193917888
 21
922.704478413338
 31
0.0
  0
LINE
  5
288
330
70
100
AcDbEntity
  8
1
  6
Continuous
 62
     7
100
AcDbLine
 10
712.3149720082932
 20
943.8195750008431
 30
0.0
 11
697.1860080335989
 21
944.296770735981
 31
0.0
  0
LINE
  5
289
330
70
100
AcDbEntity
  8
1
  6
Continuous
 62
     7
100
AcDbLine
 10
696.5917193917885
 20
944.896743552355
 30
0.0
 11
696.5917193917885
 21
946.7026615
 31
0.0
  0
LINE
  5
28A
330
70
100
AcDbEntity
  8
1
  6
Continuous
 62
     7
100
AcDbLine
 10
697.1917193917884
 20
947.302661500001
 30
0.0
 11
714.0917193917884
 21
947.302661500001
 31
0.0
  0
LINE
  5
28B
330
70
100
AcDbEntity
  8
1
  6
Continuous
 62
     7
100
AcDbLine
 10
715.2911746825031
 20
922.704478413339
 30
0.0
 11
716.0917193918013
 21
922.704478413339
 31
0.0
  0
LINE
  5
28C
330
70
100
AcDbEntity
  8
1
  6
Continuous
 62
     7
100
AcDbLine
 10
749.0917193917884
 20
946.7026615
 30
0.0
 11
749.0917193917884
 21
929.774937365454
 31
0.0
  0
LINE
  5
28D
330
70
100
AcDbEntity
  8
1
  6
Continuous
 62
     7
100
AcDbLine
 10
714.0917193917884
 20
947.302661500001
 30
0.0
 11
748.4917193917883
 21
947.302661500001
 31
0.0
  0
LINE
  5
28E
330
70
100
AcDbEntity
  8
1
  6
Continuous
 62
     7
100
AcDbLine
 10
295.0917193917886
 20
947.302661500001
 30
0.0
 11
302.5917193917886
 21
947.302661500001
 31
0.0
  0
LINE
  5
28F
330
70
100
AcDbEntity
  8
1
  6
Continuous
 62
     7
100
AcDbLine
 10
320.5917193917886
 20
947.302661500001
 30
0.0
 11
328.0917193917886
 21
947.302661500001
 31
0.0
  0
LINE
  5
290
330
70
100
AcDbEntity
  8
1
  6
Continuous
 62
     7
100
AcDbLine
 10
302.5917193917886
 20
944.3024279844569
 30
0.0
 11
320.5917193917886
 21
944.3024279844569
 31
0.0
  0
LINE
  5
291
330
70
100
AcDbEntity
  8
1
  6
Continuous
 62
     7
100
AcDbLine
 10
714.7911746825031
 20
923.2044784133391
 30
0.0
 11
714.7911746825031
 21
941.319688265952
 31
0.0
  0
LINE
  5
292
330
70
100
AcDbEntity
  8
1
  6
Continuous
 62
     7
100
AcDbLine
 10
302.5917193917886
 20
943.0540581082471
 30
0.0
 11
320.5917193917886
 21
943.0540581082471
 31
0.0
  0
LINE
  5
293
330
70
100
AcDbEntity
  8
1
  6
Continuous
 62
     7
100
AcDbLine
 10
306.6917193917888
 20
943.0540581082471
 30
0.0
 11
306.6917193917888
 21
922.704478413338
 31
0.0
  0
LINE
  5
294
330
70
100
AcDbEntity
  8
1
  6
Continuous
 62
     7
100
AcDbLine
 10
746.0906299732052
 20
928.562496395698
 30
0.0
 11
749.0917193917884
 21
929.774937365454
 31
0.0
  0
LINE
  5
295
330
70
100
AcDbEntity
  8
1
  6
Continuous
 62
     7
100
AcDbLine
 10
306.6917193917888
 20
922.704478413338
 30
0.0
 11
316.4917193917888
 21
922.704478413338
 31
0.0
  0
ARC
  5
296
330
70
100
AcDbEntity
  8
0
  6
Continuous
 62
     7
100
AcDbCircle
 10
715.0992968893886
 20
1146.000000000001
 30
0.0
 40
2.999999999977945
100
AcDbArc
 50
269.9999999992183
 51
321.7533801215419
  0
ARC
  5
297
330
70
100
AcDbEntity
  8
0
  6
Continuous
 62
     7
100
AcDbCircle
 10
715.0992968893886
 20
1120.000000000001
 30
0.0
 40
2.999999999951844
100
AcDbArc
 50
38.24661987846802
 51
90.0
  0
ARC
  5
298
330
70
100
AcDbEntity
  8
0
  6
Continuous
 62
     7
100
AcDbCircle
 10
731.5917193917887
 20
1133.000000000001
 30
0.0
 40
17.99999999999278
100
AcDbArc
 50
218.2466198784634
 51
141.7533801215349
  0
ARC
  5
299
330
70
100
AcDbEntity
  8
1
  6
Continuous
 62
     7
100
AcDbCircle
 10
748.4917193917883
 20
946.7026615
 30
0.0
 40
0.6000000000001364
100
AcDbArc
 50
0.0
 51
90.0
  0
SPLINE
  5
29A
330
70
100
AcDbEntity
  8
0
  6
Continuous
 62
     7
100
AcDbSpline
210
0.0
220
0.0
230
1.0
 70
     8
 71
     3
 72
    19
 73
    15
 74
    13
 42
0.000000001
 43
0.0000000001
 44
0.00000001
 40
0.0
 40
0.0
 40
0.0
 40
0.0
 40
0.0779158970135419
 40
0.1557761501502358
 40
0.2663366400822413
 40
0.3770475037235299
 40
0.4700911487454403
 40
0.5628653013989513
 40
0.6342926458234118
 40
0.7063141000883685
 40
0.7528480556990115
 40
0.7978874276156458
 40
0.805071491880051
 40
0.8122058703332443
 40
0.8122058703332443
 40
0.8122058703332443
 40
0.8122058703332443
 10
716.8154304723746
 20
1122.457656176844
 30
0.0
 10
716.836783788886
 20
1122.442871852027
 30
0.0
 10
716.8794751640318
 20
1122.413313748707
 30
0.0
 10
716.9513920285182
 20
1122.361229546289
 30
0.0
 10
717.0290751675966
 20
1122.298630690874
 30
0.0
 10
717.1076132374071
 20
1122.229254122196
 30
0.0
 10
717.1798595483968
 20
1122.161782920978
 30
0.0
 10
717.2408290879021
 20
1122.101466537748
 30
0.0
 10
717.2951763262938
 20
1122.044477276563
 30
0.0
 10
717.3377500406439
 20
1121.997587621033
 30
0.0
 10
717.3736689298014
 20
1121.956554883849
 30
0.0
 10
717.3949536165942
 20
1121.93143945011
 30
0.0
 10
717.4075539743236
 20
1121.91618445177
 30
0.0
 10
717.4105866420063
 20
1121.912498981913
 30
0.0
 10
717.4120977085445
 20
1121.910662636819
 30
0.0
 11
716.8154304723746
 21
1122.457656176844
 31
0.0
 11
716.8793332266416
 21
1122.413076753155
 31
0.0
 11
716.9422299813107
 21
1122.36718321011
 31
0.0
 11
717.0284933658221
 21
1122.298029392818
 31
0.0
 11
717.1116529732183
 21
1122.22494468229
 31
0.0
 11
717.1796162907029
 21
1122.161398579618
 31
0.0
 11
717.2455246090026
 21
1122.096105878336
 31
0.0
 11
717.2948271337445
 21
1122.044422940282
 31
0.0
 11
717.3432632850236
 21
1121.991121630807
 31
0.0
 11
717.3739016594624
 21
1121.956097374406
 31
0.0
 11
717.4029862639757
 21
1121.921707962376
 31
0.0
 11
717.4075628116509
 21
1121.916170274071
 31
0.0
 11
717.4120977085445
 21
1121.910662636819
 31
0.0
  0
ARC
  5
29B
330
70
100
AcDbEntity
  8
1
  6
Continuous
 62
     7
100
AcDbCircle
 10
699.0917193917885
 20
1140.500000000021
 30
0.0
 40
2.5
100
AcDbArc
 50
90.0
 51
180.0
  0
ARC
  5
29C
330
70
100
AcDbEntity
  8
1
  6
Continuous
 62
     7
100
AcDbCircle
 10
699.0917193917885
 20
1125.500000000001
 30
0.0
 40
2.5
100
AcDbArc
 50
180.0
 51
270.0
  0
ARC
  5
29D
330
70
100
AcDbEntity
  8
1
  6
Continuous
 62
     7
100
AcDbCircle
 10
697.1917193917884
 20
946.7026615
 30
0.0
 40
0.6000000000010459
100
AcDbArc
 50
90.0
 51
180.0
  0
ARC
  5
29E
330
70
100
AcDbEntity
  8
1
  6
Continuous
 62
     7
100
AcDbCircle
 10
697.1917193917884
 20
944.896743552355
 30
0.0
 40
0.599999999999909
100
AcDbArc
 50
180.0
 51
269.4545972307182
  0
ARC
  5
29F
330
70
100
AcDbEntity
  8
1
  6
Continuous
 62
     7
100
AcDbCircle
 10
712.2911746825031
 20
941.319688265952
 30
0.0
 40
2.499999999999613
100
AcDbArc
 50
43.92752774961275
 51
89.45459723070506
  0
ARC
  5
2A0
330
70
100
AcDbEntity
  8
1
  6
Continuous
 62
     7
100
AcDbCircle
 10
715.2911746825031
 20
923.2044784133391
 30
0.0
 40
0.5
100
AcDbArc
 50
180.0
 51
270.0
  0
ARC
  5
2A1
330
70
100
AcDbEntity
  8
1
  6
Continuous
 62
     7
100
AcDbCircle
 10
712.2911746825031
 20
941.319688265952
 30
0.0
 40
2.5
100
AcDbArc
 50
0.0
 51
43.92752774961275
  0
ARC
  5
2A2
330
70
100
AcDbEntity
  8
1
  6
Continuous
 62
     7
100
AcDbCircle
 10
328.0917193917886
 20
946.302661500001
 30
0.0
 40
1.0
100
AcDbArc
 50
0.0
 51
90.0
  0
ARC
  5
2A3
330
70
100
AcDbEntity
  8
1
  6
Continuous
 62
     7
100
AcDbCircle
 10
295.0917193917886
 20
946.302661500001
 30
0.0
 40
1.0
100
AcDbArc
 50
90.0
 51
180.0
  0
ARC
  5
2A4
330
70
100
AcDbEntity
  8
1
  6
Continuous
 62
     7
100
AcDbCircle
 10
320.5917193917886
 20
946.302661500001
 30
0.0
 40
1.0
100
AcDbArc
 50
0.0
 51
90.0
  0
ARC
  5
2A5
330
70
100
AcDbEntity
  8
1
  6
Continuous
 62
     7
100
AcDbCircle
 10
320.5917193917886
 20
945.3024279844569
 30
0.0
 40
1.0
100
AcDbArc
 50
270.0
 51
0.0
  0
ARC
  5
2A6
330
70
100
AcDbEntity
  8
1
  6
Continuous
 62
     7
100
AcDbCircle
 10
302.5917193917886
 20
945.3024279844569
 30
0.0
 40
1.0
100
AcDbArc
 50
180.0
 51
270.0
  0
ARC
  5
2A7
330
70
100
AcDbEntity
  8
1
  6
Continuous
 62
     7
100
AcDbCircle
 10
302.5917193917886
 20
946.302661500001
 30
0.0
 40
1.0
100
AcDbArc
 50
90.0
 51
180.0
  0
ARC
  5
2A8
330
70
100
AcDbEntity
  8
1
  6
Continuous
 62
     7
100
AcDbCircle
 10
294.5917193917886
 20
923.2044784133379
 30
0.0
 40
0.5
100
AcDbArc
 50
180.0
 51
270.0
  0
ARC
  5
2A9
330
70
100
AcDbEntity
  8
1
  6
Continuous
 62
     7
100
AcDbCircle
 10
320.5917193917886
 20
944.0540581082471
 30
0.0
 40
1.0
100
AcDbArc
 50
270.0
 51
0.0
  0
ARC
  5
2AA
330
70
100
AcDbEntity
  8
1
  6
Continuous
 62
     7
100
AcDbCircle
 10
302.5917193917886
 20
944.0540581082471
 30
0.0
 40
1.0
100
AcDbArc
 50
180.0
 51
270.0
  0
ARC
  5
2AB
330
70
100
AcDbEntity
  8
1
  6
Continuous
 62
     7
100
AcDbCircle
 10
328.5917193917886
 20
923.2044784133379
 30
0.0
 40
0.4999999999998863
100
AcDbArc
 50
270.0
 51
0.0
  0
ENDBLK
  5
73
330
70
100
AcDbEntity
  8
0
100
AcDbBlockEnd
  0
BLOCK
  5
75
330
74
100
AcDbEntity
  8
0
100
AcDbBlockBegin
  2
73-1-32_5-C2
 70
     0
 10
598.3605951314333
 20
612.79271932828
 30
0.0
  3
73-1-32_5-C2
  1

  0
LINE
  5
2AC
330
74
100
AcDbEntity
  8
1
  6
Continuous
 62
     7
100
AcDbLine
 10
286.6029719241913
 20
670.7000000000004
 30
0.0
 11
295.5917193918017
 21
670.7000000000004
 31
0.0
  0
LINE
  5
2AD
330
74
100
AcDbEntity
  8
1
  6
Continuous
 62
     7
100
AcDbLine
 10
286.5917193918017
 20
670.2000000000007
 30
0.0
 11
286.6029719241913
 21
670.7000000000004
 31
0.0
  0
LINE
  5
2AE
330
74
100
AcDbEntity
  8
1
  6
Continuous
 62
     7
100
AcDbLine
 10
297.1588034722922
 20
669.2000000000004
 30
0.0
 11
297.9088034722922
 21
669.2000000000004
 31
0.0
  0
LINE
  5
2AF
330
74
100
AcDbEntity
  8
1
  6
Continuous
 62
     7
100
AcDbLine
 10
302.8258587985893
 20
669.2000000000004
 30
0.0
 11
304.1248969042661
 21
669.2000000000004
 31
0.0
  0
LINE
  5
2B0
330
74
100
AcDbEntity
  8
1
  6
Continuous
 62
     7
100
AcDbLine
 10
310.8417193918017
 20
669.2000000000004
 30
0.0
 11
311.5917193918017
 21
669.2000000000004
 31
0.0
  0
LINE
  5
2B1
330
74
100
AcDbEntity
  8
1
  6
Continuous
 62
     7
100
AcDbLine
 10
319.0585418793373
 20
669.2000000000004
 30
0.0
 11
320.3575799850139
 21
669.2000000000004
 31
0.0
  0
LINE
  5
2B2
330
74
100
AcDbEntity
  8
1
  6
Continuous
 62
     7
100
AcDbLine
 10
325.2746353113114
 20
669.2000000000004
 30
0.0
 11
326.0246353113114
 21
669.2000000000004
 31
0.0
  0
LINE
  5
2B3
330
74
100
AcDbEntity
  8
1
  6
Continuous
 62
     7
100
AcDbLine
 10
297.9088034722922
 20
670.2000000000007
 30
0.0
 11
297.1588034722922
 21
670.2000000000007
 31
0.0
  0
LINE
  5
2B4
330
74
100
AcDbEntity
  8
1
  6
Continuous
 62
     7
100
AcDbLine
 10
304.1248969042661
 20
670.2000000000007
 30
0.0
 11
302.8258587985893
 21
670.2000000000007
 31
0.0
  0
LINE
  5
2B5
330
74
100
AcDbEntity
  8
1
  6
Continuous
 62
     7
100
AcDbLine
 10
311.5917193918017
 20
670.2000000000007
 30
0.0
 11
310.8417193918017
 21
670.2000000000007
 31
0.0
  0
LINE
  5
2B6
330
74
100
AcDbEntity
  8
1
  6
Continuous
 62
     7
100
AcDbLine
 10
312.3417193918017
 20
670.2000000000007
 30
0.0
 11
311.5917193918017
 21
670.2000000000007
 31
0.0
  0
LINE
  5
2B7
330
74
100
AcDbEntity
  8
1
  6
Continuous
 62
     7
100
AcDbLine
 10
320.3575799850139
 20
670.2000000000007
 30
0.0
 11
319.0585418793373
 21
670.2000000000007
 31
0.0
  0
LINE
  5
2B8
330
74
100
AcDbEntity
  8
1
  6
Continuous
 62
     7
100
AcDbLine
 10
326.0246353113114
 20
670.2000000000007
 30
0.0
 11
325.2746353113114
 21
670.2000000000007
 31
0.0
  0
LINE
  5
2B9
330
74
100
AcDbEntity
  8
1
  6
Continuous
 62
     7
100
AcDbLine
 10
311.5917193918017
 20
669.2000000000004
 30
0.0
 11
312.3417193918017
 21
669.2000000000004
 31
0.0
  0
LINE
  5
2BA
330
74
100
AcDbEntity
  8
1
  6
Continuous
 62
     7
100
AcDbLine
 10
295.5917193918017
 20
670.7000000000004
 30
0.0
 11
333.7396351534585
 21
670.7000000000004
 31
0.0
  0
LINE
  5
2BB
330
74
100
AcDbEntity
  8
1
  6
Continuous
 62
     7
100
AcDbLine
 10
295.3417193918017
 20
669.2000000000004
 30
0.0
 11
327.8417193918017
 21
669.2000000000004
 31
0.0
  0
LINE
  5
2BC
330
74
100
AcDbEntity
  8
1
  6
Continuous
 62
     7
100
AcDbLine
 10
327.8417193918017
 20
670.2000000000007
 30
0.0
 11
331.3417193918017
 21
670.2000000000007
 31
0.0
  0
LINE
  5
2BD
330
74
100
AcDbEntity
  8
1
  6
Continuous
 62
     7
100
AcDbLine
 10
327.8417193918017
 20
669.2000000000004
 30
0.0
 11
331.3417193918017
 21
669.2000000000004
 31
0.0
  0
LINE
  5
2BE
330
74
100
AcDbEntity
  8
1
  6
Continuous
 62
     7
100
AcDbLine
 10
336.5917193918017
 20
669.7000000000004
 30
0.0
 11
333.9397956031548
 21
669.7000000000004
 31
0.0
  0
LINE
  5
2BF
330
74
100
AcDbEntity
  8
1
  6
Continuous
 62
     7
100
AcDbLine
 10
336.5917193918017
 20
669.7000000000004
 30
0.0
 11
336.5917193918017
 21
670.7000000000007
 31
0.0
  0
LINE
  5
2C0
330
74
100
AcDbEntity
  8
1
  6
Continuous
 62
     7
100
AcDbLine
 10
336.5917193918017
 20
670.7000000000007
 30
0.0
 11
333.7396351534585
 21
670.7000000000004
 31
0.0
  0
LINE
  5
2C1
330
74
100
AcDbEntity
  8
1
  6
Continuous
 62
     7
100
AcDbLine
 10
289.0917193918017
 20
670.2000000000007
 30
0.0
 11
286.5917193918017
 21
670.2000000000007
 31
0.0
  0
LINE
  5
2C2
330
74
100
AcDbEntity
  8
1
  6
Continuous
 62
     7
100
AcDbLine
 10
286.5917193918017
 20
669.2000000000004
 30
0.0
 11
286.5917193918017
 21
670.2000000000007
 31
0.0
  0
LINE
  5
2C3
330
74
100
AcDbEntity
  8
1
  6
Continuous
 62
     7
100
AcDbLine
 10
286.5917193918017
 20
669.2000000000004
 30
0.0
 11
289.0917193918017
 21
669.2000000000004
 31
0.0
  0
LINE
  5
2C4
330
74
100
AcDbEntity
  8
1
  6
Continuous
 62
     7
100
AcDbLine
 10
291.8417193918017
 20
669.2000000000004
 30
0.0
 11
295.3417193918017
 21
669.2000000000004
 31
0.0
  0
LINE
  5
2C5
330
74
100
AcDbEntity
  8
1
  6
Continuous
 62
     7
100
AcDbLine
 10
291.8417193918017
 20
670.2000000000007
 30
0.0
 11
295.3417193918017
 21
670.2000000000007
 31
0.0
  0
LINE
  5
2C6
330
74
100
AcDbEntity
  8
1
  6
Continuous
 62
     7
100
AcDbLine
 10
711.8417193918018
 20
670.2000000000007
 30
0.0
 11
715.3417193918018
 21
670.2000000000007
 31
0.0
  0
LINE
  5
2C7
330
74
100
AcDbEntity
  8
1
  6
Continuous
 62
     7
100
AcDbLine
 10
711.8417193918018
 20
669.2000000000004
 30
0.0
 11
715.3417193918018
 21
669.2000000000004
 31
0.0
  0
LINE
  5
2C8
330
74
100
AcDbEntity
  8
1
  6
Continuous
 62
     7
100
AcDbLine
 10
706.5917193918018
 20
669.2000000000004
 30
0.0
 11
709.0917193918018
 21
669.2000000000004
 31
0.0
  0
LINE
  5
2C9
330
74
100
AcDbEntity
  8
1
  6
Continuous
 62
     7
100
AcDbLine
 10
706.5917193918018
 20
669.2000000000004
 30
0.0
 11
706.5917193918018
 21
670.2000000000007
 31
0.0
  0
LINE
  5
2CA
330
74
100
AcDbEntity
  8
1
  6
Continuous
 62
     7
100
AcDbLine
 10
709.0917193918018
 20
670.2000000000007
 30
0.0
 11
706.5917193918018
 21
670.2000000000007
 31
0.0
  0
LINE
  5
2CB
330
74
100
AcDbEntity
  8
1
  6
Continuous
 62
     7
100
AcDbLine
 10
756.5917193918018
 20
670.7000000000007
 30
0.0
 11
753.7396351534586
 21
670.7000000000004
 31
0.0
  0
LINE
  5
2CC
330
74
100
AcDbEntity
  8
1
  6
Continuous
 62
     7
100
AcDbLine
 10
756.5917193918018
 20
669.7000000000004
 30
0.0
 11
756.5917193918018
 21
670.7000000000007
 31
0.0
  0
LINE
  5
2CD
330
74
100
AcDbEntity
  8
1
  6
Continuous
 62
     7
100
AcDbLine
 10
756.5917193918018
 20
669.7000000000004
 30
0.0
 11
753.939795603155
 21
669.7000000000004
 31
0.0
  0
LINE
  5
2CE
330
74
100
AcDbEntity
  8
1
  6
Continuous
 62
     7
100
AcDbLine
 10
747.8417193918018
 20
669.2000000000004
 30
0.0
 11
751.3417193918018
 21
669.2000000000004
 31
0.0
  0
LINE
  5
2CF
330
74
100
AcDbEntity
  8
1
  6
Continuous
 62
     7
100
AcDbLine
 10
747.8417193918018
 20
670.2000000000007
 30
0.0
 11
751.3417193918018
 21
670.2000000000007
 31
0.0
  0
LINE
  5
2D0
330
74
100
AcDbEntity
  8
1
  6
Continuous
 62
     7
100
AcDbLine
 10
715.3417193918018
 20
669.2000000000004
 30
0.0
 11
747.8417193918018
 21
669.2000000000004
 31
0.0
  0
LINE
  5
2D1
330
74
100
AcDbEntity
  8
1
  6
Continuous
 62
     7
100
AcDbLine
 10
715.5917193918018
 20
670.7000000000004
 30
0.0
 11
753.7396351534586
 21
670.7000000000004
 31
0.0
  0
LINE
  5
2D2
330
74
100
AcDbEntity
  8
1
  6
Continuous
 62
     7
100
AcDbLine
 10
731.5917193918018
 20
669.2000000000004
 30
0.0
 11
732.3417193918018
 21
669.2000000000004
 31
0.0
  0
LINE
  5
2D3
330
74
100
AcDbEntity
  8
1
  6
Continuous
 62
     7
100
AcDbLine
 10
746.0246353113115
 20
670.2000000000007
 30
0.0
 11
745.2746353113115
 21
670.2000000000007
 31
0.0
  0
LINE
  5
2D4
330
74
100
AcDbEntity
  8
1
  6
Continuous
 62
     7
100
AcDbLine
 10
740.357579985014
 20
670.2000000000007
 30
0.0
 11
739.0585418793374
 21
670.2000000000007
 31
0.0
  0
LINE
  5
2D5
330
74
100
AcDbEntity
  8
1
  6
Continuous
 62
     7
100
AcDbLine
 10
732.3417193918018
 20
670.2000000000007
 30
0.0
 11
731.5917193918018
 21
670.2000000000007
 31
0.0
  0
LINE
  5
2D6
330
74
100
AcDbEntity
  8
1
  6
Continuous
 62
     7
100
AcDbLine
 10
731.5917193918018
 20
670.2000000000007
 30
0.0
 11
730.8417193918018
 21
670.2000000000007
 31
0.0
  0
LINE
  5
2D7
330
74
100
AcDbEntity
  8
1
  6
Continuous
 62
     7
100
AcDbLine
 10
724.1248969042662
 20
670.2000000000007
 30
0.0
 11
722.8258587985894
 21
670.2000000000007
 31
0.0
  0
LINE
  5
2D8
330
74
100
AcDbEntity
  8
1
  6
Continuous
 62
     7
100
AcDbLine
 10
717.9088034722923
 20
670.2000000000007
 30
0.0
 11
717.1588034722923
 21
670.2000000000007
 31
0.0
  0
LINE
  5
2D9
330
74
100
AcDbEntity
  8
1
  6
Continuous
 62
     7
100
AcDbLine
 10
745.2746353113115
 20
669.2000000000004
 30
0.0
 11
746.0246353113115
 21
669.2000000000004
 31
0.0
  0
LINE
  5
2DA
330
74
100
AcDbEntity
  8
1
  6
Continuous
 62
     7
100
AcDbLine
 10
739.0585418793374
 20
669.2000000000004
 30
0.0
 11
740.357579985014
 21
669.2000000000004
 31
0.0
  0
LINE
  5
2DB
330
74
100
AcDbEntity
  8
1
  6
Continuous
 62
     7
100
AcDbLine
 10
730.8417193918018
 20
669.2000000000004
 30
0.0
 11
731.5917193918018
 21
669.2000000000004
 31
0.0
  0
LINE
  5
2DC
330
74
100
AcDbEntity
  8
1
  6
Continuous
 62
     7
100
AcDbLine
 10
722.8258587985894
 20
669.2000000000004
 30
0.0
 11
724.1248969042662
 21
669.2000000000004
 31
0.0
  0
LINE
  5
2DD
330
74
100
AcDbEntity
  8
1
  6
Continuous
 62
     7
100
AcDbLine
 10
717.1588034722923
 20
669.2000000000004
 30
0.0
 11
717.9088034722923
 21
669.2000000000004
 31
0.0
  0
LINE
  5
2DE
330
74
100
AcDbEntity
  8
1
  6
Continuous
 62
     7
100
AcDbLine
 10
706.5917193918018
 20
670.2000000000007
 30
0.0
 11
706.6029719241914
 21
670.7000000000004
 31
0.0
  0
LINE
  5
2DF
330
74
100
AcDbEntity
  8
1
  6
Continuous
 62
     7
100
AcDbLine
 10
706.6029719241914
 20
670.7000000000004
 30
0.0
 11
715.5917193918018
 21
670.7000000000004
 31
0.0
  0
ARC
  5
2E0
330
74
100
AcDbEntity
  8
1
  6
Continuous
 62
     7
100
AcDbCircle
 10
326.9284123218481
 20
670.0831289055349
 30
0.0
 40
0.6168710944655139
100
AcDbArc
 50
32.60202871135106
 51
147.9057037069282
  0
ARC
  5
2E1
330
74
100
AcDbEntity
  8
1
  6
Continuous
 62
     7
100
AcDbCircle
 10
326.0246353113114
 20
670.64994179031
 30
0.0
 40
1.449941790309595
100
AcDbArc
 50
270.0
 51
297.6999132239791
  0
ARC
  5
2E2
330
74
100
AcDbEntity
  8
1
  6
Continuous
 62
     7
100
AcDbCircle
 10
295.3417193918017
 20
670.667258709562
 30
0.0
 40
1.467258709561634
100
AcDbArc
 50
270.0
 51
297.5753084985826
  0
ARC
  5
2E3
330
74
100
AcDbEntity
  8
1
  6
Continuous
 62
     7
100
AcDbCircle
 10
297.1588034722922
 20
670.64994179031
 30
0.0
 40
1.449941790309638
100
AcDbArc
 50
242.3000867760149
 51
270.0
  0
ARC
  5
2E4
330
74
100
AcDbEntity
  8
1
  6
Continuous
 62
     7
100
AcDbCircle
 10
297.9088034722922
 20
671.4292638315748
 30
0.0
 40
2.229263831574372
100
AcDbArc
 50
270.0
 51
292.9913569710393
  0
ARC
  5
2E5
330
74
100
AcDbEntity
  8
1
  6
Continuous
 62
     7
100
AcDbCircle
 10
300.3673311354407
 20
665.6349055611076
 30
0.0
 40
4.065094438892887
100
AcDbArc
 50
67.00864302895965
 51
112.9913569710381
  0
ARC
  5
2E6
330
74
100
AcDbEntity
  8
1
  6
Continuous
 62
     7
100
AcDbCircle
 10
302.8258587985893
 20
671.4292638315748
 30
0.0
 40
2.229263831574224
100
AcDbArc
 50
247.0086430289607
 51
270.0
  0
ARC
  5
2E7
330
74
100
AcDbEntity
  8
1
  6
Continuous
 62
     7
100
AcDbCircle
 10
304.1248969042661
 20
671.8792056218844
 30
0.0
 40
2.679205621883966
100
AcDbArc
 50
270.0
 51
286.9359833827783
  0
ARC
  5
2E8
330
74
100
AcDbEntity
  8
1
  6
Continuous
 62
     7
100
AcDbCircle
 10
307.483308148034
 20
660.8502795396182
 30
0.0
 40
8.849720460382345
100
AcDbArc
 50
73.06401661722397
 51
106.9359833827771
  0
ARC
  5
2E9
330
74
100
AcDbEntity
  8
1
  6
Continuous
 62
     7
100
AcDbCircle
 10
310.8417193918017
 20
671.8792056218844
 30
0.0
 40
2.679205621883759
100
AcDbArc
 50
253.0640166172217
 51
270.0
  0
ARC
  5
2EA
330
74
100
AcDbEntity
  8
1
  6
Continuous
 62
     7
100
AcDbCircle
 10
312.3417193918017
 20
671.8792056218844
 30
0.0
 40
2.679205621883966
100
AcDbArc
 50
270.0
 51
286.935983382783
  0
ARC
  5
2EB
330
74
100
AcDbEntity
  8
1
  6
Continuous
 62
     7
100
AcDbCircle
 10
319.0585418793373
 20
671.8792056218844
 30
0.0
 40
2.679205621883676
100
AcDbArc
 50
253.0640166172275
 51
270.0
  0
ARC
  5
2EC
330
74
100
AcDbEntity
  8
1
  6
Continuous
 62
     7
100
AcDbCircle
 10
315.7001306355694
 20
660.8502795396182
 30
0.0
 40
8.849720460382494
100
AcDbArc
 50
73.06401661722082
 51
106.9359833827746
  0
ARC
  5
2ED
330
74
100
AcDbEntity
  8
1
  6
Continuous
 62
     7
100
AcDbCircle
 10
320.3575799850141
 20
671.4292638315748
 30
0.0
 40
2.229263831574372
100
AcDbArc
 50
269.9999999999941
 51
292.9913569710393
  0
ARC
  5
2EE
330
74
100
AcDbEntity
  8
1
  6
Continuous
 62
     7
100
AcDbCircle
 10
322.8161076481626
 20
665.6349055611076
 30
0.0
 40
4.065094438892887
100
AcDbArc
 50
67.00864302895965
 51
112.9913569710381
  0
ARC
  5
2EF
330
74
100
AcDbEntity
  8
1
  6
Continuous
 62
     7
100
AcDbCircle
 10
325.2746353113114
 20
671.4292638315748
 30
0.0
 40
2.229263831574291
100
AcDbArc
 50
247.0086430289567
 51
270.0
  0
ARC
  5
2F0
330
74
100
AcDbEntity
  8
1
  6
Continuous
 62
     7
100
AcDbCircle
 10
295.3417193918017
 20
670.667258709562
 30
0.0
 40
0.4672587095612926
100
AcDbArc
 50
270.0
 51
327.3979712886542
  0
ARC
  5
2F1
330
74
100
AcDbEntity
  8
1
  6
Continuous
 62
     7
100
AcDbCircle
 10
296.2550264617551
 20
670.0831289055349
 30
0.0
 40
0.6168710944655701
100
AcDbArc
 50
32.094296293069
 51
147.3979712886461
  0
ARC
  5
2F2
330
74
100
AcDbEntity
  8
1
  6
Continuous
 62
     7
100
AcDbCircle
 10
297.1588034722922
 20
670.64994179031
 30
0.0
 40
0.4499417903096797
100
AcDbArc
 50
212.0942962930466
 51
270.0
  0
ARC
  5
2F3
330
74
100
AcDbEntity
  8
1
  6
Continuous
 62
     7
100
AcDbCircle
 10
297.9088034722922
 20
671.4292638315748
 30
0.0
 40
1.229263831574031
100
AcDbArc
 50
270.0
 51
292.9913569710356
  0
ARC
  5
2F4
330
74
100
AcDbEntity
  8
1
  6
Continuous
 62
     7
100
AcDbCircle
 10
300.3673311354407
 20
665.6349055611076
 30
0.0
 40
5.065094438892809
100
AcDbArc
 50
67.00864302895957
 51
112.9913569710393
  0
ARC
  5
2F5
330
74
100
AcDbEntity
  8
1
  6
Continuous
 62
     7
100
AcDbCircle
 10
302.8258587985893
 20
671.4292638315748
 30
0.0
 40
1.229263831574301
100
AcDbArc
 50
247.0086430289619
 51
270.0
  0
ARC
  5
2F6
330
74
100
AcDbEntity
  8
1
  6
Continuous
 62
     7
100
AcDbCircle
 10
304.1248969042661
 20
671.8792056218844
 30
0.0
 40
1.679205621883625
100
AcDbArc
 50
270.0
 51
286.9359833827797
  0
ARC
  5
2F7
330
74
100
AcDbEntity
  8
1
  6
Continuous
 62
     7
100
AcDbCircle
 10
307.483308148034
 20
660.8502795396182
 30
0.0
 40
9.84972046038209
100
AcDbArc
 50
73.06401661722272
 51
106.935983382777
  0
ARC
  5
2F8
330
74
100
AcDbEntity
  8
1
  6
Continuous
 62
     7
100
AcDbCircle
 10
310.8417193918017
 20
671.8792056218844
 30
0.0
 40
1.679205621884015
100
AcDbArc
 50
253.0640166172276
 51
270.0
  0
ARC
  5
2F9
330
74
100
AcDbEntity
  8
1
  6
Continuous
 62
     7
100
AcDbCircle
 10
312.3417193918017
 20
671.8792056218844
 30
0.0
 40
1.679205621883625
100
AcDbArc
 50
270.0
 51
286.9359833827797
  0
ARC
  5
2FA
330
74
100
AcDbEntity
  8
1
  6
Continuous
 62
     7
100
AcDbCircle
 10
315.7001306355694
 20
660.8502795396182
 30
0.0
 40
9.849720460382173
100
AcDbArc
 50
73.06401661722114
 51
106.935983382776
  0
ARC
  5
2FB
330
74
100
AcDbEntity
  8
1
  6
Continuous
 62
     7
100
AcDbCircle
 10
319.0585418793373
 20
671.8792056218844
 30
0.0
 40
1.679205621883999
100
AcDbArc
 50
253.0640166172295
 51
270.0
  0
ARC
  5
2FC
330
74
100
AcDbEntity
  8
1
  6
Continuous
 62
     7
100
AcDbCircle
 10
320.3575799850141
 20
671.4292638315748
 30
0.0
 40
1.229263831574031
100
AcDbArc
 50
269.9999999999894
 51
292.9913569710356
  0
ARC
  5
2FD
330
74
100
AcDbEntity
  8
1
  6
Continuous
 62
     7
100
AcDbCircle
 10
322.8161076481626
 20
665.6349055611076
 30
0.0
 40
5.065094438892809
100
AcDbArc
 50
67.00864302895957
 51
112.9913569710393
  0
ARC
  5
2FE
330
74
100
AcDbEntity
  8
1
  6
Continuous
 62
     7
100
AcDbCircle
 10
325.2746353113114
 20
671.4292638315748
 30
0.0
 40
1.229263831574367
100
AcDbArc
 50
247.0086430289547
 51
270.0
  0
ARC
  5
2FF
330
74
100
AcDbEntity
  8
1
  6
Continuous
 62
     7
100
AcDbCircle
 10
326.0246353113114
 20
670.64994179031
 30
0.0
 40
0.4499417903092535
100
AcDbArc
 50
270.0
 51
327.9057037069304
  0
ARC
  5
300
330
74
100
AcDbEntity
  8
1
  6
Continuous
 62
     7
100
AcDbCircle
 10
327.8417193918017
 20
670.667258709562
 30
0.0
 40
0.4672587095616676
100
AcDbArc
 50
212.6020287113383
 51
270.0
  0
ARC
  5
301
330
74
100
AcDbEntity
  8
1
  6
Continuous
 62
     7
100
AcDbCircle
 10
327.8417193918017
 20
670.667258709562
 30
0.0
 40
1.467258709561584
100
AcDbArc
 50
242.4246915014194
 51
270.0
  0
ARC
  5
302
330
74
100
AcDbEntity
  8
1
  6
Continuous
 62
     7
100
AcDbCircle
 10
331.3417193918017
 20
673.2000000000004
 30
0.0
 40
4.0
100
AcDbArc
 50
270.0
 51
291.7867892982628
  0
ARC
  5
303
330
74
100
AcDbEntity
  8
1
  6
Continuous
 62
     7
100
AcDbCircle
 10
331.3417193918017
 20
673.2000000000004
 30
0.0
 40
2.999999999999659
100
AcDbArc
 50
270.0
 51
293.5564643091091
  0
ARC
  5
304
330
74
100
AcDbEntity
  8
1
  6
Continuous
 62
     7
100
AcDbCircle
 10
289.0917193918017
 20
672.2000000000004
 30
0.0
 40
1.999999999999659
100
AcDbArc
 50
270.0
 51
285.204838578393
  0
ARC
  5
305
330
74
100
AcDbEntity
  8
1
  6
Continuous
 62
     7
100
AcDbCircle
 10
289.0917193918017
 20
672.2000000000004
 30
0.0
 40
3.0
100
AcDbArc
 50
270.0
 51
285.2048385783938
  0
ARC
  5
306
330
74
100
AcDbEntity
  8
1
  6
Continuous
 62
     7
100
AcDbCircle
 10
290.4030727543193
 20
667.3750282530765
 30
0.0
 40
2.000000000000212
100
AcDbArc
 50
76.12677200855396
 51
105.2048385783914
  0
ARC
  5
307
330
74
100
AcDbEntity
  8
1
  6
Continuous
 62
     7
100
AcDbCircle
 10
291.8417193918017
 20
673.2000000000004
 30
0.0
 40
3.999999999999873
100
AcDbArc
 50
256.126772008552
 51
270.0
  0
ARC
  5
308
330
74
100
AcDbEntity
  8
1
  6
Continuous
 62
     7
100
AcDbCircle
 10
291.8417193918017
 20
673.2000000000004
 30
0.0
 40
3.000000000000126
100
AcDbArc
 50
256.1267720085553
 51
270.0
  0
ARC
  5
309
330
74
100
AcDbEntity
  8
1
  6
Continuous
 62
     7
100
AcDbCircle
 10
290.4030727543193
 20
667.3750282530765
 30
0.0
 40
2.99999999999996
100
AcDbArc
 50
76.12677200855002
 51
105.2048385783927
  0
ARC
  5
30A
330
74
100
AcDbEntity
  8
1
  6
Continuous
 62
     7
100
AcDbCircle
 10
710.4030727543194
 20
667.3750282530765
 30
0.0
 40
2.99999999999996
100
AcDbArc
 50
76.12677200855002
 51
105.2048385783927
  0
ARC
  5
30B
330
74
100
AcDbEntity
  8
1
  6
Continuous
 62
     7
100
AcDbCircle
 10
711.8417193918018
 20
673.2000000000004
 30
0.0
 40
3.000000000000126
100
AcDbArc
 50
256.1267720085553
 51
270.0
  0
ARC
  5
30C
330
74
100
AcDbEntity
  8
1
  6
Continuous
 62
     7
100
AcDbCircle
 10
711.8417193918018
 20
673.2000000000004
 30
0.0
 40
3.999999999999873
100
AcDbArc
 50
256.126772008552
 51
270.0
  0
ARC
  5
30D
330
74
100
AcDbEntity
  8
1
  6
Continuous
 62
     7
100
AcDbCircle
 10
710.4030727543194
 20
667.3750282530765
 30
0.0
 40
2.000000000000212
100
AcDbArc
 50
76.12677200855396
 51
105.204838578393
  0
ARC
  5
30E
330
74
100
AcDbEntity
  8
1
  6
Continuous
 62
     7
100
AcDbCircle
 10
709.0917193918018
 20
672.2000000000004
 30
0.0
 40
3.0
100
AcDbArc
 50
270.0
 51
285.2048385783927
  0
ARC
  5
30F
330
74
100
AcDbEntity
  8
1
  6
Continuous
 62
     7
100
AcDbCircle
 10
709.0917193918018
 20
672.2000000000004
 30
0.0
 40
1.999999999999659
100
AcDbArc
 50
270.0
 51
285.204838578393
  0
ARC
  5
310
330
74
100
AcDbEntity
  8
1
  6
Continuous
 62
     7
100
AcDbCircle
 10
751.3417193918018
 20
673.2000000000004
 30
0.0
 40
2.999999999999659
100
AcDbArc
 50
270.0
 51
293.5564643091091
  0
ARC
  5
311
330
74
100
AcDbEntity
  8
1
  6
Continuous
 62
     7
100
AcDbCircle
 10
751.3417193918018
 20
673.2000000000004
 30
0.0
 40
4.0
100
AcDbArc
 50
270.0
 51
291.7867892982621
  0
ARC
  5
312
330
74
100
AcDbEntity
  8
1
  6
Continuous
 62
     7
100
AcDbCircle
 10
747.8417193918018
 20
670.667258709562
 30
0.0
 40
1.467258709561611
100
AcDbArc
 50
242.4246915014174
 51
270.0
  0
ARC
  5
313
330
74
100
AcDbEntity
  8
1
  6
Continuous
 62
     7
100
AcDbCircle
 10
747.8417193918018
 20
670.667258709562
 30
0.0
 40
0.4672587095616197
100
AcDbArc
 50
212.6020287113421
 51
270.0
  0
ARC
  5
314
330
74
100
AcDbEntity
  8
1
  6
Continuous
 62
     7
100
AcDbCircle
 10
746.0246353113115
 20
670.64994179031
 30
0.0
 40
0.4499417903092535
100
AcDbArc
 50
270.0
 51
327.9057037069342
  0
ARC
  5
315
330
74
100
AcDbEntity
  8
1
  6
Continuous
 62
     7
100
AcDbCircle
 10
745.2746353113115
 20
671.4292638315748
 30
0.0
 40
1.229263831574367
100
AcDbArc
 50
247.0086430289547
 51
270.0
  0
ARC
  5
316
330
74
100
AcDbEntity
  8
1
  6
Continuous
 62
     7
100
AcDbCircle
 10
742.8161076481628
 20
665.6349055611076
 30
0.0
 40
5.065094438892787
100
AcDbArc
 50
67.00864302896015
 51
112.9913569710398
  0
ARC
  5
317
330
74
100
AcDbEntity
  8
1
  6
Continuous
 62
     7
100
AcDbCircle
 10
740.3575799850142
 20
671.4292638315748
 30
0.0
 40
1.229263831574031
100
AcDbArc
 50
269.9999999999894
 51
292.9913569710356
  0
ARC
  5
318
330
74
100
AcDbEntity
  8
1
  6
Continuous
 62
     7
100
AcDbCircle
 10
739.0585418793374
 20
671.8792056218844
 30
0.0
 40
1.679205621884015
100
AcDbArc
 50
253.0640166172276
 51
270.0
  0
ARC
  5
319
330
74
100
AcDbEntity
  8
1
  6
Continuous
 62
     7
100
AcDbCircle
 10
735.7001306355695
 20
660.8502795396182
 30
0.0
 40
9.849720460382155
100
AcDbArc
 50
73.06401661722145
 51
106.935983382776
  0
ARC
  5
31A
330
74
100
AcDbEntity
  8
1
  6
Continuous
 62
     7
100
AcDbCircle
 10
732.3417193918018
 20
671.8792056218844
 30
0.0
 40
1.679205621883625
100
AcDbArc
 50
270.0
 51
286.9359833827797
  0
ARC
  5
31B
330
74
100
AcDbEntity
  8
1
  6
Continuous
 62
     7
100
AcDbCircle
 10
730.8417193918018
 20
671.8792056218844
 30
0.0
 40
1.679205621884015
100
AcDbArc
 50
253.0640166172276
 51
270.0
  0
ARC
  5
31C
330
74
100
AcDbEntity
  8
1
  6
Continuous
 62
     7
100
AcDbCircle
 10
727.4833081480341
 20
660.8502795396182
 30
0.0
 40
9.84972046038209
100
AcDbArc
 50
73.06401661722272
 51
106.9359833827773
  0
ARC
  5
31D
330
74
100
AcDbEntity
  8
1
  6
Continuous
 62
     7
100
AcDbCircle
 10
724.1248969042662
 20
671.8792056218844
 30
0.0
 40
1.679205621883625
100
AcDbArc
 50
270.0
 51
286.9359833827797
  0
ARC
  5
31E
330
74
100
AcDbEntity
  8
1
  6
Continuous
 62
     7
100
AcDbCircle
 10
722.8258587985894
 20
671.4292638315748
 30
0.0
 40
1.229263831574279
100
AcDbArc
 50
247.0086430289644
 51
270.0
  0
ARC
  5
31F
330
74
100
AcDbEntity
  8
1
  6
Continuous
 62
     7
100
AcDbCircle
 10
720.3673311354408
 20
665.6349055611076
 30
0.0
 40
5.065094438892787
100
AcDbArc
 50
67.00864302896015
 51
112.9913569710398
  0
ARC
  5
320
330
74
100
AcDbEntity
  8
1
  6
Continuous
 62
     7
100
AcDbCircle
 10
717.9088034722923
 20
671.4292638315748
 30
0.0
 40
1.229263831574031
100
AcDbArc
 50
270.0
 51
292.9913569710356
  0
ARC
  5
321
330
74
100
AcDbEntity
  8
1
  6
Continuous
 62
     7
100
AcDbCircle
 10
717.1588034722923
 20
670.64994179031
 30
0.0
 40
0.4499417903096316
100
AcDbArc
 50
212.0942962930504
 51
270.0
  0
ARC
  5
322
330
74
100
AcDbEntity
  8
1
  6
Continuous
 62
     7
100
AcDbCircle
 10
716.2550264617552
 20
670.0831289055349
 30
0.0
 40
0.6168710944656665
100
AcDbArc
 50
32.09429629306339
 51
147.3979712886404
  0
ARC
  5
323
330
74
100
AcDbEntity
  8
1
  6
Continuous
 62
     7
100
AcDbCircle
 10
715.3417193918018
 20
670.667258709562
 30
0.0
 40
0.4672587095612926
100
AcDbArc
 50
270.0
 51
327.3979712886579
  0
ARC
  5
324
330
74
100
AcDbEntity
  8
1
  6
Continuous
 62
     7
100
AcDbCircle
 10
745.2746353113115
 20
671.4292638315748
 30
0.0
 40
2.229263831574291
100
AcDbArc
 50
247.0086430289567
 51
270.0
  0
ARC
  5
325
330
74
100
AcDbEntity
  8
1
  6
Continuous
 62
     7
100
AcDbCircle
 10
742.8161076481628
 20
665.6349055611076
 30
0.0
 40
4.065094438892864
100
AcDbArc
 50
67.00864302896039
 51
112.9913569710396
  0
ARC
  5
326
330
74
100
AcDbEntity
  8
1
  6
Continuous
 62
     7
100
AcDbCircle
 10
740.3575799850142
 20
671.4292638315748
 30
0.0
 40
2.229263831574372
100
AcDbArc
 50
269.9999999999941
 51
292.9913569710379
  0
ARC
  5
327
330
74
100
AcDbEntity
  8
1
  6
Continuous
 62
     7
100
AcDbCircle
 10
735.7001306355695
 20
660.8502795396182
 30
0.0
 40
8.849720460382478
100
AcDbArc
 50
73.06401661722114
 51
106.9359833827746
  0
ARC
  5
328
330
74
100
AcDbEntity
  8
1
  6
Continuous
 62
     7
100
AcDbCircle
 10
739.0585418793374
 20
671.8792056218844
 30
0.0
 40
2.679205621883693
100
AcDbArc
 50
253.0640166172263
 51
270.0
  0
ARC
  5
329
330
74
100
AcDbEntity
  8
1
  6
Continuous
 62
     7
100
AcDbCircle
 10
732.3417193918018
 20
671.8792056218844
 30
0.0
 40
2.679205621883966
100
AcDbArc
 50
270.0
 51
286.935983382783
  0
ARC
  5
32A
330
74
100
AcDbEntity
  8
1
  6
Continuous
 62
     7
100
AcDbCircle
 10
730.8417193918018
 20
671.8792056218844
 30
0.0
 40
2.679205621883759
100
AcDbArc
 50
253.0640166172217
 51
270.0
  0
ARC
  5
32B
330
74
100
AcDbEntity
  8
1
  6
Continuous
 62
     7
100
AcDbCircle
 10
727.4833081480341
 20
660.8502795396182
 30
0.0
 40
8.849720460382345
100
AcDbArc
 50
73.06401661722397
 51
106.9359833827774
  0
ARC
  5
32C
330
74
100
AcDbEntity
  8
1
  6
Continuous
 62
     7
100
AcDbCircle
 10
724.1248969042662
 20
671.8792056218844
 30
0.0
 40
2.679205621883966
100
AcDbArc
 50
270.0
 51
286.9359833827783
  0
ARC
  5
32D
330
74
100
AcDbEntity
  8
1
  6
Continuous
 62
     7
100
AcDbCircle
 10
722.8258587985894
 20
671.4292638315748
 30
0.0
 40
2.229263831574202
100
AcDbArc
 50
247.0086430289621
 51
270.0
  0
ARC
  5
32E
330
74
100
AcDbEntity
  8
1
  6
Continuous
 62
     7
100
AcDbCircle
 10
720.3673311354408
 20
665.6349055611076
 30
0.0
 40
4.065094438892864
100
AcDbArc
 50
67.00864302896039
 51
112.9913569710396
  0
ARC
  5
32F
330
74
100
AcDbEntity
  8
1
  6
Continuous
 62
     7
100
AcDbCircle
 10
717.9088034722923
 20
671.4292638315748
 30
0.0
 40
2.229263831574372
100
AcDbArc
 50
270.0
 51
292.9913569710379
  0
ARC
  5
330
330
74
100
AcDbEntity
  8
1
  6
Continuous
 62
     7
100
AcDbCircle
 10
717.1588034722923
 20
670.64994179031
 30
0.0
 40
1.449941790309638
100
AcDbArc
 50
242.3000867760149
 51
270.0
  0
ARC
  5
331
330
74
100
AcDbEntity
  8
1
  6
Continuous
 62
     7
100
AcDbCircle
 10
715.3417193918018
 20
670.667258709562
 30
0.0
 40
1.467258709561634
100
AcDbArc
 50
270.0
 51
297.5753084985826
  0
ARC
  5
332
330
74
100
AcDbEntity
  8
1
  6
Continuous
 62
     7
100
AcDbCircle
 10
746.0246353113115
 20
670.64994179031
 30
0.0
 40
1.449941790309595
100
AcDbArc
 50
270.0
 51
297.6999132239771
  0
ARC
  5
333
330
74
100
AcDbEntity
  8
1
  6
Continuous
 62
     7
100
AcDbCircle
 10
746.9284123218482
 20
670.0831289055349
 30
0.0
 40
0.6168710944655618
100
AcDbArc
 50
32.60202871134822
 51
147.9057037069254
  0
ARC
  5
334
330
74
100
AcDbEntity
  8
1
  6
Continuous
 62
     7
100
AcDbCircle
 10
326.931047627382
 20
668.9234743857896
 30
0.0
 40
0.4999999999999266
100
AcDbArc
 50
62.42469150142946
 51
117.6999132239931
  0
ARC
  5
335
330
74
100
AcDbEntity
  8
1
  6
Continuous
 62
     7
100
AcDbCircle
 10
296.2523911562216
 20
668.9234743857896
 30
0.0
 40
0.4999999999999346
100
AcDbArc
 50
62.30008677602427
 51
117.5753084985879
  0
ARC
  5
336
330
74
100
AcDbEntity
  8
1
  6
Continuous
 62
     7
100
AcDbCircle
 10
333.9397956031548
 20
666.7000000000004
 30
0.0
 40
3.0
100
AcDbArc
 50
90.0
 51
111.7867892982564
  0
ARC
  5
337
330
74
100
AcDbEntity
  8
1
  6
Continuous
 62
     7
100
AcDbCircle
 10
333.7396351534585
 20
667.7000000000004
 30
0.0
 40
3.0
100
AcDbArc
 50
90.0
 51
113.5564643091011
  0
ARC
  5
338
330
74
100
AcDbEntity
  8
1
  6
Continuous
 62
     7
100
AcDbCircle
 10
753.7396351534586
 20
667.7000000000004
 30
0.0
 40
3.0
100
AcDbArc
 50
90.0
 51
113.5564643091011
  0
ARC
  5
339
330
74
100
AcDbEntity
  8
1
  6
Continuous
 62
     7
100
AcDbCircle
 10
753.939795603155
 20
666.7000000000004
 30
0.0
 40
3.0
100
AcDbArc
 50
90.0
 51
111.7867892982585
  0
ARC
  5
33A
330
74
100
AcDbEntity
  8
1
  6
Continuous
 62
     7
100
AcDbCircle
 10
716.2523911562217
 20
668.9234743857896
 30
0.0
 40
0.4999999999999346
100
AcDbArc
 50
62.30008677602427
 51
117.5753084985879
  0
ARC
  5
33B
330
74
100
AcDbEntity
  8
1
  6
Continuous
 62
     7
100
AcDbCircle
 10
746.9310476273821
 20
668.9234743857896
 30
0.0
 40
0.4999999999999003
100
AcDbArc
 50
62.42469150143524
 51
117.6999132239988
  0
ENDBLK
  5
76
330
74
100
AcDbEntity
  8
0
100
AcDbBlockEnd
  0
BLOCK
  5
78
330
77
100
AcDbEntity
  8
0
100
AcDbBlockBegin
  2
32-33-32
 70
     0
 10
610.045328859244
 20
588.4495240620078
 30
0.0
  3
32-33-32
  1

  0
LINE
  5
33C
330
77
100
AcDbEntity
  8
1
  6
Continuous
 62
     7
100
AcDbLine
 10
749.5917193917884
 20
669.2000000000004
 30
0.0
 11
713.5917193917884
 21
669.2000000000004
 31
0.0
  0
LINE
  5
33D
330
77
100
AcDbEntity
  8
1
  6
Continuous
 62
     7
100
AcDbLine
 10
749.5917193917884
 20
669.2000000000004
 30
0.0
 11
749.5917193917884
 21
663.2000000000004
 31
0.0
  0
LINE
  5
33E
330
77
100
AcDbEntity
  8
1
  6
Continuous
 62
     7
100
AcDbLine
 10
713.5917193917884
 20
663.2000000000004
 30
0.0
 11
713.5917193917884
 21
669.2000000000004
 31
0.0
  0
LINE
  5
33F
330
77
100
AcDbEntity
  8
1
  6
Continuous
 62
     7
100
AcDbLine
 10
749.5917193917884
 20
663.2000000000004
 30
0.0
 11
713.5917193917884
 21
663.2000000000004
 31
0.0
  0
LINE
  5
340
330
77
100
AcDbEntity
  8
0
  6
Continuous
 62
     7
100
AcDbLine
 10
331.3417193918017
 20
669.2000000000004
 30
0.0
 11
332.3763290826282
 21
669.2000000000004
 31
0.0
  0
LINE
  5
341
330
77
100
AcDbEntity
  8
0
  6
Continuous
 62
     7
100
AcDbLine
 10
291.8417193918017
 20
669.2000000000004
 30
0.0
 11
290.8071097009752
 21
669.2000000000004
 31
0.0
  0
LINE
  5
342
330
77
100
AcDbEntity
  8
1
  6
Continuous
 62
     7
100
AcDbLine
 10
332.3763290826282
 20
669.2000000000004
 30
0.0
 11
332.3763290826282
 21
663.2000000000004
 31
0.0
  0
LINE
  5
343
330
77
100
AcDbEntity
  8
1
  6
Continuous
 62
     7
100
AcDbLine
 10
321.984024237215
 20
669.2000000000004
 30
0.0
 11
321.984024237215
 21
663.2000000000004
 31
0.0
  0
LINE
  5
344
330
77
100
AcDbEntity
  8
1
  6
Continuous
 62
     7
100
AcDbLine
 10
301.1994145463884
 20
663.2000000000004
 30
0.0
 11
301.1994145463884
 21
669.2000000000004
 31
0.0
  0
LINE
  5
345
330
77
100
AcDbEntity
  8
1
  6
Continuous
 62
     7
100
AcDbLine
 10
290.8071097009752
 20
663.2000000000004
 30
0.0
 11
332.3763290826282
 21
663.2000000000004
 31
0.0
  0
LINE
  5
346
330
77
100
AcDbEntity
  8
1
  6
Continuous
 62
     7
100
AcDbLine
 10
290.8071097009752
 20
663.2000000000004
 30
0.0
 11
290.8071097009752
 21
669.2000000000004
 31
0.0
  0
ENDBLK
  5
79
330
77
100
AcDbEntity
  8
0
100
AcDbBlockEnd
  0
BLOCK
  5
7B
330
7A
100
AcDbEntity
  8
0
100
AcDbBlockBegin
  2
15-33-_表面処理_
 70
     0
 10
1146.330860123494
 20
1301.432947233518
 30
0.0
  3
15-33-_表面処理_
  1

  0
LINE
  5
347
330
7A
100
AcDbEntity
  8
1
  6
Continuous
 62
     7
100
AcDbLine
 10
715.5917193918018
 20
663.2000000000005
 30
0.0
 11
715.5917193918018
 21
645.6999999999997
 31
0.0
  0
LINE
  5
348
330
7A
100
AcDbEntity
  8
1
  6
Continuous
 62
     7
100
AcDbLine
 10
709.3917193917756
 20
692.2
 30
0.0
 11
753.7917193918018
 21
692.2
 31
0.0
  0
LINE
  5
349
330
7A
100
AcDbEntity
  8
1
  6
Continuous
 62
     7
100
AcDbLine
 10
753.7917193918018
 20
690.2
 30
0.0
 11
709.3917193917756
 21
690.2
 31
0.0
  0
LINE
  5
34A
330
7A
100
AcDbEntity
  8
1
  6
Continuous
 62
     7
100
AcDbLine
 10
709.0917193917757
 20
690.5
 30
0.0
 11
709.3917193917756
 21
690.2
 31
0.0
  0
LINE
  5
34B
330
7A
100
AcDbEntity
  8
1
  6
Continuous
 62
     7
100
AcDbLine
 10
709.3917193917756
 20
692.2
 30
0.0
 11
709.0917193917757
 21
691.9
 31
0.0
  0
LINE
  5
34C
330
7A
100
AcDbEntity
  8
1
  6
Continuous
 62
     7
100
AcDbLine
 10
709.0917193917757
 20
690.5
 30
0.0
 11
709.0917193917757
 21
691.9
 31
0.0
  0
LINE
  5
34D
330
7A
100
AcDbEntity
  8
1
  6
Continuous
 62
     7
100
AcDbLine
 10
715.5917193918018
 20
687.7000000000002
 30
0.0
 11
715.5917193918018
 21
672.2000000000003
 31
0.0
  0
LINE
  5
34E
330
7A
100
AcDbEntity
  8
1
  6
Continuous
 62
     7
100
AcDbLine
 10
747.5917193918018
 20
645.6999999999999
 30
0.0
 11
747.5917193918018
 21
663.2000000000005
 31
0.0
  0
LINE
  5
34F
330
7A
100
AcDbEntity
  8
1
  6
Continuous
 62
     7
100
AcDbLine
 10
754.0917193918018
 20
691.9
 30
0.0
 11
754.0917193918018
 21
690.5
 31
0.0
  0
LINE
  5
350
330
7A
100
AcDbEntity
  8
1
  6
Continuous
 62
     7
100
AcDbLine
 10
754.0917193918018
 20
691.9
 30
0.0
 11
753.7917193918018
 21
692.2
 31
0.0
  0
LINE
  5
351
330
7A
100
AcDbEntity
  8
1
  6
Continuous
 62
     7
100
AcDbLine
 10
753.7917193918018
 20
690.2
 30
0.0
 11
754.0917193918018
 21
690.5
 31
0.0
  0
LINE
  5
352
330
7A
100
AcDbEntity
  8
1
  6
Continuous
 62
     7
100
AcDbLine
 10
747.5917193918018
 20
645.6999999999999
 30
0.0
 11
746.7797193918019
 21
644.8879999999998
 31
0.0
  0
LINE
  5
353
330
7A
100
AcDbEntity
  8
1
  6
Continuous
 62
     2
100
AcDbLine
 10
746.7797193918019
 20
687.7000000000002
 30
0.0
 11
746.7797193918019
 21
672.2000000000003
 31
0.0
  0
LINE
  5
354
330
7A
100
AcDbEntity
  8
1
  6
Continuous
 62
     7
100
AcDbLine
 10
716.4037193918019
 20
644.8879999999996
 30
0.0
 11
715.5917193918018
 21
645.6999999999997
 31
0.0
  0
LINE
  5
355
330
7A
100
AcDbEntity
  8
1
  6
Continuous
 62
     7
100
AcDbLine
 10
717.9917193918019
 20
644.6999999999999
 30
0.0
 11
746.5917193918018
 21
644.6999999999999
 31
0.0
  0
LINE
  5
356
330
7A
100
AcDbEntity
  8
1
  6
Continuous
 62
     7
100
AcDbLine
 10
746.7797193918019
 20
644.8879999999998
 30
0.0
 11
746.5917193918018
 21
644.6999999999999
 31
0.0
  0
LINE
  5
357
330
7A
100
AcDbEntity
  8
1
  6
Continuous
 62
     7
100
AcDbLine
 10
716.5917193918018
 20
644.6999999999999
 30
0.0
 11
717.9917193918019
 21
644.6999999999999
 31
0.0
  0
LINE
  5
358
330
7A
100
AcDbEntity
  8
1
  6
Continuous
 62
     7
100
AcDbLine
 10
716.5917193918018
 20
644.6999999999999
 30
0.0
 11
716.4037193918019
 21
644.8879999999996
 31
0.0
  0
LINE
  5
359
330
7A
100
AcDbEntity
  8
1
  6
Continuous
 62
     2
100
AcDbLine
 10
716.4037193918019
 20
644.8879999999996
 30
0.0
 11
716.4037193918019
 21
663.2000000000005
 31
0.0
  0
LINE
  5
35A
330
7A
100
AcDbEntity
  8
1
  6
Continuous
 62
     7
100
AcDbLine
 10
715.5917193918018
 20
645.6999999999997
 30
0.0
 11
747.5917193918018
 21
645.6999999999999
 31
0.0
  0
LINE
  5
35B
330
7A
100
AcDbEntity
  8
1
  6
Continuous
 62
     7
100
AcDbLine
 10
747.5917193918018
 20
672.2000000000003
 30
0.0
 11
747.5917193918018
 21
687.7000000000002
 31
0.0
  0
LINE
  5
35C
330
7A
100
AcDbEntity
  8
1
  6
Continuous
 62
     2
100
AcDbLine
 10
746.7797193918019
 20
663.2000000000005
 30
0.0
 11
746.7797193918019
 21
644.8879999999998
 31
0.0
  0
LINE
  5
35D
330
7A
100
AcDbEntity
  8
1
  6
Continuous
 62
     2
100
AcDbLine
 10
716.4037193918019
 20
672.2000000000003
 30
0.0
 11
716.4037193918019
 21
687.7000000000002
 31
0.0
  0
LINE
  5
35E
330
7A
100
AcDbEntity
  8
1
  6
Continuous
 62
     2
100
AcDbLine
 10
296.4037193918018
 20
672.2000000000003
 30
0.0
 11
296.4037193918018
 21
687.7000000000002
 31
0.0
  0
LINE
  5
35F
330
7A
100
AcDbEntity
  8
1
  6
Continuous
 62
     2
100
AcDbLine
 10
326.7797193918018
 20
663.2000000000005
 30
0.0
 11
326.7797193918018
 21
644.8879999999998
 31
0.0
  0
LINE
  5
360
330
7A
100
AcDbEntity
  8
1
  6
Continuous
 62
     7
100
AcDbLine
 10
327.5917193918017
 20
672.2000000000003
 30
0.0
 11
327.5917193918017
 21
687.7000000000002
 31
0.0
  0
LINE
  5
361
330
7A
100
AcDbEntity
  8
1
  6
Continuous
 62
     7
100
AcDbLine
 10
295.5917193918017
 20
645.6999999999997
 30
0.0
 11
327.5917193918017
 21
645.6999999999999
 31
0.0
  0
LINE
  5
362
330
7A
100
AcDbEntity
  8
1
  6
Continuous
 62
     2
100
AcDbLine
 10
296.4037193918018
 20
644.8879999999996
 30
0.0
 11
296.4037193918018
 21
663.2000000000005
 31
0.0
  0
LINE
  5
363
330
7A
100
AcDbEntity
  8
1
  6
Continuous
 62
     7
100
AcDbLine
 10
296.5917193918017
 20
644.6999999999999
 30
0.0
 11
296.4037193918018
 21
644.8879999999996
 31
0.0
  0
LINE
  5
364
330
7A
100
AcDbEntity
  8
1
  6
Continuous
 62
     7
100
AcDbLine
 10
296.5917193918017
 20
644.6999999999999
 30
0.0
 11
297.9917193918018
 21
644.6999999999999
 31
0.0
  0
LINE
  5
365
330
7A
100
AcDbEntity
  8
1
  6
Continuous
 62
     7
100
AcDbLine
 10
326.7797193918018
 20
644.8879999999998
 30
0.0
 11
326.5917193918017
 21
644.6999999999999
 31
0.0
  0
LINE
  5
366
330
7A
100
AcDbEntity
  8
1
  6
Continuous
 62
     7
100
AcDbLine
 10
297.9917193918018
 20
644.6999999999999
 30
0.0
 11
326.5917193918017
 21
644.6999999999999
 31
0.0
  0
LINE
  5
367
330
7A
100
AcDbEntity
  8
1
  6
Continuous
 62
     7
100
AcDbLine
 10
296.4037193918018
 20
644.8879999999996
 30
0.0
 11
295.5917193918017
 21
645.6999999999997
 31
0.0
  0
LINE
  5
368
330
7A
100
AcDbEntity
  8
1
  6
Continuous
 62
     2
100
AcDbLine
 10
326.7797193918018
 20
687.7000000000002
 30
0.0
 11
326.7797193918018
 21
672.2000000000003
 31
0.0
  0
LINE
  5
369
330
7A
100
AcDbEntity
  8
1
  6
Continuous
 62
     7
100
AcDbLine
 10
327.5917193918017
 20
645.6999999999999
 30
0.0
 11
326.7797193918018
 21
644.8879999999998
 31
0.0
  0
LINE
  5
36A
330
7A
100
AcDbEntity
  8
1
  6
Continuous
 62
     7
100
AcDbLine
 10
333.7917193918017
 20
690.2
 30
0.0
 11
334.0917193918017
 21
690.5
 31
0.0
  0
LINE
  5
36B
330
7A
100
AcDbEntity
  8
1
  6
Continuous
 62
     7
100
AcDbLine
 10
334.0917193918017
 20
691.9
 30
0.0
 11
333.7917193918017
 21
692.2
 31
0.0
  0
LINE
  5
36C
330
7A
100
AcDbEntity
  8
1
  6
Continuous
 62
     7
100
AcDbLine
 10
334.0917193918017
 20
691.9
 30
0.0
 11
334.0917193918017
 21
690.5
 31
0.0
  0
LINE
  5
36D
330
7A
100
AcDbEntity
  8
1
  6
Continuous
 62
     7
100
AcDbLine
 10
327.5917193918017
 20
645.6999999999999
 30
0.0
 11
327.5917193918017
 21
663.2000000000005
 31
0.0
  0
LINE
  5
36E
330
7A
100
AcDbEntity
  8
1
  6
Continuous
 62
     7
100
AcDbLine
 10
295.5917193918017
 20
687.7000000000002
 30
0.0
 11
295.5917193918017
 21
672.2000000000003
 31
0.0
  0
LINE
  5
36F
330
7A
100
AcDbEntity
  8
1
  6
Continuous
 62
     7
100
AcDbLine
 10
289.0917193917755
 20
690.5
 30
0.0
 11
289.0917193917755
 21
691.9
 31
0.0
  0
LINE
  5
370
330
7A
100
AcDbEntity
  8
1
  6
Continuous
 62
     7
100
AcDbLine
 10
289.3917193917755
 20
692.2
 30
0.0
 11
289.0917193917755
 21
691.9
 31
0.0
  0
LINE
  5
371
330
7A
100
AcDbEntity
  8
1
  6
Continuous
 62
     7
100
AcDbLine
 10
289.0917193917755
 20
690.5
 30
0.0
 11
289.3917193917755
 21
690.2
 31
0.0
  0
LINE
  5
372
330
7A
100
AcDbEntity
  8
1
  6
Continuous
 62
     7
100
AcDbLine
 10
333.7917193918017
 20
690.2
 30
0.0
 11
289.3917193917755
 21
690.2
 31
0.0
  0
LINE
  5
373
330
7A
100
AcDbEntity
  8
1
  6
Continuous
 62
     7
100
AcDbLine
 10
289.3917193917755
 20
692.2
 30
0.0
 11
333.7917193918017
 21
692.2
 31
0.0
  0
LINE
  5
374
330
7A
100
AcDbEntity
  8
1
  6
Continuous
 62
     7
100
AcDbLine
 10
295.5917193918017
 20
663.2000000000005
 30
0.0
 11
295.5917193918017
 21
645.6999999999997
 31
0.0
  0
ARC
  5
375
330
7A
100
AcDbEntity
  8
1
  6
Continuous
 62
     7
100
AcDbCircle
 10
731.5917193917887
 20
1133.000000000001
 30
0.0
 40
22.20000000000106
100
AcDbArc
 50
214.2678947780651
 51
145.7321052219349
  0
ARC
  5
376
330
7A
100
AcDbEntity
  8
1
  6
Continuous
 62
     7
100
AcDbCircle
 10
731.5917193917887
 20
1133.000000000001
 30
0.0
 40
22.50000000000034
100
AcDbArc
 50
213.748988595888
 51
146.251011404112
  0
ENDBLK
  5
7C
330
7A
100
AcDbEntity
  8
0
100
AcDbBlockEnd
  0
BLOCK
  5
7E
330
7D
100
AcDbEntity
  8
0
100
AcDbBlockBegin
  2
65-56-470-C2
 70
     0
 10
238.0520751304849
 20
628.604478413333
 30
0.0
  3
65-56-470-C2
  1

  0
LINE
  5
377
330
7D
100
AcDbEntity
  8
1
  6
Continuous
 62
     7
100
AcDbLine
 10
316.3417193917875
 20
321.26
 30
0.0
 11
316.3417193917886
 21
644.903877362683
 31
0.0
  0
LINE
  5
378
330
7D
100
AcDbEntity
  8
1
  6
Continuous
 62
     7
100
AcDbLine
 10
306.8417193917886
 20
644.903877362683
 30
0.0
 11
306.8417193917886
 21
321.26
 31
0.0
  0
LINE
  5
379
330
7D
100
AcDbEntity
  8
1
  6
Continuous
 62
     7
100
AcDbLine
 10
730.241719391787
 20
321.26
 30
0.0
 11
730.2417193917893
 21
644.6999999999999
 31
0.0
  0
LINE
  5
37A
330
7D
100
AcDbEntity
  8
1
  6
Continuous
 62
     7
100
AcDbLine
 10
720.7417193917901
 20
624.9155675098498
 30
0.0
 11
720.7417193917901
 21
624.9220493949763
 31
0.0
  0
LINE
  5
37B
330
7D
100
AcDbEntity
  8
1
  6
Continuous
 62
     7
100
AcDbLine
 10
720.7417193917951
 20
321.26
 30
0.0
 11
720.7417193917898
 21
644.6999999999999
 31
0.0
  0
ENDBLK
  5
7F
330
7D
100
AcDbEntity
  8
0
100
AcDbBlockEnd
  0
BLOCK
  5
82
330
80
100
AcDbEntity
  8
0
100
AcDbBlockBegin
  2
30-360X-470-C6
 70
     0
 10
529.2308601234939
 20
881.4329472335182
 30
0.0
  3
30-360X-470-C6
  1

  0
INSERT
  5
81
330
80
100
AcDbEntity
  8
1
100
AcDbBlockReference
  2
65-56-470-C2
 10
238.0520751304849
 20
628.6044784133329
 30
0.0
 41
1.0
 42
1.0
 43
1.0
  0
ENDBLK
  5
83
330
80
100
AcDbEntity
  8
0
100
AcDbBlockEnd
  0
BLOCK
  5
3D8
330
3CF
100
AcDbEntity
  8
0
100
AcDbBlockBegin
  2
*D20
 70
     1
 10
0.0
 20
0.0
 30
0.0
  3
*D20
  1

  0
LINE
  5
3D0
330
3CF
100
AcDbEntity
  8
1
  6
Continuous
 62
     2
100
AcDbLine
 10
482.5917193917888
 20
672.2000000000002
 30
0.0
 11
482.5917193917888
 21
637.2000000000002
 31
0.0
  0
LINE
  5
3D1
330
3CF
100
AcDbEntity
  8
1
  6
Continuous
 62
     2
100
AcDbLine
 10
482.5917193917888
 20
687.6999999999999
 30
0.0
 11
482.5917193917888
 21
672.2000000000002
 31
0.0
  0
LINE
  5
3D2
330
3CF
100
AcDbEntity
  8
1
  6
Continuous
 62
     2
100
AcDbLine
 10
482.5917193917888
 20
858.132078362595
 30
0.0
 11
482.5917193917888
 21
687.6999999999999
 31
0.0
  0
LINE
  5
3D3
330
3CF
100
AcDbEntity
  8
1
  6
Continuous
 62
     2
100
AcDbLine
 10
692.5917193917887
 20
672.2000000000002
 30
0.0
 11
477.5917193917888
 21
672.2000000000002
 31
0.0
  0
LINE
  5
3D4
330
3CF
100
AcDbEntity
  8
1
  6
Continuous
 62
     2
100
AcDbLine
 10
692.5917193917887
 20
687.6999999999999
 30
0.0
 11
477.5917193917888
 21
687.6999999999999
 31
0.0
  0
SOLID
  5
3D5
330
3CF
100
AcDbEntity
  8
1
 62
     2
100
AcDbTrace
 10
480.2878006840094
 20
705.1999999999999
 30
0.0
 11
484.8956380995682
 21
705.1999999999999
 31
0.0
 12
482.5917193917888
 22
687.6999999999999
 32
0.0
 13
482.5917193917888
 23
687.6999999999999
 33
0.0
  0
SOLID
  5
3D6
330
3CF
100
AcDbEntity
  8
1
 62
     2
100
AcDbTrace
 10
484.8956380995682
 20
654.7000000000002
 30
0.0
 11
480.2878006840094
 21
654.7000000000002
 31
0.0
 12
482.5917193917888
 22
672.2000000000002
 32
0.0
 13
482.5917193917888
 23
672.2000000000002
 33
0.0
  0
MTEXT
  5
3D7
330
3CF
100
AcDbEntity
  8
1
 62
     7
100
AcDbMText
 10
477.5917193917888
 20
752.432078362595
 30
0.0
 40
17.5
 41
0.0
 71
     7
 72
     1
  1
\C7;最大\C7;30最小5
  7
CONVERTER_11
 11
0.0
 21
1.0
 31
0.0
 73
     1
 44
0.45454545454545
  0
ENDBLK
  5
3D9
330
3CF
100
AcDbEntity
  8
0
100
AcDbBlockEnd
  0
BLOCK
  5
3E3
330
3DC
100
AcDbEntity
  8
0
100
AcDbBlockBegin
  2
*D21
 70
     1
 10
0.0
 20
0.0
 30
0.0
  3
*D21
  1

  0
LINE
  5
3DD
330
3DC
100
AcDbEntity
  8
1
  6
Continuous
 62
     2
100
AcDbLine
 10
731.5917193917887
 20
1043.273620285326
 30
0.0
 11
612.9786770299695
 21
1043.273620285326
 31
0.0
  0
LINE
  5
3DE
330
3DC
100
AcDbEntity
  8
1
  6
Continuous
 62
     2
100
AcDbLine
 10
612.9786770299695
 20
892.4313205160962
 30
0.0
 11
612.9786770299695
 21
1048.273620285326
 31
0.0
  0
LINE
  5
3DF
330
3DC
100
AcDbEntity
  8
1
  6
Continuous
 62
     2
100
AcDbLine
 10
731.5917193917887
 20
950.3026615000001
 30
0.0
 11
731.5917193917887
 21
1048.273620285326
 31
0.0
  0
SOLID
  5
3E0
330
3DC
100
AcDbEntity
  8
1
 62
     2
100
AcDbTrace
 10
714.0917193917887
 20
1040.969701577546
 30
0.0
 11
714.0917193917887
 21
1045.577538993105
 31
0.0
 12
731.5917193917887
 22
1043.273620285326
 32
0.0
 13
731.5917193917887
 23
1043.273620285326
 33
0.0
  0
SOLID
  5
3E1
330
3DC
100
AcDbEntity
  8
1
 62
     2
100
AcDbTrace
 10
630.4786770299695
 20
1045.577538993105
 30
0.0
 11
630.4786770299695
 21
1040.969701577546
 31
0.0
 12
612.9786770299695
 22
1043.273620285326
 32
0.0
 13
612.9786770299695
 23
1043.273620285326
 33
0.0
  0
MTEXT
  5
3E2
330
3DC
100
AcDbEntity
  8
1
 62
     7
100
AcDbMText
 10
656.5351982108791
 20
1048.273620285326
 30
0.0
 40
17.5
 41
0.0
 71
     7
 72
     1
  1
118
  7
CONVERTER_12
 11
0.9999999999970619
 21
2.424068405545306E-6
 31
0.0
 73
     1
 44
0.60024009603842
  0
ENDBLK
  5
3E4
330
3DC
100
AcDbEntity
  8
0
100
AcDbBlockEnd
  0
BLOCK
  5
3F0
330
3E7
100
AcDbEntity
  8
0
100
AcDbBlockBegin
  2
*D22
 70
     1
 10
0.0
 20
0.0
 30
0.0
  3
*D22
  1

  0
LINE
  5
3E8
330
3E7
100
AcDbEntity
  8
1
  6
Continuous
 62
     2
100
AcDbLine
 10
678.5917193917884
 20
554.6999999999999
 30
0.0
 11
713.5917193917884
 21
554.6999999999999
 31
0.0
  0
LINE
  5
3E9
330
3E7
100
AcDbEntity
  8
1
  6
Continuous
 62
     2
100
AcDbLine
 10
713.5917193917884
 20
554.6999999999999
 30
0.0
 11
749.5917193917884
 21
554.6999999999999
 31
0.0
  0
LINE
  5
3EA
330
3E7
100
AcDbEntity
  8
1
  6
Continuous
 62
     2
100
AcDbLine
 10
749.5917193917884
 20
554.6999999999999
 30
0.0
 11
936.8012482390266
 21
554.6999999999999
 31
0.0
  0
LINE
  5
3EB
330
3E7
100
AcDbEntity
  8
1
  6
Continuous
 62
     2
100
AcDbLine
 10
713.5917193917884
 20
663.2000000000004
 30
0.0
 11
713.5917193917884
 21
549.6999999999999
 31
0.0
  0
LINE
  5
3EC
330
3E7
100
AcDbEntity
  8
1
  6
Continuous
 62
     2
100
AcDbLine
 10
749.5917193917884
 20
663.2000000000004
 30
0.0
 11
749.5917193917884
 21
549.6999999999999
 31
0.0
  0
SOLID
  5
3ED
330
3E7
100
AcDbEntity
  8
1
 62
     2
100
AcDbTrace
 10
696.0917193917884
 20
552.3960812922205
 30
0.0
 11
696.0917193917884
 21
557.0039187077793
 31
0.0
 12
713.5917193917884
 22
554.6999999999999
 32
0.0
 13
713.5917193917884
 23
554.6999999999999
 33
0.0
  0
SOLID
  5
3EE
330
3E7
100
AcDbEntity
  8
1
 62
     2
100
AcDbTrace
 10
767.0917193917884
 20
557.0039187077793
 30
0.0
 11
767.0917193917884
 21
552.3960812922205
 31
0.0
 12
749.5917193917884
 22
554.6999999999999
 32
0.0
 13
749.5917193917884
 23
554.6999999999999
 33
0.0
  0
MTEXT
  5
3EF
330
3E7
100
AcDbEntity
  8
1
 62
     7
100
AcDbMText
 10
795.7512482393638
 20
559.699721716947
 30
0.0
 40
17.5
 41
0.0
 71
     7
 72
     1
  1
\C7;ロックナット対辺\C7;36
  7
CONVERTER_11
 11
0.9999999999970619
 21
2.424068405545306E-6
 31
0.0
 73
     1
 44
0.45454545454545
  0
ENDBLK
  5
3F1
330
3E7
100
AcDbEntity
  8
0
100
AcDbBlockEnd
  0
BLOCK
  5
3FD
330
3F4
100
AcDbEntity
  8
0
100
AcDbBlockBegin
  2
*D23
 70
     1
 10
0.0
 20
0.0
 30
0.0
  3
*D23
  1

  0
LINE
  5
3F5
330
3F4
100
AcDbEntity
  8
1
  6
Continuous
 62
     2
100
AcDbLine
 10
757.7063702851707
 20
1043.273620285326
 30
0.0
 11
792.7063702851707
 21
1043.273620285326
 31
0.0
  0
LINE
  5
3F6
330
3F4
100
AcDbEntity
  8
1
  6
Continuous
 62
     2
100
AcDbLine
 10
731.5917193917887
 20
1043.273620285326
 30
0.0
 11
757.7063702851707
 21
1043.273620285326
 31
0.0
  0
LINE
  5
3F7
330
3F4
100
AcDbEntity
  8
1
  6
Continuous
 62
     2
100
AcDbLine
 10
696.5917193917887
 20
1043.273620285326
 30
0.0
 11
731.5917193917887
 21
1043.273620285326
 31
0.0
  0
LINE
  5
3F8
330
3F4
100
AcDbEntity
  8
1
  6
Continuous
 62
     2
100
AcDbLine
 10
757.7063702851707
 20
938.2248321764105
 30
0.0
 11
757.7063702851707
 21
1048.273620285326
 31
0.0
  0
LINE
  5
3F9
330
3F4
100
AcDbEntity
  8
1
  6
Continuous
 62
     2
100
AcDbLine
 10
731.5917193917887
 20
950.3026615000001
 30
0.0
 11
731.5917193917887
 21
1048.273620285326
 31
0.0
  0
SOLID
  5
3FA
330
3F4
100
AcDbEntity
  8
1
 62
     2
100
AcDbTrace
 10
714.0917193917887
 20
1040.969701577546
 30
0.0
 11
714.0917193917887
 21
1045.577538993105
 31
0.0
 12
731.5917193917887
 22
1043.273620285326
 32
0.0
 13
731.5917193917887
 23
1043.273620285326
 33
0.0
  0
SOLID
  5
3FB
330
3F4
100
AcDbEntity
  8
1
 62
     2
100
AcDbTrace
 10
775.2063702851707
 20
1045.577538993105
 30
0.0
 11
775.2063702851707
 21
1040.969701577546
 31
0.0
 12
757.7063702851707
 22
1043.273620285326
 32
0.0
 13
757.7063702851707
 23
1043.273620285326
 33
0.0
  0
MTEXT
  5
3FC
330
3F4
100
AcDbEntity
  8
1
 62
     7
100
AcDbMText
 10
738.4205532137107
 20
1048.273620285326
 30
0.0
 40
17.5
 41
0.0
 71
     7
 72
     1
  1
27
  7
CONVERTER_12
 11
0.9999999999970619
 21
2.424068405545306E-6
 31
0.0
 73
     1
 44
0.60024009603842
  0
ENDBLK
  5
3FE
330
3F4
100
AcDbEntity
  8
0
100
AcDbBlockEnd
  0
BLOCK
  5
40A
330
401
100
AcDbEntity
  8
0
100
AcDbBlockBegin
  2
*D24
 70
     1
 10
0.0
 20
0.0
 30
0.0
  3
*D24
  1

  0
LINE
  5
402
330
401
100
AcDbEntity
  8
1
  6
Continuous
 62
     2
100
AcDbLine
 10
754.0917193918021
 20
714.178464559748
 30
0.0
 11
789.0917193918021
 21
714.178464559748
 31
0.0
  0
LINE
  5
403
330
401
100
AcDbEntity
  8
1
  6
Continuous
 62
     2
100
AcDbLine
 10
709.091719391776
 20
714.178464559748
 30
0.0
 11
754.0917193918021
 21
714.178464559748
 31
0.0
  0
LINE
  5
404
330
401
100
AcDbEntity
  8
1
  6
Continuous
 62
     2
100
AcDbLine
 10
604.228995403673
 20
714.178464559748
 30
0.0
 11
709.091719391776
 21
714.178464559748
 31
0.0
  0
LINE
  5
405
330
401
100
AcDbEntity
  8
1
  6
Continuous
 62
     2
100
AcDbLine
 10
754.0917193918021
 20
691.9
 30
0.0
 11
754.0917193918021
 21
719.178464559748
 31
0.0
  0
LINE
  5
406
330
401
100
AcDbEntity
  8
1
  6
Continuous
 62
     2
100
AcDbLine
 10
709.091719391776
 20
691.9000000000002
 30
0.0
 11
709.091719391776
 21
719.178464559748
 31
0.0
  0
SOLID
  5
407
330
401
100
AcDbEntity
  8
1
 62
     2
100
AcDbTrace
 10
691.591719391776
 20
711.8745458519686
 30
0.0
 11
691.591719391776
 21
716.4823832675274
 31
0.0
 12
709.091719391776
 22
714.178464559748
 32
0.0
 13
709.091719391776
 23
714.178464559748
 33
0.0
  0
SOLID
  5
408
330
401
100
AcDbEntity
  8
1
 62
     2
100
AcDbTrace
 10
771.5917193918021
 20
716.4823832675274
 30
0.0
 11
771.5917193918021
 21
711.8745458519686
 31
0.0
 12
754.0917193918021
 22
714.178464559748
 32
0.0
 13
754.0917193918021
 23
714.178464559748
 33
0.0
  0
MTEXT
  5
409
330
401
100
AcDbEntity
  8
1
 62
     7
100
AcDbMText
 10
610.8789954037152
 20
719.1784297743664
 30
0.0
 40
17.5
 41
0.0
 71
     7
 72
     1
  1
\C7;{\Fgdt;n}\C7;45
  7
CONVERTER_12
 11
0.9999999999970619
 21
2.424068405545306E-6
 31
0.0
 73
     1
 44
0.60024009603842
  0
ENDBLK
  5
40B
330
401
100
AcDbEntity
  8
0
100
AcDbBlockEnd
  0
BLOCK
  5
417
330
40E
100
AcDbEntity
  8
0
100
AcDbBlockBegin
  2
*D25
 70
     1
 10
0.0
 20
0.0
 30
0.0
  3
*D25
  1

  0
LINE
  5
40F
330
40E
100
AcDbEntity
  8
1
  6
Continuous
 62
     2
100
AcDbLine
 10
747.5917193918018
 20
594.6999999999999
 30
0.0
 11
844.216719391789
 21
594.6999999999999
 31
0.0
  0
LINE
  5
410
330
40E
100
AcDbEntity
  8
1
  6
Continuous
 62
     2
100
AcDbLine
 10
715.5917193918018
 20
594.6999999999999
 30
0.0
 11
747.5917193918018
 21
594.6999999999999
 31
0.0
  0
LINE
  5
411
330
40E
100
AcDbEntity
  8
1
  6
Continuous
 62
     2
100
AcDbLine
 10
680.5917193918017
 20
594.6999999999999
 30
0.0
 11
715.5917193918018
 21
594.6999999999999
 31
0.0
  0
LINE
  5
412
330
40E
100
AcDbEntity
  8
1
  6
Continuous
 62
     2
100
AcDbLine
 10
747.5917193918018
 20
645.6999999999999
 30
0.0
 11
747.5917193918018
 21
589.6999999999999
 31
0.0
  0
LINE
  5
413
330
40E
100
AcDbEntity
  8
1
  6
Continuous
 62
     2
100
AcDbLine
 10
715.5917193918018
 20
645.6999999999997
 30
0.0
 11
715.5917193918018
 21
589.6999999999999
 31
0.0
  0
SOLID
  5
414
330
40E
100
AcDbEntity
  8
1
 62
     2
100
AcDbTrace
 10
698.0917193918018
 20
592.3960812922205
 30
0.0
 11
698.0917193918018
 21
597.0039187077793
 31
0.0
 12
715.5917193918018
 22
594.6999999999999
 32
0.0
 13
715.5917193918018
 23
594.6999999999999
 33
0.0
  0
SOLID
  5
415
330
40E
100
AcDbEntity
  8
1
 62
     2
100
AcDbTrace
 10
765.0917193918018
 20
597.0039187077793
 30
0.0
 11
765.0917193918018
 21
592.3960812922205
 31
0.0
 12
747.5917193918018
 22
594.6999999999999
 32
0.0
 13
747.5917193918018
 23
594.6999999999999
 33
0.0
  0
MTEXT
  5
416
330
40E
100
AcDbEntity
  8
1
 62
     7
100
AcDbMText
 10
803.6167193918311
 20
599.6999652146183
 30
0.0
 40
17.5
 41
0.0
 71
     7
 72
     1
  1
\C7;{\Fgdt;n}\C7;32
  7
CONVERTER_12
 11
0.9999999999970619
 21
2.424068405545306E-6
 31
0.0
 73
     1
 44
0.60024009603842
  0
ENDBLK
  5
418
330
40E
100
AcDbEntity
  8
0
100
AcDbBlockEnd
  0
BLOCK
  5
422
330
41B
100
AcDbEntity
  8
0
100
AcDbBlockBegin
  2
*D26
 70
     1
 10
0.0
 20
0.0
 30
0.0
  3
*D26
  1

  0
LINE
  5
41C
330
41B
100
AcDbEntity
  8
1
  6
Continuous
 62
     2
100
AcDbLine
 10
860.591719391789
 20
690.2
 30
0.0
 11
860.591719391789
 21
958.2669143746969
 31
0.0
  0
LINE
  5
41D
330
41B
100
AcDbEntity
  8
1
  6
Continuous
 62
     2
100
AcDbLine
 10
753.7917193918018
 20
690.2
 30
0.0
 11
865.591719391789
 21
690.2
 31
0.0
  0
LINE
  5
41E
330
41B
100
AcDbEntity
  8
1
  6
Continuous
 62
     2
100
AcDbLine
 10
709.5855282331545
 20
958.2669143746969
 30
0.0
 11
865.591719391789
 21
958.2669143746969
 31
0.0
  0
SOLID
  5
41F
330
41B
100
AcDbEntity
  8
1
 62
     2
100
AcDbTrace
 10
858.2878006840095
 20
707.7
 30
0.0
 11
862.8956380995684
 21
707.7
 31
0.0
 12
860.591719391789
 22
690.2
 32
0.0
 13
860.591719391789
 23
690.2
 33
0.0
  0
SOLID
  5
420
330
41B
100
AcDbEntity
  8
1
 62
     2
100
AcDbTrace
 10
862.8956380995684
 20
940.7669143746969
 30
0.0
 11
858.2878006840095
 21
940.7669143746969
 31
0.0
 12
860.591719391789
 22
958.2669143746969
 32
0.0
 13
860.591719391789
 23
958.2669143746969
 33
0.0
  0
MTEXT
  5
421
330
41B
100
AcDbEntity
  8
1
 62
     7
100
AcDbMText
 10
855.591719391789
 20
799.522955755706
 30
0.0
 40
17.5
 41
0.0
 71
     7
 72
     1
  1
269
  7
CONVERTER_12
 11
0.0
 21
1.0
 31
0.0
 73
     1
 44
0.60024009603842
  0
ENDBLK
  5
423
330
41B
100
AcDbEntity
  8
0
100
AcDbBlockEnd
  0
BLOCK
  5
42F
330
426
100
AcDbEntity
  8
0
100
AcDbBlockBegin
  2
*D27
 70
     1
 10
0.0
 20
0.0
 30
0.0
  3
*D27
  1

  0
LINE
  5
427
330
426
100
AcDbEntity
  8
1
  6
Continuous
 62
     2
100
AcDbLine
 10
860.591719391789
 20
644.6999999999999
 30
0.0
 11
860.591719391789
 21
609.6999999999999
 31
0.0
  0
LINE
  5
428
330
426
100
AcDbEntity
  8
1
  6
Continuous
 62
     2
100
AcDbLine
 10
860.591719391789
 20
690.2
 30
0.0
 11
860.591719391789
 21
644.6999999999999
 31
0.0
  0
LINE
  5
429
330
426
100
AcDbEntity
  8
1
  6
Continuous
 62
     2
100
AcDbLine
 10
860.591719391789
 20
725.2
 30
0.0
 11
860.591719391789
 21
690.2
 31
0.0
  0
LINE
  5
42A
330
426
100
AcDbEntity
  8
1
  6
Continuous
 62
     2
100
AcDbLine
 10
746.5917193918017
 20
644.6999999999999
 30
0.0
 11
865.591719391789
 21
644.6999999999999
 31
0.0
  0
LINE
  5
42B
330
426
100
AcDbEntity
  8
1
  6
Continuous
 62
     2
100
AcDbLine
 10
753.7917193918017
 20
690.2
 30
0.0
 11
865.591719391789
 21
690.2
 31
0.0
  0
SOLID
  5
42C
330
426
100
AcDbEntity
  8
1
 62
     2
100
AcDbTrace
 10
858.2878006840095
 20
707.7
 30
0.0
 11
862.8956380995684
 21
707.7
 31
0.0
 12
860.591719391789
 22
690.2
 32
0.0
 13
860.591719391789
 23
690.2
 33
0.0
  0
SOLID
  5
42D
330
426
100
AcDbEntity
  8
1
 62
     2
100
AcDbTrace
 10
862.8956380995684
 20
627.1999999999999
 30
0.0
 11
858.2878006840095
 21
627.1999999999999
 31
0.0
 12
860.591719391789
 22
644.6999999999999
 32
0.0
 13
860.591719391789
 23
644.6999999999999
 33
0.0
  0
MTEXT
  5
42E
330
426
100
AcDbEntity
  8
1
 62
     7
100
AcDbMText
 10
855.591719391789
 20
651.0155419804552
 30
0.0
 40
17.5
 41
0.0
 71
     7
 72
     1
  1
46
  7
CONVERTER_12
 11
0.0
 21
1.0
 31
0.0
 73
     1
 44
0.60024009603842
  0
ENDBLK
  5
430
330
426
100
AcDbEntity
  8
0
100
AcDbBlockEnd
  0
BLOCK
  5
43A
330
433
100
AcDbEntity
  8
0
100
AcDbBlockBegin
  2
*D28
 70
     1
 10
0.0
 20
0.0
 30
0.0
  3
*D28
  1

  0
LINE
  5
434
330
433
100
AcDbEntity
  8
1
  6
Continuous
 62
     2
100
AcDbLine
 10
820.591719391789
 20
690.2
 30
0.0
 11
820.591719391789
 21
947.3026615000006
 31
0.0
  0
LINE
  5
435
330
433
100
AcDbEntity
  8
1
  6
Continuous
 62
     2
100
AcDbLine
 10
753.7917193918018
 20
690.2
 30
0.0
 11
825.591719391789
 21
690.2
 31
0.0
  0
LINE
  5
436
330
433
100
AcDbEntity
  8
1
  6
Continuous
 62
     2
100
AcDbLine
 10
748.4917193917883
 20
947.3026615000006
 30
0.0
 11
825.591719391789
 21
947.3026615000006
 31
0.0
  0
SOLID
  5
437
330
433
100
AcDbEntity
  8
1
 62
     2
100
AcDbTrace
 10
818.2878006840095
 20
707.7
 30
0.0
 11
822.8956380995684
 21
707.7
 31
0.0
 12
820.591719391789
 22
690.2
 32
0.0
 13
820.591719391789
 23
690.2
 33
0.0
  0
SOLID
  5
438
330
433
100
AcDbEntity
  8
1
 62
     2
100
AcDbTrace
 10
822.8956380995684
 20
929.8026615000006
 30
0.0
 11
818.2878006840095
 21
929.8026615000006
 31
0.0
 12
820.591719391789
 22
947.3026615000006
 32
0.0
 13
820.591719391789
 23
947.3026615000006
 33
0.0
  0
MTEXT
  5
439
330
433
100
AcDbEntity
  8
1
 62
     7
100
AcDbMText
 10
815.591719391789
 20
803.2764862343165
 30
0.0
 40
17.5
 41
0.0
 71
     7
 72
     1
  1
258
  7
CONVERTER_12
 11
0.0
 21
1.0
 31
0.0
 73
     1
 44
0.60024009603842
  0
ENDBLK
  5
43B
330
433
100
AcDbEntity
  8
0
100
AcDbBlockEnd
  0
BLOCK
  5
445
330
43E
100
AcDbEntity
  8
0
100
AcDbBlockBegin
  2
*D29
 70
     1
 10
0.0
 20
0.0
 30
0.0
  3
*D29
  1

  0
LINE
  5
43F
330
43E
100
AcDbEntity
  8
1
  6
Continuous
 62
     2
100
AcDbLine
 10
442.5917193917888
 20
892.4313205160967
 30
0.0
 11
442.5917193917888
 21
690.2
 31
0.0
  0
LINE
  5
440
330
43E
100
AcDbEntity
  8
1
  6
Continuous
 62
     2
100
AcDbLine
 10
709.3917193917756
 20
690.2
 30
0.0
 11
437.5917193917888
 21
690.2
 31
0.0
  0
LINE
  5
441
330
43E
100
AcDbEntity
  8
1
  6
Continuous
 62
     2
100
AcDbLine
 10
612.9786770299695
 20
892.4313205160967
 30
0.0
 11
437.5917193917888
 21
892.4313205160967
 31
0.0
  0
SOLID
  5
442
330
43E
100
AcDbEntity
  8
1
 62
     2
100
AcDbTrace
 10
444.8956380995682
 20
874.9313205160967
 30
0.0
 11
440.2878006840094
 21
874.9313205160967
 31
0.0
 12
442.5917193917888
 22
892.4313205160967
 32
0.0
 13
442.5917193917888
 23
892.4313205160967
 33
0.0
  0
SOLID
  5
443
330
43E
100
AcDbEntity
  8
1
 62
     2
100
AcDbTrace
 10
440.2878006840094
 20
707.7
 30
0.0
 11
444.8956380995682
 21
707.7
 31
0.0
 12
442.5917193917888
 22
690.2
 32
0.0
 13
442.5917193917888
 23
690.2
 33
0.0
  0
MTEXT
  5
444
330
43E
100
AcDbEntity
  8
1
 62
     7
100
AcDbMText
 10
437.5917193917888
 20
761.952970281851
 30
0.0
 40
17.5
 41
0.0
 71
     7
 72
     1
  1
202
  7
CONVERTER_12
 11
0.0
 21
1.0
 31
0.0
 73
     1
 44
0.60024009603842
  0
ENDBLK
  5
446
330
43E
100
AcDbEntity
  8
0
100
AcDbBlockEnd
  0
BLOCK
  5
450
330
449
100
AcDbEntity
  8
0
100
AcDbBlockBegin
  2
*D30
 70
     1
 10
0.0
 20
0.0
 30
0.0
  3
*D30
  1

  0
LINE
  5
44A
330
449
100
AcDbEntity
  8
1
  6
Continuous
 62
     2
100
AcDbLine
 10
442.5917193917888
 20
690.2
 30
0.0
 11
442.5917193917888
 21
294.6999999999999
 31
0.0
  0
LINE
  5
44B
330
449
100
AcDbEntity
  8
1
  6
Continuous
 62
     2
100
AcDbLine
 10
709.3917193917756
 20
690.2
 30
0.0
 11
437.5917193917888
 21
690.2
 31
0.0
  0
LINE
  5
44C
330
449
100
AcDbEntity
  8
1
  6
Continuous
 62
     2
100
AcDbLine
 10
713.4917193917895
 20
294.6999999999999
 30
0.0
 11
437.5917193917888
 21
294.6999999999999
 31
0.0
  0
SOLID
  5
44D
330
449
100
AcDbEntity
  8
1
 62
     2
100
AcDbTrace
 10
444.8956380995682
 20
672.7
 30
0.0
 11
440.2878006840094
 21
672.7
 31
0.0
 12
442.5917193917888
 22
690.2
 32
0.0
 13
442.5917193917888
 23
690.2
 33
0.0
  0
SOLID
  5
44E
330
449
100
AcDbEntity
  8
1
 62
     2
100
AcDbTrace
 10
440.2878006840094
 20
312.1999999999999
 30
0.0
 11
444.8956380995682
 21
312.1999999999999
 31
0.0
 12
442.5917193917888
 22
294.6999999999999
 32
0.0
 13
442.5917193917888
 23
294.6999999999999
 33
0.0
  0
MTEXT
  5
44F
330
449
100
AcDbEntity
  8
1
 62
     7
100
AcDbMText
 10
437.5917193917888
 20
354.7048840726844
 30
0.0
 40
17.5
 41
0.0
 71
     7
 72
     1
  1
\C7;銅管直管時\C7;393(銅管曲げR60以上)
  7
CONVERTER_11
 11
0.0
 21
1.0
 31
0.0
 73
     1
 44
0.45454545454545
  0
ENDBLK
  5
451
330
449
100
AcDbEntity
  8
0
100
AcDbBlockEnd
  0
BLOCK
  5
45D
330
454
100
AcDbEntity
  8
0
100
AcDbBlockBegin
  2
*D31
 70
     1
 10
0.0
 20
0.0
 30
0.0
  3
*D31
  1

  0
LINE
  5
455
330
454
100
AcDbEntity
  8
1
  6
Continuous
 62
     2
100
AcDbLine
 10
612.9786770299693
 20
889.3593556783429
 30
0.0
 11
612.9786770299654
 21
837.7641101796039
 31
0.0
  0
LINE
  5
456
330
454
100
AcDbEntity
  8
1
  6
Continuous
 62
     2
100
AcDbLine
 10
612.3549419553578
 20
889.491934661195
 30
0.0
 11
601.6137525758293
 21
838.9586118774347
 31
0.0
  0
LINE
  5
457
330
454
100
AcDbEntity
  8
1
  6
Continuous
 62
     2
100
AcDbLine
 10
612.9786770299654
 20
837.7641101796039
 30
0.0
 11
612.9786770299651
 21
832.7641101796039
 31
0.0
  0
LINE
  5
458
330
454
100
AcDbEntity
  8
1
  6
Continuous
 62
     2
100
AcDbLine
 10
601.6137525758293
 20
838.9586118774347
 30
0.0
 11
600.5741941181428
 21
834.0678738745304
 31
0.0
  0
ARC
  5
459
330
454
100
AcDbEntity
  8
1
  6
Continuous
 62
     2
100
AcDbCircle
 10
612.9786770299695
 20
892.4263774629369
 30
0.0
 40
54.66226728333289
100
AcDbArc
 50
191.6273473515431
 51
297.5146693865185
  0
SOLID
  5
45A
330
454
100
AcDbEntity
  8
1
 62
     2
100
AcDbTrace
 10
584.4628592527586
 20
843.1305298575377
 30
0.0
 11
586.1270335990029
 21
847.4273530321083
 31
0.0
 12
601.6137525758293
 22
838.9586118774347
 32
0.0
 13
601.6137525758293
 23
838.9586118774347
 33
0.0
  0
SOLID
  5
45B
330
454
100
AcDbEntity
  8
1
 62
     2
100
AcDbTrace
 10
629.8877243366775
 20
842.8279190811551
 30
0.0
 11
630.6221727059434
 21
838.278990499488
 31
0.0
 12
612.9786770299654
 22
837.7641101796039
 32
0.0
 13
612.9786770299654
 23
837.7641101796039
 33
0.0
  0
MTEXT
  5
45C
330
454
100
AcDbEntity
  8
1
 62
     7
100
AcDbMText
 10
563.9093250482676
 20
874.1252815171457
 30
0.0
 40
17.5
 41
0.0
 71
     7
 72
     1
  1
12{\Fgdt;~}
  7
CONVERTER_12
 11
0.6288081598581498
 21
-0.7775604787383469
 31
0.0
 73
     1
 44
0.60024009603842
  0
ENDBLK
  5
45E
330
454
100
AcDbEntity
  8
0
100
AcDbBlockEnd
  0
ENDSEC
  0
SECTION
  2
ENTITIES
  0
INSERT
  5
84
330
1F
100
AcDbEntity
  8
1
100
AcDbBlockReference
  2
37-398-_表面処理_
 10
351.0891018826861
 20
1485.504478413392
 30
0.0
 41
1.0
 42
1.0
 43
1.0
  0
INSERT
  5
85
330
1F
100
AcDbEntity
  8
1
100
AcDbBlockReference
  2
37-398-M11
 10
1255.99072535688
 20
828.2590240416
 30
0.0
 41
1.0
 42
1.0
 43
1.0
  0
INSERT
  5
86
330
1F
100
AcDbEntity
  8
1
100
AcDbBlockReference
  2
37-399-_表面処理_
 10
294.0917193173385
 20
692.1999999999999
 30
0.0
 41
1.0
 42
1.0
 43
1.0
  0
INSERT
  5
87
330
1F
100
AcDbEntity
  8
0
100
AcDbBlockReference
  2
92-64A
 10
660.6791750130903
 20
537.4741394466232
 30
0.0
 41
1.0
 42
1.0
 43
1.0
  0
INSERT
  5
88
330
1F
100
AcDbEntity
  8
0
100
AcDbBlockReference
  2
98-126
 10
1356.330860123493
 20
1301.647727390118
 30
0.0
 41
1.0
 42
1.0
 43
1.0
  0
INSERT
  5
89
330
1F
100
AcDbEntity
  8
1
100
AcDbBlockReference
  2
T90-240
 10
298.5917193917882
 20
286.7785420656548
 30
0.0
 41
1.0
 42
1.0
 43
1.0
  0
INSERT
  5
8A
330
1F
100
AcDbEntity
  8
1
100
AcDbBlockReference
  2
開示A4
 10
0.0
 20
0.0
 30
0.0
 41
5.0
 42
5.0
 43
5.0
  0
INSERT
  5
8B
330
1F
100
AcDbEntity
  8
1
100
AcDbBlockReference
  2
30-359-_表面処理_
 10
532.3308601234933
 20
1401.534948494536
 30
0.0
 41
1.0
 42
1.0
 43
1.0
  0
INSERT
  5
8C
330
1F
100
AcDbEntity
  8
0
100
AcDbBlockReference
  2
30-255-_表面処理_
 10
1546.363102955559
 20
958.77392735761
 30
0.0
 41
1.0
 42
1.0
 43
1.0
  0
INSERT
  5
8D
330
1F
100
AcDbEntity
  8
1
100
AcDbBlockReference
  2
84-414-2-DH5
 10
351.0891018826861
 20
1025.704478413341
 30
0.0
 41
1.0
 42
1.0
 43
1.0
  0
INSERT
  5
8E
330
1F
100
AcDbEntity
  8
1
100
AcDbBlockReference
  2
27-22-_表面処理_
 10
582.116709991006
 20
984.366826684177
 30
0.0
 41
1.0
 42
1.0
 43
1.0
  0
INSERT
  5
8F
330
1F
100
AcDbEntity
  8
0
100
AcDbBlockReference
  2
73-1-32_5-C2
 10
598.3605951314332
 20
612.7927193282799
 30
0.0
 41
1.0
 42
1.0
 43
1.0
  0
INSERT
  5
90
330
1F
100
AcDbEntity
  8
0
100
AcDbBlockReference
  2
32-33-32
 10
610.0453288592439
 20
588.4495240620076
 30
0.0
 41
1.0
 42
1.0
 43
1.0
  0
INSERT
  5
91
330
1F
100
AcDbEntity
  8
1
100
AcDbBlockReference
  2
15-33-_表面処理_
 10
1146.330860123494
 20
1301.432947233518
 30
0.0
 41
1.0
 42
1.0
 43
1.0
  0
INSERT
  5
92
330
1F
100
AcDbEntity
  8
1
100
AcDbBlockReference
  2
30-360X-470-C6
 10
529.2308601234938
 20
881.4329472335181
 30
0.0
 41
1.0
 42
1.0
 43
1.0
  0
LINE
  5
37C
330
1F
100
AcDbEntity
  8
1
  6
DASH_CENTER
 62
     2
100
AcDbLine
 10
762.0917193917885
 20
1133.000000000001
 30
0.0
 11
588.6986120196675
 21
1133.000000000001
 31
0.0
  0
LINE
  5
37D
330
1F
100
AcDbEntity
  8
1
  6
DASH_CENTER
 62
     2
100
AcDbLine
 10
731.5917193917887
 20
1163.500000000001
 30
0.0
 11
731.5917193917885
 21
1102.500000000001
 31
0.0
  0
LINE
  5
37E
330
1F
100
AcDbEntity
  8
1
  6
Continuous
 62
     7
100
AcDbLine
 10
974.4646930460111
 20
1382.023854479361
 30
0.0
 11
974.4646930460107
 21
1207.023854479362
 31
0.0
  0
LINE
  5
37F
330
1F
100
AcDbEntity
  8
1
  6
Continuous
 62
     7
100
AcDbLine
 10
974.4646930460107
 20
1207.023854479362
 30
0.0
 11
904.4646930460111
 21
1207.023854479362
 31
0.0
  0
LINE
  5
380
330
1F
100
AcDbEntity
  8
1
  6
Continuous
 62
     7
100
AcDbLine
 10
536.4646930460117
 20
1382.023854479361
 30
0.0
 11
904.4646930460113
 21
1382.023854479361
 31
0.0
  0
LINE
  5
381
330
1F
100
AcDbEntity
  8
1
  6
Continuous
 62
     7
100
AcDbLine
 10
536.4646930460117
 20
1207.023854479362
 30
0.0
 11
536.4646930460117
 21
1382.023854479361
 31
0.0
  0
LINE
  5
382
330
1F
100
AcDbEntity
  8
1
  6
Continuous
 62
     2
100
AcDbLine
 10
822.4646930460111
 20
1207.023854479362
 30
0.0
 11
822.4646930460111
 21
1382.023854479361
 31
0.0
  0
LINE
  5
383
330
1F
100
AcDbEntity
  8
1
  6
Continuous
 62
     2
100
AcDbLine
 10
974.4646930460112
 20
1312.023854479361
 30
0.0
 11
536.4646930460117
 21
1312.02385447936
 31
0.0
  0
LINE
  5
384
330
1F
100
AcDbEntity
  8
1
  6
Continuous
 62
     2
100
AcDbLine
 10
974.4646930460107
 20
1277.023854479362
 30
0.0
 11
536.4646930460117
 21
1277.023854479361
 31
0.0
  0
LINE
  5
385
330
1F
100
AcDbEntity
  8
1
  6
Continuous
 62
     2
100
AcDbLine
 10
974.4646930460107
 20
1242.023854479362
 30
0.0
 11
536.4646930460109
 21
1242.023854479362
 31
0.0
  0
LINE
  5
386
330
1F
100
AcDbEntity
  8
1
  6
Continuous
 62
     2
100
AcDbLine
 10
974.4646930460111
 20
1347.02385447936
 30
0.0
 11
536.4646930460117
 21
1347.023854479361
 31
0.0
  0
LINE
  5
387
330
1F
100
AcDbEntity
  8
1
  6
Continuous
 62
     2
100
AcDbLine
 10
616.3701543828944
 20
924.3163291851961
 30
0.0
 11
653.3701543828944
 21
924.3163291851961
 31
0.0
  0
LINE
  5
388
330
1F
100
AcDbEntity
  8
1
  6
Continuous
 62
     2
100
AcDbLine
 10
657.3701543828944
 20
990.316329185195
 30
0.0
 11
692.3701543828944
 21
990.316329185195
 31
0.0
  0
LINE
  5
389
102
{ACAD_REACTORS
330
462
102
}
330
1F
100
AcDbEntity
  8
1
  6
PHANTOM
 62
     4
100
AcDbLine
 10
350.5917193917885
 20
687.6999999999999
 30
0.0
 11
350.5917193917885
 21
672.2000000000002
 31
0.0
  0
LINE
  5
38A
102
{ACAD_REACTORS
330
462
102
}
330
1F
100
AcDbEntity
  8
1
  6
Continuous
 62
     2
100
AcDbLine
 10
330.5917193917885
 20
672.2000000000002
 30
0.0
 11
350.5917193917885
 21
672.2000000000002
 31
0.0
  0
LINE
  5
38B
102
{ACAD_REACTORS
330
462
102
}
330
1F
100
AcDbEntity
  8
1
  6
Continuous
 62
     2
100
AcDbLine
 10
330.5917193917885
 20
672.2000000000002
 30
0.0
 11
330.5917193917885
 21
687.6999999999999
 31
0.0
  0
LINE
  5
38C
102
{ACAD_REACTORS
330
462
102
}
330
1F
100
AcDbEntity
  8
1
  6
Continuous
 62
     2
100
AcDbLine
 10
330.5917193917885
 20
687.6999999999999
 30
0.0
 11
350.5917193917885
 21
687.6999999999999
 31
0.0
  0
LINE
  5
38D
102
{ACAD_REACTORS
330
461
102
}
330
1F
100
AcDbEntity
  8
1
  6
PHANTOM
 62
     4
100
AcDbLine
 10
272.5917193917885
 20
687.6999999999999
 30
0.0
 11
272.5917193917885
 21
672.2000000000002
 31
0.0
  0
LINE
  5
38E
102
{ACAD_REACTORS
330
461
102
}
330
1F
100
AcDbEntity
  8
1
  6
Continuous
 62
     2
100
AcDbLine
 10
292.5917193917885
 20
672.2000000000002
 30
0.0
 11
272.5917193917885
 21
672.2000000000002
 31
0.0
  0
LINE
  5
38F
102
{ACAD_REACTORS
330
461
102
}
330
1F
100
AcDbEntity
  8
1
  6
Continuous
 62
     2
100
AcDbLine
 10
292.5917193917885
 20
687.6999999999999
 30
0.0
 11
292.5917193917885
 21
672.2000000000002
 31
0.0
  0
LINE
  5
390
102
{ACAD_REACTORS
330
461
102
}
330
1F
100
AcDbEntity
  8
1
  6
Continuous
 62
     2
100
AcDbLine
 10
272.5917193917885
 20
687.6999999999999
 30
0.0
 11
292.5917193917885
 21
687.6999999999999
 31
0.0
  0
LINE
  5
391
102
{ACAD_REACTORS
330
463
102
}
330
1F
100
AcDbEntity
  8
1
  6
Continuous
 62
     2
100
AcDbLine
 10
692.5917193917887
 20
687.6999999999999
 30
0.0
 11
712.5917193917887
 21
687.6999999999999
 31
0.0
  0
LINE
  5
392
102
{ACAD_REACTORS
330
463
102
}
330
1F
100
AcDbEntity
  8
1
  6
Continuous
 62
     2
100
AcDbLine
 10
712.5917193917887
 20
687.6999999999999
 30
0.0
 11
712.5917193917887
 21
672.2000000000002
 31
0.0
  0
LINE
  5
393
102
{ACAD_REACTORS
330
463
102
}
330
1F
100
AcDbEntity
  8
1
  6
Continuous
 62
     2
100
AcDbLine
 10
712.5917193917887
 20
672.2000000000002
 30
0.0
 11
692.5917193917887
 21
672.2000000000002
 31
0.0
  0
LINE
  5
394
102
{ACAD_REACTORS
330
463
102
}
330
1F
100
AcDbEntity
  8
1
  6
PHANTOM
 62
     4
100
AcDbLine
 10
692.5917193917887
 20
687.6999999999999
 30
0.0
 11
692.5917193917887
 21
672.2000000000002
 31
0.0
  0
LINE
  5
395
102
{ACAD_REACTORS
330
464
102
}
330
1F
100
AcDbEntity
  8
1
  6
Continuous
 62
     2
100
AcDbLine
 10
750.5917193917887
 20
687.6999999999999
 30
0.0
 11
770.5917193917887
 21
687.6999999999999
 31
0.0
  0
LINE
  5
396
102
{ACAD_REACTORS
330
464
102
}
330
1F
100
AcDbEntity
  8
1
  6
Continuous
 62
     2
100
AcDbLine
 10
750.5917193917887
 20
672.2000000000002
 30
0.0
 11
750.5917193917887
 21
687.6999999999999
 31
0.0
  0
LINE
  5
397
102
{ACAD_REACTORS
330
464
102
}
330
1F
100
AcDbEntity
  8
1
  6
Continuous
 62
     2
100
AcDbLine
 10
750.5917193917887
 20
672.2000000000002
 30
0.0
 11
770.5917193917887
 21
672.2000000000002
 31
0.0
  0
LINE
  5
398
102
{ACAD_REACTORS
330
464
102
}
330
1F
100
AcDbEntity
  8
1
  6
PHANTOM
 62
     4
100
AcDbLine
 10
770.5917193917887
 20
687.6999999999999
 30
0.0
 11
770.5917193917887
 21
672.2000000000002
 31
0.0
  0
LINE
  5
399
330
1F
100
AcDbEntity
  8
1
  6
DASH_CENTER
 62
     2
100
AcDbLine
 10
311.5917193917886
 20
950.302661500001
 30
0.0
 11
311.5917193917887
 21
283.7785420656547
 31
0.0
  0
LINE
  5
39A
330
1F
100
AcDbEntity
  8
1
  6
DASH_CENTER
 62
     2
100
AcDbLine
 10
731.5917193917887
 20
950.302661500001
 30
0.0
 11
731.5917193917887
 21
641.7
 31
0.0
  0
LINE
  5
39B
330
1F
100
AcDbEntity
  8
1
  6
DASH_CENTER
 62
     2
100
AcDbLine
 10
612.3549419553578
 20
889.491934661195
 30
0.0
 11
613.9568508763488
 21
897.0283235762718
 31
0.0
  0
LINE
  5
39C
330
1F
100
AcDbEntity
  8
1
  6
DASH_CENTER
 62
     2
100
AcDbLine
 10
612.9786770299693
 20
889.3593556783429
 30
0.0
 11
612.9786770299695
 21
892.4313205160967
 31
0.0
  0
LINE
  5
39D
330
1F
100
AcDbEntity
  8
1
  6
DASH_CENTER
 62
     2
100
AcDbLine
 10
613.9568508763488
 20
897.0283235762718
 30
0.0
 11
619.1640621641282
 21
921.526326498571
 31
0.0
  0
LINE
  5
39E
330
1F
100
AcDbEntity
  8
1
  6
DASH_CENTER
 62
     2
100
AcDbLine
 10
734.0660327286952
 20
881.2567449167899
 30
0.0
 11
595.5958958651067
 21
910.689586854634
 31
0.0
  0
LINE
  5
39F
330
1F
100
AcDbEntity
  8
1
  6
DASH_CENTER
 62
     2
100
AcDbLine
 10
730.0917193917884
 20
936.3044784133381
 30
0.0
 11
710.5911746825028
 21
936.3044784133381
 31
0.0
  0
LINE
  5
3A0
330
1F
100
AcDbEntity
  8
1
  6
DASH_CENTER
 62
     2
100
AcDbLine
 10
742.8292365665494
 20
948.1183094376299
 30
0.0
 11
730.4678996115407
 21
917.52292684964
 31
0.0
  0
LINE
  5
3A1
330
1F
100
AcDbEntity
  8
1
  6
DASH_CENTER
 62
     2
100
AcDbLine
 10
718.391174682503
 20
928.3044784133381
 30
0.0
 11
712.9911746825029
 21
928.3044784133381
 31
0.0
  0
LINE
  5
3A2
330
1F
100
AcDbEntity
  8
1
  6
DASH_CENTER
 62
     2
100
AcDbLine
 10
725.4917193917865
 20
283.7785420656547
 30
0.0
 11
725.491719391789
 21
644.6999999999999
 31
0.0
  0
LINE
  5
3A3
330
1F
100
AcDbEntity
  8
1
  6
DASH_CENTER
 62
     2
100
AcDbLine
 10
318.4422641010737
 20
936.3044784133381
 30
0.0
 11
304.7422641010736
 21
936.3044784133381
 31
0.0
  0
LINE
  5
3A4
330
1F
100
AcDbEntity
  8
1
  6
Continuous
 62
     2
100
AcDbLine
 10
904.4646930460113
 20
1382.023854479361
 30
0.0
 11
904.4646930460111
 21
1207.023854479362
 31
0.0
  0
LINE
  5
3A5
330
1F
100
AcDbEntity
  8
1
  6
Continuous
 62
     7
100
AcDbLine
 10
904.4646930460111
 20
1207.023854479362
 30
0.0
 11
536.4646930460117
 21
1207.023854479362
 31
0.0
  0
LINE
  5
3A6
330
1F
100
AcDbEntity
  8
1
  6
Continuous
 62
     7
100
AcDbLine
 10
904.4646930460113
 20
1382.023854479361
 30
0.0
 11
974.4646930460111
 21
1382.023854479361
 31
0.0
  0
ARC
  5
3A7
330
1F
100
AcDbEntity
  8
1
  6
Continuous
 62
     2
100
AcDbCircle
 10
766.8396301693734
 20
864.2876695322657
 30
0.0
 40
149.9999999999999
100
AcDbArc
 50
133.2023811412279
 51
142.487669972412
  0
SOLID
  5
3A8
330
1F
100
AcDbEntity
  8
1
 62
     2
100
AcDbTrace
 10
707.3369715209798
 20
634.8306601846787
 30
0.0
 11
703.3464672625973
 21
637.1345788924581
 31
0.0
 12
714.0917193917887
 22
651.138064104796
 32
0.0
 13
714.0917193917887
 23
651.138064104796
 33
0.0
  0
LEADER
  5
3A9
330
1F
100
AcDbEntity
  8
1
  6
Continuous
 62
     2
100
AcDbLeader
  3
Standard
 71
     0
 76
     3
 10
714.0917193917887
 20
651.138064104796
 30
0.0
 10
654.5126502023322
 20
547.9440892009954
 30
0.0
 10
552.396102607091
 20
547.9440892009954
 30
0.0
  0
SOLID
  5
3AA
330
1F
100
AcDbEntity
  8
1
 62
     2
100
AcDbTrace
 10
695.2452521291906
 20
643.6925960798827
 30
0.0
 11
691.2547478708082
 21
645.9965147876621
 31
0.0
 12
701.9999999999995
 22
660.0
 32
0.0
 13
701.9999999999995
 23
660.0
 33
0.0
  0
LEADER
  5
3AB
330
1F
100
AcDbEntity
  8
1
  6
Continuous
 62
     2
100
AcDbLeader
  3
Standard
 71
     0
 76
     3
 10
701.9999999999995
 20
660.0
 30
0.0
 10
656.389328734019
 20
581.0
 30
0.0
 10
479.1173295680571
 20
581.0
 30
0.0
  0
SOLID
  5
3AC
330
1F
100
AcDbEntity
  8
1
 62
     2
100
AcDbTrace
 10
658.3704085482093
 20
965.3834392539358
 30
0.0
 11
655.30319280256
 21
968.8220949822496
 31
0.0
 12
669.8963923706775
 22
978.7516754254079
 32
0.0
 13
669.8963923706775
 23
978.7516754254079
 33
0.0
  0
LEADER
  5
3AD
330
1F
100
AcDbEntity
  8
1
  6
Continuous
 62
     2
100
AcDbLeader
  3
Standard
 71
     0
 76
     2
 10
669.8963923706775
 20
978.7516754254079
 30
0.0
 10
664.1530201145232
 20
973.6286962122961
 30
0.0
  0
SOLID
  5
3AE
330
1F
100
AcDbEntity
  8
1
 62
     2
100
AcDbTrace
 10
651.4524882103556
 20
964.7857177672292
 30
0.0
 11
655.2065678044047
 21
962.1138173106688
 31
0.0
 12
643.1819785665244
 22
949.1922347809509
 32
0.0
 13
643.1819785665244
 23
949.1922347809509
 33
0.0
  0
LEADER
  5
3AF
330
1F
100
AcDbEntity
  8
1
  6
Continuous
 62
     2
100
AcDbLeader
  3
Standard
 71
     0
 76
     2
 10
643.1819785665244
 20
949.1922347809509
 30
0.0
 10
646.1172305891681
 20
953.316329185195
 30
0.0
  0
SOLID
  5
3B0
330
1F
100
AcDbEntity
  8
1
 62
     2
100
AcDbTrace
 10
327.1869715209796
 20
272.7750568533172
 30
0.0
 11
323.1964672625973
 21
270.4711381455377
 31
0.0
 12
316.4417193917883
 22
286.778542065655
 32
0.0
 13
316.4417193917883
 23
286.778542065655
 33
0.0
  0
LEADER
  5
3B1
330
1F
100
AcDbEntity
  8
1
  6
Continuous
 62
     2
100
AcDbLeader
  3
Standard
 71
     0
 76
     3
 10
316.4417193917883
 20
286.778542065655
 30
0.0
 10
333.7622274674769
 20
256.778542065655
 30
0.0
 10
389.6947536887093
 20
256.778542065655
 30
0.0
  0
MTEXT
  5
3B2
330
1F
100
AcDbEntity
  8
0
 62
     7
100
AcDbMText
 10
284.9999999999999
 20
61.25
 30
0.0
 40
17.5
 41
0.0
 71
     5
 72
     1
  1
-(表面処理)-13
  7
CONVERTER_11
 73
     1
 44
0.54545454545455
  0
MTEXT
  5
3B3
330
1F
100
AcDbEntity
  8
1
 62
     2
100
AcDbMText
 10
679.4646930460111
 20
1364.523854479361
 30
0.0
 40
17.5
 41
0.0
 71
     5
 72
     1
  1
品番
  7
CONVERTER_11
 73
     1
 44
0.54545454545455
  0
MTEXT
  5
3B5
330
1F
100
AcDbEntity
  8
1
 62
     7
100
AcDbMText
 10
679.4646930460111
 20
1329.523854479361
 30
0.0
 40
17.5
 41
0.0
 71
     5
 72
     1
  1
Y50750H-2T-UJP-13
  7
CONVERTER_12
 73
     1
 44
0.7202881152461
  0
MTEXT
  5
3B6
330
1F
100
AcDbEntity
  8
1
 62
     7
100
AcDbMText
 10
679.4646930460111
 20
1224.523854479362
 30
0.0
 40
17.5
 41
0.0
 71
     5
 72
     1
  1
Y50750H-2T-SJP-13
  7
CONVERTER_12
 73
     1
 44
0.7202881152461
  0
MTEXT
  5
3B7
330
1F
100
AcDbEntity
  8
1
 62
     7
100
AcDbMText
 10
679.4646930460111
 20
1259.523854479361
 30
0.0
 40
17.5
 41
0.0
 71
     5
 72
     1
  1
Y50750H-2T-DJP-13
  7
CONVERTER_12
 73
     1
 44
0.7202881152461
  0
MTEXT
  5
3B8
330
1F
100
AcDbEntity
  8
1
 62
     7
100
AcDbMText
 10
679.4646930460111
 20
1294.523854479361
 30
0.0
 40
17.5
 41
0.0
 71
     5
 72
     1
  1
Y50750H-2T-BJP-13
  7
CONVERTER_12
 73
     1
 44
0.7202881152461
  0
MTEXT
  5
3B9
330
1F
100
AcDbEntity
  8
0
 62
     7
100
AcDbMText
 10
284.9999999999999
 20
113.7500000000001
 30
0.0
 40
17.5
 41
0.0
 71
     5
 72
     1
  1
立水栓
  7
CONVERTER_11
 73
     1
 44
0.54545454545455
  0
MTEXT
  5
3BA
330
1F
100
AcDbEntity
  8
1
 62
     7
100
AcDbMText
 10
635.9946230601374
 20
977.1053430861559
 30
0.0
 40
17.5
 41
0.0
 71
     5
 72
     1
  1
25{\Fgdt;~}
  7
CONVERTER_12
 73
     1
 44
0.7202881152461
  0
MTEXT
  5
3BB
330
1F
100
AcDbEntity
  8
1
 62
     7
100
AcDbMText
 10
468.7499999999999
 20
85.0
 30
0.0
 40
17.5
 41
0.0
 71
     5
 72
     1
  1
5
  7
CONVERTER_12
 73
     1
 44
0.7202881152461
  0
MTEXT
  5
3BC
330
1F
100
AcDbEntity
  8
1
 62
     7
100
AcDbMText
 10
426.2499999999999
 20
85.0
 30
0.0
 40
17.5
 41
0.0
 71
     5
 72
     1
  1
1
  7
CONVERTER_12
 73
     1
 44
0.7202881152461
  0
MTEXT
  5
3BD
330
1F
100
AcDbEntity
  8
0
 62
     7
100
AcDbMText
 10
284.9999999999999
 20
81.25
 30
0.0
 40
17.5
 41
0.0
 71
     5
 72
     1
  1
Y50750H-2T
  7
CONVERTER_12
 73
     1
 44
0.7202881152461
  0
MTEXT
  5
3BE
330
1F
100
AcDbEntity
  8
1
 62
     7
100
AcDbMText
 10
634.9618737746831
 20
939.3163291851961
 30
0.0
 40
25.0
 41
0.0
 71
     5
 72
     1
  1
止水
  7
CONVERTER_11
 73
     1
 44
0.54545454545455
  0
MTEXT
  5
3BF
330
1F
100
AcDbEntity
  8
1
 62
     7
100
AcDbMText
 10
674.9618737746831
 20
1005.316329185196
 30
0.0
 40
25.0
 41
0.0
 71
     5
 72
     1
  1
吐水
  7
CONVERTER_11
 73
     1
 44
0.54545454545455
  0
MTEXT
  5
3C0
330
1F
100
AcDbEntity
  8
1
 62
     7
100
AcDbMText
 10
363.7867680995631
 20
271.778542065655
 30
0.0
 40
17.5
 41
0.0
 71
     5
 72
     1
  1
G1/2
  7
CONVERTER_12
 73
     1
 44
0.7202881152461
  0
MTEXT
  5
3C1
330
1F
100
AcDbEntity
  8
1
 62
     7
100
AcDbMText
 10
565.0926455875504
 20
596.0
 30
0.0
 40
17.5
 41
0.0
 71
     5
 72
     1
  1
取付穴径{\Fgdt;n}33-{\Fgdt;n}35
  7
CONVERTER_11
 73
     1
 44
0.54545454545455
  0
MTEXT
  5
3C2
330
1F
100
AcDbEntity
  8
1
 62
     7
100
AcDbMText
 10
602.1876690844065
 20
562.9440892009954
 30
0.0
 40
17.5
 41
0.0
 71
     5
 72
     1
  1
M32X1,5
  7
CONVERTER_12
 73
     1
 44
0.7202881152461
  0
MTEXT
  5
3C3
330
1F
100
AcDbEntity
  8
1
 62
     7
100
AcDbMText
 10
170.0
 20
187.5
 30
0.0
 40
17.5
 41
0.0
 71
     4
 72
     1
  1
JIS
  7
CONVERTER_12
 73
     1
 44
0.7202881152461
  0
MTEXT
  5
3C4
330
1F
100
AcDbEntity
  8
1
 62
     7
100
AcDbMText
 10
170.0
 20
152.5000000000001
 30
0.0
 40
17.5
 41
0.0
 71
     4
 72
     1
  1
単水栓、内地寒冷地共用、吐水口は固定式
  7
CONVERTER_11
 73
     1
 44
0.54545454545455
  0
MTEXT
  5
3C5
330
1F
100
AcDbEntity
  8
1
 62
     2
100
AcDbMText
 10
863.4646930460115
 20
1364.523854479361
 30
0.0
 40
17.5
 41
0.0
 71
     5
 72
     1
  1
表面処理
  7
CONVERTER_11
 73
     1
 44
0.54545454545455
  0
MTEXT
  5
3C6
330
1F
100
AcDbEntity
  8
1
 62
     7
100
AcDbMText
 10
863.4646930460115
 20
1329.523854479361
 30
0.0
 40
17.5
 41
0.0
 71
     5
 72
     1
  1
UJP
  7
CONVERTER_12
 73
     1
 44
0.7202881152461
  0
MTEXT
  5
3C7
330
1F
100
AcDbEntity
  8
1
 62
     7
100
AcDbMText
 10
863.4646930460115
 20
1294.523854479361
 30
0.0
 40
17.5
 41
0.0
 71
     5
 72
     1
  1
BJP
  7
CONVERTER_12
 73
     1
 44
0.7202881152461
  0
MTEXT
  5
3C8
330
1F
100
AcDbEntity
  8
1
 62
     7
100
AcDbMText
 10
863.4646930460115
 20
1259.523854479361
 30
0.0
 40
17.5
 41
0.0
 71
     5
 72
     1
  1
DJP
  7
CONVERTER_12
 73
     1
 44
0.7202881152461
  0
MTEXT
  5
3C9
330
1F
100
AcDbEntity
  8
1
 62
     7
100
AcDbMText
 10
863.4646930460115
 20
1224.523854479362
 30
0.0
 40
17.5
 41
0.0
 71
     5
 72
     1
  1
SJP
  7
CONVERTER_12
 73
     1
 44
0.7202881152461
  0
MTEXT
  5
3CA
330
1F
100
AcDbEntity
  8
1
 62
     7
100
AcDbMText
 10
940.2146930460116
 20
1259.523854479361
 30
0.0
 40
17.5
 41
0.0
 71
     5
 72
     1
  1
漆黒
  7
CONVERTER_11
 73
     1
 44
0.54545454545455
  0
MTEXT
  5
3CB
330
1F
100
AcDbEntity
  8
1
 62
     7
100
AcDbMText
 10
940.2146930460116
 20
1294.523854479361
 30
0.0
 40
17.5
 41
0.0
 71
     5
 72
     1
  1
黄昏
  7
CONVERTER_11
 73
     1
 44
0.54545454545455
  0
MTEXT
  5
3CC
330
1F
100
AcDbEntity
  8
1
 62
     7
100
AcDbMText
 10
940.2146930460116
 20
1329.523854479361
 30
0.0
 40
17.5
 41
0.0
 71
     5
 72
     1
  1
胡桃
  7
CONVERTER_11
 73
     1
 44
0.54545454545455
  0
MTEXT
  5
3CD
330
1F
100
AcDbEntity
  8
1
 62
     2
100
AcDbMText
 10
940.2146930460116
 20
1364.523854479361
 30
0.0
 40
17.5
 41
0.0
 71
     5
 72
     1
  1
色
  7
CONVERTER_11
 73
     1
 44
0.54545454545455
  0
MTEXT
  5
3CE
330
1F
100
AcDbEntity
  8
1
 62
     7
100
AcDbMText
 10
940.2146930460116
 20
1224.523854479362
 30
0.0
 40
17.5
 41
0.0
 71
     5
 72
     1
  1
琥珀
  7
CONVERTER_11
 73
     1
 44
0.54545454545455
  0
DIMENSION
  5
3DB
330
1F
100
AcDbEntity
  8
1
100
AcDbDimension
  2
*D20
 10
482.5917193917888
 20
687.6999999999999
 30
0.0
 11
468.8417193917888
 21
798.960203362595
 31
0.0
 70
    32
  1
最大30最小5
 71
     5
 42
-1.0
 53
90.0
  3
ME10_DIM_10
100
AcDbAlignedDimension
 13
692.5917193917887
 23
672.2000000000002
 33
0.0
 14
692.5917193917887
 24
687.6999999999999
 34
0.0
 50
90.0
100
AcDbRotatedDimension
  0
DIMENSION
  5
3E6
330
1F
100
AcDbEntity
  8
1
100
AcDbDimension
  2
*D21
 10
731.5917193917887
 20
1043.273620285326
 30
0.0
 11
672.2851982108791
 21
1057.023620285326
 31
0.0
 70
    32
  1
118
 71
     5
 42
-1.0
 53
0.00013888888889
  3
ME10_DIM_11
100
AcDbAlignedDimension
 13
612.9786770299695
 23
892.4313205160967
 33
0.0
 14
731.5917193917887
 24
950.302661500001
 34
0.0
100
AcDbRotatedDimension
  0
DIMENSION
  5
3F3
330
1F
100
AcDbEntity
  8
1
100
AcDbDimension
  2
*D22
 10
713.5917193917884
 20
554.6999999999999
 30
0.0
 11
850.7231232390266
 21
568.4499999999999
 31
0.0
 70
    32
  1
<>
 71
     5
 42
-1.0
 53
0.00013888888889
  3
ME10_DIM_12
100
AcDbAlignedDimension
 13
749.5917193917882
 23
663.2000000000003
 33
0.0
 14
713.5917193917883
 24
663.2000000000003
 34
0.0
100
AcDbRotatedDimension
  0
DIMENSION
  5
400
330
1F
100
AcDbEntity
  8
1
100
AcDbDimension
  2
*D23
 10
731.5917193917887
 20
1043.273620285326
 30
0.0
 11
751.5455532137107
 21
1057.023620285326
 31
0.0
 70
    32
  1
27
 71
     5
 42
-1.0
 53
0.00013888888889
  3
ME10_DIM_13
100
AcDbAlignedDimension
 13
757.7063702851705
 23
938.2248321764106
 33
0.0
 14
731.5917193917887
 24
950.302661500001
 34
0.0
100
AcDbRotatedDimension
  0
DIMENSION
  5
40D
330
1F
100
AcDbEntity
  8
1
100
AcDbDimension
  2
*D24
 10
709.091719391776
 20
714.178464559748
 30
0.0
 11
627.853995403673
 21
727.928464559748
 31
0.0
 70
    32
  1
<>
 71
     5
 42
-1.0
 53
0.00013888888889
  3
ME10_DIM_14
100
AcDbAlignedDimension
 13
754.0917193918016
 23
691.8999999999999
 33
0.0
 14
709.0917193917754
 24
691.8999999999999
 34
0.0
100
AcDbRotatedDimension
  0
DIMENSION
  5
41A
330
1F
100
AcDbEntity
  8
1
100
AcDbDimension
  2
*D25
 10
715.5917193918018
 20
594.6999999999999
 30
0.0
 11
820.591719391789
 21
608.4499999999999
 31
0.0
 70
    32
  1
<>
 71
     5
 42
-1.0
 53
0.00013888888889
  3
ME10_DIM_15
100
AcDbAlignedDimension
 13
747.5917193918017
 23
645.6999999999998
 33
0.0
 14
715.5917193918016
 24
645.6999999999995
 34
0.0
100
AcDbRotatedDimension
  0
DIMENSION
  5
425
330
1F
100
AcDbEntity
  8
1
100
AcDbDimension
  2
*D26
 10
860.591719391789
 20
690.2
 30
0.0
 11
846.841719391789
 21
820.522955755706
 31
0.0
 70
    32
  1
269
 71
     5
 42
-1.0
 53
90.0
  3
ME10_DIM_16
100
AcDbAlignedDimension
 13
709.5855282331545
 23
958.2669143746969
 33
0.0
 14
753.7917193918017
 24
690.1999999999998
 34
0.0
 50
90.0
100
AcDbRotatedDimension
  0
DIMENSION
  5
432
330
1F
100
AcDbEntity
  8
1
100
AcDbDimension
  2
*D27
 10
860.591719391789
 20
690.2
 30
0.0
 11
846.841719391789
 21
664.1405419804552
 31
0.0
 70
    32
  1
46
 71
     5
 42
-1.0
 53
90.0
  3
ME10_DIM_17
100
AcDbAlignedDimension
 13
746.5917193918016
 23
644.6999999999997
 33
0.0
 14
753.7917193918017
 24
690.1999999999998
 34
0.0
 50
90.0
100
AcDbRotatedDimension
  0
DIMENSION
  5
43D
330
1F
100
AcDbEntity
  8
1
100
AcDbDimension
  2
*D28
 10
820.591719391789
 20
690.2
 30
0.0
 11
806.841719391789
 21
824.2764862343165
 31
0.0
 70
    32
  1
258
 71
     5
 42
-1.0
 53
90.0
  3
ME10_DIM_18
100
AcDbAlignedDimension
 13
748.491719391788
 23
947.3026615000008
 33
0.0
 14
753.7917193918017
 24
690.1999999999998
 34
0.0
 50
90.0
100
AcDbRotatedDimension
  0
DIMENSION
  5
448
330
1F
100
AcDbEntity
  8
1
100
AcDbDimension
  2
*D29
 10
442.5917193917888
 20
892.4313205160967
 30
0.0
 11
428.8417193917888
 21
782.952970281851
 31
0.0
 70
    32
  1
202
 71
     5
 42
-1.0
 53
90.0
  3
ME10_DIM_19
100
AcDbAlignedDimension
 13
709.3917193917754
 23
690.1999999999998
 33
0.0
 14
612.9786770299695
 24
892.4313205160967
 34
0.0
 50
90.0
100
AcDbRotatedDimension
  0
DIMENSION
  5
453
330
1F
100
AcDbEntity
  8
1
100
AcDbDimension
  2
*D30
 10
442.5917193917888
 20
690.2
 30
0.0
 11
428.8417193917888
 21
485.1892590726844
 31
0.0
 70
    32
  1
銅管直管時393(銅管曲げR60以上)
 71
     5
 42
-1.0
 53
90.0
  3
ME10_DIM_20
100
AcDbAlignedDimension
 13
713.4917193917895
 23
294.6999999999998
 33
0.0
 14
709.3917193917754
 24
690.1999999999998
 34
0.0
 50
90.0
100
AcDbRotatedDimension
  0
DIMENSION
  5
460
330
1F
100
AcDbEntity
  8
1
100
AcDbDimension
  2
*D31
 10
607.2649142121206
 20
838.0635558012912
 30
0.0
 11
581.1669148948699
 21
866.7004099568795
 31
0.0
 70
    37
  1
<>
 71
     5
 42
-1.0
  3
ME10_DIM_21
100
AcDb3PointAngularDimension
 13
612.3549419553578
 23
889.491934661195
 33
0.0
 14
612.9786770299693
 24
889.3593556783429
 34
0.0
 15
612.9786770299695
 25
892.4263774629369
 35
0.0
  0
HATCH
  5
461
330
1F
100
AcDbEntity
  8
1
  6
Continuous
 62
     4
100
AcDbHatch
 10
0.0
 20
0.0
 30
0.0
210
0.0
220
0.0
230
1.0
  2
CUSTOM0
 70
     0
 71
     1
 91
        1
 92
        1
 93
        4
 72
     1
 10
292.5917193917885
 20
687.6999999999999
 11
292.5917193917885
 21
672.2000000000002
 72
     1
 10
292.5917193917885
 20
672.2000000000002
 11
272.5917193917885
 21
672.2000000000002
 72
     1
 10
272.5917193917885
 20
672.2000000000002
 11
272.5917193917885
 21
687.6999999999999
 72
     1
 10
272.5917193917885
 20
687.6999999999999
 11
292.5917193917885
 21
687.6999999999999
 97
        4
330
38F
330
38E
330
38D
330
390
 75
     1
 76
     2
 52
45.0
 41
2.0
 77
     0
 78
     2
 53
45.0
 43
0.0
 44
0.0
 45
-8.485281374238571
 46
0.0000000000000009
 79
     0
 53
45.0
 43
1.414213562373095
 44
-1.414213562373095
 45
-8.485281374238571
 46
0.0000000000000009
 79
     0
 98
        1
 10
0.0
 20
0.0
  0
HATCH
  5
462
330
1F
100
AcDbEntity
  8
1
  6
Continuous
 62
     4
100
AcDbHatch
 10
0.0
 20
0.0
 30
0.0
210
0.0
220
0.0
230
1.0
  2
CUSTOM1
 70
     0
 71
     1
 91
        1
 92
        1
 93
        4
 72
     1
 10
350.5917193917885
 20
687.6999999999999
 11
350.5917193917885
 21
672.2000000000002
 72
     1
 10
350.5917193917885
 20
672.2000000000002
 11
330.5917193917885
 21
672.2000000000002
 72
     1
 10
330.5917193917885
 20
672.2000000000002
 11
330.5917193917885
 21
687.6999999999999
 72
     1
 10
330.5917193917885
 20
687.6999999999999
 11
350.5917193917885
 21
687.6999999999999
 97
        4
330
389
330
38A
330
38B
330
38C
 75
     1
 76
     2
 52
45.0
 41
2.0
 77
     0
 78
     2
 53
45.0
 43
0.0
 44
0.0
 45
-8.485281374238571
 46
0.0000000000000009
 79
     0
 53
45.0
 43
1.414213562373095
 44
-1.414213562373095
 45
-8.485281374238571
 46
0.0000000000000009
 79
     0
 98
        1
 10
0.0
 20
0.0
  0
HATCH
  5
463
330
1F
100
AcDbEntity
  8
1
  6
Continuous
 62
     4
100
AcDbHatch
 10
0.0
 20
0.0
 30
0.0
210
0.0
220
0.0
230
1.0
  2
CUSTOM2
 70
     0
 71
     1
 91
        1
 92
        1
 93
        4
 72
     1
 10
712.5917193917887
 20
687.6999999999999
 11
712.5917193917887
 21
672.2000000000002
 72
     1
 10
712.5917193917887
 20
672.2000000000002
 11
692.5917193917887
 21
672.2000000000002
 72
     1
 10
692.5917193917887
 20
672.2000000000002
 11
692.5917193917887
 21
687.6999999999999
 72
     1
 10
692.5917193917887
 20
687.6999999999999
 11
712.5917193917887
 21
687.6999999999999
 97
        4
330
392
330
393
330
394
330
391
 75
     1
 76
     2
 52
45.0
 41
2.0
 77
     0
 78
     2
 53
45.0
 43
0.0
 44
0.0
 45
-8.485281374238571
 46
0.0000000000000009
 79
     0
 53
45.0
 43
1.414213562373095
 44
-1.414213562373095
 45
-8.485281374238571
 46
0.0000000000000009
 79
     0
 98
        1
 10
0.0
 20
0.0
  0
HATCH
  5
464
330
1F
100
AcDbEntity
  8
1
  6
Continuous
 62
     4
100
AcDbHatch
 10
0.0
 20
0.0
 30
0.0
210
0.0
220
0.0
230
1.0
  2
CUSTOM3
 70
     0
 71
     1
 91
        1
 92
        1
 93
        4
 72
     1
 10
770.5917193917887
 20
687.6999999999999
 11
770.5917193917887
 21
672.2000000000002
 72
     1
 10
770.5917193917887
 20
672.2000000000002
 11
750.5917193917887
 21
672.2000000000002
 72
     1
 10
750.5917193917887
 20
672.2000000000002
 11
750.5917193917887
 21
687.6999999999999
 72
     1
 10
750.5917193917887
 20
687.6999999999999
 11
770.5917193917887
 21
687.6999999999999
 97
        4
330
398
330
397
330
396
330
395
 75
     1
 76
     2
 52
45.0
 41
2.0
 77
     0
 78
     2
 53
45.0
 43
0.0
 44
0.0
 45
-8.485281374238571
 46
0.0000000000000009
 79
     0
 53
45.0
 43
1.414213562373095
 44
-1.414213562373095
 45
-8.485281374238571
 46
0.0000000000000009
 79
     0
 98
        1
 10
0.0
 20
0.0
  0
ENDSEC
  0
SECTION
  2
OBJECTS
  0
DICTIONARY
  5
C
330
0
100
AcDbDictionary
281
     1
  3
ACAD_GROUP
350
D
  3
ACAD_LAYOUT
350
1A
  3
ACAD_MATERIAL
350
3B
  3
ACAD_MLEADERSTYLE
350
467
  3
ACAD_MLINESTYLE
350
17
  3
ACAD_PLOTSETTINGS
350
19
  3
ACAD_PLOTSTYLENAME
350
E
  3
ACAD_VISUALSTYLE
350
2A
  3
AcDbVariableDictionary
350
465
  0
DICTIONARY
  5
D
102
{ACAD_REACTORS
330
C
102
}
330
C
100
AcDbDictionary
281
     1
  0
DICTIONARY
  5
1A
102
{ACAD_REACTORS
330
C
102
}
330
C
100
AcDbDictionary
281
     1
  3
Layout1
350
1E
  3
Layout2
350
26
  3
Model
350
22
  0
DICTIONARY
  5
3B
102
{ACAD_REACTORS
330
C
102
}
330
C
100
AcDbDictionary
281
     1
  3
ByBlock
350
3D
  3
ByLayer
350
3C
  3
Global
350
3E
  0
DICTIONARY
  5
467
102
{ACAD_REACTORS
330
C
102
}
330
C
100
AcDbDictionary
281
     1
  0
DICTIONARY
  5
17
102
{ACAD_REACTORS
330
C
102
}
330
C
100
AcDbDictionary
281
     1
  3
Standard
350
18
  0
DICTIONARY
  5
19
102
{ACAD_REACTORS
330
C
102
}
330
C
100
AcDbDictionary
281
     1
  0
ACDBDICTIONARYWDFLT
  5
E
102
{ACAD_REACTORS
330
C
102
}
330
C
100
AcDbDictionary
281
     1
  3
Normal
350
F
100
AcDbDictionaryWithDefault
340
F
  0
DICTIONARY
  5
2A
102
{ACAD_REACTORS
330
C
102
}
330
C
100
AcDbDictionary
281
     1
  3
2dWireframe
350
2F
  3
3D Hidden
350
31
  3
3dWireframe
350
30
  3
Basic
350
32
  3
Brighten
350
36
  3
ColorChange
350
3A
  3
Conceptual
350
34
  3
Dim
350
35
  3
Facepattern
350
39
  3
Flat
350
2B
  3
FlatWithEdges
350
2C
  3
Gouraud
350
2D
  3
GouraudWithEdges
350
2E
  3
Linepattern
350
38
  3
Realistic
350
33
  3
Thicken
350
37
  0
DICTIONARY
  5
465
102
{ACAD_REACTORS
330
C
102
}
330
C
100
AcDbDictionary
281
     1
  3
DIMASSOC
350
468
  3
HIDETEXT
350
469
  0
LAYOUT
  5
1E
102
{ACAD_REACTORS
330
1A
102
}
330
1A
100
AcDbPlotSettings
  1

  2
none_device
  4

  6

 40
0.0
 41
0.0
 42
0.0
 43
0.0
 44
0.0
 45
0.0
 46
0.0
 47
0.0
 48
0.0
 49
0.0
140
0.0
141
0.0
142
1.0
143
1.0
 70
   688
 72
     0
 73
     0
 74
     5
  7

 75
    16
147
1.0
148
0.0
149
0.0
100
AcDbLayout
  1
Layout1
 70
     1
 71
     1
 10
0.0
 20
0.0
 11
12.0
 21
9.0
 12
0.0
 22
0.0
 32
0.0
 14
1.00000000000000E+20
 24
1.00000000000000E+20
 34
1.00000000000000E+20
 15
-1.00000000000000E+20
 25
-1.00000000000000E+20
 35
-1.00000000000000E+20
146
0.0
 13
0.0
 23
0.0
 33
0.0
 16
1.0
 26
0.0
 36
0.0
 17
0.0
 27
1.0
 37
0.0
 76
     0
330
1B
  0
LAYOUT
  5
26
102
{ACAD_REACTORS
330
1A
102
}
330
1A
100
AcDbPlotSettings
  1

  2
none_device
  4

  6

 40
0.0
 41
0.0
 42
0.0
 43
0.0
 44
0.0
 45
0.0
 46
0.0
 47
0.0
 48
0.0
 49
0.0
140
0.0
141
0.0
142
1.0
143
1.0
 70
   688
 72
     0
 73
     0
 74
     5
  7

 75
    16
147
1.0
148
0.0
149
0.0
100
AcDbLayout
  1
Layout2
 70
     1
 71
     2
 10
0.0
 20
0.0
 11
0.0
 21
0.0
 12
0.0
 22
0.0
 32
0.0
 14
0.0
 24
0.0
 34
0.0
 15
0.0
 25
0.0
 35
0.0
146
0.0
 13
0.0
 23
0.0
 33
0.0
 16
1.0
 26
0.0
 36
0.0
 17
0.0
 27
1.0
 37
0.0
 76
     0
330
23
  0
LAYOUT
  5
22
102
{ACAD_REACTORS
330
1A
102
}
330
1A
100
AcDbPlotSettings
  1

  2
none_device
  4

  6

 40
0.0
 41
0.0
 42
0.0
 43
0.0
 44
0.0
 45
0.0
 46
0.0
 47
0.0
 48
0.0
 49
0.0
140
0.0
141
0.0
142
1.0
143
1.0
 70
  1712
 72
     0
 73
     0
 74
     0
  7

 75
     0
147
1.0
148
0.0
149
0.0
100
AcDbLayout
  1
Model
 70
     1
 71
     0
 10
0.0
 20
0.0
 11
12.0
 21
9.0
 12
0.0
 22
0.0
 32
0.0
 14
0.0
 24
0.0
 34
0.0
 15
1050.0
 25
1485.0
 35
0.0
146
0.0
 13
0.0
 23
0.0
 33
0.0
 16
1.0
 26
0.0
 36
0.0
 17
0.0
 27
1.0
 37
0.0
 76
     0
330
1F
331
29
  0
MATERIAL
  5
3D
102
{ACAD_REACTORS
330
3B
102
}
102
{ACAD_XDICTIONARY
360
48C
102
}
330
3B
100
AcDbMaterial
  1
ByBlock
  0
MATERIAL
  5
3C
102
{ACAD_REACTORS
330
3B
102
}
102
{ACAD_XDICTIONARY
360
48A
102
}
330
3B
100
AcDbMaterial
  1
ByLayer
  0
MATERIAL
  5
3E
102
{ACAD_REACTORS
330
3B
102
}
102
{ACAD_XDICTIONARY
360
48E
102
}
330
3B
100
AcDbMaterial
  1
Global
  0
MLINESTYLE
  5
18
102
{ACAD_REACTORS
330
17
102
}
330
17
100
AcDbMlineStyle
  2
Standard
 70
     0
  3

 62
   256
 51
90.0
 52
90.0
 71
     2
 49
0.5
 62
   256
  6
BYLAYER
 49
-0.5
 62
   256
  6
BYLAYER
  0
ACDBPLACEHOLDER
  5
F
102
{ACAD_REACTORS
330
E
102
}
330
E
  0
VISUALSTYLE
  5
2F
102
{ACAD_REACTORS
330
2A
102
}
102
{ACAD_XDICTIONARY
360
472
102
}
330
2A
100
AcDbVisualStyle
  2
2dWireframe
 70
     4
 71
     0
 72
     2
 73
     0
 90
        0
 40
-0.6
 41
-30.0
 62
     5
 63
     7
 74
     1
 91
        4
 64
     7
 65
   257
 75
     1
175
     1
 42
1.0
 92
        0
 66
   257
 43
1.0
 76
     1
 77
     6
 78
     2
 67
     7
 79
     5
170
     0
171
     0
290
     0
174
     0
 93
        1
 44
0.0
173
     0
291
     0
 45
0.0
1001
ACAD
1000
AcDbSavedByObjectVersion
1070
     0
  0
VISUALSTYLE
  5
31
102
{ACAD_REACTORS
330
2A
102
}
102
{ACAD_XDICTIONARY
360
476
102
}
330
2A
100
AcDbVisualStyle
  2
3D Hidden
 70
     6
 71
     1
 72
     2
 73
     2
 90
        0
 40
-0.6
 41
-30.0
 62
     5
 63
     7
 74
     2
 91
        2
 64
     7
 65
   257
 75
     2
175
     1
 42
40.0
 92
        0
 66
   257
 43
1.0
 76
     1
 77
     6
 78
     2
 67
     7
 79
     3
170
     0
171
     0
290
     0
174
     0
 93
        1
 44
0.0
173
     0
291
     0
 45
0.0
1001
ACAD
1000
AcDbSavedByObjectVersion
1070
     0
  0
VISUALSTYLE
  5
30
102
{ACAD_REACTORS
330
2A
102
}
102
{ACAD_XDICTIONARY
360
474
102
}
330
2A
100
AcDbVisualStyle
  2
3dWireframe
 70
     5
 71
     0
 72
     2
 73
     0
 90
        0
 40
-0.6
 41
-30.0
 62
     5
 63
     7
 74
     1
 91
        4
 64
     7
 65
   257
 75
     1
175
     1
 42
1.0
 92
        0
 66
   257
 43
1.0
 76
     1
 77
     6
 78
     2
 67
     7
 79
     5
170
     0
171
     0
290
     0
174
     0
 93
        1
 44
0.0
173
     0
291
     0
 45
0.0
1001
ACAD
1000
AcDbSavedByObjectVersion
1070
     0
  0
VISUALSTYLE
  5
32
102
{ACAD_REACTORS
330
2A
102
}
102
{ACAD_XDICTIONARY
360
478
102
}
330
2A
100
AcDbVisualStyle
  2
Basic
 70
     7
 71
     1
 72
     0
 73
     1
 90
        0
 40
-0.6
 41
-30.0
 62
     5
 63
     7
 74
     0
 91
        4
 64
     7
 65
   257
 75
     1
175
     1
 42
1.0
 92
        8
 66
     7
 43
1.0
 76
     1
 77
     6
 78
     2
 67
     7
 79
     5
170
     0
171
     0
290
     0
174
     0
 93
        1
 44
0.0
173
     0
291
     1
 45
0.0
1001
ACAD
1000
AcDbSavedByObjectVersion
1070
     0
  0
VISUALSTYLE
  5
36
102
{ACAD_REACTORS
330
2A
102
}
102
{ACAD_XDICTIONARY
360
480
102
}
330
2A
100
AcDbVisualStyle
  2
Brighten
 70
    12
 71
     2
 72
     2
 73
     0
 90
        0
 40
-0.6
 41
-30.0
 62
     5
 63
     7
 74
     1
 91
        4
 64
     7
 65
   257
 75
     1
175
     1
 42
1.0
 92
        8
 66
     7
 43
1.0
 76
     1
 77
     6
 78
     2
 67
     7
 79
     5
170
     0
171
     0
290
     0
174
     0
 93
        1
 44
50.0
173
     0
291
     1
 45
0.0
1001
ACAD
1000
AcDbSavedByObjectVersion
1070
     0
  0
VISUALSTYLE
  5
3A
102
{ACAD_REACTORS
330
2A
102
}
102
{ACAD_XDICTIONARY
360
488
102
}
330
2A
100
AcDbVisualStyle
  2
ColorChange
 70
    16
 71
     2
 72
     2
 73
     3
 90
        0
 40
-0.6
 41
-30.0
 62
     5
 63
     8
 74
     1
 91
        4
 64
     7
 65
   257
 75
     1
175
     1
 42
1.0
 92
        8
 66
     8
 43
1.0
 76
     1
 77
     6
 78
     2
 67
     7
 79
     5
170
     0
171
     0
290
     0
174
     0
 93
        1
 44
0.0
173
     0
291
     1
 45
0.0
1001
ACAD
1000
AcDbSavedByObjectVersion
1070
     0
  0
VISUALSTYLE
  5
34
102
{ACAD_REACTORS
330
2A
102
}
102
{ACAD_XDICTIONARY
360
47C
102
}
330
2A
100
AcDbVisualStyle
  2
Conceptual
 70
     9
 71
     3
 72
     2
 73
     0
 90
        0
 40
-0.6
 41
-30.0
 62
     5
 63
     7
 74
     2
 91
        2
 64
     7
 65
   257
 75
     1
175
     1
 42
40.0
 92
        8
 66
     7
 43
1.0
 76
     1
 77
     6
 78
     2
 67
     7
 79
     3
170
     0
171
     0
290
     0
174
     0
 93
        1
 44
0.0
173
     0
291
     0
 45
0.0
1001
ACAD
1000
AcDbSavedByObjectVersion
1070
     0
  0
VISUALSTYLE
  5
35
102
{ACAD_REACTORS
330
2A
102
}
102
{ACAD_XDICTIONARY
360
47E
102
}
330
2A
100
AcDbVisualStyle
  2
Dim
 70
    11
 71
     2
 72
     2
 73
     0
 90
        0
 40
-0.6
 41
-30.0
 62
     5
 63
     7
 74
     1
 91
        4
 64
     7
 65
   257
 75
     1
175
     1
 42
1.0
 92
        8
 66
     7
 43
1.0
 76
     1
 77
     6
 78
     2
 67
     7
 79
     5
170
     0
171
     0
290
     0
174
     0
 93
        1
 44
-50.0
173
     0
291
     1
 45
0.0
1001
ACAD
1000
AcDbSavedByObjectVersion
1070
     0
  0
VISUALSTYLE
  5
39
102
{ACAD_REACTORS
330
2A
102
}
102
{ACAD_XDICTIONARY
360
486
102
}
330
2A
100
AcDbVisualStyle
  2
Facepattern
 70
    15
 71
     2
 72
     2
 73
     0
 90
        0
 40
-0.6
 41
-30.0
 62
     5
 63
     7
 74
     1
 91
        4
 64
     7
 65
   257
 75
     1
175
     1
 42
1.0
 92
        8
 66
     7
 43
1.0
 76
     1
 77
     6
 78
     2
 67
     7
 79
     5
170
     0
171
     0
290
     0
174
     0
 93
        1
 44
0.0
173
     0
291
     1
 45
0.0
1001
ACAD
1000
AcDbSavedByObjectVersion
1070
     0
  0
VISUALSTYLE
  5
2B
102
{ACAD_REACTORS
330
2A
102
}
102
{ACAD_XDICTIONARY
360
46A
102
}
330
2A
100
AcDbVisualStyle
  2
Flat
 70
     0
 71
     2
 72
     1
 73
     1
 90
        2
 40
-0.6
 41
30.0
 62
     5
 63
     7
 74
     0
 91
        4
 64
     7
 65
   257
 75
     1
175
     1
 42
1.0
 92
        8
 66
     7
 43
1.0
 76
     1
 77
     6
 78
     2
 67
     7
 79
     5
170
     0
171
     0
290
     0
174
     0
 93
       13
 44
0.0
173
     0
291
     1
 45
0.0
1001
ACAD
1000
AcDbSavedByObjectVersion
1070
     0
  0
VISUALSTYLE
  5
2C
102
{ACAD_REACTORS
330
2A
102
}
102
{ACAD_XDICTIONARY
360
46C
102
}
330
2A
100
AcDbVisualStyle
  2
FlatWithEdges
 70
     1
 71
     2
 72
     1
 73
     1
 90
        2
 40
-0.6
 41
30.0
 62
     5
 63
     7
 74
     1
 91
        4
 64
     7
 65
   257
 75
     1
175
     1
 42
1.0
 92
        0
 66
   257
 43
1.0
 76
     1
 77
     6
 78
     2
 67
     7
 79
     5
170
     0
171
     0
290
     0
174
     0
 93
       13
 44
0.0
173
     0
291
     1
 45
0.0
1001
ACAD
1000
AcDbSavedByObjectVersion
1070
     0
  0
VISUALSTYLE
  5
2D
102
{ACAD_REACTORS
330
2A
102
}
102
{ACAD_XDICTIONARY
360
46E
102
}
330
2A
100
AcDbVisualStyle
  2
Gouraud
 70
     2
 71
     2
 72
     2
 73
     1
 90
        2
 40
-0.6
 41
30.0
 62
     5
 63
     7
 74
     0
 91
        4
 64
     7
 65
   257
 75
     1
175
     1
 42
1.0
 92
        0
 66
     7
 43
1.0
 76
     1
 77
     6
 78
     2
 67
     7
 79
     5
170
     0
171
     0
290
     0
174
     0
 93
       13
 44
0.0
173
     0
291
     1
 45
0.0
1001
ACAD
1000
AcDbSavedByObjectVersion
1070
     0
  0
VISUALSTYLE
  5
2E
102
{ACAD_REACTORS
330
2A
102
}
102
{ACAD_XDICTIONARY
360
470
102
}
330
2A
100
AcDbVisualStyle
  2
GouraudWithEdges
 70
     3
 71
     2
 72
     2
 73
     1
 90
        2
 40
-0.6
 41
30.0
 62
     5
 63
     7
 74
     1
 91
        4
 64
     7
 65
   257
 75
     1
175
     1
 42
1.0
 92
        0
 66
   257
 43
1.0
 76
     1
 77
     6
 78
     2
 67
     7
 79
     5
170
     0
171
     0
290
     0
174
     0
 93
       13
 44
0.0
173
     0
291
     1
 45
0.0
1001
ACAD
1000
AcDbSavedByObjectVersion
1070
     0
  0
VISUALSTYLE
  5
38
102
{ACAD_REACTORS
330
2A
102
}
102
{ACAD_XDICTIONARY
360
484
102
}
330
2A
100
AcDbVisualStyle
  2
Linepattern
 70
    14
 71
     2
 72
     2
 73
     0
 90
        0
 40
-0.6
 41
-30.0
 62
     5
 63
     7
 74
     1
 91
        4
 64
     7
 65
   257
 75
     7
175
     7
 42
1.0
 92
        8
 66
     7
 43
1.0
 76
     1
 77
     6
 78
     2
 67
     7
 79
     5
170
     0
171
     0
290
     0
174
     0
 93
        1
 44
0.0
173
     0
291
     1
 45
0.0
1001
ACAD
1000
AcDbSavedByObjectVersion
1070
     0
  0
VISUALSTYLE
  5
33
102
{ACAD_REACTORS
330
2A
102
}
102
{ACAD_XDICTIONARY
360
47A
102
}
330
2A
100
AcDbVisualStyle
  2
Realistic
 70
     8
 71
     2
 72
     2
 73
     0
 90
        0
 40
-0.6
 41
-30.0
 62
     5
 63
     7
 74
     1
 91
        0
 64
     7
 65
   257
 75
     1
175
     1
 42
1.0
 92
        8
 66
     8
 43
1.0
 76
     1
 77
     6
 78
     2
 67
     7
 79
     5
170
     0
171
     0
290
     0
174
     0
 93
       13
 44
0.0
173
     0
291
     0
 45
0.0
1001
ACAD
1000
AcDbSavedByObjectVersion
1070
     0
  0
VISUALSTYLE
  5
37
102
{ACAD_REACTORS
330
2A
102
}
102
{ACAD_XDICTIONARY
360
482
102
}
330
2A
100
AcDbVisualStyle
  2
Thicken
 70
    13
 71
     2
 72
     2
 73
     0
 90
        0
 40
-0.6
 41
-30.0
 62
     5
 63
     7
 74
     1
 91
        4
 64
     7
 65
   257
 75
     1
175
     1
 42
1.0
 92
       12
 66
     7
 43
1.0
 76
     1
 77
     6
 78
     2
 67
     7
 79
     5
170
     0
171
     0
290
     0
174
     0
 93
        1
 44
0.0
173
     0
291
     1
 45
0.0
1001
ACAD
1000
AcDbSavedByObjectVersion
1070
     0
  0
DICTIONARYVAR
  5
468
102
{ACAD_REACTORS
330
465
102
}
330
465
100
DictionaryVariables
280
     0
  1
2
  0
DICTIONARYVAR
  5
469
102
{ACAD_REACTORS
330
465
102
}
330
465
100
DictionaryVariables
280
     0
  1
1
  0
DICTIONARY
  5
48C
330
3D
100
AcDbDictionary
280
     1
281
     1
  3
ACAD_XREC_ROUNDTRIP
360
48D
  0
DICTIONARY
  5
48A
330
3C
100
AcDbDictionary
280
     1
281
     1
  3
ACAD_XREC_ROUNDTRIP
360
48B
  0
DICTIONARY
  5
48E
330
3E
100
AcDbDictionary
280
     1
281
     1
  3
ACAD_XREC_ROUNDTRIP
360
48F
  0
DICTIONARY
  5
472
330
2F
100
AcDbDictionary
280
     1
281
     1
  3
ACAD_XREC_ROUNDTRIP
360
473
  0
DICTIONARY
  5
476
330
31
100
AcDbDictionary
280
     1
281
     1
  3
ACAD_XREC_ROUNDTRIP
360
477
  0
DICTIONARY
  5
474
330
30
100
AcDbDictionary
280
     1
281
     1
  3
ACAD_XREC_ROUNDTRIP
360
475
  0
DICTIONARY
  5
478
330
32
100
AcDbDictionary
280
     1
281
     1
  3
ACAD_XREC_ROUNDTRIP
360
479
  0
DICTIONARY
  5
480
330
36
100
AcDbDictionary
280
     1
281
     1
  3
ACAD_XREC_ROUNDTRIP
360
481
  0
DICTIONARY
  5
488
330
3A
100
AcDbDictionary
280
     1
281
     1
  3
ACAD_XREC_ROUNDTRIP
360
489
  0
DICTIONARY
  5
47C
330
34
100
AcDbDictionary
280
     1
281
     1
  3
ACAD_XREC_ROUNDTRIP
360
47D
  0
DICTIONARY
  5
47E
330
35
100
AcDbDictionary
280
     1
281
     1
  3
ACAD_XREC_ROUNDTRIP
360
47F
  0
DICTIONARY
  5
486
330
39
100
AcDbDictionary
280
     1
281
     1
  3
ACAD_XREC_ROUNDTRIP
360
487
  0
DICTIONARY
  5
46A
330
2B
100
AcDbDictionary
280
     1
281
     1
  3
ACAD_XREC_ROUNDTRIP
360
46B
  0
DICTIONARY
  5
46C
330
2C
100
AcDbDictionary
280
     1
281
     1
  3
ACAD_XREC_ROUNDTRIP
360
46D
  0
DICTIONARY
  5
46E
330
2D
100
AcDbDictionary
280
     1
281
     1
  3
ACAD_XREC_ROUNDTRIP
360
46F
  0
DICTIONARY
  5
470
330
2E
100
AcDbDictionary
280
     1
281
     1
  3
ACAD_XREC_ROUNDTRIP
360
471
  0
DICTIONARY
  5
484
330
38
100
AcDbDictionary
280
     1
281
     1
  3
ACAD_XREC_ROUNDTRIP
360
485
  0
DICTIONARY
  5
47A
330
33
100
AcDbDictionary
280
     1
281
     1
  3
ACAD_XREC_ROUNDTRIP
360
47B
  0
DICTIONARY
  5
482
330
37
100
AcDbDictionary
280
     1
281
     1
  3
ACAD_XREC_ROUNDTRIP
360
483
  0
XRECORD
  5
48D
102
{ACAD_REACTORS
330
48C
102
}
330
48C
100
AcDbXrecord
280
     1
102
MATERIAL
148
0.0
149
0.0
149
0.0
 93
        0
 94
      127
282
     0
 72
     1
 77
     1
171
     1
175
     1
179
     1
273
     0
  0
XRECORD
  5
48B
102
{ACAD_REACTORS
330
48A
102
}
330
48A
100
AcDbXrecord
280
     1
102
MATERIAL
148
0.0
149
0.0
149
0.0
 93
        0
 94
      127
282
     0
 72
     1
 77
     1
171
     1
175
     1
179
     1
273
     0
  0
XRECORD
  5
48F
102
{ACAD_REACTORS
330
48E
102
}
330
48E
100
AcDbXrecord
280
     1
102
MATERIAL
148
0.0
149
0.0
149
0.0
 93
        0
 94
      127
282
     0
 72
     1
 77
     1
171
     1
175
     1
179
     1
273
     0
  0
XRECORD
  5
473
102
{ACAD_REACTORS
330
472
102
}
330
472
100
AcDbXrecord
280
     1
102
RTVSPropertyOp0
 70
     1
102
RTVSPropertyOp1
 70
     1
102
RTVSPropertyOp2
 70
     1
102
RTVSPropertyOp3
 70
     1
102
RTVSPropertyOp4
 70
     1
102
RTVSPropertyOp5
 70
     1
102
RTVSPropertyOp6
 70
     1
102
RTVSPropertyOp7
 70
     1
102
RTVSPropertyOp8
 70
     1
102
RTVSPropertyOp9
 70
     1
102
RTVSPropertyOp10
 70
     1
102
RTVSPropertyOp11
 70
     1
102
RTVSPropertyOp12
 70
     1
102
RTVSPropertyOp13
 70
     1
102
RTVSPropertyOp14
 70
     1
102
RTVSPropertyOp15
 70
     1
102
RTVSPropertyOp16
 70
     1
102
RTVSPropertyOp17
 70
     1
102
RTVSPropertyOp18
 70
     1
102
RTVSPropertyOp19
 70
     1
102
RTVSPropertyOp20
 70
     1
102
RTVSPropertyOp21
 70
     1
102
RTVSPropertyOp22
 70
     1
102
RTVSPropertyOp23
 70
     1
102
RTVSPropertyOp24
 70
     1
102
RTVSPropertyOp25
 70
     1
102
RTVSPropertyOp26
 70
     1
102
RTVSPropertyOp27
 70
     1
102
RTVSPropertyOp28
 70
     1
102
RTVSPropertyOp29
 70
     1
102
RTVSPropertyOp30
 70
     1
102
RTVSPropertyOp31
 70
     1
102
RTVSPropertyOp32
 70
     1
  0
XRECORD
  5
477
102
{ACAD_REACTORS
330
476
102
}
330
476
100
AcDbXrecord
280
     1
102
RTVSPropertyOp0
 70
     1
102
RTVSPropertyOp1
 70
     1
102
RTVSPropertyOp2
 70
     1
102
RTVSPropertyOp3
 70
     1
102
RTVSPropertyOp4
 70
     1
102
RTVSPropertyOp5
 70
     1
102
RTVSPropertyOp6
 70
     1
102
RTVSPropertyOp7
 70
     1
102
RTVSPropertyOp8
 70
     1
102
RTVSPropertyOp9
 70
     1
102
RTVSPropertyOp10
 70
     1
102
RTVSPropertyOp11
 70
     1
102
RTVSPropertyOp12
 70
     1
102
RTVSPropertyOp13
 70
     1
102
RTVSPropertyOp14
 70
     1
102
RTVSPropertyOp15
 70
     1
102
RTVSPropertyOp16
 70
     1
102
RTVSPropertyOp17
 70
     1
102
RTVSPropertyOp18
 70
     1
102
RTVSPropertyOp19
 70
     1
102
RTVSPropertyOp20
 70
     1
102
RTVSPropertyOp21
 70
     1
102
RTVSPropertyOp22
 70
     1
102
RTVSPropertyOp23
 70
     1
102
RTVSPropertyOp24
 70
     1
102
RTVSPropertyOp25
 70
     1
102
RTVSPropertyOp26
 70
     1
102
RTVSPropertyOp27
 70
     1
102
RTVSPropertyOp28
 70
     1
102
RTVSPropertyOp29
 70
     1
102
RTVSPropertyOp30
 70
     1
102
RTVSPropertyOp31
 70
     1
102
RTVSPropertyOp32
 70
     1
  0
XRECORD
  5
475
102
{ACAD_REACTORS
330
474
102
}
330
474
100
AcDbXrecord
280
     1
102
RTVSPropertyOp0
 70
     1
102
RTVSPropertyOp1
 70
     1
102
RTVSPropertyOp2
 70
     1
102
RTVSPropertyOp3
 70
     1
102
RTVSPropertyOp4
 70
     1
102
RTVSPropertyOp5
 70
     1
102
RTVSPropertyOp6
 70
     1
102
RTVSPropertyOp7
 70
     1
102
RTVSPropertyOp8
 70
     1
102
RTVSPropertyOp9
 70
     1
102
RTVSPropertyOp10
 70
     1
102
RTVSPropertyOp11
 70
     1
102
RTVSPropertyOp12
 70
     1
102
RTVSPropertyOp13
 70
     1
102
RTVSPropertyOp14
 70
     1
102
RTVSPropertyOp15
 70
     1
102
RTVSPropertyOp16
 70
     1
102
RTVSPropertyOp17
 70
     1
102
RTVSPropertyOp18
 70
     1
102
RTVSPropertyOp19
 70
     1
102
RTVSPropertyOp20
 70
     1
102
RTVSPropertyOp21
 70
     1
102
RTVSPropertyOp22
 70
     1
102
RTVSPropertyOp23
 70
     1
102
RTVSPropertyOp24
 70
     1
102
RTVSPropertyOp25
 70
     1
102
RTVSPropertyOp26
 70
     1
102
RTVSPropertyOp27
 70
     1
102
RTVSPropertyOp28
 70
     1
102
RTVSPropertyOp29
 70
     1
102
RTVSPropertyOp30
 70
     1
102
RTVSPropertyOp31
 70
     1
102
RTVSPropertyOp32
 70
     1
  0
XRECORD
  5
479
102
{ACAD_REACTORS
330
478
102
}
330
478
100
AcDbXrecord
280
     1
102
RTVSPropertyOp0
 70
     1
102
RTVSPropertyOp1
 70
     1
102
RTVSPropertyOp2
 70
     1
102
RTVSPropertyOp3
 70
     1
102
RTVSPropertyOp4
 70
     1
102
RTVSPropertyOp5
 70
     1
102
RTVSPropertyOp6
 70
     1
102
RTVSPropertyOp7
 70
     1
102
RTVSPropertyOp8
 70
     1
102
RTVSPropertyOp9
 70
     1
102
RTVSPropertyOp10
 70
     1
102
RTVSPropertyOp11
 70
     1
102
RTVSPropertyOp12
 70
     1
102
RTVSPropertyOp13
 70
     1
102
RTVSPropertyOp14
 70
     1
102
RTVSPropertyOp15
 70
     1
102
RTVSPropertyOp16
 70
     1
102
RTVSPropertyOp17
 70
     1
102
RTVSPropertyOp18
 70
     1
102
RTVSPropertyOp19
 70
     1
102
RTVSPropertyOp20
 70
     1
102
RTVSPropertyOp21
 70
     1
102
RTVSPropertyOp22
 70
     1
102
RTVSPropertyOp23
 70
     1
102
RTVSPropertyOp24
 70
     1
102
RTVSPropertyOp25
 70
     1
102
RTVSPropertyOp26
 70
     1
102
RTVSPropertyOp27
 70
     1
102
RTVSPropertyOp28
 70
     1
102
RTVSPropertyOp29
 70
     1
102
RTVSPropertyOp30
 70
     1
102
RTVSPropertyOp31
 70
     1
102
RTVSPropertyOp32
 70
     1
  0
XRECORD
  5
481
102
{ACAD_REACTORS
330
480
102
}
330
480
100
AcDbXrecord
280
     1
102
RTVSPropertyOp0
 70
     1
102
RTVSPropertyOp1
 70
     1
102
RTVSPropertyOp2
 70
     1
102
RTVSPropertyOp3
 70
     1
102
RTVSPropertyOp4
 70
     1
102
RTVSPropertyOp5
 70
     1
102
RTVSPropertyOp6
 70
     1
102
RTVSPropertyOp7
 70
     1
102
RTVSPropertyOp8
 70
     1
102
RTVSPropertyOp9
 70
     1
102
RTVSPropertyOp10
 70
     1
102
RTVSPropertyOp11
 70
     1
102
RTVSPropertyOp12
 70
     1
102
RTVSPropertyOp13
 70
     1
102
RTVSPropertyOp14
 70
     1
102
RTVSPropertyOp15
 70
     1
102
RTVSPropertyOp16
 70
     1
102
RTVSPropertyOp17
 70
     1
102
RTVSPropertyOp18
 70
     1
102
RTVSPropertyOp19
 70
     1
102
RTVSPropertyOp20
 70
     1
102
RTVSPropertyOp21
 70
     1
102
RTVSPropertyOp22
 70
     1
102
RTVSPropertyOp23
 70
     1
102
RTVSPropertyOp24
 70
     1
102
RTVSPropertyOp25
 70
     1
102
RTVSPropertyOp26
 70
     1
102
RTVSPropertyOp27
 70
     1
102
RTVSPropertyOp28
 70
     1
102
RTVSPropertyOp29
 70
     1
102
RTVSPropertyOp30
 70
     1
102
RTVSPropertyOp31
 70
     1
102
RTVSPropertyOp32
 70
     1
  0
XRECORD
  5
489
102
{ACAD_REACTORS
330
488
102
}
330
488
100
AcDbXrecord
280
     1
102
RTVSPropertyOp0
 70
     1
102
RTVSPropertyOp1
 70
     1
102
RTVSPropertyOp2
 70
     1
102
RTVSPropertyOp3
 70
     1
102
RTVSPropertyOp4
 70
     1
102
RTVSPropertyOp5
 70
     1
102
RTVSPropertyOp6
 70
     1
102
RTVSPropertyOp7
 70
     1
102
RTVSPropertyOp8
 70
     1
102
RTVSPropertyOp9
 70
     1
102
RTVSPropertyOp10
 70
     1
102
RTVSPropertyOp11
 70
     1
102
RTVSPropertyOp12
 70
     1
102
RTVSPropertyOp13
 70
     1
102
RTVSPropertyOp14
 70
     1
102
RTVSPropertyOp15
 70
     1
102
RTVSPropertyOp16
 70
     1
102
RTVSPropertyOp17
 70
     1
102
RTVSPropertyOp18
 70
     1
102
RTVSPropertyOp19
 70
     1
102
RTVSPropertyOp20
 70
     1
102
RTVSPropertyOp21
 70
     1
102
RTVSPropertyOp22
 70
     1
102
RTVSPropertyOp23
 70
     1
102
RTVSPropertyOp24
 70
     1
102
RTVSPropertyOp25
 70
     1
102
RTVSPropertyOp26
 70
     1
102
RTVSPropertyOp27
 70
     1
102
RTVSPropertyOp28
 70
     1
102
RTVSPropertyOp29
 70
     1
102
RTVSPropertyOp30
 70
     1
102
RTVSPropertyOp31
 70
     1
102
RTVSPropertyOp32
 70
     1
  0
XRECORD
  5
47D
102
{ACAD_REACTORS
330
47C
102
}
330
47C
100
AcDbXrecord
280
     1
102
RTVSPropertyOp0
 70
     1
102
RTVSPropertyOp1
 70
     1
102
RTVSPropertyOp2
 70
     1
102
RTVSPropertyOp3
 70
     1
102
RTVSPropertyOp4
 70
     1
102
RTVSPropertyOp5
 70
     1
102
RTVSPropertyOp6
 70
     1
102
RTVSPropertyOp7
 70
     1
102
RTVSPropertyOp8
 70
     1
102
RTVSPropertyOp9
 70
     1
102
RTVSPropertyOp10
 70
     1
102
RTVSPropertyOp11
 70
     1
102
RTVSPropertyOp12
 70
     1
102
RTVSPropertyOp13
 70
     1
102
RTVSPropertyOp14
 70
     1
102
RTVSPropertyOp15
 70
     1
102
RTVSPropertyOp16
 70
     1
102
RTVSPropertyOp17
 70
     1
102
RTVSPropertyOp18
 70
     1
102
RTVSPropertyOp19
 70
     1
102
RTVSPropertyOp20
 70
     1
102
RTVSPropertyOp21
 70
     1
102
RTVSPropertyOp22
 70
     1
102
RTVSPropertyOp23
 70
     1
102
RTVSPropertyOp24
 70
     1
102
RTVSPropertyOp25
 70
     1
102
RTVSPropertyOp26
 70
     1
102
RTVSPropertyOp27
 70
     1
102
RTVSPropertyOp28
 70
     1
102
RTVSPropertyOp29
 70
     1
102
RTVSPropertyOp30
 70
     1
102
RTVSPropertyOp31
 70
     1
102
RTVSPropertyOp32
 70
     1
  0
XRECORD
  5
47F
102
{ACAD_REACTORS
330
47E
102
}
330
47E
100
AcDbXrecord
280
     1
102
RTVSPropertyOp0
 70
     1
102
RTVSPropertyOp1
 70
     1
102
RTVSPropertyOp2
 70
     1
102
RTVSPropertyOp3
 70
     1
102
RTVSPropertyOp4
 70
     1
102
RTVSPropertyOp5
 70
     1
102
RTVSPropertyOp6
 70
     1
102
RTVSPropertyOp7
 70
     1
102
RTVSPropertyOp8
 70
     1
102
RTVSPropertyOp9
 70
     1
102
RTVSPropertyOp10
 70
     1
102
RTVSPropertyOp11
 70
     1
102
RTVSPropertyOp12
 70
     1
102
RTVSPropertyOp13
 70
     1
102
RTVSPropertyOp14
 70
     1
102
RTVSPropertyOp15
 70
     1
102
RTVSPropertyOp16
 70
     1
102
RTVSPropertyOp17
 70
     1
102
RTVSPropertyOp18
 70
     1
102
RTVSPropertyOp19
 70
     1
102
RTVSPropertyOp20
 70
     1
102
RTVSPropertyOp21
 70
     1
102
RTVSPropertyOp22
 70
     1
102
RTVSPropertyOp23
 70
     1
102
RTVSPropertyOp24
 70
     1
102
RTVSPropertyOp25
 70
     1
102
RTVSPropertyOp26
 70
     1
102
RTVSPropertyOp27
 70
     1
102
RTVSPropertyOp28
 70
     1
102
RTVSPropertyOp29
 70
     1
102
RTVSPropertyOp30
 70
     1
102
RTVSPropertyOp31
 70
     1
102
RTVSPropertyOp32
 70
     1
  0
XRECORD
  5
487
102
{ACAD_REACTORS
330
486
102
}
330
486
100
AcDbXrecord
280
     1
102
RTVSPropertyOp0
 70
     1
102
RTVSPropertyOp1
 70
     1
102
RTVSPropertyOp2
 70
     1
102
RTVSPropertyOp3
 70
     1
102
RTVSPropertyOp4
 70
     1
102
RTVSPropertyOp5
 70
     1
102
RTVSPropertyOp6
 70
     1
102
RTVSPropertyOp7
 70
     1
102
RTVSPropertyOp8
 70
     1
102
RTVSPropertyOp9
 70
     1
102
RTVSPropertyOp10
 70
     1
102
RTVSPropertyOp11
 70
     1
102
RTVSPropertyOp12
 70
     1
102
RTVSPropertyOp13
 70
     1
102
RTVSPropertyOp14
 70
     1
102
RTVSPropertyOp15
 70
     1
102
RTVSPropertyOp16
 70
     1
102
RTVSPropertyOp17
 70
     1
102
RTVSPropertyOp18
 70
     1
102
RTVSPropertyOp19
 70
     1
102
RTVSPropertyOp20
 70
     1
102
RTVSPropertyOp21
 70
     1
102
RTVSPropertyOp22
 70
     1
102
RTVSPropertyOp23
 70
     1
102
RTVSPropertyOp24
 70
     1
102
RTVSPropertyOp25
 70
     1
102
RTVSPropertyOp26
 70
     1
102
RTVSPropertyOp27
 70
     1
102
RTVSPropertyOp28
 70
     1
102
RTVSPropertyOp29
 70
     1
102
RTVSPropertyOp30
 70
     1
102
RTVSPropertyOp31
 70
     1
102
RTVSPropertyOp32
 70
     1
  0
XRECORD
  5
46B
102
{ACAD_REACTORS
330
46A
102
}
330
46A
100
AcDbXrecord
280
     1
102
RTVSPropertyOp0
 70
     1
102
RTVSPropertyOp1
 70
     1
102
RTVSPropertyOp2
 70
     1
102
RTVSPropertyOp3
 70
     1
102
RTVSPropertyOp4
 70
     1
102
RTVSPropertyOp5
 70
     1
102
RTVSPropertyOp6
 70
     1
102
RTVSPropertyOp7
 70
     1
102
RTVSPropertyOp8
 70
     1
102
RTVSPropertyOp9
 70
     1
102
RTVSPropertyOp10
 70
     1
102
RTVSPropertyOp11
 70
     1
102
RTVSPropertyOp12
 70
     1
102
RTVSPropertyOp13
 70
     1
102
RTVSPropertyOp14
 70
     1
102
RTVSPropertyOp15
 70
     1
102
RTVSPropertyOp16
 70
     1
102
RTVSPropertyOp17
 70
     1
102
RTVSPropertyOp18
 70
     1
102
RTVSPropertyOp19
 70
     1
102
RTVSPropertyOp20
 70
     1
102
RTVSPropertyOp21
 70
     1
102
RTVSPropertyOp22
 70
     1
102
RTVSPropertyOp23
 70
     1
102
RTVSPropertyOp24
 70
     1
102
RTVSPropertyOp25
 70
     1
102
RTVSPropertyOp26
 70
     1
102
RTVSPropertyOp27
 70
     1
102
RTVSPropertyOp28
 70
     1
102
RTVSPropertyOp29
 70
     1
102
RTVSPropertyOp30
 70
     1
102
RTVSPropertyOp31
 70
     1
102
RTVSPropertyOp32
 70
     1
  0
XRECORD
  5
46D
102
{ACAD_REACTORS
330
46C
102
}
330
46C
100
AcDbXrecord
280
     1
102
RTVSPropertyOp0
 70
     1
102
RTVSPropertyOp1
 70
     1
102
RTVSPropertyOp2
 70
     1
102
RTVSPropertyOp3
 70
     1
102
RTVSPropertyOp4
 70
     1
102
RTVSPropertyOp5
 70
     1
102
RTVSPropertyOp6
 70
     1
102
RTVSPropertyOp7
 70
     1
102
RTVSPropertyOp8
 70
     1
102
RTVSPropertyOp9
 70
     1
102
RTVSPropertyOp10
 70
     1
102
RTVSPropertyOp11
 70
     1
102
RTVSPropertyOp12
 70
     1
102
RTVSPropertyOp13
 70
     1
102
RTVSPropertyOp14
 70
     1
102
RTVSPropertyOp15
 70
     1
102
RTVSPropertyOp16
 70
     1
102
RTVSPropertyOp17
 70
     1
102
RTVSPropertyOp18
 70
     1
102
RTVSPropertyOp19
 70
     1
102
RTVSPropertyOp20
 70
     1
102
RTVSPropertyOp21
 70
     1
102
RTVSPropertyOp22
 70
     1
102
RTVSPropertyOp23
 70
     1
102
RTVSPropertyOp24
 70
     1
102
RTVSPropertyOp25
 70
     1
102
RTVSPropertyOp26
 70
     1
102
RTVSPropertyOp27
 70
     1
102
RTVSPropertyOp28
 70
     1
102
RTVSPropertyOp29
 70
     1
102
RTVSPropertyOp30
 70
     1
102
RTVSPropertyOp31
 70
     1
102
RTVSPropertyOp32
 70
     1
  0
XRECORD
  5
46F
102
{ACAD_REACTORS
330
46E
102
}
330
46E
100
AcDbXrecord
280
     1
102
RTVSPropertyOp0
 70
     1
102
RTVSPropertyOp1
 70
     1
102
RTVSPropertyOp2
 70
     1
102
RTVSPropertyOp3
 70
     1
102
RTVSPropertyOp4
 70
     1
102
RTVSPropertyOp5
 70
     1
102
RTVSPropertyOp6
 70
     1
102
RTVSPropertyOp7
 70
     1
102
RTVSPropertyOp8
 70
     1
102
RTVSPropertyOp9
 70
     1
102
RTVSPropertyOp10
 70
     1
102
RTVSPropertyOp11
 70
     1
102
RTVSPropertyOp12
 70
     1
102
RTVSPropertyOp13
 70
     1
102
RTVSPropertyOp14
 70
     1
102
RTVSPropertyOp15
 70
     1
102
RTVSPropertyOp16
 70
     1
102
RTVSPropertyOp17
 70
     1
102
RTVSPropertyOp18
 70
     1
102
RTVSPropertyOp19
 70
     1
102
RTVSPropertyOp20
 70
     1
102
RTVSPropertyOp21
 70
     1
102
RTVSPropertyOp22
 70
     1
102
RTVSPropertyOp23
 70
     1
102
RTVSPropertyOp24
 70
     1
102
RTVSPropertyOp25
 70
     1
102
RTVSPropertyOp26
 70
     1
102
RTVSPropertyOp27
 70
     1
102
RTVSPropertyOp28
 70
     1
102
RTVSPropertyOp29
 70
     1
102
RTVSPropertyOp30
 70
     1
102
RTVSPropertyOp31
 70
     1
102
RTVSPropertyOp32
 70
     1
  0
XRECORD
  5
471
102
{ACAD_REACTORS
330
470
102
}
330
470
100
AcDbXrecord
280
     1
102
RTVSPropertyOp0
 70
     1
102
RTVSPropertyOp1
 70
     1
102
RTVSPropertyOp2
 70
     1
102
RTVSPropertyOp3
 70
     1
102
RTVSPropertyOp4
 70
     1
102
RTVSPropertyOp5
 70
     1
102
RTVSPropertyOp6
 70
     1
102
RTVSPropertyOp7
 70
     1
102
RTVSPropertyOp8
 70
     1
102
RTVSPropertyOp9
 70
     1
102
RTVSPropertyOp10
 70
     1
102
RTVSPropertyOp11
 70
     1
102
RTVSPropertyOp12
 70
     1
102
RTVSPropertyOp13
 70
     1
102
RTVSPropertyOp14
 70
     1
102
RTVSPropertyOp15
 70
     1
102
RTVSPropertyOp16
 70
     1
102
RTVSPropertyOp17
 70
     1
102
RTVSPropertyOp18
 70
     1
102
RTVSPropertyOp19
 70
     1
102
RTVSPropertyOp20
 70
     1
102
RTVSPropertyOp21
 70
     1
102
RTVSPropertyOp22
 70
     1
102
RTVSPropertyOp23
 70
     1
102
RTVSPropertyOp24
 70
     1
102
RTVSPropertyOp25
 70
     1
102
RTVSPropertyOp26
 70
     1
102
RTVSPropertyOp27
 70
     1
102
RTVSPropertyOp28
 70
     1
102
RTVSPropertyOp29
 70
     1
102
RTVSPropertyOp30
 70
     1
102
RTVSPropertyOp31
 70
     1
102
RTVSPropertyOp32
 70
     1
  0
XRECORD
  5
485
102
{ACAD_REACTORS
330
484
102
}
330
484
100
AcDbXrecord
280
     1
102
RTVSPropertyOp0
 70
     1
102
RTVSPropertyOp1
 70
     1
102
RTVSPropertyOp2
 70
     1
102
RTVSPropertyOp3
 70
     1
102
RTVSPropertyOp4
 70
     1
102
RTVSPropertyOp5
 70
     1
102
RTVSPropertyOp6
 70
     1
102
RTVSPropertyOp7
 70
     1
102
RTVSPropertyOp8
 70
     1
102
RTVSPropertyOp9
 70
     1
102
RTVSPropertyOp10
 70
     1
102
RTVSPropertyOp11
 70
     1
102
RTVSPropertyOp12
 70
     1
102
RTVSPropertyOp13
 70
     1
102
RTVSPropertyOp14
 70
     1
102
RTVSPropertyOp15
 70
     1
102
RTVSPropertyOp16
 70
     1
102
RTVSPropertyOp17
 70
     1
102
RTVSPropertyOp18
 70
     1
102
RTVSPropertyOp19
 70
     1
102
RTVSPropertyOp20
 70
     1
102
RTVSPropertyOp21
 70
     1
102
RTVSPropertyOp22
 70
     1
102
RTVSPropertyOp23
 70
     1
102
RTVSPropertyOp24
 70
     1
102
RTVSPropertyOp25
 70
     1
102
RTVSPropertyOp26
 70
     1
102
RTVSPropertyOp27
 70
     1
102
RTVSPropertyOp28
 70
     1
102
RTVSPropertyOp29
 70
     1
102
RTVSPropertyOp30
 70
     1
102
RTVSPropertyOp31
 70
     1
102
RTVSPropertyOp32
 70
     1
  0
XRECORD
  5
47B
102
{ACAD_REACTORS
330
47A
102
}
330
47A
100
AcDbXrecord
280
     1
102
RTVSPropertyOp0
 70
     1
102
RTVSPropertyOp1
 70
     1
102
RTVSPropertyOp2
 70
     1
102
RTVSPropertyOp3
 70
     1
102
RTVSPropertyOp4
 70
     1
102
RTVSPropertyOp5
 70
     1
102
RTVSPropertyOp6
 70
     1
102
RTVSPropertyOp7
 70
     1
102
RTVSPropertyOp8
 70
     1
102
RTVSPropertyOp9
 70
     1
102
RTVSPropertyOp10
 70
     1
102
RTVSPropertyOp11
 70
     1
102
RTVSPropertyOp12
 70
     1
102
RTVSPropertyOp13
 70
     1
102
RTVSPropertyOp14
 70
     1
102
RTVSPropertyOp15
 70
     1
102
RTVSPropertyOp16
 70
     1
102
RTVSPropertyOp17
 70
     1
102
RTVSPropertyOp18
 70
     1
102
RTVSPropertyOp19
 70
     1
102
RTVSPropertyOp20
 70
     1
102
RTVSPropertyOp21
 70
     1
102
RTVSPropertyOp22
 70
     1
102
RTVSPropertyOp23
 70
     1
102
RTVSPropertyOp24
 70
     1
102
RTVSPropertyOp25
 70
     1
102
RTVSPropertyOp26
 70
     1
102
RTVSPropertyOp27
 70
     1
102
RTVSPropertyOp28
 70
     1
102
RTVSPropertyOp29
 70
     1
102
RTVSPropertyOp30
 70
     1
102
RTVSPropertyOp31
 70
     1
102
RTVSPropertyOp32
 70
     1
  0
XRECORD
  5
483
102
{ACAD_REACTORS
330
482
102
}
330
482
100
AcDbXrecord
280
     1
102
RTVSPropertyOp0
 70
     1
102
RTVSPropertyOp1
 70
     1
102
RTVSPropertyOp2
 70
     1
102
RTVSPropertyOp3
 70
     1
102
RTVSPropertyOp4
 70
     1
102
RTVSPropertyOp5
 70
     1
102
RTVSPropertyOp6
 70
     1
102
RTVSPropertyOp7
 70
     1
102
RTVSPropertyOp8
 70
     1
102
RTVSPropertyOp9
 70
     1
102
RTVSPropertyOp10
 70
     1
102
RTVSPropertyOp11
 70
     1
102
RTVSPropertyOp12
 70
     1
102
RTVSPropertyOp13
 70
     1
102
RTVSPropertyOp14
 70
     1
102
RTVSPropertyOp15
 70
     1
102
RTVSPropertyOp16
 70
     1
102
RTVSPropertyOp17
 70
     1
102
RTVSPropertyOp18
 70
     1
102
RTVSPropertyOp19
 70
     1
102
RTVSPropertyOp20
 70
     1
102
RTVSPropertyOp21
 70
     1
102
RTVSPropertyOp22
 70
     1
102
RTVSPropertyOp23
 70
     1
102
RTVSPropertyOp24
 70
     1
102
RTVSPropertyOp25
 70
     1
102
RTVSPropertyOp26
 70
     1
102
RTVSPropertyOp27
 70
     1
102
RTVSPropertyOp28
 70
     1
102
RTVSPropertyOp29
 70
     1
102
RTVSPropertyOp30
 70
     1
102
RTVSPropertyOp31
 70
     1
102
RTVSPropertyOp32
 70
     1
  0
ENDSEC
  0
EOF
