  0
SECTION
  2
HEADER
  9
$ACADVER
  1
AC1015
  9
$ACADMAINTVER
 70
     6
  9
$DWGCODEPAGE
  3
DOS932
  9
$INSBASE
 10
0.0
 20
0.0
 30
0.0
  9
$EXTMIN
 10
0.0
 20
0.0
 30
0.0
  9
$EXTMAX
 10
315.0
 20
445.5
 30
0.0
  9
$LIMMIN
 10
0.0
 20
0.0
  9
$LIMMAX
 10
12.0
 20
9.0
  9
$ORTHOMODE
 70
     0
  9
$REGENMODE
 70
     1
  9
$FILLMODE
 70
     1
  9
$QTEXTMODE
 70
     0
  9
$MIRRTEXT
 70
     1
  9
$LTSCALE
 40
1.0
  9
$ATTMODE
 70
     1
  9
$TEXTSIZE
 40
0.2
  9
$TRACEWID
 40
0.05
  9
$TEXTSTYLE
  7
Standard
  9
$CLAYER
  8
0
  9
$CELTYPE
  6
ByLayer
  9
$CECOLOR
 62
   256
  9
$CELTSCALE
 40
1.0
  9
$DISPSILH
 70
     0
  9
$DIMSCALE
 40
1.0
  9
$DIMASZ
 40
0.18
  9
$DIMEXO
 40
0.0625
  9
$DIMDLI
 40
0.38
  9
$DIMRND
 40
0.0
  9
$DIMDLE
 40
0.0
  9
$DIMEXE
 40
0.18
  9
$DIMTP
 40
0.0
  9
$DIMTM
 40
0.0
  9
$DIMTXT
 40
0.18
  9
$DIMCEN
 40
0.09
  9
$DIMTSZ
 40
0.0
  9
$DIMTOL
 70
     0
  9
$DIMLIM
 70
     0
  9
$DIMTIH
 70
     1
  9
$DIMTOH
 70
     1
  9
$DIMSE1
 70
     0
  9
$DIMSE2
 70
     0
  9
$DIMTAD
 70
     0
  9
$DIMZIN
 70
     0
  9
$DIMBLK
  1

  9
$DIMASO
 70
     1
  9
$DIMSHO
 70
     1
  9
$DIMPOST
  1

  9
$DIMAPOST
  1

  9
$DIMALT
 70
     0
  9
$DIMALTD
 70
     2
  9
$DIMALTF
 40
25.4
  9
$DIMLFAC
 40
1.0
  9
$DIMTOFL
 70
     0
  9
$DIMTVP
 40
0.0
  9
$DIMTIX
 70
     0
  9
$DIMSOXD
 70
     0
  9
$DIMSAH
 70
     0
  9
$DIMBLK1
  1

  9
$DIMBLK2
  1

  9
$DIMSTYLE
  2
Standard
  9
$DIMCLRD
 70
     0
  9
$DIMCLRE
 70
     0
  9
$DIMCLRT
 70
     0
  9
$DIMTFAC
 40
1.0
  9
$DIMGAP
 40
0.09
  9
$DIMJUST
 70
     0
  9
$DIMSD1
 70
     0
  9
$DIMSD2
 70
     0
  9
$DIMTOLJ
 70
     1
  9
$DIMTZIN
 70
     0
  9
$DIMALTZ
 70
     0
  9
$DIMALTTZ
 70
     0
  9
$DIMUPT
 70
     0
  9
$DIMDEC
 70
     4
  9
$DIMTDEC
 70
     4
  9
$DIMALTU
 70
     2
  9
$DIMALTTD
 70
     2
  9
$DIMTXSTY
  7
Standard
  9
$DIMAUNIT
 70
     0
  9
$DIMADEC
 70
     0
  9
$DIMALTRND
 40
0.0
  9
$DIMAZIN
 70
     0
  9
$DIMDSEP
 70
    46
  9
$DIMATFIT
 70
     3
  9
$DIMFRAC
 70
     0
  9
$DIMLDRBLK
  1

  9
$DIMLUNIT
 70
     2
  9
$DIMLWD
 70
    -2
  9
$DIMLWE
 70
    -2
  9
$DIMTMOVE
 70
     0
  9
$LUNITS
 70
     2
  9
$LUPREC
 70
     4
  9
$SKETCHINC
 40
0.1
  9
$FILLETRAD
 40
0.5
  9
$AUNITS
 70
     0
  9
$AUPREC
 70
     0
  9
$MENU
  1
.
  9
$ELEVATION
 40
0.0
  9
$PELEVATION
 40
0.0
  9
$THICKNESS
 40
0.0
  9
$LIMCHECK
 70
     0
  9
$CHAMFERA
 40
0.5
  9
$CHAMFERB
 40
0.5
  9
$CHAMFERC
 40
1.0
  9
$CHAMFERD
 40
0.0
  9
$SKPOLY
 70
     0
  9
$TDCREATE
 40
2456143.679712998
  9
$TDUCREATE
 40
2456143.304712998
  9
$TDUPDATE
 40
2456143.679713009
  9
$TDUUPDATE
 40
2456143.304713009
  9
$TDINDWG
 40
0.0000000116
  9
$TDUSRTIMER
 40
0.0000000116
  9
$USRTIMER
 70
     1
  9
$ANGBASE
 50
0.0
  9
$ANGDIR
 70
     0
  9
$PDMODE
 70
     0
  9
$PDSIZE
 40
0.0
  9
$PLINEWID
 40
0.0
  9
$SPLFRAME
 70
     0
  9
$SPLINETYPE
 70
     6
  9
$SPLINESEGS
 70
     8
  9
$HANDSEED
  5
28E
  9
$SURFTAB1
 70
     6
  9
$SURFTAB2
 70
     6
  9
$SURFTYPE
 70
     6
  9
$SURFU
 70
     6
  9
$SURFV
 70
     6
  9
$UCSBASE
  2

  9
$UCSNAME
  2

  9
$UCSORG
 10
0.0
 20
0.0
 30
0.0
  9
$UCSXDIR
 10
1.0
 20
0.0
 30
0.0
  9
$UCSYDIR
 10
0.0
 20
1.0
 30
0.0
  9
$UCSORTHOREF
  2

  9
$UCSORTHOVIEW
 70
     0
  9
$UCSORGTOP
 10
0.0
 20
0.0
 30
0.0
  9
$UCSORGBOTTOM
 10
0.0
 20
0.0
 30
0.0
  9
$UCSORGLEFT
 10
0.0
 20
0.0
 30
0.0
  9
$UCSORGRIGHT
 10
0.0
 20
0.0
 30
0.0
  9
$UCSORGFRONT
 10
0.0
 20
0.0
 30
0.0
  9
$UCSORGBACK
 10
0.0
 20
0.0
 30
0.0
  9
$PUCSBASE
  2

  9
$PUCSNAME
  2

  9
$PUCSORG
 10
0.0
 20
0.0
 30
0.0
  9
$PUCSXDIR
 10
1.0
 20
0.0
 30
0.0
  9
$PUCSYDIR
 10
0.0
 20
1.0
 30
0.0
  9
$PUCSORTHOREF
  2

  9
$PUCSORTHOVIEW
 70
     0
  9
$PUCSORGTOP
 10
0.0
 20
0.0
 30
0.0
  9
$PUCSORGBOTTOM
 10
0.0
 20
0.0
 30
0.0
  9
$PUCSORGLEFT
 10
0.0
 20
0.0
 30
0.0
  9
$PUCSORGRIGHT
 10
0.0
 20
0.0
 30
0.0
  9
$PUCSORGFRONT
 10
0.0
 20
0.0
 30
0.0
  9
$PUCSORGBACK
 10
0.0
 20
0.0
 30
0.0
  9
$USERI1
 70
     0
  9
$USERI2
 70
     0
  9
$USERI3
 70
     0
  9
$USERI4
 70
     0
  9
$USERI5
 70
     0
  9
$USERR1
 40
13.2
  9
$USERR2
 40
0.0
  9
$USERR3
 40
0.0
  9
$USERR4
 40
0.0
  9
$USERR5
 40
0.0
  9
$WORLDVIEW
 70
     1
  9
$SHADEDGE
 70
     3
  9
$SHADEDIF
 70
    70
  9
$TILEMODE
 70
     1
  9
$MAXACTVP
 70
    64
  9
$PINSBASE
 10
0.0
 20
0.0
 30
0.0
  9
$PLIMCHECK
 70
     0
  9
$PEXTMIN
 10
1.00000000000000E+20
 20
1.00000000000000E+20
 30
1.00000000000000E+20
  9
$PEXTMAX
 10
-1.00000000000000E+20
 20
-1.00000000000000E+20
 30
-1.00000000000000E+20
  9
$PLIMMIN
 10
0.0
 20
0.0
  9
$PLIMMAX
 10
12.0
 20
9.0
  9
$UNITMODE
 70
     0
  9
$VISRETAIN
 70
     1
  9
$PLINEGEN
 70
     0
  9
$PSLTSCALE
 70
     1
  9
$TREEDEPTH
 70
  3020
  9
$CMLSTYLE
  2
Standard
  9
$CMLJUST
 70
     0
  9
$CMLSCALE
 40
1.0
  9
$PROXYGRAPHICS
 70
     1
  9
$MEASUREMENT
 70
     1
  9
$CELWEIGHT
370
    -1
  9
$ENDCAPS
280
     0
  9
$JOINSTYLE
280
     0
  9
$LWDISPLAY
290
     0
  9
$INSUNITS
 70
     1
  9
$HYPERLINKBASE
  1

  9
$STYLESHEET
  1

  9
$XEDIT
290
     1
  9
$CEPSNTYPE
380
     0
  9
$PSTYLEMODE
290
     0
  9
$FINGERPRINTGUID
  2
{FAEB1C30-E019-11D5-929B-00C0DF256EC4}
  9
$VERSIONGUID
  2
{FAEB1C32-E019-11D5-929B-00C0DF256EC4}
  9
$EXTNAMES
290
     1
  9
$PSVPSCALE
 40
0.0
  9
$OLESTARTUP
290
     0
  0
ENDSEC
  0
SECTION
  2
CLASSES
  0
CLASS
  1
ACDBDICTIONARYWDFLT
  2
AcDbDictionaryWithDefault
  3
ObjectDBX Classes
 90
        0
280
     0
281
     0
  0
CLASS
  1
TABLESTYLE
  2
AcDbTableStyle
  3
ObjectDBX Classes
 90
     2047
280
     0
281
     0
  0
CLASS
  1
DICTIONARYVAR
  2
AcDbDictionaryVar
  3
ObjectDBX Classes
 90
        0
280
     0
281
     0
  0
CLASS
  1

  2
exOdDbCircle
  3

 90
        0
280
     0
281
     1
  0
CLASS
  1

  2
exOdDbSpline
  3

 90
        0
280
     0
281
     1
  0
CLASS
  1
ACDBPLACEHOLDER
  2
AcDbPlaceHolder
  3
ObjectDBX Classes
 90
        0
280
     0
281
     0
  0
CLASS
  1
LAYOUT
  2
AcDbLayout
  3
ObjectDBX Classes
 90
        0
280
     0
281
     0
  0
ENDSEC
  0
SECTION
  2
TABLES
  0
TABLE
  2
VPORT
  5
8
330
0
100
AcDbSymbolTable
 70
     2
  0
VPORT
  5
29
330
8
100
AcDbSymbolTableRecord
100
AcDbViewportTableRecord
  2
*Active
 70
     0
 10
0.0
 20
0.0
 11
1.0
 21
1.0
 12
157.5
 22
222.75
 13
0.0
 23
0.0
 14
0.5
 24
0.5
 15
0.5
 25
0.5
 16
0.0
 26
0.0
 36
1.0
 17
0.0
 27
0.0
 37
0.0
 40
490.05
 41
1.60267857142857
 42
50.0
 43
0.0
 44
0.0
 50
0.0
 51
0.0
 71
     0
 72
   100
 73
     1
 74
     3
 75
     0
 76
     0
 77
     0
 78
     0
281
     0
 65
     1
110
0.0
120
0.0
130
0.0
111
1.0
121
0.0
131
0.0
112
0.0
122
1.0
132
0.0
 79
     0
146
0.0
  0
ENDTAB
  0
TABLE
  2
LTYPE
  5
5
330
0
100
AcDbSymbolTable
 70
     8
  0
LTYPE
  5
14
330
5
100
AcDbSymbolTableRecord
100
AcDbLinetypeTableRecord
  2
ByBlock
 70
     0
  3

 72
    65
 73
     0
 40
0.0
  0
LTYPE
  5
15
330
5
100
AcDbSymbolTableRecord
100
AcDbLinetypeTableRecord
  2
ByLayer
 70
     0
  3

 72
    65
 73
     0
 40
0.0
  0
LTYPE
  5
16
330
5
100
AcDbSymbolTableRecord
100
AcDbLinetypeTableRecord
  2
Continuous
 70
     0
  3
Solid line
 72
    65
 73
     0
 40
0.0
  0
LTYPE
  5
2E
330
5
100
AcDbSymbolTableRecord
100
AcDbLinetypeTableRecord
  2
DASHED
 70
     0
  3
Dashed
 72
    65
 73
     2
 40
15.0
 49
7.0
 74
     0
 49
-8.0
 74
     0
  0
LTYPE
  5
2F
330
5
100
AcDbSymbolTableRecord
100
AcDbLinetypeTableRecord
  2
DOTTED
 70
     0
  3
Dotted
 72
    65
 73
     2
 40
1.0
 49
0.0
 74
     0
 49
-1.0
 74
     0
  0
LTYPE
  5
30
330
5
100
AcDbSymbolTableRecord
100
AcDbLinetypeTableRecord
  2
DOT_CENTER
 70
     0
  3
Dot_Center
 72
    65
 73
     4
 40
14.0
 49
12.0
 74
     0
 49
-1.0
 74
     0
 49
0.0
 74
     0
 49
-1.0
 74
     0
  0
LTYPE
  5
31
330
5
100
AcDbSymbolTableRecord
100
AcDbLinetypeTableRecord
  2
LONG_DASHED
 70
     0
  3
Long_Dashed
 72
    65
 73
     2
 40
15.0
 49
10.0
 74
     0
 49
-5.0
 74
     0
  0
LTYPE
  5
32
330
5
100
AcDbSymbolTableRecord
100
AcDbLinetypeTableRecord
  2
DASH_CENTER
 70
     0
  3
Dash_Center
 72
    65
 73
     4
 40
14.0
 49
11.0
 74
     0
 49
-1.0
 74
     0
 49
1.0
 74
     0
 49
-1.0
 74
     0
  0
LTYPE
  5
33
330
5
100
AcDbSymbolTableRecord
100
AcDbLinetypeTableRecord
  2
PHANTOM
 70
     0
  3
Phantom
 72
    65
 73
     6
 40
13.0
 49
10.0
 74
     0
 49
-1.0
 74
     0
 49
0.0
 74
     0
 49
-1.0
 74
     0
 49
0.0
 74
     0
 49
-1.0
 74
     0
  0
LTYPE
  5
34
330
5
100
AcDbSymbolTableRecord
100
AcDbLinetypeTableRecord
  2
CENTER_DASH_DASH
 70
     0
  3
Center_Dash_Dash
 72
    65
 73
     6
 40
14.0
 49
9.0
 74
     0
 49
-1.0
 74
     0
 49
1.0
 74
     0
 49
-1.0
 74
     0
 49
1.0
 74
     0
 49
-1.0
 74
     0
  0
ENDTAB
  0
TABLE
  2
LAYER
  5
2
330
0
100
AcDbSymbolTable
 70
     2
  0
LAYER
  5
10
330
2
100
AcDbSymbolTableRecord
100
AcDbLayerTableRecord
  2
0
 70
     0
 62
     7
  6
Continuous
370
    -3
390
F
  0
LAYER
  5
35
330
2
100
AcDbSymbolTableRecord
100
AcDbLayerTableRecord
  2
1
 70
     0
 62
     7
  6
Continuous
370
    -3
390
F
  0
ENDTAB
  0
TABLE
  2
STYLE
  5
3
330
0
100
AcDbSymbolTable
 70
     3
  0
STYLE
  5
11
330
3
100
AcDbSymbolTableRecord
100
AcDbTextStyleTableRecord
  2
Standard
 70
     0
 40
0.0
 41
1.0
 50
0.0
 71
     0
 42
0.2
  3
txt
  4

  0
STYLE
  5
A1
330
3
100
AcDbSymbolTableRecord
100
AcDbTextStyleTableRecord
  2
CONVERTER_1
 70
     0
 40
0.0
 41
0.89
 50
0.0
 71
     0
 42
0.2
  3
msmincho.ttc
  4

1001
ACAD
1000
MS Mincho
1071
    32785
  0
STYLE
  5
24F
330
3
100
AcDbSymbolTableRecord
100
AcDbTextStyleTableRecord
  2
CONVERTER_2
 70
     0
 40
0.0
 41
0.9
 50
0.0
 71
     0
 42
0.2
  3
txt.shx
  4

  0
ENDTAB
  0
TABLE
  2
VIEW
  5
6
330
0
100
AcDbSymbolTable
 70
     0
  0
ENDTAB
  0
TABLE
  2
UCS
  5
7
330
0
100
AcDbSymbolTable
 70
     0
  0
ENDTAB
  0
TABLE
  2
APPID
  5
9
330
0
100
AcDbSymbolTable
 70
     1
  0
APPID
  5
12
330
9
100
AcDbSymbolTableRecord
100
AcDbRegAppTableRecord
  2
ACAD
 70
     0
  0
ENDTAB
  0
TABLE
  2
DIMSTYLE
  5
A
330
0
100
AcDbSymbolTable
 70
     6
100
AcDbDimStyleTable
  0
DIMSTYLE
105
27
330
A
100
AcDbSymbolTableRecord
100
AcDbDimStyleTableRecord
  2
Standard
 70
     0
340
11
  0
DIMSTYLE
105
260
102
{ACAD_REACTORS
330
261
102
}
330
A
100
AcDbSymbolTableRecord
100
AcDbDimStyleTableRecord
  2
ME10_DIM_0
 70
     0
 41
5.25
 42
0.0
 44
1.5
 73
     0
 74
     0
 77
     1
 78
     8
140
5.25
147
0.625
172
     1
173
     1
176
     2
177
     2
178
     7
271
     2
340
24F
  0
DIMSTYLE
105
26B
102
{ACAD_REACTORS
330
26C
102
}
330
A
100
AcDbSymbolTableRecord
100
AcDbDimStyleTableRecord
  2
ME10_DIM_1
 70
     0
 41
5.25
 42
0.0
 44
1.5
 73
     0
 74
     0
 77
     1
 78
     8
140
5.25
147
0.625
172
     1
173
     1
176
     2
177
     2
178
     7
271
     0
340
24F
  0
DIMSTYLE
105
276
102
{ACAD_REACTORS
330
277
102
}
330
A
100
AcDbSymbolTableRecord
100
AcDbDimStyleTableRecord
  2
ME10_DIM_2
 70
     0
  3
{\Fgdt;n}<>
 41
5.25
 42
0.0
 44
1.5
 73
     0
 74
     0
 77
     1
 78
     8
140
5.25
147
0.625
172
     1
173
     1
176
     2
177
     2
178
     7
271
     2
340
24F
  0
DIMSTYLE
105
281
102
{ACAD_REACTORS
330
282
102
}
330
A
100
AcDbSymbolTableRecord
100
AcDbDimStyleTableRecord
  2
ME10_DIM_3
 70
     0
 41
5.25
 42
0.0
 44
1.5
 73
     0
 74
     0
 77
     1
 78
     8
140
5.25
147
0.625
172
     1
173
     1
176
     2
177
     2
178
     7
271
     0
340
24F
  0
DIMSTYLE
105
28C
102
{ACAD_REACTORS
330
28D
102
}
330
A
100
AcDbSymbolTableRecord
100
AcDbDimStyleTableRecord
  2
ME10_DIM_4
 70
     0
 41
5.25
 42
0.0
 44
1.5
 73
     0
 74
     0
 77
     1
 78
     8
140
5.25
147
0.625
172
     1
173
     1
176
     2
177
     2
178
     7
271
     2
340
24F
  0
ENDTAB
  0
TABLE
  2
BLOCK_RECORD
  5
1
330
0
100
AcDbSymbolTable
 70
    14
  0
BLOCK_RECORD
  5
1F
330
1
100
AcDbSymbolTableRecord
100
AcDbBlockTableRecord
  2
*Model_Space
340
22
  0
BLOCK_RECORD
  5
1B
330
1
100
AcDbSymbolTableRecord
100
AcDbBlockTableRecord
  2
*Paper_Space
340
1E
  0
BLOCK_RECORD
  5
23
330
1
100
AcDbSymbolTableRecord
100
AcDbBlockTableRecord
  2
*Paper_Space0
340
26
  0
BLOCK_RECORD
  5
36
330
1
100
AcDbSymbolTableRecord
100
AcDbBlockTableRecord
  2
_J__A4
340
0
102
{BLKREFS
331
4E
102
}
  0
BLOCK_RECORD
  5
39
330
1
100
AcDbSymbolTableRecord
100
AcDbBlockTableRecord
  2
38-12A
340
0
102
{BLKREFS
331
4F
102
}
  0
BLOCK_RECORD
  5
3C
330
1
100
AcDbSymbolTableRecord
100
AcDbBlockTableRecord
  2
Y26-0
340
0
102
{BLKREFS
331
50
102
}
  0
BLOCK_RECORD
  5
3F
330
1
100
AcDbSymbolTableRecord
100
AcDbBlockTableRecord
  2
11-3
340
0
102
{BLKREFS
331
51
102
}
  0
BLOCK_RECORD
  5
42
330
1
100
AcDbSymbolTableRecord
100
AcDbBlockTableRecord
  2
72-47
340
0
102
{BLKREFS
331
52
102
}
  0
BLOCK_RECORD
  5
45
330
1
100
AcDbSymbolTableRecord
100
AcDbBlockTableRecord
  2
34-10-B
340
0
102
{BLKREFS
331
53
102
}
  0
BLOCK_RECORD
  5
48
330
1
100
AcDbSymbolTableRecord
100
AcDbBlockTableRecord
  2
32-5
340
0
102
{BLKREFS
331
54
102
}
  0
BLOCK_RECORD
  5
4B
330
1
100
AcDbSymbolTableRecord
100
AcDbBlockTableRecord
  2
34-10
340
0
102
{BLKREFS
331
55
102
}
  0
BLOCK_RECORD
  5
255
330
1
100
AcDbSymbolTableRecord
100
AcDbBlockTableRecord
  2
*D09
340
0
  0
BLOCK_RECORD
  5
262
330
1
100
AcDbSymbolTableRecord
100
AcDbBlockTableRecord
  2
*D110
340
0
  0
BLOCK_RECORD
  5
26D
330
1
100
AcDbSymbolTableRecord
100
AcDbBlockTableRecord
  2
*D211
340
0
  0
BLOCK_RECORD
  5
278
330
1
100
AcDbSymbolTableRecord
100
AcDbBlockTableRecord
  2
*D312
340
0
  0
BLOCK_RECORD
  5
283
330
1
100
AcDbSymbolTableRecord
100
AcDbBlockTableRecord
  2
*D413
340
0
  0
ENDTAB
  0
ENDSEC
  0
SECTION
  2
BLOCKS
  0
BLOCK
  5
20
330
1F
100
AcDbEntity
  8
0
100
AcDbBlockBegin
  2
*Model_Space
 70
     0
 71
     0
 10
0.0
 20
0.0
 30
0.0
  3
*Model_Space
  1

  0
ENDBLK
  5
21
330
1F
100
AcDbEntity
  8
0
100
AcDbBlockEnd
  0
BLOCK
  5
1C
330
1B
100
AcDbEntity
 67
     1
  8
0
100
AcDbBlockBegin
  2
*Paper_Space
 70
     0
 71
     0
 10
0.0
 20
0.0
 30
0.0
  3
*Paper_Space
  1

  0
ENDBLK
  5
1D
330
1B
100
AcDbEntity
 67
     1
  8
0
100
AcDbBlockEnd
  0
BLOCK
  5
24
330
23
100
AcDbEntity
  8
0
100
AcDbBlockBegin
  2
*Paper_Space0
 70
     0
 71
     0
 10
0.0
 20
0.0
 30
0.0
  3
*Paper_Space0
  1

  0
ENDBLK
  5
25
330
23
100
AcDbEntity
  8
0
100
AcDbBlockEnd
  0
BLOCK
  5
37
330
36
100
AcDbEntity
  8
0
100
AcDbBlockBegin
  2
_J__A4
 70
     0
 71
     0
 10
0.0
 20
0.0
 30
0.0
  3
_J__A4
  1

  0
POINT
  5
56
330
36
100
AcDbEntity
  8
1
 62
     4
100
AcDbPoint
 10
34.0
 20
34.00000000000001
 30
0.0
  0
POINT
  5
57
330
36
100
AcDbEntity
  8
1
 62
     4
100
AcDbPoint
 10
57.0
 20
12.25
 30
0.0
  0
POINT
  5
58
330
36
100
AcDbEntity
  8
1
 62
     4
100
AcDbPoint
 10
57.0
 20
20.75000000000001
 30
0.0
  0
POINT
  5
59
330
36
100
AcDbEntity
  8
1
 62
     4
100
AcDbPoint
 10
57.0
 20
24.75000000000001
 30
0.0
  0
POINT
  5
5A
330
36
100
AcDbEntity
  8
1
 62
     4
100
AcDbPoint
 10
57.0
 20
16.25
 30
0.0
  0
POINT
  5
5B
330
36
100
AcDbEntity
  8
1
 62
     4
100
AcDbPoint
 10
157.5
 20
19.00000000000001
 30
0.0
  0
POINT
  5
5C
330
36
100
AcDbEntity
  8
1
 62
     4
100
AcDbPoint
 10
47.5
 20
282.0000000000003
 30
0.0
  0
POINT
  5
5D
330
36
100
AcDbEntity
  8
1
 62
     4
100
AcDbPoint
 10
57.0
 20
22.75000000000001
 30
0.0
  0
POINT
  5
5E
330
36
100
AcDbEntity
  8
1
 62
     4
100
AcDbPoint
 10
57.0
 20
14.25
 30
0.0
  0
POINT
  5
5F
330
36
100
AcDbEntity
  8
1
 62
     4
100
AcDbPoint
 10
157.5
 20
12.5
 30
0.0
  0
POINT
  5
60
330
36
100
AcDbEntity
  8
1
 62
     4
100
AcDbPoint
 10
163.25
 20
12.5
 30
0.0
  0
POINT
  5
61
330
36
100
AcDbEntity
  8
1
 62
     4
100
AcDbPoint
 10
151.75
 20
12.5
 30
0.0
  0
POINT
  5
62
330
36
100
AcDbEntity
  8
1
 62
     4
100
AcDbPoint
 10
134.75
 20
12.5
 30
0.0
  0
POINT
  5
63
330
36
100
AcDbEntity
  8
1
 62
     4
100
AcDbPoint
 10
146.25
 20
12.5
 30
0.0
  0
POINT
  5
64
330
36
100
AcDbEntity
  8
1
 62
     4
100
AcDbPoint
 10
140.5
 20
12.5
 30
0.0
  0
POINT
  5
65
330
36
100
AcDbEntity
  8
1
 62
     4
100
AcDbPoint
 10
140.5
 20
19.00000000000001
 30
0.0
  0
POINT
  5
66
330
36
100
AcDbEntity
  8
1
 62
     4
100
AcDbPoint
 10
117.75
 20
12.5
 30
0.0
  0
POINT
  5
67
330
36
100
AcDbEntity
  8
1
 62
     4
100
AcDbPoint
 10
129.25
 20
12.5
 30
0.0
  0
POINT
  5
68
330
36
100
AcDbEntity
  8
1
 62
     4
100
AcDbPoint
 10
123.5
 20
12.5
 30
0.0
  0
POINT
  5
69
330
36
100
AcDbEntity
  8
1
 62
     4
100
AcDbPoint
 10
123.5
 20
19.00000000000001
 30
0.0
  0
POINT
  5
6A
330
36
100
AcDbEntity
  8
1
 62
     4
100
AcDbPoint
 10
100.75
 20
12.5
 30
0.0
  0
POINT
  5
6B
330
36
100
AcDbEntity
  8
1
 62
     4
100
AcDbPoint
 10
112.25
 20
12.5
 30
0.0
  0
POINT
  5
6C
330
36
100
AcDbEntity
  8
1
 62
     4
100
AcDbPoint
 10
106.5
 20
12.5
 30
0.0
  0
POINT
  5
6D
330
36
100
AcDbEntity
  8
1
 62
     4
100
AcDbPoint
 10
106.5
 20
19.00000000000001
 30
0.0
  0
POINT
  5
6E
330
36
100
AcDbEntity
  8
1
 62
     4
100
AcDbPoint
 10
85.25
 20
17.0
 30
0.0
  0
POINT
  5
6F
330
36
100
AcDbEntity
  8
1
 62
     4
100
AcDbPoint
 10
93.75
 20
17.0
 30
0.0
  0
LINE
  5
70
330
36
100
AcDbEntity
  8
1
  6
Continuous
 62
     2
100
AcDbLine
 10
81.0
 20
27.00000000000001
 30
0.0
 11
81.0
 21
10.0
 31
0.0
  0
LINE
  5
71
330
36
100
AcDbEntity
  8
1
  6
DOT_CENTER
 62
     2
100
AcDbLine
 10
187.0
 20
26.50000000000001
 30
0.0
 11
187.0
 21
20.50000000000001
 31
0.0
  0
LINE
  5
72
330
36
100
AcDbEntity
  8
1
  6
DOT_CENTER
 62
     2
100
AcDbLine
 10
184.0
 20
23.50000000000001
 30
0.0
 11
197.0
 21
23.50000000000001
 31
0.0
  0
LINE
  5
73
330
36
100
AcDbEntity
  8
1
  6
Continuous
 62
     7
100
AcDbLine
 10
196.0
 20
21.50000000000001
 30
0.0
 11
191.0
 21
22.30000000000001
 31
0.0
  0
LINE
  5
74
330
36
100
AcDbEntity
  8
1
  6
Continuous
 62
     7
100
AcDbLine
 10
196.0
 20
25.50000000000001
 30
0.0
 11
196.0
 21
21.50000000000001
 31
0.0
  0
LINE
  5
75
330
36
100
AcDbEntity
  8
1
  6
Continuous
 62
     7
100
AcDbLine
 10
191.0
 20
24.70000000000001
 30
0.0
 11
196.0
 21
25.50000000000001
 31
0.0
  0
LINE
  5
76
330
36
100
AcDbEntity
  8
1
  6
Continuous
 62
     7
100
AcDbLine
 10
191.0
 20
24.70000000000001
 30
0.0
 11
191.0
 21
22.30000000000001
 31
0.0
  0
LINE
  5
77
330
36
100
AcDbEntity
  8
1
  6
Continuous
 62
     2
100
AcDbLine
 10
33.0
 20
27.0
 30
0.0
 11
33.0
 21
10.0
 31
0.0
  0
LINE
  5
78
330
36
100
AcDbEntity
  8
1
  6
Continuous
 62
     2
100
AcDbLine
 10
25.0
 20
18.50000000000001
 30
0.0
 11
81.0
 21
18.50000000000001
 31
0.0
  0
LINE
  5
79
330
36
100
AcDbEntity
  8
1
  6
Continuous
 62
     7
100
AcDbLine
 10
200.0
 20
287.0000000000003
 30
0.0
 11
105.0
 21
287.0000000000003
 31
0.0
  0
LINE
  5
7A
330
36
100
AcDbEntity
  8
1
  6
Continuous
 62
     7
100
AcDbLine
 10
200.0
 20
10.0
 30
0.0
 11
200.0
 21
148.5
 31
0.0
  0
LINE
  5
7B
330
36
100
AcDbEntity
  8
1
  6
Continuous
 62
     7
100
AcDbLine
 10
25.0
 20
10.0
 30
0.0
 11
105.0
 21
10.0
 31
0.0
  0
LINE
  5
7C
330
36
100
AcDbEntity
  8
1
  6
PHANTOM
 62
     4
100
AcDbLine
 10
0.0
 20
297.0
 30
0.0
 11
0.0
 21
0.0
 31
0.0
  0
LINE
  5
7D
330
36
100
AcDbEntity
  8
1
  6
PHANTOM
 62
     4
100
AcDbLine
 10
210.0
 20
297.0
 30
0.0
 11
0.0
 21
297.0
 31
0.0
  0
LINE
  5
7E
330
36
100
AcDbEntity
  8
1
  6
PHANTOM
 62
     4
100
AcDbLine
 10
210.0
 20
0.0
 30
0.0
 11
210.0
 21
297.0
 31
0.0
  0
LINE
  5
7F
330
36
100
AcDbEntity
  8
1
  6
PHANTOM
 62
     4
100
AcDbLine
 10
0.0
 20
0.0
 30
0.0
 11
210.0
 21
0.0
 31
0.0
  0
LINE
  5
80
330
36
100
AcDbEntity
  8
1
  6
Continuous
 62
     7
100
AcDbLine
 10
25.0
 20
41.0
 30
0.0
 11
200.0
 21
41.0
 31
0.0
  0
LINE
  5
81
330
36
100
AcDbEntity
  8
1
  6
Continuous
 62
     7
100
AcDbLine
 10
200.0
 20
27.00000000000001
 30
0.0
 11
25.0
 21
27.00000000000001
 31
0.0
  0
LINE
  5
82
330
36
100
AcDbEntity
  8
1
  6
Continuous
 62
     2
100
AcDbLine
 10
33.0
 20
41.00000000000001
 30
0.0
 11
33.0
 21
27.0
 31
0.0
  0
LINE
  5
83
330
36
100
AcDbEntity
  8
1
  6
Continuous
 62
     2
100
AcDbLine
 10
55.0
 20
287.0000000000003
 30
0.0
 11
55.0
 21
277.0000000000003
 31
0.0
  0
LINE
  5
84
330
36
100
AcDbEntity
  8
1
  6
Continuous
 62
     2
100
AcDbLine
 10
40.0
 20
287.0000000000003
 30
0.0
 11
40.0
 21
277.0000000000003
 31
0.0
  0
LINE
  5
85
330
36
100
AcDbEntity
  8
1
  6
Continuous
 62
     7
100
AcDbLine
 10
25.0
 20
10.0
 30
0.0
 11
25.0
 21
148.5
 31
0.0
  0
LINE
  5
86
330
36
100
AcDbEntity
  8
1
  6
Continuous
 62
     2
100
AcDbLine
 10
55.0
 20
277.0000000000003
 30
0.0
 11
25.0
 21
277.0000000000003
 31
0.0
  0
LINE
  5
87
330
36
100
AcDbEntity
  8
1
  6
Continuous
 62
     2
100
AcDbLine
 10
166.0
 20
27.00000000000001
 30
0.0
 11
166.0
 21
10.0
 31
0.0
  0
LINE
  5
88
330
36
100
AcDbEntity
  8
1
  6
Continuous
 62
     2
100
AcDbLine
 10
132.0
 20
27.00000000000001
 30
0.0
 11
132.0
 21
9.99999999999999
 31
0.0
  0
LINE
  5
89
330
36
100
AcDbEntity
  8
1
  6
Continuous
 62
     2
100
AcDbLine
 10
149.0
 20
27.00000000000001
 30
0.0
 11
149.0
 21
10.0
 31
0.0
  0
LINE
  5
8A
330
36
100
AcDbEntity
  8
1
  6
Continuous
 62
     2
100
AcDbLine
 10
115.0
 20
27.00000000000001
 30
0.0
 11
115.0
 21
9.99999999999999
 31
0.0
  0
LINE
  5
8B
330
36
100
AcDbEntity
  8
1
  6
Continuous
 62
     2
100
AcDbLine
 10
98.0
 20
27.00000000000001
 30
0.0
 11
98.0
 21
9.99999999999999
 31
0.0
  0
LINE
  5
8C
330
36
100
AcDbEntity
  8
1
  6
Continuous
 62
     2
100
AcDbLine
 10
166.0
 20
20.00000000000001
 30
0.0
 11
200.0
 21
20.00000000000001
 31
0.0
  0
LINE
  5
8D
330
36
100
AcDbEntity
  8
1
  6
Continuous
 62
     2
100
AcDbLine
 10
105.0
 20
287.0000000000003
 30
0.0
 11
105.0
 21
292.0000000000003
 31
0.0
  0
LINE
  5
8E
330
36
100
AcDbEntity
  8
1
  6
Continuous
 62
     7
100
AcDbLine
 10
105.0
 20
287.0000000000003
 30
0.0
 11
25.0
 21
287.0000000000003
 31
0.0
  0
LINE
  5
8F
330
36
100
AcDbEntity
  8
1
  6
Continuous
 62
     2
100
AcDbLine
 10
25.0
 20
148.5
 30
0.0
 11
20.0
 21
148.5
 31
0.0
  0
LINE
  5
90
330
36
100
AcDbEntity
  8
1
  6
Continuous
 62
     7
100
AcDbLine
 10
25.0
 20
148.5
 30
0.0
 11
25.0
 21
287.0000000000003
 31
0.0
  0
LINE
  5
91
330
36
100
AcDbEntity
  8
1
  6
Continuous
 62
     2
100
AcDbLine
 10
200.0
 20
148.5
 30
0.0
 11
205.0
 21
148.5
 31
0.0
  0
LINE
  5
92
330
36
100
AcDbEntity
  8
1
  6
Continuous
 62
     7
100
AcDbLine
 10
200.0
 20
148.5
 30
0.0
 11
200.0
 21
287.0000000000003
 31
0.0
  0
LINE
  5
93
330
36
100
AcDbEntity
  8
1
  6
Continuous
 62
     2
100
AcDbLine
 10
105.0
 20
10.0
 30
0.0
 11
105.0
 21
5.0
 31
0.0
  0
LINE
  5
94
330
36
100
AcDbEntity
  8
1
  6
Continuous
 62
     7
100
AcDbLine
 10
105.0
 20
10.0
 30
0.0
 11
200.0
 21
10.0
 31
0.0
  0
CIRCLE
  5
95
330
36
100
AcDbEntity
  8
1
  6
DOT_CENTER
 62
     7
100
AcDbCircle
 10
89.5
 20
18.0
 30
0.0
 40
0.1000000000000227
  0
CIRCLE
  5
96
330
36
100
AcDbEntity
  8
1
  6
DOT_CENTER
 62
     7
100
AcDbCircle
 10
89.5
 20
16.0
 30
0.0
 40
0.1000000000000227
  0
CIRCLE
  5
97
330
36
100
AcDbEntity
  8
1
  6
Continuous
 62
     7
100
AcDbCircle
 10
187.0
 20
23.50000000000001
 30
0.0
 40
2.0
  0
CIRCLE
  5
98
330
36
100
AcDbEntity
  8
1
  6
Continuous
 62
     7
100
AcDbCircle
 10
187.0
 20
23.50000000000001
 30
0.0
 40
1.200000000000102
  0
CIRCLE
  5
99
330
36
100
AcDbEntity
  8
1
  6
Continuous
 62
     7
100
AcDbCircle
 10
154.5
 20
12.5
 30
0.0
 40
0.3000000000000114
  0
CIRCLE
  5
9A
330
36
100
AcDbEntity
  8
1
  6
Continuous
 62
     7
100
AcDbCircle
 10
160.5
 20
12.5
 30
0.0
 40
0.3000000000000114
  0
CIRCLE
  5
9B
330
36
100
AcDbEntity
  8
1
  6
Continuous
 62
     7
100
AcDbCircle
 10
143.5
 20
12.5
 30
0.0
 40
0.3000000000000114
  0
CIRCLE
  5
9C
330
36
100
AcDbEntity
  8
1
  6
Continuous
 62
     7
100
AcDbCircle
 10
137.5
 20
12.5
 30
0.0
 40
0.3000000000000114
  0
CIRCLE
  5
9D
330
36
100
AcDbEntity
  8
1
  6
Continuous
 62
     7
100
AcDbCircle
 10
126.5
 20
12.5
 30
0.0
 40
0.2999999999999972
  0
CIRCLE
  5
9E
330
36
100
AcDbEntity
  8
1
  6
Continuous
 62
     7
100
AcDbCircle
 10
120.5
 20
12.5
 30
0.0
 40
0.2999999999999972
  0
CIRCLE
  5
9F
330
36
100
AcDbEntity
  8
1
  6
Continuous
 62
     7
100
AcDbCircle
 10
109.5
 20
12.5
 30
0.0
 40
0.2999999999999972
  0
CIRCLE
  5
A0
330
36
100
AcDbEntity
  8
1
  6
Continuous
 62
     7
100
AcDbCircle
 10
103.5
 20
12.5
 30
0.0
 40
0.2999999999999972
  0
MTEXT
  5
A2
330
36
100
AcDbEntity
  8
1
 62
   250
100
AcDbMText
 10
25.0
 20
5.0
 30
0.0
 40
3.5
 41
0.0
 71
     4
 72
     1
  1
備考欄の文字列 原点位置=4
  7
CONVERTER_1
 73
     1
 44
0.7202881152461
  0
MTEXT
  5
A3
330
36
100
AcDbEntity
  8
1
 62
     2
100
AcDbMText
 10
89.5
 20
24.00000000000001
 30
0.0
 40
3.5
 41
0.0
 71
     5
 72
     1
  1
尺度
  7
CONVERTER_1
 73
     1
 44
0.7202881152461
  0
MTEXT
  5
A4
330
36
100
AcDbEntity
  8
1
 62
     2
100
AcDbMText
 10
135.5
 20
25.00000000000001
 30
0.0
 40
3.0
 41
0.0
 71
     5
 72
     1
  1
製図
  7
CONVERTER_1
 73
     1
 44
0.78031212484994
  0
MTEXT
  5
A5
330
36
100
AcDbEntity
  8
1
 62
     2
100
AcDbMText
 10
152.5
 20
25.00000000000001
 30
0.0
 40
3.0
 41
0.0
 71
     5
 72
     1
  1
設計
  7
CONVERTER_1
 73
     1
 44
0.78031212484994
  0
MTEXT
  5
A6
330
36
100
AcDbEntity
  8
1
 62
     2
100
AcDbMText
 10
118.5
 20
25.00000000000001
 30
0.0
 40
3.0
 41
0.0
 71
     5
 72
     1
  1
検図
  7
CONVERTER_1
 73
     1
 44
0.78031212484994
  0
MTEXT
  5
A7
330
36
100
AcDbEntity
  8
1
 62
     2
100
AcDbMText
 10
175.0
 20
23.50000000000001
 30
0.0
 40
3.5
 41
0.0
 71
     5
 72
     1
  1
第三角法
  7
CONVERTER_1
 73
     1
 44
0.7202881152461
  0
MTEXT
  5
A8
330
36
100
AcDbEntity
  8
1
 62
     2
100
AcDbMText
 10
101.5
 20
25.00000000000001
 30
0.0
 40
3.0
 41
0.0
 71
     5
 72
     1
  1
承認
  7
CONVERTER_1
 73
     1
 44
0.78031212484994
  0
MTEXT
  5
A9
330
36
100
AcDbEntity
  8
1
 62
     2
100
AcDbMText
 10
29.0
 20
14.25
 30
0.0
 40
3.5
 41
0.0
 71
     5
 72
     1
  1
品番
  7
CONVERTER_1
 73
     1
 44
0.96038415366146
  0
MTEXT
  5
AA
330
36
100
AcDbEntity
  8
1
 62
     2
100
AcDbMText
 10
29.0
 20
22.75
 30
0.0
 40
3.5
 41
0.0
 71
     5
 72
     1
  1
品名
  7
CONVERTER_1
 73
     1
 44
0.96038415366146
  0
MTEXT
  5
AB
330
36
100
AcDbEntity
  8
1
 62
     2
100
AcDbMText
 10
29.0
 20
34.00000000000001
 30
0.0
 40
3.5
 41
0.0
 71
     5
 72
     1
  1
備考
  7
CONVERTER_1
 73
     1
 44
0.60024009603842
  0
MTEXT
  5
AC
330
36
100
AcDbEntity
  8
1
 62
     2
100
AcDbMText
 10
32.5
 20
282.0000000000003
 30
0.0
 40
5.0
 41
0.0
 71
     5
 72
     1
  1
図番
  7
CONVERTER_1
 73
     1
 44
0.60024009603842
  0
MTEXT
  5
AD
330
36
100
AcDbEntity
  8
1
 62
     7
100
AcDbMText
 10
171.5
 20
15.0
 30
0.0
 40
2.5
 41
0.0
 71
     5
 72
     1
  1
株式会社
  7
CONVERTER_1
 73
     1
 44
1.32052821128451
  0
MTEXT
  5
AE
330
36
100
AcDbEntity
  8
1
 62
     7
100
AcDbMText
 10
188.5
 20
15.0
 30
0.0
 40
3.0
 41
0.0
 71
     5
 72
     1
  1
三栄水栓製作所
  7
CONVERTER_1
 73
     1
 44
1.32052821128451
  0
ENDBLK
  5
38
330
36
100
AcDbEntity
  8
0
100
AcDbBlockEnd
  0
BLOCK
  5
3A
330
39
100
AcDbEntity
  8
0
100
AcDbBlockBegin
  2
38-12A
 70
     0
 71
     0
 10
-11.32705633503019
 20
152.8652877428818
 30
0.0
  3
38-12A
  1

  0
LINE
  5
AF
330
39
100
AcDbEntity
  8
1
  6
Continuous
 62
     7
100
AcDbLine
 10
111.0953300280438
 20
249.0555803845117
 30
0.0
 11
115.0953300280437
 21
249.0555803845117
 31
0.0
  0
LINE
  5
B0
330
39
100
AcDbEntity
  8
1
  6
Continuous
 62
     7
100
AcDbLine
 10
123.0953300280438
 20
216.2234208183125
 30
0.0
 11
123.0953300280437
 21
215.2234208183125
 31
0.0
  0
LINE
  5
B1
330
39
100
AcDbEntity
  8
1
  6
Continuous
 62
     7
100
AcDbLine
 10
103.0953300280437
 20
215.2234208183125
 30
0.0
 11
103.0953300280438
 21
216.2234208183125
 31
0.0
  0
LINE
  5
B2
330
39
100
AcDbEntity
  8
1
  6
Continuous
 62
     7
100
AcDbLine
 10
103.0953300280438
 20
216.2234208183125
 30
0.0
 11
123.0953300280438
 21
216.2234208183125
 31
0.0
  0
LINE
  5
B3
330
39
100
AcDbEntity
  8
1
  6
Continuous
 62
     7
100
AcDbLine
 10
246.5791301607298
 20
216.2234208183125
 30
0.0
 11
266.5791301607298
 21
216.2234208183125
 31
0.0
  0
LINE
  5
B4
330
39
100
AcDbEntity
  8
1
  6
Continuous
 62
     7
100
AcDbLine
 10
246.5791301607297
 20
215.2234208183125
 30
0.0
 11
246.5791301607298
 21
216.2234208183125
 31
0.0
  0
LINE
  5
B5
330
39
100
AcDbEntity
  8
1
  6
Continuous
 62
     7
100
AcDbLine
 10
266.5791301607298
 20
216.2234208183125
 30
0.0
 11
266.5791301607298
 21
215.2234208183125
 31
0.0
  0
LINE
  5
B6
330
39
100
AcDbEntity
  8
1
  6
Continuous
 62
     7
100
AcDbLine
 10
254.5791301607298
 20
249.0555803845117
 30
0.0
 11
258.5791301607296
 21
249.0555803845117
 31
0.0
  0
LINE
  5
B7
330
39
100
AcDbEntity
  8
1
  6
Continuous
 62
     7
100
AcDbLine
 10
101.2631704618446
 20
365.5849791615661
 30
0.0
 11
101.2631704618446
 21
369.5849791615659
 31
0.0
  0
ARC
  5
B8
330
39
100
AcDbEntity
  8
1
  6
Continuous
 62
     7
100
AcDbCircle
 10
113.0953300280437
 20
237.2234208183125
 30
0.0
 40
11.9999999999999
100
AcDbArc
 50
-30.29203313308208
 51
80.40593177313953
  0
ARC
  5
B9
330
39
100
AcDbEntity
  8
1
  6
Continuous
 62
     7
100
AcDbCircle
 10
136.8109550462651
 20
223.3695517689581
 30
0.0
 40
15.46562501822129
100
AcDbArc
 50
180.0
 51
-152.4795324079571
  0
ARC
  5
BA
330
39
100
AcDbEntity
  8
1
  6
Continuous
 62
     7
100
AcDbCircle
 10
136.8109550462651
 20
223.3695517689581
 30
0.0
 40
15.46562501822147
100
AcDbArc
 50
149.7079668669179
 51
180.0
  0
ARC
  5
BB
330
39
100
AcDbEntity
  8
1
  6
Continuous
 62
     7
100
AcDbCircle
 10
113.0953300280437
 20
237.2234208183125
 30
0.0
 40
11.99999999999996
100
AcDbArc
 50
99.59406822686002
 51
-149.7079668669177
  0
ARC
  5
BC
330
39
100
AcDbEntity
  8
1
  6
Continuous
 62
     7
100
AcDbCircle
 10
89.3797050098226
 20
223.3695517689581
 30
0.0
 40
15.46562501822124
100
AcDbArc
 50
-27.52046759204308
 51
0.0
  0
ARC
  5
BD
330
39
100
AcDbEntity
  8
1
  6
Continuous
 62
     7
100
AcDbCircle
 10
89.3797050098226
 20
223.3695517689581
 30
0.0
 40
15.4656250182212
100
AcDbArc
 50
0.0
 51
30.29203313308247
  0
ARC
  5
BE
330
39
100
AcDbEntity
  8
1
  6
Continuous
 62
     7
100
AcDbCircle
 10
232.8635051425085
 20
223.3695517689581
 30
0.0
 40
15.46562501822129
100
AcDbArc
 50
0.0
 51
30.29203313308244
  0
ARC
  5
BF
330
39
100
AcDbEntity
  8
1
  6
Continuous
 62
     7
100
AcDbCircle
 10
232.8635051425085
 20
223.3695517689581
 30
0.0
 40
15.46562501822131
100
AcDbArc
 50
-27.52046759204293
 51
0.0
  0
ARC
  5
C0
330
39
100
AcDbEntity
  8
1
  6
Continuous
 62
     7
100
AcDbCircle
 10
256.5791301607297
 20
237.2234208183125
 30
0.0
 40
11.99999999999996
100
AcDbArc
 50
99.59406822685995
 51
-149.7079668669179
  0
ARC
  5
C1
330
39
100
AcDbEntity
  8
1
  6
Continuous
 62
     7
100
AcDbCircle
 10
280.2947551789509
 20
223.3695517689581
 30
0.0
 40
15.46562501822126
100
AcDbArc
 50
149.7079668669175
 51
180.0
  0
ARC
  5
C2
330
39
100
AcDbEntity
  8
1
  6
Continuous
 62
     7
100
AcDbCircle
 10
280.2947551789509
 20
223.3695517689581
 30
0.0
 40
15.46562501822109
100
AcDbArc
 50
180.0
 51
-152.4795324079567
  0
ARC
  5
C3
330
39
100
AcDbEntity
  8
1
  6
Continuous
 62
     7
100
AcDbCircle
 10
256.5791301607297
 20
237.2234208183125
 30
0.0
 40
11.99999999999995
100
AcDbArc
 50
-30.29203313308194
 51
80.4059317731398
  0
ARC
  5
C4
330
39
100
AcDbEntity
  8
1
  6
Continuous
 62
     7
100
AcDbCircle
 10
113.0953300280437
 20
367.5849791615659
 30
0.0
 40
11.99999999999985
100
AcDbArc
 50
-170.4059317731403
 51
0.0
  0
ARC
  5
C5
330
39
100
AcDbEntity
  8
1
  6
Continuous
 62
     7
100
AcDbCircle
 10
113.0953300280437
 20
367.5849791615659
 30
0.0
 40
12.0
100
AcDbArc
 50
0.0
 51
170.4059317731394
  0
CIRCLE
  5
C6
330
39
100
AcDbEntity
  8
1
  6
Continuous
 62
     7
100
AcDbCircle
 10
113.0953300280437
 20
367.5849791615659
 30
0.0
 40
2.0
  0
ENDBLK
  5
3B
330
39
100
AcDbEntity
  8
0
100
AcDbBlockEnd
  0
BLOCK
  5
3D
330
3C
100
AcDbEntity
  8
0
100
AcDbBlockBegin
  2
Y26-0
 70
     0
 71
     0
 10
-173.7951035726832
 20
217.833548085552
 30
0.0
  3
Y26-0
  1

  0
LINE
  5
C7
330
3C
100
AcDbEntity
  8
1
  6
Continuous
 62
     7
100
AcDbLine
 10
90.55610048017979
 20
110.7234208183125
 30
0.0
 11
135.6345595759076
 21
110.7234208183125
 31
0.0
  0
LINE
  5
C8
330
3C
100
AcDbEntity
  8
1
  6
Continuous
 62
     7
100
AcDbLine
 10
111.8162487134798
 20
214.2234208183125
 30
0.0
 11
100.0953300280437
 21
214.2234208183125
 31
0.0
  0
LINE
  5
C9
330
3C
100
AcDbEntity
  8
1
  6
Continuous
 62
     7
100
AcDbLine
 10
125.0953300280437
 20
215.2234208183125
 30
0.0
 11
126.0953300280437
 21
214.2234208183125
 31
0.0
  0
LINE
  5
CA
330
3C
100
AcDbEntity
  8
1
  6
Continuous
 62
     7
100
AcDbLine
 10
101.0953300280437
 20
215.2234208183125
 30
0.0
 11
100.0953300280437
 21
214.2234208183125
 31
0.0
  0
LINE
  5
CB
330
3C
100
AcDbEntity
  8
1
  6
Continuous
 62
     7
100
AcDbLine
 10
101.0953300280437
 20
215.2234208183125
 30
0.0
 11
125.0953300280437
 21
215.2234208183125
 31
0.0
  0
LINE
  5
CC
330
3C
100
AcDbEntity
  8
1
  6
Continuous
 62
     7
100
AcDbLine
 10
100.0953300280437
 20
207.7234208183125
 30
0.0
 11
111.2505897224834
 21
207.7234208183125
 31
0.0
  0
LINE
  5
CD
330
3C
100
AcDbEntity
  8
1
  6
Continuous
 62
     7
100
AcDbLine
 10
126.0953300280437
 20
207.7234208183125
 30
0.0
 11
126.0953300280437
 21
214.2234208183125
 31
0.0
  0
LINE
  5
CE
330
3C
100
AcDbEntity
  8
1
  6
Continuous
 62
     7
100
AcDbLine
 10
100.0953300280437
 20
207.7234208183125
 30
0.0
 11
100.0953300280437
 21
214.2234208183125
 31
0.0
  0
LINE
  5
CF
330
3C
100
AcDbEntity
  8
1
  6
Continuous
 62
     2
100
AcDbLine
 10
103.5953300280437
 20
94.22342081831246
 30
0.0
 11
103.5953300280437
 21
95.22342081831246
 31
0.0
  0
LINE
  5
D0
330
3C
100
AcDbEntity
  8
1
  6
Continuous
 62
     2
100
AcDbLine
 10
103.5953300280437
 20
95.22342081831246
 30
0.0
 11
103.5953300280437
 21
106.4913700107436
 31
0.0
  0
LINE
  5
D1
330
3C
100
AcDbEntity
  8
1
  6
Continuous
 62
     2
100
AcDbLine
 10
103.5953300280437
 20
106.4913700107436
 30
0.0
 11
102.5953300280437
 21
108.2234208183125
 31
0.0
  0
LINE
  5
D2
330
3C
100
AcDbEntity
  8
1
  6
Continuous
 62
     7
100
AcDbLine
 10
90.09533002804369
 20
110.2249621514459
 30
0.0
 11
90.09533002804369
 21
108.2234208183125
 31
0.0
  0
LINE
  5
D3
330
3C
100
AcDbEntity
  8
1
  6
Continuous
 62
     7
100
AcDbLine
 10
104.3453300280437
 20
114.711090153245
 30
0.0
 11
104.3453300280437
 21
159.2038975091375
 31
0.0
  0
LINE
  5
D4
330
3C
100
AcDbEntity
  8
1
  6
Continuous
 62
     7
100
AcDbLine
 10
136.0953300280437
 20
108.2234208183125
 30
0.0
 11
136.0953300280437
 21
110.2249621514459
 31
0.0
  0
LINE
  5
D5
330
3C
100
AcDbEntity
  8
1
  6
Continuous
 62
     2
100
AcDbLine
 10
123.5953300280437
 20
108.2234208183125
 30
0.0
 11
122.5953300280437
 21
106.4913700107436
 31
0.0
  0
LINE
  5
D6
330
3C
100
AcDbEntity
  8
1
  6
Continuous
 62
     2
100
AcDbLine
 10
122.5953300280437
 20
106.4913700107436
 30
0.0
 11
122.5953300280437
 21
94.22342081831246
 31
0.0
  0
LINE
  5
D7
330
3C
100
AcDbEntity
  8
1
  6
Continuous
 62
     7
100
AcDbLine
 10
121.8453300280437
 20
114.711090153245
 30
0.0
 11
121.8453300280437
 21
159.2038975091375
 31
0.0
  0
LINE
  5
D8
330
3C
100
AcDbEntity
  8
1
  6
Continuous
 62
     7
100
AcDbLine
 10
123.5953300280437
 20
108.2234208183125
 30
0.0
 11
123.5953300280437
 21
106.4913700107436
 31
0.0
  0
LINE
  5
D9
330
3C
100
AcDbEntity
  8
1
  6
Continuous
 62
     7
100
AcDbLine
 10
122.5953300280437
 20
94.22342081831246
 30
0.0
 11
123.5953300280437
 21
95.22342081831246
 31
0.0
  0
LINE
  5
DA
330
3C
100
AcDbEntity
  8
1
  6
Continuous
 62
     7
100
AcDbLine
 10
123.5953300280437
 20
106.4913700107436
 30
0.0
 11
123.5953300280437
 21
95.22342081831246
 31
0.0
  0
LINE
  5
DB
330
3C
100
AcDbEntity
  8
1
  6
Continuous
 62
     7
100
AcDbLine
 10
103.5953300280437
 20
95.22342081831246
 30
0.0
 11
102.5953300280437
 21
95.22342081831246
 31
0.0
  0
LINE
  5
DC
330
3C
100
AcDbEntity
  8
1
  6
Continuous
 62
     7
100
AcDbLine
 10
102.5953300280437
 20
95.22342081831246
 30
0.0
 11
102.5953300280437
 21
106.4913700107436
 31
0.0
  0
LINE
  5
DD
330
3C
100
AcDbEntity
  8
1
  6
Continuous
 62
     7
100
AcDbLine
 10
102.5953300280437
 20
106.4913700107436
 30
0.0
 11
103.5953300280437
 21
106.4913700107436
 31
0.0
  0
LINE
  5
DE
330
3C
100
AcDbEntity
  8
1
  6
Continuous
 62
     7
100
AcDbLine
 10
102.5953300280437
 20
95.22342081831246
 30
0.0
 11
103.5953300280437
 21
94.22342081831246
 31
0.0
  0
LINE
  5
DF
330
3C
100
AcDbEntity
  8
1
  6
Continuous
 62
     7
100
AcDbLine
 10
103.5953300280437
 20
94.22342081831246
 30
0.0
 11
122.5953300280437
 21
94.22342081831246
 31
0.0
  0
LINE
  5
E0
330
3C
100
AcDbEntity
  8
1
  6
Continuous
 62
     7
100
AcDbLine
 10
102.5953300280437
 20
106.4913700107436
 30
0.0
 11
102.5953300280437
 21
108.2234208183125
 31
0.0
  0
LINE
  5
E1
330
3C
100
AcDbEntity
  8
1
  6
Continuous
 62
     7
100
AcDbLine
 10
136.0953300280437
 20
108.2234208183125
 30
0.0
 11
90.09533002804369
 21
108.2234208183125
 31
0.0
  0
LINE
  5
E2
330
3C
100
AcDbEntity
  8
1
  6
Continuous
 62
     7
100
AcDbLine
 10
103.5953300280437
 20
106.4913700107436
 30
0.0
 11
123.5953300280437
 21
106.4913700107436
 31
0.0
  0
LINE
  5
E3
330
3C
100
AcDbEntity
  8
1
  6
Continuous
 62
     7
100
AcDbLine
 10
103.5953300280437
 20
95.22342081831246
 30
0.0
 11
123.5953300280437
 21
95.22342081831246
 31
0.0
  0
LINE
  5
E4
330
3C
100
AcDbEntity
  8
1
  6
Continuous
 62
     7
100
AcDbLine
 10
114.9400703336041
 20
207.7234208183125
 30
0.0
 11
126.0953300280437
 21
207.7234208183125
 31
0.0
  0
LINE
  5
E5
330
3C
100
AcDbEntity
  8
1
  6
Continuous
 62
     7
100
AcDbLine
 10
126.0953300280437
 20
214.2234208183125
 30
0.0
 11
114.3744113426078
 21
214.2234208183125
 31
0.0
  0
LINE
  5
E6
330
3C
100
AcDbEntity
  8
1
  6
Continuous
 62
     7
100
AcDbLine
 10
256.5791301607296
 20
110.7234208183125
 30
0.0
 11
234.0399006128658
 21
110.7234208183125
 31
0.0
  0
LINE
  5
E7
330
3C
100
AcDbEntity
  8
1
  6
Continuous
 62
     7
100
AcDbLine
 10
233.5791301607297
 20
110.224962151446
 30
0.0
 11
233.5791301607297
 21
108.2234208183125
 31
0.0
  0
LINE
  5
E8
330
3C
100
AcDbEntity
  8
1
  6
Continuous
 62
     7
100
AcDbLine
 10
256.5791301607296
 20
108.2234208183125
 30
0.0
 11
233.5791301607297
 21
108.2234208183125
 31
0.0
  0
LINE
  5
E9
330
3C
100
AcDbEntity
  8
1
  6
Continuous
 62
     7
100
AcDbLine
 10
279.5791301607298
 20
108.2234208183125
 30
0.0
 11
256.5791301607296
 21
108.2234208183125
 31
0.0
  0
LINE
  5
EA
330
3C
100
AcDbEntity
  8
1
  6
Continuous
 62
     7
100
AcDbLine
 10
279.5791301607298
 20
108.2234208183125
 30
0.0
 11
279.5791301607296
 21
110.224962151446
 31
0.0
  0
LINE
  5
EB
330
3C
100
AcDbEntity
  8
1
  6
Continuous
 62
     7
100
AcDbLine
 10
279.1183597085935
 20
110.7234208183125
 30
0.0
 11
256.5791301607296
 21
110.7234208183125
 31
0.0
  0
LINE
  5
EC
330
3C
100
AcDbEntity
  8
1
  6
Continuous
 62
     7
100
AcDbLine
 10
232.5791301607298
 20
171.2234208183125
 30
0.0
 11
241.2471091836963
 21
171.2234208183125
 31
0.0
  0
LINE
  5
ED
330
3C
100
AcDbEntity
  8
1
  6
Continuous
 62
     7
100
AcDbLine
 10
247.8291301607297
 20
159.2038975091375
 30
0.0
 11
247.8291301607297
 21
114.711090153245
 31
0.0
  0
LINE
  5
EE
330
3C
100
AcDbEntity
  8
1
  6
Continuous
 62
     2
100
AcDbLine
 10
234.3111809682986
 20
171.2234208183125
 30
0.0
 11
232.5791301607298
 21
172.2234208183125
 31
0.0
  0
LINE
  5
EF
330
3C
100
AcDbEntity
  8
1
  6
Continuous
 62
     7
100
AcDbLine
 10
241.0012874434612
 20
195.2234208183125
 30
0.0
 11
232.5791301607298
 21
195.2234208183125
 31
0.0
  0
LINE
  5
F0
330
3C
100
AcDbEntity
  8
1
  6
Continuous
 62
     2
100
AcDbLine
 10
232.5791301607298
 20
194.2234208183125
 30
0.0
 11
234.3111809682986
 21
195.2234208183125
 31
0.0
  0
LINE
  5
F1
330
3C
100
AcDbEntity
  8
1
  6
Continuous
 62
     7
100
AcDbLine
 10
265.3291301607296
 20
114.711090153245
 30
0.0
 11
265.3291301607296
 21
159.2038975091375
 31
0.0
  0
LINE
  5
F2
330
3C
100
AcDbEntity
  8
1
  6
Continuous
 62
     7
100
AcDbLine
 10
247.0791301607297
 20
95.22342081831251
 30
0.0
 11
267.0791301607298
 21
95.22342081831251
 31
0.0
  0
LINE
  5
F3
330
3C
100
AcDbEntity
  8
1
  6
Continuous
 62
     7
100
AcDbLine
 10
247.0791301607297
 20
106.4913700107437
 30
0.0
 11
267.0791301607298
 21
106.4913700107437
 31
0.0
  0
LINE
  5
F4
330
3C
100
AcDbEntity
  8
1
  6
Continuous
 62
     7
100
AcDbLine
 10
246.0791301607297
 20
106.4913700107437
 30
0.0
 11
246.0791301607297
 21
108.2234208183125
 31
0.0
  0
LINE
  5
F5
330
3C
100
AcDbEntity
  8
1
  6
Continuous
 62
     7
100
AcDbLine
 10
247.0791301607297
 20
94.22342081831251
 30
0.0
 11
266.0791301607298
 21
94.22342081831251
 31
0.0
  0
LINE
  5
F6
330
3C
100
AcDbEntity
  8
1
  6
Continuous
 62
     7
100
AcDbLine
 10
246.0791301607298
 20
95.22342081831251
 30
0.0
 11
247.0791301607297
 21
94.22342081831251
 31
0.0
  0
LINE
  5
F7
330
3C
100
AcDbEntity
  8
1
  6
Continuous
 62
     7
100
AcDbLine
 10
246.0791301607297
 20
106.4913700107437
 30
0.0
 11
247.0791301607297
 21
106.4913700107437
 31
0.0
  0
LINE
  5
F8
330
3C
100
AcDbEntity
  8
1
  6
Continuous
 62
     7
100
AcDbLine
 10
246.0791301607298
 20
95.22342081831251
 30
0.0
 11
246.0791301607297
 21
106.4913700107437
 31
0.0
  0
LINE
  5
F9
330
3C
100
AcDbEntity
  8
1
  6
Continuous
 62
     7
100
AcDbLine
 10
247.0791301607297
 20
95.22342081831251
 30
0.0
 11
246.0791301607298
 21
95.22342081831251
 31
0.0
  0
LINE
  5
FA
330
3C
100
AcDbEntity
  8
1
  6
Continuous
 62
     7
100
AcDbLine
 10
267.0791301607298
 20
106.4913700107437
 30
0.0
 11
267.0791301607298
 21
95.22342081831251
 31
0.0
  0
LINE
  5
FB
330
3C
100
AcDbEntity
  8
1
  6
Continuous
 62
     7
100
AcDbLine
 10
266.0791301607298
 20
94.22342081831251
 30
0.0
 11
267.0791301607298
 21
95.22342081831251
 31
0.0
  0
LINE
  5
FC
330
3C
100
AcDbEntity
  8
1
  6
Continuous
 62
     7
100
AcDbLine
 10
267.0791301607298
 20
108.2234208183125
 30
0.0
 11
267.0791301607298
 21
106.4913700107437
 31
0.0
  0
LINE
  5
FD
330
3C
100
AcDbEntity
  8
1
  6
Continuous
 62
     2
100
AcDbLine
 10
266.0791301607298
 20
106.4913700107437
 30
0.0
 11
266.0791301607298
 21
94.22342081831251
 31
0.0
  0
LINE
  5
FE
330
3C
100
AcDbEntity
  8
1
  6
Continuous
 62
     2
100
AcDbLine
 10
267.0791301607298
 20
108.2234208183125
 30
0.0
 11
266.0791301607298
 21
106.4913700107437
 31
0.0
  0
LINE
  5
FF
330
3C
100
AcDbEntity
  8
1
  6
Continuous
 62
     2
100
AcDbLine
 10
247.0791301607297
 20
106.4913700107437
 30
0.0
 11
246.0791301607297
 21
108.2234208183125
 31
0.0
  0
LINE
  5
100
330
3C
100
AcDbEntity
  8
1
  6
Continuous
 62
     2
100
AcDbLine
 10
247.0791301607297
 20
95.22342081831251
 30
0.0
 11
247.0791301607297
 21
106.4913700107437
 31
0.0
  0
LINE
  5
101
330
3C
100
AcDbEntity
  8
1
  6
Continuous
 62
     2
100
AcDbLine
 10
247.0791301607297
 20
94.22342081831251
 30
0.0
 11
247.0791301607297
 21
95.22342081831251
 31
0.0
  0
LINE
  5
102
330
3C
100
AcDbEntity
  8
1
  6
Continuous
 62
     7
100
AcDbLine
 10
256.5791301607297
 20
207.7234208183125
 30
0.0
 11
269.5791301607296
 21
207.7234208183125
 31
0.0
  0
LINE
  5
103
330
3C
100
AcDbEntity
  8
1
  6
Continuous
 62
     7
100
AcDbLine
 10
243.5791301607298
 20
207.7234208183125
 30
0.0
 11
243.5791301607298
 21
214.2234208183125
 31
0.0
  0
LINE
  5
104
330
3C
100
AcDbEntity
  8
1
  6
Continuous
 62
     7
100
AcDbLine
 10
269.5791301607296
 20
207.7234208183125
 30
0.0
 11
269.5791301607298
 21
214.2234208183125
 31
0.0
  0
LINE
  5
105
330
3C
100
AcDbEntity
  8
1
  6
Continuous
 62
     7
100
AcDbLine
 10
243.5791301607298
 20
207.7234208183125
 30
0.0
 11
256.5791301607297
 21
207.7234208183125
 31
0.0
  0
LINE
  5
106
330
3C
100
AcDbEntity
  8
1
  6
Continuous
 62
     7
100
AcDbLine
 10
244.5791301607297
 20
215.2234208183125
 30
0.0
 11
268.5791301607296
 21
215.2234208183125
 31
0.0
  0
LINE
  5
107
330
3C
100
AcDbEntity
  8
1
  6
Continuous
 62
     7
100
AcDbLine
 10
244.5791301607297
 20
215.2234208183125
 30
0.0
 11
243.5791301607298
 21
214.2234208183125
 31
0.0
  0
LINE
  5
108
330
3C
100
AcDbEntity
  8
1
  6
Continuous
 62
     7
100
AcDbLine
 10
268.5791301607296
 20
215.2234208183125
 30
0.0
 11
269.5791301607298
 21
214.2234208183125
 31
0.0
  0
LINE
  5
109
330
3C
100
AcDbEntity
  8
1
  6
Continuous
 62
     7
100
AcDbLine
 10
269.5791301607298
 20
214.2234208183125
 30
0.0
 11
243.5791301607298
 21
214.2234208183125
 31
0.0
  0
LINE
  5
10A
330
3C
100
AcDbEntity
  8
1
  6
Continuous
 62
     7
100
AcDbLine
 10
125.0953300280437
 20
343.5849791615661
 30
0.0
 11
125.0953300280437
 21
361.5022166312677
 31
0.0
  0
LINE
  5
10B
330
3C
100
AcDbEntity
  8
1
  6
Continuous
 62
     2
100
AcDbLine
 10
125.0953300280437
 20
345.3170299691348
 30
0.0
 11
124.0953300280437
 21
343.5849791615661
 31
0.0
  0
LINE
  5
10C
330
3C
100
AcDbEntity
  8
1
  6
Continuous
 62
     7
100
AcDbLine
 10
101.0953300280437
 20
361.5022166312677
 30
0.0
 11
101.0953300280437
 21
343.5849791615661
 31
0.0
  0
LINE
  5
10D
330
3C
100
AcDbEntity
  8
1
  6
Continuous
 62
     2
100
AcDbLine
 10
102.0953300280437
 20
343.5849791615661
 30
0.0
 11
101.0953300280437
 21
345.3170299691348
 31
0.0
  0
ARC
  5
10E
330
3C
100
AcDbEntity
  8
1
  6
Continuous
 62
     7
100
AcDbCircle
 10
138.7606361504928
 20
199.4734208183125
 30
0.0
 40
15.11530612244907
100
AcDbArc
 50
146.9203519975424
 51
-167.7864519545377
  0
ARC
  5
10F
330
3C
100
AcDbEntity
  8
1
  6
Continuous
 62
     7
100
AcDbCircle
 10
74.34533002804369
 20
159.2038975091375
 30
0.0
 40
30.00000000000013
100
AcDbArc
 50
16.33962819070467
 51
21.27824021915113
  0
ARC
  5
110
330
3C
100
AcDbEntity
  8
1
  6
Continuous
 62
     7
100
AcDbCircle
 10
151.8453300280437
 20
159.2038975091375
 30
0.0
 40
30.00000000000013
100
AcDbArc
 50
158.7217597808489
 51
163.6603718092952
  0
ARC
  5
111
330
3C
100
AcDbEntity
  8
1
  6
Continuous
 62
     7
100
AcDbCircle
 10
87.43002390559491
 20
199.4734208183125
 30
0.0
 40
15.11530612244887
100
AcDbArc
 50
-12.21354804546174
 51
33.07964800245823
  0
ARC
  5
112
330
3C
100
AcDbEntity
  8
1
  6
Continuous
 62
     7
100
AcDbCircle
 10
229.5791301607298
 20
183.2234208183125
 30
0.0
 40
40.00000000000013
100
AcDbArc
 50
-20.06805462081903
 51
17.14772915686995
  0
ARC
  5
113
330
3C
100
AcDbEntity
  8
1
  6
Continuous
 62
     7
100
AcDbCircle
 10
282.2444362831786
 20
199.4734208183125
 30
0.0
 40
15.11530612244896
100
AcDbArc
 50
146.9203519975421
 51
-162.8522708431295
  0
ARC
  5
114
330
3C
100
AcDbEntity
  8
1
  6
Continuous
 62
     7
100
AcDbCircle
 10
241.0012874434612
 20
200.2234208183125
 30
0.0
 40
5.0
100
AcDbArc
 50
-90.0
 51
4.25210119307772
  0
ARC
  5
115
330
3C
100
AcDbEntity
  8
1
  6
Continuous
 62
     7
100
AcDbCircle
 10
230.9138240382808
 20
199.4734208183125
 30
0.0
 40
15.11530612244882
100
AcDbArc
 50
4.25210119307781
 51
33.07964800245785
  0
ARC
  5
116
330
3C
100
AcDbEntity
  8
1
  6
Continuous
 62
     7
100
AcDbCircle
 10
113.0953300280437
 20
367.5849791615661
 30
0.0
 40
23.00000000000019
100
AcDbArc
 50
-58.55101861062072
 51
90.0
  0
ARC
  5
117
330
3C
100
AcDbEntity
  8
1
  6
Continuous
 62
     7
100
AcDbCircle
 10
113.0953300280437
 20
367.5849791615661
 30
0.0
 40
23.0
100
AcDbArc
 50
90.0
 51
-121.4489813893793
  0
CIRCLE
  5
118
330
3C
100
AcDbEntity
  8
1
  6
Continuous
 62
     7
100
AcDbCircle
 10
113.0953300280437
 20
367.5849791615661
 30
0.0
 40
13.0
  0
ARC
  5
119
330
3C
100
AcDbEntity
  8
1
  6
Continuous
 62
     7
100
AcDbCircle
 10
90.59533002804369
 20
110.2249621514459
 30
0.0
 40
0.500000000000045
100
AcDbArc
 50
94.49999999999668
 51
180.0
  0
ARC
  5
11A
330
3C
100
AcDbEntity
  8
1
  6
Continuous
 62
     7
100
AcDbCircle
 10
100.3453300280437
 20
114.711090153245
 30
0.0
 40
3.99999999999998
100
AcDbArc
 50
-85.49999999999983
 51
0.0
  0
ARC
  5
11B
330
3C
100
AcDbEntity
  8
1
  6
Continuous
 62
     7
100
AcDbCircle
 10
125.8453300280437
 20
114.711090153245
 30
0.0
 40
4.0
100
AcDbArc
 50
180.0
 51
-94.50000000000037
  0
ARC
  5
11C
330
3C
100
AcDbEntity
  8
1
  6
Continuous
 62
     7
100
AcDbCircle
 10
135.5953300280437
 20
110.2249621514459
 30
0.0
 40
0.5
100
AcDbArc
 50
0.0
 51
85.50000000000333
  0
ARC
  5
11D
330
3C
100
AcDbEntity
  8
1
  6
Continuous
 62
     7
100
AcDbCircle
 10
151.8453300280437
 20
159.2038975091375
 30
0.0
 40
29.99999999999991
100
AcDbArc
 50
163.6603718092952
 51
180.0
  0
ARC
  5
11E
330
3C
100
AcDbEntity
  8
1
  6
Continuous
 62
     7
100
AcDbCircle
 10
74.34533002804369
 20
159.2038975091375
 30
0.0
 40
30.00000000000001
100
AcDbArc
 50
0.0
 51
16.33962819070467
  0
ARC
  5
11F
330
3C
100
AcDbEntity
  8
1
  6
Continuous
 62
     7
100
AcDbCircle
 10
241.2471091836963
 20
165.2234208183125
 30
0.0
 40
6.000000000000068
100
AcDbArc
 50
30.08819381594287
 51
90.0
  0
ARC
  5
120
330
3C
100
AcDbEntity
  8
1
  6
Continuous
 62
     7
100
AcDbCircle
 10
217.8291301607297
 20
159.2038975091375
 30
0.0
 40
30.0
100
AcDbArc
 50
0.0
 51
17.51270470035177
  0
ARC
  5
121
330
3C
100
AcDbEntity
  8
1
  6
Continuous
 62
     7
100
AcDbCircle
 10
295.3291301607296
 20
159.2038975091375
 30
0.0
 40
29.99999999999971
100
AcDbArc
 50
159.9319453791805
 51
180.0
  0
ARC
  5
122
330
3C
100
AcDbEntity
  8
1
  6
Continuous
 62
     7
100
AcDbCircle
 10
234.0791301607297
 20
110.224962151446
 30
0.0
 40
0.4999999999999458
100
AcDbArc
 50
94.49999999999757
 51
180.0
  0
ARC
  5
123
330
3C
100
AcDbEntity
  8
1
  6
Continuous
 62
     7
100
AcDbCircle
 10
243.8291301607297
 20
114.711090153245
 30
0.0
 40
3.999999999999972
100
AcDbArc
 50
-85.50000000000127
 51
0.0
  0
ARC
  5
124
330
3C
100
AcDbEntity
  8
1
  6
Continuous
 62
     7
100
AcDbCircle
 10
269.3291301607298
 20
114.711090153245
 30
0.0
 40
4.000000000000171
100
AcDbArc
 50
180.0
 51
-94.50000000000281
  0
ARC
  5
125
330
3C
100
AcDbEntity
  8
1
  6
Continuous
 62
     7
100
AcDbCircle
 10
279.0791301607298
 20
110.224962151446
 30
0.0
 40
0.4999999999998295
100
AcDbArc
 50
0.0
 51
85.50000000002191
  0
ARC
  5
126
330
3C
100
AcDbEntity
  8
1
  6
Continuous
 62
     7
100
AcDbCircle
 10
131.0953300280437
 20
361.5022166312677
 30
0.0
 40
5.999999999999822
100
AcDbArc
 50
161.3282819359914
 51
180.0
  0
ARC
  5
127
330
3C
100
AcDbEntity
  8
1
  6
Continuous
 62
     7
100
AcDbCircle
 10
95.09533002804369
 20
361.5022166312677
 30
0.0
 40
6.000000000000014
100
AcDbArc
 50
0.0
 51
18.67171806400767
  0
ENDBLK
  5
3E
330
3C
100
AcDbEntity
  8
0
100
AcDbBlockEnd
  0
BLOCK
  5
40
330
3F
100
AcDbEntity
  8
0
100
AcDbBlockBegin
  2
11-3
 70
     0
 71
     0
 10
-323.0774256832158
 20
217.9249590796755
 30
0.0
  3
11-3
  1

  0
LINE
  5
128
330
3F
100
AcDbEntity
  8
1
  6
Continuous
 62
     7
100
AcDbLine
 10
113.0953300280437
 20
153.2234208183125
 30
0.0
 11
113.8741683960392
 21
153.2234208183125
 31
0.0
  0
LINE
  5
129
330
3F
100
AcDbEntity
  8
1
  6
Continuous
 62
     7
100
AcDbLine
 10
112.3164916600482
 20
153.2234208183125
 30
0.0
 11
113.0953300280437
 21
153.2234208183125
 31
0.0
  0
LINE
  5
12A
330
3F
100
AcDbEntity
  8
1
  6
Continuous
 62
     7
100
AcDbLine
 10
143.0953300280437
 20
182.4445824503171
 30
0.0
 11
143.0953300280437
 21
183.2234208183125
 31
0.0
  0
LINE
  5
12B
330
3F
100
AcDbEntity
  8
1
  6
Continuous
 62
     7
100
AcDbLine
 10
143.0953300280437
 20
183.2234208183125
 30
0.0
 11
143.0953300280437
 21
184.002259186308
 31
0.0
  0
LINE
  5
12C
330
3F
100
AcDbEntity
  8
1
  6
Continuous
 62
     7
100
AcDbLine
 10
83.09533002804363
 20
184.002259186308
 30
0.0
 11
83.09533002804363
 21
183.2234208183125
 31
0.0
  0
LINE
  5
12D
330
3F
100
AcDbEntity
  8
1
  6
Continuous
 62
     7
100
AcDbLine
 10
83.09533002804363
 20
183.2234208183125
 30
0.0
 11
83.09533002804363
 21
182.4445824503171
 31
0.0
  0
LINE
  5
12E
330
3F
100
AcDbEntity
  8
1
  6
Continuous
 62
     7
100
AcDbLine
 10
113.8741683960392
 20
213.2234208183125
 30
0.0
 11
113.0953300280438
 21
213.2234208183125
 31
0.0
  0
LINE
  5
12F
330
3F
100
AcDbEntity
  8
1
  6
Continuous
 62
     7
100
AcDbLine
 10
113.0953300280438
 20
213.2234208183125
 30
0.0
 11
112.3164916600482
 21
213.2234208183125
 31
0.0
  0
LINE
  5
130
330
3F
100
AcDbEntity
  8
1
  6
Continuous
 62
     7
100
AcDbLine
 10
111.7946153713833
 20
214.1037059583155
 30
0.0
 11
111.668841734756
 21
212.628643768876
 31
0.0
  0
LINE
  5
131
330
3F
100
AcDbEntity
  8
1
  6
Continuous
 62
     7
100
AcDbLine
 10
143.9756151680467
 20
181.9227061616522
 30
0.0
 11
132.8074491701354
 21
180.9704338696284
 31
0.0
  0
LINE
  5
132
330
3F
100
AcDbEntity
  8
1
  6
Continuous
 62
     7
100
AcDbLine
 10
144.5703922174833
 20
182.5703560869444
 30
0.0
 11
144.5703922174833
 21
183.8764855496807
 31
0.0
  0
LINE
  5
133
330
3F
100
AcDbEntity
  8
1
  6
Continuous
 62
     7
100
AcDbLine
 10
143.9756151680467
 20
184.5241354749729
 30
0.0
 11
132.8074491701354
 21
185.4764077669967
 31
0.0
  0
LINE
  5
134
330
3F
100
AcDbEntity
  8
1
  6
Continuous
 62
     7
100
AcDbLine
 10
133.4284925956327
 20
184.4734208183125
 30
0.0
 11
142.8812665796842
 21
184.4734208183125
 31
0.0
  0
LINE
  5
135
330
3F
100
AcDbEntity
  8
1
  6
Continuous
 62
     7
100
AcDbLine
 10
133.4284925956327
 20
181.9734208183126
 30
0.0
 11
142.8812665796842
 21
181.9734208183126
 31
0.0
  0
LINE
  5
136
330
3F
100
AcDbEntity
  8
1
  6
Continuous
 62
     7
100
AcDbLine
 10
114.3960446847041
 20
214.1037059583155
 30
0.0
 11
115.3483169767279
 21
202.9355399604043
 31
0.0
  0
LINE
  5
137
330
3F
100
AcDbEntity
  8
1
  6
Continuous
 62
     7
100
AcDbLine
 10
113.7483947594118
 20
214.6984830077521
 30
0.0
 11
112.4422652966756
 21
214.6984830077521
 31
0.0
  0
LINE
  5
138
330
3F
100
AcDbEntity
  8
1
  6
Continuous
 62
     7
100
AcDbLine
 10
111.668841734756
 20
212.628643768876
 30
0.0
 11
110.8423430793595
 21
202.9355399604043
 31
0.0
  0
LINE
  5
139
330
3F
100
AcDbEntity
  8
1
  6
Continuous
 62
     7
100
AcDbLine
 10
111.8453300280437
 20
203.5565833859014
 30
0.0
 11
111.8453300280437
 21
213.009357369953
 31
0.0
  0
LINE
  5
13A
330
3F
100
AcDbEntity
  8
1
  6
Continuous
 62
     7
100
AcDbLine
 10
114.3453300280437
 20
203.5565833859014
 30
0.0
 11
114.3453300280438
 21
213.009357369953
 31
0.0
  0
LINE
  5
13B
330
3F
100
AcDbEntity
  8
1
  6
Continuous
 62
     7
100
AcDbLine
 10
82.21504488804072
 20
184.5241354749729
 30
0.0
 11
93.383210885952
 21
185.4764077669967
 31
0.0
  0
LINE
  5
13C
330
3F
100
AcDbEntity
  8
1
  6
Continuous
 62
     7
100
AcDbLine
 10
81.62026783860421
 20
183.8764855496806
 30
0.0
 11
81.62026783860421
 21
182.5703560869444
 31
0.0
  0
LINE
  5
13D
330
3F
100
AcDbEntity
  8
1
  6
Continuous
 62
     7
100
AcDbLine
 10
82.21504488804084
 20
181.9227061616522
 30
0.0
 11
93.383210885952
 21
180.9704338696284
 31
0.0
  0
LINE
  5
13E
330
3F
100
AcDbEntity
  8
1
  6
Continuous
 62
     7
100
AcDbLine
 10
92.76216746045481
 20
181.9734208183125
 30
0.0
 11
83.30939347640333
 21
181.9734208183125
 31
0.0
  0
LINE
  5
13F
330
3F
100
AcDbEntity
  8
1
  6
Continuous
 62
     7
100
AcDbLine
 10
92.76216746045481
 20
184.4734208183125
 30
0.0
 11
83.30939347640333
 21
184.4734208183125
 31
0.0
  0
LINE
  5
140
330
3F
100
AcDbEntity
  8
1
  6
Continuous
 62
     7
100
AcDbLine
 10
111.8453300280437
 20
162.8902582507236
 30
0.0
 11
111.8453300280437
 21
153.4374842666721
 31
0.0
  0
LINE
  5
141
330
3F
100
AcDbEntity
  8
1
  6
Continuous
 62
     7
100
AcDbLine
 10
114.3453300280437
 20
162.8902582507236
 30
0.0
 11
114.3453300280437
 21
153.4374842666721
 31
0.0
  0
LINE
  5
142
330
3F
100
AcDbEntity
  8
1
  6
Continuous
 62
     7
100
AcDbLine
 10
114.3960446847041
 20
152.3431356783095
 30
0.0
 11
115.3483169767279
 21
163.5113016762208
 31
0.0
  0
LINE
  5
143
330
3F
100
AcDbEntity
  8
1
  6
Continuous
 62
     7
100
AcDbLine
 10
113.7483947594118
 20
151.748358628873
 30
0.0
 11
112.4422652966756
 21
151.748358628873
 31
0.0
  0
LINE
  5
144
330
3F
100
AcDbEntity
  8
1
  6
Continuous
 62
     7
100
AcDbLine
 10
111.7946153713833
 20
152.3431356783095
 30
0.0
 11
110.8423430793595
 21
163.5113016762208
 31
0.0
  0
LINE
  5
145
330
3F
100
AcDbEntity
  8
1
  6
Continuous
 62
     7
100
AcDbLine
 10
86.62026783860392
 20
333.2234208183126
 30
0.0
 11
96.09533002804352
 21
333.2234208183126
 31
0.0
  0
LINE
  5
146
330
3F
100
AcDbEntity
  8
1
  6
Continuous
 62
     7
100
AcDbLine
 10
111.8453300280436
 20
333.2234208183126
 30
0.0
 11
113.0953300280437
 21
333.2234208183126
 31
0.0
  0
LINE
  5
147
330
3F
100
AcDbEntity
  8
1
  6
Continuous
 62
     7
100
AcDbLine
 10
111.8453300280436
 20
309.2234208183126
 30
0.0
 11
113.0953300280436
 21
309.2234208183126
 31
0.0
  0
LINE
  5
148
330
3F
100
AcDbEntity
  8
1
  6
Continuous
 62
     7
100
AcDbLine
 10
100.8453300280436
 20
309.2234208183126
 30
0.0
 11
111.8453300280436
 21
309.2234208183126
 31
0.0
  0
LINE
  5
149
330
3F
100
AcDbEntity
  8
1
  6
Continuous
 62
     7
100
AcDbLine
 10
107.9453300280437
 20
333.2234208183126
 30
0.0
 11
111.8453300280436
 21
333.2234208183126
 31
0.0
  0
LINE
  5
14A
330
3F
100
AcDbEntity
  8
1
  6
Continuous
 62
     7
100
AcDbLine
 10
111.8453300280436
 20
310.7049885050847
 30
0.0
 11
111.8453300280436
 21
331.7933840062172
 31
0.0
  0
LINE
  5
14B
330
3F
100
AcDbEntity
  8
1
  6
Continuous
 62
     7
100
AcDbLine
 10
82.91151599516019
 20
315.061561147145
 30
0.0
 11
81.64508188755423
 21
327.7259022232076
 31
0.0
  0
LINE
  5
14C
330
3F
100
AcDbEntity
  8
1
  6
Continuous
 62
     7
100
AcDbLine
 10
99.09533002804363
 20
309.2234208183126
 30
0.0
 11
100.8453300280436
 21
309.2234208183126
 31
0.0
  0
LINE
  5
14D
330
3F
100
AcDbEntity
  8
1
  6
Continuous
 62
     7
100
AcDbLine
 10
96.09533002804352
 20
333.2234208183126
 30
0.0
 11
98.09533002804363
 21
333.2234208183126
 31
0.0
  0
LINE
  5
14E
330
3F
100
AcDbEntity
  8
1
  6
Continuous
 62
     7
100
AcDbLine
 10
98.09533002804363
 20
333.2234208183126
 30
0.0
 11
103.0953300280436
 21
333.2234208183126
 31
0.0
  0
LINE
  5
14F
330
3F
100
AcDbEntity
  8
1
  6
Continuous
 62
     7
100
AcDbLine
 10
103.0953300280436
 20
333.2234208183126
 30
0.0
 11
107.9453300280437
 21
333.2234208183126
 31
0.0
  0
LINE
  5
150
330
3F
100
AcDbEntity
  8
1
  6
Continuous
 62
     7
100
AcDbLine
 10
130.0953300280436
 20
333.2234208183126
 30
0.0
 11
139.5703922174832
 21
333.2234208183126
 31
0.0
  0
LINE
  5
151
330
3F
100
AcDbEntity
  8
1
  6
Continuous
 62
     7
100
AcDbLine
 10
113.0953300280437
 20
333.2234208183126
 30
0.0
 11
114.3453300280436
 21
333.2234208183126
 31
0.0
  0
LINE
  5
152
330
3F
100
AcDbEntity
  8
1
  6
Continuous
 62
     7
100
AcDbLine
 10
113.0953300280436
 20
309.2234208183126
 30
0.0
 11
114.3453300280436
 21
309.2234208183126
 31
0.0
  0
LINE
  5
153
330
3F
100
AcDbEntity
  8
1
  6
Continuous
 62
     7
100
AcDbLine
 10
114.3453300280436
 20
309.2234208183126
 30
0.0
 11
125.3453300280436
 21
309.2234208183126
 31
0.0
  0
LINE
  5
154
330
3F
100
AcDbEntity
  8
1
  6
Continuous
 62
     7
100
AcDbLine
 10
114.3453300280436
 20
333.2234208183126
 30
0.0
 11
118.2453300280437
 21
333.2234208183126
 31
0.0
  0
LINE
  5
155
330
3F
100
AcDbEntity
  8
1
  6
Continuous
 62
     7
100
AcDbLine
 10
114.3453300280436
 20
331.7933840062172
 30
0.0
 11
114.3453300280436
 21
310.7049885050847
 31
0.0
  0
LINE
  5
156
330
3F
100
AcDbEntity
  8
1
  6
Continuous
 62
     7
100
AcDbLine
 10
144.5455781685331
 20
327.7259022232076
 30
0.0
 11
143.2791440609268
 21
315.061561147145
 31
0.0
  0
LINE
  5
157
330
3F
100
AcDbEntity
  8
1
  6
Continuous
 62
     7
100
AcDbLine
 10
125.3453300280436
 20
309.2234208183126
 30
0.0
 11
127.0953300280436
 21
309.2234208183126
 31
0.0
  0
LINE
  5
158
330
3F
100
AcDbEntity
  8
1
  6
Continuous
 62
     7
100
AcDbLine
 10
128.0953300280436
 20
333.2234208183126
 30
0.0
 11
130.0953300280436
 21
333.2234208183126
 31
0.0
  0
LINE
  5
159
330
3F
100
AcDbEntity
  8
1
  6
Continuous
 62
     7
100
AcDbLine
 10
123.0953300280436
 20
333.2234208183126
 30
0.0
 11
128.0953300280436
 21
333.2234208183126
 31
0.0
  0
LINE
  5
15A
330
3F
100
AcDbEntity
  8
1
  6
Continuous
 62
     7
100
AcDbLine
 10
118.2453300280437
 20
333.2234208183126
 30
0.0
 11
123.0953300280436
 21
333.2234208183126
 31
0.0
  0
LINE
  5
15B
330
3F
100
AcDbEntity
  8
1
  6
Continuous
 62
     7
100
AcDbLine
 10
222.2175718174761
 20
209.6984830077522
 30
0.0
 11
222.2175718174761
 21
200.2234208183125
 31
0.0
  0
LINE
  5
15C
330
3F
100
AcDbEntity
  8
1
  6
Continuous
 62
     7
100
AcDbLine
 10
222.2175718174761
 20
184.4734208183125
 30
0.0
 11
222.2175718174761
 21
183.2234208183125
 31
0.0
  0
LINE
  5
15D
330
3F
100
AcDbEntity
  8
1
  6
Continuous
 62
     7
100
AcDbLine
 10
198.2175718174761
 20
184.4734208183125
 30
0.0
 11
198.2175718174761
 21
183.2234208183125
 31
0.0
  0
LINE
  5
15E
330
3F
100
AcDbEntity
  8
1
  6
Continuous
 62
     7
100
AcDbLine
 10
198.2175718174761
 20
195.4734208183125
 30
0.0
 11
198.2175718174761
 21
184.4734208183125
 31
0.0
  0
LINE
  5
15F
330
3F
100
AcDbEntity
  8
1
  6
Continuous
 62
     7
100
AcDbLine
 10
222.2175718174761
 20
188.3734208183125
 30
0.0
 11
222.2175718174761
 21
184.4734208183125
 31
0.0
  0
LINE
  5
160
330
3F
100
AcDbEntity
  8
1
  6
Continuous
 62
     7
100
AcDbLine
 10
199.6991395042482
 20
184.4734208183125
 30
0.0
 11
220.7875350053807
 21
184.4734208183125
 31
0.0
  0
LINE
  5
161
330
3F
100
AcDbEntity
  8
1
  6
Continuous
 62
     7
100
AcDbLine
 10
204.0557121463085
 20
213.4072348511958
 30
0.0
 11
216.7200532223711
 21
214.673668958802
 31
0.0
  0
LINE
  5
162
330
3F
100
AcDbEntity
  8
1
  6
Continuous
 62
     7
100
AcDbLine
 10
198.2175718174761
 20
197.2234208183125
 30
0.0
 11
198.2175718174761
 21
195.4734208183125
 31
0.0
  0
LINE
  5
163
330
3F
100
AcDbEntity
  8
1
  6
Continuous
 62
     7
100
AcDbLine
 10
222.2175718174761
 20
200.2234208183125
 30
0.0
 11
222.2175718174761
 21
198.2234208183125
 31
0.0
  0
LINE
  5
164
330
3F
100
AcDbEntity
  8
1
  6
Continuous
 62
     7
100
AcDbLine
 10
222.2175718174761
 20
198.2234208183125
 30
0.0
 11
222.2175718174761
 21
193.2234208183125
 31
0.0
  0
LINE
  5
165
330
3F
100
AcDbEntity
  8
1
  6
Continuous
 62
     7
100
AcDbLine
 10
222.2175718174761
 20
193.2234208183125
 30
0.0
 11
222.2175718174761
 21
188.3734208183125
 31
0.0
  0
LINE
  5
166
330
3F
100
AcDbEntity
  8
1
  6
Continuous
 62
     7
100
AcDbLine
 10
222.2175718174761
 20
166.2234208183125
 30
0.0
 11
222.2175718174761
 21
156.748358628873
 31
0.0
  0
LINE
  5
167
330
3F
100
AcDbEntity
  8
1
  6
Continuous
 62
     7
100
AcDbLine
 10
222.2175718174761
 20
183.2234208183125
 30
0.0
 11
222.2175718174761
 21
181.9734208183125
 31
0.0
  0
LINE
  5
168
330
3F
100
AcDbEntity
  8
1
  6
Continuous
 62
     7
100
AcDbLine
 10
198.2175718174761
 20
183.2234208183125
 30
0.0
 11
198.2175718174761
 21
181.9734208183125
 31
0.0
  0
LINE
  5
169
330
3F
100
AcDbEntity
  8
1
  6
Continuous
 62
     7
100
AcDbLine
 10
198.2175718174761
 20
181.9734208183125
 30
0.0
 11
198.2175718174761
 21
170.9734208183125
 31
0.0
  0
LINE
  5
16A
330
3F
100
AcDbEntity
  8
1
  6
Continuous
 62
     7
100
AcDbLine
 10
222.2175718174761
 20
181.9734208183125
 30
0.0
 11
222.2175718174761
 21
178.0734208183125
 31
0.0
  0
LINE
  5
16B
330
3F
100
AcDbEntity
  8
1
  6
Continuous
 62
     7
100
AcDbLine
 10
220.7875350053807
 20
181.9734208183125
 30
0.0
 11
199.6991395042482
 21
181.9734208183125
 31
0.0
  0
LINE
  5
16C
330
3F
100
AcDbEntity
  8
1
  6
Continuous
 62
     7
100
AcDbLine
 10
216.7200532223711
 20
151.773172677823
 30
0.0
 11
204.0557121463085
 21
153.0396067854293
 31
0.0
  0
LINE
  5
16D
330
3F
100
AcDbEntity
  8
1
  6
Continuous
 62
     7
100
AcDbLine
 10
198.2175718174761
 20
170.9734208183125
 30
0.0
 11
198.2175718174761
 21
169.2234208183125
 31
0.0
  0
LINE
  5
16E
330
3F
100
AcDbEntity
  8
1
  6
Continuous
 62
     7
100
AcDbLine
 10
222.2175718174761
 20
168.2234208183125
 30
0.0
 11
222.2175718174761
 21
166.2234208183125
 31
0.0
  0
LINE
  5
16F
330
3F
100
AcDbEntity
  8
1
  6
Continuous
 62
     7
100
AcDbLine
 10
222.2175718174761
 20
173.2234208183125
 30
0.0
 11
222.2175718174761
 21
168.2234208183125
 31
0.0
  0
LINE
  5
170
330
3F
100
AcDbEntity
  8
1
  6
Continuous
 62
     7
100
AcDbLine
 10
222.2175718174761
 20
178.0734208183125
 30
0.0
 11
222.2175718174761
 21
173.2234208183125
 31
0.0
  0
ARC
  5
171
330
3F
100
AcDbEntity
  8
1
  6
Continuous
 62
     7
100
AcDbCircle
 10
113.8741683960392
 20
153.8734208183125
 30
0.0
 40
0.6500000000000057
100
AcDbArc
 50
-90.0
 51
-4.87363187726575
  0
ARC
  5
172
330
3F
100
AcDbEntity
  8
1
  6
Continuous
 62
     7
100
AcDbCircle
 10
112.3164916600482
 20
153.8734208183125
 30
0.0
 40
0.6499999999999385
100
AcDbArc
 50
-175.1263681227343
 51
-90.0
  0
ARC
  5
173
330
3F
100
AcDbEntity
  8
1
  6
Continuous
 62
     7
100
AcDbCircle
 10
142.4453300280438
 20
182.4445824503171
 30
0.0
 40
0.6500000000000421
100
AcDbArc
 50
-85.12636812274509
 51
0.0
  0
ARC
  5
174
330
3F
100
AcDbEntity
  8
1
  6
Continuous
 62
     7
100
AcDbCircle
 10
142.4453300280438
 20
184.002259186308
 30
0.0
 40
0.649999999999892
100
AcDbArc
 50
0.0
 51
85.12636812273489
  0
ARC
  5
175
330
3F
100
AcDbEntity
  8
1
  6
Continuous
 62
     7
100
AcDbCircle
 10
83.74533002804373
 20
184.002259186308
 30
0.0
 40
0.6500000000000235
100
AcDbArc
 50
94.8736318772651
 51
180.0
  0
ARC
  5
176
330
3F
100
AcDbEntity
  8
1
  6
Continuous
 62
     7
100
AcDbCircle
 10
83.74533002804373
 20
182.4445824503171
 30
0.0
 40
0.650000000000091
100
AcDbArc
 50
180.0
 51
-94.8736318772649
  0
ARC
  5
177
330
3F
100
AcDbEntity
  8
1
  6
Continuous
 62
     7
100
AcDbCircle
 10
113.8741683960392
 20
212.5734208183125
 30
0.0
 40
0.6499999999999457
100
AcDbArc
 50
4.87363187727323
 51
90.0
  0
ARC
  5
178
330
3F
100
AcDbEntity
  8
1
  6
Continuous
 62
     7
100
AcDbCircle
 10
112.3164916600482
 20
212.5734208183125
 30
0.0
 40
0.6499999999999773
100
AcDbArc
 50
90.0
 51
175.1263681227268
  0
ARC
  5
179
330
3F
100
AcDbEntity
  8
1
  6
Continuous
 62
     7
100
AcDbCircle
 10
113.0953300280438
 20
183.2234208183125
 30
0.0
 40
17.00000000000009
100
AcDbArc
 50
162.7181377568481
 51
165.5224878140701
  0
ARC
  5
17A
330
3F
100
AcDbEntity
  8
1
  6
Continuous
 62
     7
100
AcDbCircle
 10
113.0953300280438
 20
183.2234208183125
 30
0.0
 40
17.00000000000001
100
AcDbArc
 50
-165.5224878140705
 51
-162.7181377568485
  0
ARC
  5
17B
330
3F
100
AcDbEntity
  8
1
  6
Continuous
 62
     7
100
AcDbCircle
 10
113.0953300280438
 20
183.2234208183125
 30
0.0
 40
17.00000000000006
100
AcDbArc
 50
-162.7181377568485
 51
-107.2818622431524
  0
ARC
  5
17C
330
3F
100
AcDbEntity
  8
1
  6
Continuous
 62
     7
100
AcDbCircle
 10
113.0953300280438
 20
183.2234208183125
 30
0.0
 40
17.00000000000002
100
AcDbArc
 50
-107.2818622431524
 51
-104.4775121859303
  0
ARC
  5
17D
330
3F
100
AcDbEntity
  8
1
  6
Continuous
 62
     7
100
AcDbCircle
 10
113.0953300280438
 20
183.2234208183125
 30
0.0
 40
16.99999999999994
100
AcDbArc
 50
-75.52248781407037
 51
-72.71813775684828
  0
ARC
  5
17E
330
3F
100
AcDbEntity
  8
1
  6
Continuous
 62
     7
100
AcDbCircle
 10
113.0953300280438
 20
183.2234208183125
 30
0.0
 40
16.99999999999995
100
AcDbArc
 50
-72.71813775684828
 51
-17.28186224315176
  0
ARC
  5
17F
330
3F
100
AcDbEntity
  8
1
  6
Continuous
 62
     7
100
AcDbCircle
 10
113.0953300280438
 20
183.2234208183125
 30
0.0
 40
16.99999999999987
100
AcDbArc
 50
-17.28186224315176
 51
-14.47751218592966
  0
ARC
  5
180
330
3F
100
AcDbEntity
  8
1
  6
Continuous
 62
     7
100
AcDbCircle
 10
113.0953300280438
 20
183.2234208183125
 30
0.0
 40
16.99999999999988
100
AcDbArc
 50
14.47751218593003
 51
17.28186224315213
  0
ARC
  5
181
330
3F
100
AcDbEntity
  8
1
  6
Continuous
 62
     7
100
AcDbCircle
 10
113.0953300280438
 20
183.2234208183125
 30
0.0
 40
16.9999999999999
100
AcDbArc
 50
17.28186224315213
 51
72.71813775684838
  0
ARC
  5
182
330
3F
100
AcDbEntity
  8
1
  6
Continuous
 62
     7
100
AcDbCircle
 10
113.0953300280438
 20
183.2234208183125
 30
0.0
 40
17.00000000000006
100
AcDbArc
 50
72.71813775684838
 51
75.52248781407049
  0
ARC
  5
183
330
3F
100
AcDbEntity
  8
1
  6
Continuous
 62
     7
100
AcDbCircle
 10
113.0953300280438
 20
183.2234208183125
 30
0.0
 40
17.00000000000012
100
AcDbArc
 50
104.4775121859302
 51
107.2818622431523
  0
ARC
  5
184
330
3F
100
AcDbEntity
  8
1
  6
Continuous
 62
     7
100
AcDbCircle
 10
113.0953300280438
 20
183.2234208183125
 30
0.0
 40
17.00000000000012
100
AcDbArc
 50
107.2818622431523
 51
162.7181377568481
  0
ARC
  5
185
330
3F
100
AcDbEntity
  8
1
  6
Continuous
 62
     7
100
AcDbCircle
 10
145.7361491064354
 20
327.2410232031115
 30
0.0
 40
49.99999999999998
100
AcDbArc
 50
173.1282146504742
 51
-158.8781819526707
  0
ARC
  5
186
330
3F
100
AcDbEntity
  8
1
  6
Continuous
 62
     7
100
AcDbCircle
 10
168.8203300280435
 20
321.2234208183126
 30
0.0
 40
58.22499999999989
100
AcDbArc
 50
168.106273892053
 51
-168.106273892053
  0
ARC
  5
187
330
3F
100
AcDbEntity
  8
1
  6
Continuous
 62
     7
100
AcDbCircle
 10
105.5093754658225
 20
368.8796025694279
 30
0.0
 40
60.00000000000006
100
AcDbArc
 50
-110.1258468260152
 51
-96.13668840087702
  0
ARC
  5
188
330
3F
100
AcDbEntity
  8
1
  6
Continuous
 62
     7
100
AcDbCircle
 10
80.45451094965182
 20
327.2410232031115
 30
0.0
 40
49.99999999999987
100
AcDbArc
 50
-21.12181804732932
 51
6.87178534952584
  0
ARC
  5
189
330
3F
100
AcDbEntity
  8
1
  6
Continuous
 62
     7
100
AcDbCircle
 10
57.37033002804373
 20
321.2234208183126
 30
0.0
 40
58.22499999999987
100
AcDbArc
 50
-11.89372610794703
 51
11.89372610794703
  0
ARC
  5
18A
330
3F
100
AcDbEntity
  8
1
  6
Continuous
 62
     7
100
AcDbCircle
 10
120.6812845902647
 20
368.8796025694279
 30
0.0
 40
59.99999999999996
100
AcDbArc
 50
-83.86331159912294
 51
-69.87415317398488
  0
ARC
  5
18B
330
3F
100
AcDbEntity
  8
1
  6
Continuous
 62
     7
100
AcDbCircle
 10
216.235174202275
 20
150.5826017399206
 30
0.0
 40
50.00000000000001
100
AcDbArc
 50
83.12821465047414
 51
111.1218180473292
  0
ARC
  5
18C
330
3F
100
AcDbEntity
  8
1
  6
Continuous
 62
     7
100
AcDbCircle
 10
210.2175718174761
 20
127.4984208183125
 30
0.0
 40
58.22499999999999
100
AcDbArc
 50
78.10627389205301
 51
101.893726107947
  0
ARC
  5
18D
330
3F
100
AcDbEntity
  8
1
  6
Continuous
 62
     7
100
AcDbCircle
 10
257.8737535685913
 20
190.8093753805337
 30
0.0
 40
59.99999999999998
100
AcDbArc
 50
159.8741531739849
 51
173.8633115991231
  0
ARC
  5
18E
330
3F
100
AcDbEntity
  8
1
  6
Continuous
 62
     7
100
AcDbCircle
 10
216.235174202275
 20
215.8642398967044
 30
0.0
 40
49.99999999999997
100
AcDbArc
 50
-111.1218180473292
 51
-83.12821465047414
  0
ARC
  5
18F
330
3F
100
AcDbEntity
  8
1
  6
Continuous
 62
     7
100
AcDbCircle
 10
210.2175718174761
 20
238.9484208183125
 30
0.0
 40
58.22500000000002
100
AcDbArc
 50
-101.893726107947
 51
-78.10627389205301
  0
ARC
  5
190
330
3F
100
AcDbEntity
  8
1
  6
Continuous
 62
     7
100
AcDbCircle
 10
257.8737535685913
 20
175.6374662560913
 30
0.0
 40
59.99999999999986
100
AcDbArc
 50
-173.863311599123
 51
-159.8741531739848
  0
CIRCLE
  5
191
330
3F
100
AcDbEntity
  8
1
  6
Continuous
 62
     7
100
AcDbCircle
 10
113.0953300280438
 20
183.2234208183125
 30
0.0
 40
14.0
  0
ARC
  5
192
330
3F
100
AcDbEntity
  8
1
  6
Continuous
 62
     7
100
AcDbCircle
 10
113.7483947594118
 20
152.398358628873
 30
0.0
 40
0.6500000000000057
100
AcDbArc
 50
-90.0
 51
-4.87363187727498
  0
ARC
  5
193
330
3F
100
AcDbEntity
  8
1
  6
Continuous
 62
     7
100
AcDbCircle
 10
112.4422652966756
 20
152.398358628873
 30
0.0
 40
0.6500000000000472
100
AcDbArc
 50
-175.126368122725
 51
-90.0
  0
ARC
  5
194
330
3F
100
AcDbEntity
  8
1
  6
Continuous
 62
     7
100
AcDbCircle
 10
113.7483947594118
 20
214.0484830077521
 30
0.0
 40
0.6500000000000352
100
AcDbArc
 50
4.8736318772625
 51
90.0
  0
ARC
  5
195
330
3F
100
AcDbEntity
  8
1
  6
Continuous
 62
     7
100
AcDbCircle
 10
112.4422652966757
 20
214.0484830077521
 30
0.0
 40
0.6499999999999773
100
AcDbArc
 50
90.00000000000878
 51
175.1263681227383
  0
ARC
  5
196
330
3F
100
AcDbEntity
  8
1
  6
Continuous
 62
     7
100
AcDbCircle
 10
82.27026783860418
 20
183.8764855496806
 30
0.0
 40
0.6500000000000282
100
AcDbArc
 50
94.8736318772701
 51
180.0
  0
ARC
  5
197
330
3F
100
AcDbEntity
  8
1
  6
Continuous
 62
     7
100
AcDbCircle
 10
82.27026783860418
 20
182.5703560869444
 30
0.0
 40
0.6499999999999773
100
AcDbArc
 50
180.0
 51
-94.87363187726075
  0
ARC
  5
198
330
3F
100
AcDbEntity
  8
1
  6
Continuous
 62
     7
100
AcDbCircle
 10
143.9203922174833
 20
182.5703560869444
 30
0.0
 40
0.6499999999999361
100
AcDbArc
 50
-85.12636812273675
 51
0.0
  0
ARC
  5
199
330
3F
100
AcDbEntity
  8
1
  6
Continuous
 62
     7
100
AcDbCircle
 10
143.9203922174832
 20
183.8764855496807
 30
0.0
 40
0.650000000000091
100
AcDbArc
 50
0.0
 51
85.12636812272676
  0
ARC
  5
19A
330
3F
100
AcDbEntity
  8
1
  6
Continuous
 62
     7
100
AcDbCircle
 10
106.856805077561
 20
163.1714681342918
 30
0.0
 40
4.000000000000034
100
AcDbArc
 50
20.83134972083708
 51
72.71813775684829
  0
ARC
  5
19B
330
3F
100
AcDbEntity
  8
1
  6
Continuous
 62
     7
100
AcDbCircle
 10
119.3338549785264
 20
163.1714681342918
 30
0.0
 40
4.000000000000034
100
AcDbArc
 50
159.1686502791629
 51
175.1263681227298
  0
ARC
  5
19C
330
3F
100
AcDbEntity
  8
1
  6
Continuous
 62
     7
100
AcDbCircle
 10
107.8453300280437
 20
162.8902582507236
 30
0.0
 40
4.0
100
AcDbArc
 50
0.0
 51
75.52248781407005
  0
ARC
  5
19D
330
3F
100
AcDbEntity
  8
1
  6
Continuous
 62
     7
100
AcDbCircle
 10
118.3453300280437
 20
162.8902582507236
 30
0.0
 40
3.999999999999989
100
AcDbArc
 50
104.47751218593
 51
180.0
  0
ARC
  5
19E
330
3F
100
AcDbEntity
  8
1
  6
Continuous
 62
     7
100
AcDbCircle
 10
133.4284925956326
 20
177.9734208183126
 30
0.0
 40
4.0
100
AcDbArc
 50
89.99999999999878
 51
165.5224878140701
  0
ARC
  5
19F
330
3F
100
AcDbEntity
  8
1
  6
Continuous
 62
     7
100
AcDbCircle
 10
133.4284925956327
 20
188.4734208183125
 30
0.0
 40
4.000000000000071
100
AcDbArc
 50
-165.5224878140704
 51
-90.0
  0
ARC
  5
1A0
330
3F
100
AcDbEntity
  8
1
  6
Continuous
 62
     7
100
AcDbCircle
 10
118.3453300280437
 20
203.5565833859014
 30
0.0
 40
4.0
100
AcDbArc
 50
180.0
 51
-104.4775121859304
  0
ARC
  5
1A1
330
3F
100
AcDbEntity
  8
1
  6
Continuous
 62
     7
100
AcDbCircle
 10
107.8453300280437
 20
203.5565833859014
 30
0.0
 40
3.999999999999879
100
AcDbArc
 50
-75.52248781406964
 51
0.0
  0
ARC
  5
1A2
330
3F
100
AcDbEntity
  8
1
  6
Continuous
 62
     7
100
AcDbCircle
 10
92.76216746045481
 20
188.4734208183125
 30
0.0
 40
4.0
100
AcDbArc
 50
-90.0
 51
-14.47751218592986
  0
ARC
  5
1A3
330
3F
100
AcDbEntity
  8
1
  6
Continuous
 62
     7
100
AcDbCircle
 10
92.76216746045481
 20
177.9734208183125
 30
0.0
 40
4.000000000000044
100
AcDbArc
 50
14.47751218593144
 51
90.0
  0
ARC
  5
1A4
330
3F
100
AcDbEntity
  8
1
  6
Continuous
 62
     7
100
AcDbCircle
 10
93.04337734402299
 20
189.4619457687952
 30
0.0
 40
4.000000000000016
100
AcDbArc
 50
-85.12636812272946
 51
-17.28186224315197
  0
ARC
  5
1A5
330
3F
100
AcDbEntity
  8
1
  6
Continuous
 62
     7
100
AcDbCircle
 10
93.04337734402299
 20
176.9848958678299
 30
0.0
 40
4.000000000000029
100
AcDbArc
 50
17.28186224315197
 51
85.12636812272946
  0
ARC
  5
1A6
330
3F
100
AcDbEntity
  8
1
  6
Continuous
 62
     7
100
AcDbCircle
 10
106.856805077561
 20
163.1714681342918
 30
0.0
 40
3.999999999999986
100
AcDbArc
 50
4.87363187727017
 51
20.83134972083708
  0
ARC
  5
1A7
330
3F
100
AcDbEntity
  8
1
  6
Continuous
 62
     7
100
AcDbCircle
 10
119.3338549785264
 20
163.1714681342918
 30
0.0
 40
3.999999999999998
100
AcDbArc
 50
107.2818622431519
 51
159.1686502791629
  0
ARC
  5
1A8
330
3F
100
AcDbEntity
  8
1
  6
Continuous
 62
     7
100
AcDbCircle
 10
133.1472827120644
 20
176.9848958678299
 30
0.0
 40
4.000000000000014
100
AcDbArc
 50
94.87363187727014
 51
162.7181377568479
  0
ARC
  5
1A9
330
3F
100
AcDbEntity
  8
1
  6
Continuous
 62
     7
100
AcDbCircle
 10
133.1472827120644
 20
189.4619457687952
 30
0.0
 40
4.000000000000002
100
AcDbArc
 50
-162.7181377568479
 51
-94.87363187727014
  0
ARC
  5
1AA
330
3F
100
AcDbEntity
  8
1
  6
Continuous
 62
     7
100
AcDbCircle
 10
119.3338549785264
 20
203.2753735023331
 30
0.0
 40
3.999999999999985
100
AcDbArc
 50
-175.1263681227323
 51
-107.2818622431526
  0
ARC
  5
1AB
330
3F
100
AcDbEntity
  8
1
  6
Continuous
 62
     7
100
AcDbCircle
 10
106.856805077561
 20
203.2753735023331
 30
0.0
 40
3.999999999999831
100
AcDbArc
 50
-72.71813775684757
 51
-4.87363187726774
  0
ARC
  5
1AC
330
3F
100
AcDbEntity
  8
1
  6
Continuous
 62
     7
100
AcDbCircle
 10
86.62026783860392
 20
328.2234208183126
 30
0.0
 40
5.0
100
AcDbArc
 50
90.0
 51
-174.2894068624998
  0
ARC
  5
1AD
330
3F
100
AcDbEntity
  8
1
  6
Continuous
 62
     7
100
AcDbCircle
 10
85.89662756579043
 20
315.360072304208
 30
0.0
 40
3.000000000000269
100
AcDbArc
 50
-174.289406862501
 51
-110.1258468260174
  0
ARC
  5
1AE
330
3F
100
AcDbEntity
  8
1
  6
Continuous
 62
     7
100
AcDbCircle
 10
139.5703922174832
 20
328.2234208183126
 30
0.0
 40
4.999999999999952
100
AcDbArc
 50
-5.7105931375
 51
90.0
  0
ARC
  5
1AF
330
3F
100
AcDbEntity
  8
1
  6
Continuous
 62
     7
100
AcDbCircle
 10
140.294032490297
 20
315.360072304208
 30
0.0
 40
2.999999999999953
100
AcDbArc
 50
-69.87415317398821
 51
-5.71059313749986
  0
ARC
  5
1B0
330
3F
100
AcDbEntity
  8
1
  6
Continuous
 62
     7
100
AcDbCircle
 10
217.2175718174761
 20
209.6984830077522
 30
0.0
 40
5.0
100
AcDbArc
 50
0.0
 51
95.7105931375001
  0
ARC
  5
1B1
330
3F
100
AcDbEntity
  8
1
  6
Continuous
 62
     7
100
AcDbCircle
 10
204.3542233033715
 20
210.4221232805658
 30
0.0
 40
3.000000000000014
100
AcDbArc
 50
95.71059313749949
 51
159.8741531739846
  0
ARC
  5
1B2
330
3F
100
AcDbEntity
  8
1
  6
Continuous
 62
     7
100
AcDbCircle
 10
217.2175718174761
 20
156.748358628873
 30
0.0
 40
5.000000000000065
100
AcDbArc
 50
-95.71059313749987
 51
0.0
  0
ARC
  5
1B3
330
3F
100
AcDbEntity
  8
1
  6
Continuous
 62
     7
100
AcDbCircle
 10
204.3542233033715
 20
156.0247183560592
 30
0.0
 40
3.000000000000061
100
AcDbArc
 50
-159.8741531739826
 51
-95.71059313749964
  0
ENDBLK
  5
41
330
3F
100
AcDbEntity
  8
0
100
AcDbBlockEnd
  0
BLOCK
  5
43
330
42
100
AcDbEntity
  8
0
100
AcDbBlockBegin
  2
72-47
 70
     0
 71
     0
 10
-132.5828756158225
 20
193.5096352854419
 30
0.0
  3
72-47
  1

  0
LINE
  5
1B4
330
42
100
AcDbEntity
  8
1
  6
Continuous
 62
     7
100
AcDbLine
 10
226.5791301607297
 20
200.2234208183125
 30
0.0
 11
226.5791301607297
 21
199.6676927283116
 31
0.0
  0
LINE
  5
1B5
330
42
100
AcDbEntity
  8
1
  6
Continuous
 62
     7
100
AcDbLine
 10
225.3291301607297
 20
200.2234208183125
 30
0.0
 11
231.8291301607297
 21
200.2234208183125
 31
0.0
  0
LINE
  5
1B6
330
42
100
AcDbEntity
  8
1
  6
Continuous
 62
     7
100
AcDbLine
 10
225.3291301607297
 20
201.3765604387369
 30
0.0
 11
225.3291301607297
 21
200.2234208183125
 31
0.0
  0
LINE
  5
1B7
330
42
100
AcDbEntity
  8
1
  6
Continuous
 62
     7
100
AcDbLine
 10
229.0791301607297
 20
203.0129996265943
 30
0.0
 11
229.0791301607297
 21
202.0234208183125
 31
0.0
  0
LINE
  5
1B8
330
42
100
AcDbEntity
  8
1
  6
Continuous
 62
     7
100
AcDbLine
 10
228.0791301607297
 20
203.0129996265943
 30
0.0
 11
228.0791301607297
 21
202.0234208183125
 31
0.0
  0
LINE
  5
1B9
330
42
100
AcDbEntity
  8
1
  6
Continuous
 62
     7
100
AcDbLine
 10
228.0791301607297
 20
202.0234208183125
 30
0.0
 11
229.0791301607297
 21
202.0234208183125
 31
0.0
  0
LINE
  5
1BA
330
42
100
AcDbEntity
  8
1
  6
Continuous
 62
     7
100
AcDbLine
 10
231.8291301607297
 20
200.2234208183125
 30
0.0
 11
231.8291301607297
 21
201.3765604387369
 31
0.0
  0
LINE
  5
1BB
330
42
100
AcDbEntity
  8
1
  6
Continuous
 62
     2
100
AcDbLine
 10
230.5791301607297
 20
200.2234208183125
 30
0.0
 11
230.0791301607297
 21
199.3573954145281
 31
0.0
  0
LINE
  5
1BC
330
42
100
AcDbEntity
  8
1
  6
Continuous
 62
     7
100
AcDbLine
 10
230.5791301607297
 20
199.3573954145281
 30
0.0
 11
228.6750333111841
 21
199.3573954145281
 31
0.0
  0
LINE
  5
1BD
330
42
100
AcDbEntity
  8
1
  6
DASH_CENTER
 62
     2
100
AcDbLine
 10
228.5791301607297
 20
193.5096352854419
 30
0.0
 11
228.5791301607297
 21
203.6446571422326
 31
0.0
  0
LINE
  5
1BE
330
42
100
AcDbEntity
  8
1
  6
Continuous
 62
     7
100
AcDbLine
 10
230.5791301607297
 20
199.2087021925512
 30
0.0
 11
230.5791301607297
 21
200.2234208183125
 31
0.0
  0
LINE
  5
1BF
330
42
100
AcDbEntity
  8
1
  6
Continuous
 62
     2
100
AcDbLine
 10
226.8833561282624
 20
199.6964859855641
 30
0.0
 11
226.5791301607297
 21
200.2234208183125
 31
0.0
  0
LINE
  5
1C0
330
42
100
AcDbEntity
  8
1
  6
Continuous
 62
     7
100
AcDbLine
 10
111.5953300280437
 20
339.0849791615661
 30
0.0
 11
109.8953300280436
 21
339.0849791615661
 31
0.0
  0
LINE
  5
1C1
330
42
100
AcDbEntity
  8
1
  6
Continuous
 62
     7
100
AcDbLine
 10
114.5953300280437
 20
340.0849791615661
 30
0.0
 11
116.30663817271
 21
340.0849791615661
 31
0.0
  0
LINE
  5
1C2
330
42
100
AcDbEntity
  8
1
  6
Continuous
 62
     7
100
AcDbLine
 10
112.5953300280437
 20
338.0849791615661
 30
0.0
 11
112.5953300280437
 21
336.3736710168998
 31
0.0
  0
LINE
  5
1C3
330
42
100
AcDbEntity
  8
1
  6
Continuous
 62
     7
100
AcDbLine
 10
113.5953300280437
 20
341.0849791615661
 30
0.0
 11
113.5953300280437
 21
342.7962873062324
 31
0.0
  0
LINE
  5
1C4
330
42
100
AcDbEntity
  8
1
  6
Continuous
 62
     7
100
AcDbLine
 10
116.30663817271
 20
339.0849791615661
 30
0.0
 11
114.5953300280437
 21
339.0849791615661
 31
0.0
  0
LINE
  5
1C5
330
42
100
AcDbEntity
  8
1
  6
Continuous
 62
     7
100
AcDbLine
 10
113.5953300280437
 20
336.3736710168998
 30
0.0
 11
113.5953300280437
 21
338.0849791615661
 31
0.0
  0
LINE
  5
1C6
330
42
100
AcDbEntity
  8
1
  6
Continuous
 62
     7
100
AcDbLine
 10
109.8840218833774
 20
340.0849791615661
 30
0.0
 11
111.5953300280437
 21
340.0849791615661
 31
0.0
  0
LINE
  5
1C7
330
42
100
AcDbEntity
  8
1
  6
Continuous
 62
     7
100
AcDbLine
 10
112.5953300280437
 20
342.7962873062324
 30
0.0
 11
112.5953300280437
 21
341.0849791615661
 31
0.0
  0
ARC
  5
1C8
330
42
100
AcDbEntity
  8
1
  6
Continuous
 62
     7
100
AcDbCircle
 10
228.5791301607297
 20
191.0234208183125
 30
0.0
 40
12.00000000000006
100
AcDbArc
 50
80.40593177313959
 51
87.61198453673123
  0
ARC
  5
1C9
330
42
100
AcDbEntity
  8
1
  6
Continuous
 62
     7
100
AcDbCircle
 10
228.5791301607297
 20
191.0234208183125
 30
0.0
 40
12.00000000000001
100
AcDbArc
 50
92.38801546326877
 51
99.59406822686042
  0
ARC
  5
1CA
330
42
100
AcDbEntity
  8
1
  6
Continuous
 62
     7
100
AcDbCircle
 10
113.0953300280437
 20
339.5849791615661
 30
0.0
 40
3.250000000000008
100
AcDbArc
 50
8.84988309842901
 51
81.15011690157103
  0
ARC
  5
1CB
330
42
100
AcDbEntity
  8
1
  6
Continuous
 62
     7
100
AcDbCircle
 10
113.0953300280437
 20
339.5849791615661
 30
0.0
 40
3.250000000000008
100
AcDbArc
 50
-8.84988309842901
 51
8.84988309842901
  0
ARC
  5
1CC
330
42
100
AcDbEntity
  8
1
  6
Continuous
 62
     7
100
AcDbCircle
 10
113.0953300280437
 20
339.5849791615661
 30
0.0
 40
3.250000000000022
100
AcDbArc
 50
171.150116901571
 51
-98.84988309842898
  0
ARC
  5
1CD
330
42
100
AcDbEntity
  8
1
  6
Continuous
 62
     7
100
AcDbCircle
 10
113.0953300280437
 20
339.5849791615661
 30
0.0
 40
3.250000000000022
100
AcDbArc
 50
98.84988309842898
 51
171.150116901571
  0
ARC
  5
1CE
330
42
100
AcDbEntity
  8
1
  6
Continuous
 62
     7
100
AcDbCircle
 10
113.0953300280437
 20
339.5849791615661
 30
0.0
 40
3.250000000000022
100
AcDbArc
 50
-98.84988309842898
 51
-81.15011690157103
  0
ARC
  5
1CF
330
42
100
AcDbEntity
  8
1
  6
Continuous
 62
     7
100
AcDbCircle
 10
113.0953300280437
 20
339.5849791615661
 30
0.0
 40
3.250000000000022
100
AcDbArc
 50
81.15011690157103
 51
98.84988309842898
  0
ARC
  5
1D0
330
42
100
AcDbEntity
  8
1
  6
Continuous
 62
     7
100
AcDbCircle
 10
113.0953300280437
 20
339.5849791615661
 30
0.0
 40
3.250000000000022
100
AcDbArc
 50
-81.15011690157103
 51
-8.84988309842901
  0
ARC
  5
1D1
330
42
100
AcDbEntity
  8
1
  6
Continuous
 62
     7
100
AcDbCircle
 10
226.8291301607297
 20
201.3765604387369
 30
0.0
 40
1.49999999999999
100
AcDbArc
 50
99.59406822686053
 51
180.0
  0
ARC
  5
1D2
330
42
100
AcDbEntity
  8
1
  6
Continuous
 62
     7
100
AcDbCircle
 10
230.3291301607297
 20
201.3765604387369
 30
0.0
 40
1.5
100
AcDbArc
 50
0.0
 51
80.40593177313947
  0
ARC
  5
1D3
330
42
100
AcDbEntity
  8
1
  6
Continuous
 62
     7
100
AcDbCircle
 10
114.5953300280437
 20
338.0849791615661
 30
0.0
 40
1.0
100
AcDbArc
 50
90.0
 51
180.0
  0
ARC
  5
1D4
330
42
100
AcDbEntity
  8
1
  6
Continuous
 62
     7
100
AcDbCircle
 10
111.5953300280437
 20
338.0849791615661
 30
0.0
 40
1.0
100
AcDbArc
 50
0.0
 51
90.0
  0
ARC
  5
1D5
330
42
100
AcDbEntity
  8
1
  6
Continuous
 62
     7
100
AcDbCircle
 10
111.5953300280437
 20
341.0849791615661
 30
0.0
 40
1.0
100
AcDbArc
 50
-90.0
 51
0.0
  0
ARC
  5
1D6
330
42
100
AcDbEntity
  8
1
  6
Continuous
 62
     7
100
AcDbCircle
 10
114.5953300280437
 20
341.0849791615661
 30
0.0
 40
1.0
100
AcDbArc
 50
180.0
 51
-90.0
  0
ENDBLK
  5
44
330
42
100
AcDbEntity
  8
0
100
AcDbBlockEnd
  0
BLOCK
  5
46
330
45
100
AcDbEntity
  8
0
100
AcDbBlockBegin
  2
34-10-B
 70
     0
 71
     0
 10
-208.1944339590762
 20
177.2234208183126
 30
0.0
  3
34-10-B
  1

  0
CIRCLE
  5
1D7
330
45
100
AcDbEntity
  8
1
  6
Continuous
 62
     7
100
AcDbCircle
 10
113.0953300280437
 20
183.2234208183125
 30
0.0
 40
6.0
  0
ENDBLK
  5
47
330
45
100
AcDbEntity
  8
0
100
AcDbBlockEnd
  0
BLOCK
  5
49
330
48
100
AcDbEntity
  8
0
100
AcDbBlockBegin
  2
32-5
 70
     0
 71
     0
 10
-163.6367803283612
 20
204.5035931824577
 30
0.0
  3
32-5
  1

  0
LINE
  5
1D8
330
48
100
AcDbEntity
  8
1
  6
Continuous
 62
     7
100
AcDbLine
 10
127.8453300280437
 20
333.5849791615661
 30
0.0
 11
127.8453300280437
 21
333.2234208183124
 31
0.0
  0
LINE
  5
1D9
330
48
100
AcDbEntity
  8
1
  6
Continuous
 62
     7
100
AcDbLine
 10
113.0953300280437
 20
333.5849791615661
 30
0.0
 11
122.6487793135933
 21
333.5849791615661
 31
0.0
  0
LINE
  5
1DA
330
48
100
AcDbEntity
  8
1
  6
Continuous
 62
     7
100
AcDbLine
 10
128.0786448015915
 20
333.5849791615661
 30
0.0
 11
127.8453300280437
 21
333.5849791615661
 31
0.0
  0
LINE
  5
1DB
330
48
100
AcDbEntity
  8
1
  6
Continuous
 62
     7
100
AcDbLine
 10
128.0786448015915
 20
333.5849791615661
 30
0.0
 11
128.0786448015915
 21
343.5849791615661
 31
0.0
  0
LINE
  5
1DC
330
48
100
AcDbEntity
  8
1
  6
Continuous
 62
     7
100
AcDbLine
 10
98.1120152544957
 20
343.5849791615661
 30
0.0
 11
128.0786448015915
 21
343.5849791615661
 31
0.0
  0
LINE
  5
1DD
330
48
100
AcDbEntity
  8
1
  6
Continuous
 62
     7
100
AcDbLine
 10
98.1120152544957
 20
343.5849791615661
 30
0.0
 11
98.1120152544957
 21
333.5849791615661
 31
0.0
  0
LINE
  5
1DE
330
48
100
AcDbEntity
  8
1
  6
Continuous
 62
     7
100
AcDbLine
 10
103.5418807424939
 20
333.5849791615661
 30
0.0
 11
113.0953300280437
 21
333.5849791615661
 31
0.0
  0
LINE
  5
1DF
330
48
100
AcDbEntity
  8
1
  6
Continuous
 62
     7
100
AcDbLine
 10
98.34533002804363
 20
333.5849791615661
 30
0.0
 11
98.1120152544957
 21
333.5849791615661
 31
0.0
  0
LINE
  5
1E0
330
48
100
AcDbEntity
  8
1
  6
Continuous
 62
     7
100
AcDbLine
 10
98.34533002804363
 20
333.2234208183124
 30
0.0
 11
98.34533002804363
 21
333.5849791615661
 31
0.0
  0
LINE
  5
1E1
330
48
100
AcDbEntity
  8
1
  6
Continuous
 62
     7
100
AcDbLine
 10
222.2175718174761
 20
197.9734208183126
 30
0.0
 11
222.5791301607298
 21
197.9734208183126
 31
0.0
  0
LINE
  5
1E2
330
48
100
AcDbEntity
  8
1
  6
Continuous
 62
     7
100
AcDbLine
 10
222.5791301607298
 20
197.9734208183126
 30
0.0
 11
222.5791301607298
 21
198.2067355918603
 31
0.0
  0
LINE
  5
1E3
330
48
100
AcDbEntity
  8
1
  6
Continuous
 62
     7
100
AcDbLine
 10
232.5791301607298
 20
168.2401060447647
 30
0.0
 11
232.5791301607298
 21
198.2067355918603
 31
0.0
  0
LINE
  5
1E4
330
48
100
AcDbEntity
  8
1
  6
Continuous
 62
     7
100
AcDbLine
 10
222.5791301607298
 20
192.7768701038622
 30
0.0
 11
222.5791301607298
 21
173.1234208183126
 31
0.0
  0
LINE
  5
1E5
330
48
100
AcDbEntity
  8
1
  6
Continuous
 62
     7
100
AcDbLine
 10
222.5791301607298
 20
168.4734208183125
 30
0.0
 11
222.2175718174761
 21
168.4734208183125
 31
0.0
  0
LINE
  5
1E6
330
48
100
AcDbEntity
  8
1
  6
Continuous
 62
     7
100
AcDbLine
 10
222.5791301607298
 20
168.2401060447647
 30
0.0
 11
222.5791301607298
 21
168.4734208183125
 31
0.0
  0
ARC
  5
1E7
330
48
100
AcDbEntity
  8
1
  6
Continuous
 62
     7
100
AcDbCircle
 10
227.5791301607298
 20
190.7234208183126
 30
0.0
 40
8.999999999999941
100
AcDbArc
 50
93.95655255631354
 51
123.7489885958892
  0
ARC
  5
1E8
330
48
100
AcDbEntity
  8
1
  6
Continuous
 62
     7
100
AcDbCircle
 10
227.5791301607298
 20
190.7234208183126
 30
0.0
 40
8.999999999999851
100
AcDbArc
 50
56.25101140411078
 51
73.06885714439898
  0
ARC
  5
1E9
330
48
100
AcDbEntity
  8
1
  6
Continuous
 62
     7
100
AcDbCircle
 10
229.5791301607298
 20
208.3118696529544
 30
0.0
 40
9.000000000000021
100
AcDbArc
 50
-106.9311428556016
 51
-86.043447443687
  0
ARC
  5
1EA
330
48
100
AcDbEntity
  8
1
  6
Continuous
 62
     7
100
AcDbCircle
 10
227.5791301607298
 20
175.7234208183125
 30
0.0
 40
8.999999999999922
100
AcDbArc
 50
-123.7489885958889
 51
-93.9565525563135
  0
ARC
  5
1EB
330
48
100
AcDbEntity
  8
1
  6
Continuous
 62
     7
100
AcDbCircle
 10
227.5791301607298
 20
175.7234208183125
 30
0.0
 40
8.999999999999995
100
AcDbArc
 50
-73.06885714439898
 51
-56.25101140411108
  0
ARC
  5
1EC
330
48
100
AcDbEntity
  8
1
  6
Continuous
 62
     7
100
AcDbCircle
 10
229.5791301607298
 20
158.1349719836707
 30
0.0
 40
8.999999999999908
100
AcDbArc
 50
86.04344744368699
 51
106.9311428556018
  0
SPLINE
  5
1ED
330
48
100
AcDbEntity
  8
1
  6
Continuous
 62
     7
100
AcDbSpline
210
0.0
220
0.0
230
1.0
 70
     8
 71
     3
 72
   247
 73
   243
 74
   241
 42
0.0000000001
 43
0.0000000001
 44
0.00000001
 40
0.0
 40
0.0
 40
0.0
 40
0.0
 40
0.0336220560361447
 40
0.0672441188228744
 40
0.100912691050031
 40
0.1345821196790761
 40
0.2953697788794552
 40
0.4561631529840956
 40
0.529943875624431
 40
0.6037211254825463
 40
0.6903364466362018
 40
0.7769546022668314
 40
0.937625302622312
 40
1.098308572364888
 40
1.267942023933136
 40
1.437566937770614
 40
1.515298218751784
 40
1.593027373290555
 40
1.68459097555378
 40
1.776156837400753
 40
1.94568269961369
 40
2.115218956772164
 40
2.293793196340821
 40
2.472360331536886
 40
2.554937249152578
 40
2.637512287802802
 40
2.733225789620736
 40
2.828941276621016
 40
3.007432602864498
 40
3.185932521434486
 40
3.372530901952904
 40
3.559123083550087
 40
3.646775165616005
 40
3.734425565002429
 40
3.833130663070505
 40
3.93183751986764
 40
4.118376580988328
 40
4.30492291660172
 40
4.497822098961749
 40
4.690715598293675
 40
4.783092722145122
 40
4.87546829858937
 40
4.975779815899371
 40
5.076092928566105
 40
5.268953184019306
 40
5.46181980882961
 40
5.658723370694513
 40
5.855621465854782
 40
5.951910704805427
 40
6.048198471438389
 40
6.148622594782992
 40
6.249048213443545
 40
6.445930386174931
 40
6.642818357819888
 40
6.841089267183103
 40
7.039354669513003
 40
7.138401569609965
 40
7.23744701462565
 40
7.336492459641162
 40
7.435539359737997
 40
7.633804762067996
 40
7.832075671431314
 40
8.028963643076196
 40
8.225845815807546
 40
8.32627143446819
 40
8.426695557812801
 40
8.522983324445672
 40
8.619272563396212
 40
8.816170658556557
 40
9.013074220421581
 40
9.205940845231895
 40
9.398801100685098
 40
9.499114213351778
 40
9.59942573066164
 40
9.691801307105983
 40
9.784178430957512
 40
9.977071930289425
 40
10.16997111264937
 40
10.35651744826274
 40
10.54305650938356
 40
10.64176336618074
 40
10.74046846424876
 40
10.82811886363498
 40
10.9157709457011
 40
11.10236312730015
 40
11.28896150781682
 40
11.46746142638075
 40
11.64595275262962
 40
11.74166823963851
 40
11.8373817414483
 40
11.9199567800769
 40
12.00253369771325
 40
12.18110083312032
 40
12.35967507250668
 40
12.52921132908232
 40
12.69873719176058
 40
12.79030305422914
 40
12.88186665598239
 40
12.95959580938232
 40
13.03732709124474
 40
13.20695201043296
 40
13.37658546328195
 40
13.53726876386441
 40
13.69793940661842
 40
13.78455743000289
 40
13.87117290851112
 40
13.94495066373685
 40
14.01873082259844
 40
14.17951676394911
 40
14.34031331633726
 40
14.49343151625704
 40
14.64653462380308
 40
14.72792102564227
 40
14.8093046546483
 40
14.88068741724047
 40
14.95207283352646
 40
15.10528604833719
 40
15.25851251011542
 40
15.40651469852396
 40
15.55449992575598
 40
15.63104683192776
 40
15.70759084484728
 40
15.77862844383904
 40
15.84966886962121
 40
15.99772395068134
 40
16.14579487011567
 40
16.29200808058138
 40
16.438203972533
 40
16.51107626545706
 40
16.58394565258774
 40
16.65681503971842
 40
16.72968733264248
 40
16.87588322459422
 40
17.02209643505994
 40
17.1701673544942
 40
17.31822243555426
 40
17.38926286133642
 40
17.46030046032819
 40
17.53684447324771
 40
17.61339137941949
 40
17.76137660665157
 40
17.90937879506015
 40
18.06260525683829
 40
18.21581847164897
 40
18.28720388793513
 40
18.35858665052727
 40
18.43997027953336
 40
18.5213566813725
 40
18.67445978891843
 40
18.82757798883822
 40
18.98837454122637
 40
19.14916048257703
 40
19.22294064143862
 40
19.29671839666436
 40
19.38333387517264
 40
19.46995189855721
 40
19.6306225413111
 40
19.79130584189344
 40
19.96093929474246
 40
20.13056421393073
 40
20.20829549579318
 40
20.28602464919307
 40
20.37758825094629
 40
20.46915411341488
 40
20.63867997609311
 40
20.80821623266878
 40
20.98679047205514
 40
21.16535760746221
 40
21.2479345250986
 40
21.33050956372717
 40
21.42622306553702
 40
21.52193855254591
 40
21.70042987879483
 40
21.87892979735871
 40
22.06552817787539
 40
22.25212035947443
 40
22.33977244154051
 40
22.42742284092677
 40
22.52612793899478
 40
22.62483479579193
 40
22.81137385691273
 40
22.99792019252611
 40
23.19081937488611
 40
23.38371287421797
 40
23.47608999806949
 40
23.56846557451383
 40
23.66877709182374
 40
23.76909020449041
 40
23.9619504599436
 40
24.15481708475391
 40
24.35172064661894
 40
24.54861874177927
 40
24.64490798072981
 40
24.74119574736269
 40
24.84161987070732
 40
24.94204548936793
 40
25.13892766209929
 40
25.33581563374418
 40
25.53408654310745
 40
25.73235194543749
 40
25.83139884553432
 40
25.93044429054984
 40
26.02948973556551
 40
26.12853663566249
 40
26.3268020379924
 40
26.5250729473556
 40
26.72196091900055
 40
26.91884309173195
 40
27.01926871039252
 40
27.1196928337371
 40
27.21598060037006
 40
27.31226983932062
 40
27.50916793448059
 40
27.70607149634585
 40
27.89893812115705
 40
28.09179837660946
 40
28.19211148927514
 40
28.29242300658612
 40
28.384798583033
 40
28.47717570688213
 40
28.6700692061941
 40
28.86296838856667
 40
29.04951472419954
 40
29.23605378533075
 40
29.33476064218358
 40
29.43346574016919
 40
29.52111613923766
 40
29.60876822169026
 40
29.79536040871123
 40
29.98195878215407
 40
30.16045866696179
 40
30.33895003359374
 40
30.43466559649187
 40
30.53037901632643
 40
30.61295380538989
 40
30.69553098713276
 40
30.87410133928335
 40
31.0526720011678
 40
31.16313696402721
 40
31.27359937827348
 40
31.38387685755917
 40
31.49415134202309
 40
31.49415134202309
 40
31.49415134202309
 40
31.49415134202309
 10
114.3374639734802
 20
336.5817137284743
 30
0.0
 10
114.3432424603639
 20
336.5721108567047
 30
0.0
 10
114.3547994352916
 20
336.5529051112374
 30
0.0
 10
114.3724326603159
 20
336.5242591433299
 30
0.0
 10
114.3902917019104
 20
336.4957350361651
 30
0.0
 10
114.4311415059691
 20
336.4315968183148
 30
0.0
 10
114.4967630998858
 20
336.3329963431007
 30
0.0
 10
114.5733629536701
 20
336.2257262679901
 30
0.0
 10
114.635062752036
 20
336.1435174792392
 30
0.0
 10
114.6828490355874
 20
336.0817927452699
 30
0.0
 10
114.7343102841171
 20
336.0175132590539
 30
0.0
 10
114.80541628759
 20
335.9318797169755
 30
0.0
 10
114.8949915399116
 20
335.8295224199166
 30
0.0
 10
115.0066476461998
 20
335.7098290797419
 30
0.0
 10
115.1240317105891
 20
335.5915032567904
 30
0.0
 10
115.224852650118
 20
335.4957896044753
 30
0.0
 10
115.3049712131891
 20
335.4228251802485
 30
0.0
 10
115.3665801094491
 20
335.3681913942565
 30
0.0
 10
115.4324779681938
 20
335.3114556393293
 30
0.0
 10
115.5227821952658
 20
335.2361920665168
 30
0.0
 10
115.635160729856
 20
335.1468499877419
 30
0.0
 10
115.7732388924202
 20
335.0433430961683
 30
0.0
 10
115.9165812307862
 20
334.9419438255274
 30
0.0
 10
116.038492156078
 20
334.8605397371446
 30
0.0
 10
116.134950345781
 20
334.7987071063112
 30
0.0
 10
116.2087161046758
 20
334.7526616028993
 30
0.0
 10
116.2868279935422
 20
334.7053208725581
 30
0.0
 10
116.3931841147381
 20
334.6429202737678
 30
0.0
 10
116.5249035175529
 20
334.5692505123466
 30
0.0
 10
116.6852798069421
 20
334.4848805759918
 30
0.0
 10
116.8501380901641
 20
334.4033525625632
 30
0.0
 10
116.9894768326262
 20
334.3386460492483
 30
0.0
 10
117.0997483194883
 20
334.2897314730124
 30
0.0
 10
117.1836491062729
 20
334.253630812728
 30
0.0
 10
117.2713811154844
 20
334.2171265655734
 30
0.0
 10
117.390168309205
 20
334.1694799848543
 30
0.0
 10
117.5372118801974
 20
334.1136643704172
 30
0.0
 10
117.7151386449589
 20
334.0508836517259
 30
0.0
 10
117.8964834885257
 20
333.9915761997277
 30
0.0
 10
118.0490808579744
 20
333.9454914429441
 30
0.0
 10
118.1701669635184
 20
333.9110687629596
 30
0.0
 10
118.2618408107562
 20
333.886062166158
 30
0.0
 10
118.356350341451
 20
333.8614207944726
 30
0.0
 10
118.483651690291
 20
333.8298231598634
 30
0.0
 10
118.6415578320342
 20
333.7935081191646
 30
0.0
 10
118.8317606783872
 20
333.7541844471579
 30
0.0
 10
119.0241029980444
 20
333.7187914482134
 30
0.0
 10
119.1853867228586
 20
333.692720313485
 30
0.0
 10
119.3138625964289
 20
333.6740392128443
 30
0.0
 10
119.4106572323635
 20
333.6610002782476
 30
0.0
 10
119.5089554911181
 20
333.6488370799663
 30
0.0
 10
119.6407030145407
 20
333.6340072491828
 30
0.0
 10
119.804693890985
 20
333.6182540039115
 30
0.0
 10
120.001510237026
 20
333.6035928877079
 30
0.0
 10
120.199054671038
 20
333.5931016370889
 30
0.0
 10
120.3641790509733
 20
333.5878496123729
 30
0.0
 10
120.4962835670903
 20
333.5857456184854
 30
0.0
 10
120.5953300280436
 20
333.5852187565285
 30
0.0
 10
120.6943764889969
 20
333.5857456184854
 30
0.0
 10
120.8264810051139
 20
333.5878496123729
 30
0.0
 10
120.9916053850492
 20
333.5931016370889
 30
0.0
 10
121.1891498190612
 20
333.6035928877079
 30
0.0
 10
121.3859661651023
 20
333.6182540039117
 30
0.0
 10
121.5499570415466
 20
333.6340072491827
 30
0.0
 10
121.6817045649691
 20
333.6488370799665
 30
0.0
 10
121.7800028237238
 20
333.6610002782476
 30
0.0
 10
121.8767974596583
 20
333.6740392128443
 30
0.0
 10
122.0052733332286
 20
333.692720313485
 30
0.0
 10
122.1665570580428
 20
333.7187914482133
 30
0.0
 10
122.3588993777001
 20
333.7541844471577
 30
0.0
 10
122.5491022240531
 20
333.7935081191648
 30
0.0
 10
122.7070083657963
 20
333.8298231598634
 30
0.0
 10
122.8343097146362
 20
333.8614207944726
 30
0.0
 10
122.9288192453311
 20
333.8860621661581
 30
0.0
 10
123.0204930925688
 20
333.9110687629595
 30
0.0
 10
123.1415791981129
 20
333.9454914429441
 30
0.0
 10
123.2941765675616
 20
333.9915761997277
 30
0.0
 10
123.4755214111283
 20
334.0508836517259
 30
0.0
 10
123.6534481758898
 20
334.1136643704172
 30
0.0
 10
123.8004917468823
 20
334.1694799848544
 30
0.0
 10
123.9192789406029
 20
334.2171265655732
 30
0.0
 10
124.0070109498144
 20
334.2536308127278
 30
0.0
 10
124.0909117365987
 20
334.2897314730129
 30
0.0
 10
124.2011832234614
 20
334.3386460492487
 30
0.0
 10
124.3405219659265
 20
334.4033525625576
 30
0.0
 10
124.5053802491465
 20
334.4848805759864
 30
0.0
 10
124.6657565385202
 20
334.5692505123691
 30
0.0
 10
124.7974759413401
 20
334.642920273785
 30
0.0
 10
124.9038320625697
 20
334.7053208725217
 30
0.0
 10
124.9819439514224
 20
334.752661602873
 30
0.0
 10
125.055709710233
 20
334.7987071064146
 30
0.0
 10
125.1521679000243
 20
334.8605397372347
 30
0.0
 10
125.2740788261515
 20
334.9419438243801
 30
0.0
 10
125.4174211642377
 20
335.0433430951947
 30
0.0
 10
125.5554993227667
 20
335.146849992022
 30
0.0
 10
125.6678778582589
 20
335.2361920696519
 30
0.0
 10
125.7581820940052
 20
335.3114556323453
 30
0.0
 10
125.8240799504323
 20
335.368191389693
 30
0.0
 10
125.885688825377
 20
335.4228251994011
 30
0.0
 10
125.9658073974947
 20
335.4957896152744
 30
0.0
 10
126.0666285499002
 20
335.5915030440866
 30
0.0
 10
126.1840125862124
 20
335.7098289306013
 30
0.0
 10
126.2956676992476
 20
335.8295231930478
 30
0.0
 10
126.3852431199553
 20
335.9318802181083
 30
0.0
 10
126.4563511869502
 20
336.01751203375
 30
0.0
 10
126.5078120351926
 20
336.0817921049176
 30
0.0
 10
126.5555932700377
 20
336.1435208320689
 30
0.0
 10
126.6172934707551
 20
336.2257258616654
 30
0.0
 10
126.6939435784015
 20
336.3329611386845
 30
0.0
 10
126.7816197350349
 20
336.464720228263
 30
0.0
 10
126.8633996841008
 20
336.5972161265485
 30
0.0
 10
126.9273574797602
 20
336.7095137878008
 30
0.0
 10
126.9768360878397
 20
336.8024616876422
 30
0.0
 10
127.0121593216855
 20
336.8720678616396
 30
0.0
 10
127.0447593994957
 20
336.9393021184065
 30
0.0
 10
127.0863085653108
 20
337.0287910322573
 30
0.0
 10
127.1363480238223
 20
337.1443977130331
 30
0.0
 10
127.1913831375961
 20
337.2855644140537
 30
0.0
 10
127.2405563979005
 20
337.4270336773058
 30
0.0
 10
127.2768259496213
 20
337.5458333138396
 30
0.0
 10
127.3032107319327
 20
337.6426678417207
 30
0.0
 10
127.3213744894237
 20
337.7151412059878
 30
0.0
 10
127.3377088899217
 20
337.7861654824277
 30
0.0
 10
127.3576151623516
 20
337.8808103385351
 30
0.0
 10
127.3793459987898
 20
338.0012889853583
 30
0.0
 10
127.3998297052511
 20
338.1473430506521
 30
0.0
 10
127.4145329728471
 20
338.2934685391267
 30
0.0
 10
127.4219100203743
 20
338.4150412617983
 30
0.0
 10
127.424845663149
 20
338.512315014154
 30
0.0
 10
127.425576161851
 20
338.5851867689433
 30
0.0
 10
127.4248456631492
 20
338.658058523733
 30
0.0
 10
127.4219100203742
 20
338.7553322760886
 30
0.0
 10
127.4145329728471
 20
338.8769049987602
 30
0.0
 10
127.3998297052508
 20
339.0230304872348
 30
0.0
 10
127.3793459987897
 20
339.1690845525288
 30
0.0
 10
127.3576151623516
 20
339.2895631993517
 30
0.0
 10
127.3377088899217
 20
339.3842080554591
 30
0.0
 10
127.3213744894238
 20
339.4552323318991
 30
0.0
 10
127.3032107319326
 20
339.5277056961659
 30
0.0
 10
127.2768259496213
 20
339.6245402240473
 30
0.0
 10
127.2405563979004
 20
339.7433398605811
 30
0.0
 10
127.1913831375961
 20
339.8848091238332
 30
0.0
 10
127.1363480238224
 20
340.0259758248538
 30
0.0
 10
127.0863085653109
 20
340.1415825056297
 30
0.0
 10
127.0447593994958
 20
340.2310714194803
 30
0.0
 10
127.0121593216854
 20
340.2983056762474
 30
0.0
 10
126.9768360878397
 20
340.3679118502446
 30
0.0
 10
126.9273574797602
 20
340.4608597500862
 30
0.0
 10
126.8633996841008
 20
340.5731574113383
 30
0.0
 10
126.7816197350349
 20
340.7056533096238
 30
0.0
 10
126.6939435784015
 20
340.8374123992023
 30
0.0
 10
126.617293470755
 20
340.9446476762213
 30
0.0
 10
126.5555932700377
 20
341.026852705818
 30
0.0
 10
126.5078120351926
 20
341.0885814329692
 30
0.0
 10
126.4563511869501
 20
341.1528615041369
 30
0.0
 10
126.3852431199553
 20
341.2384933197786
 30
0.0
 10
126.2956676992476
 20
341.3408503448389
 30
0.0
 10
126.1840125862123
 20
341.4605446072854
 30
0.0
 10
126.0666285499002
 20
341.5788704938002
 30
0.0
 10
125.9658073974946
 20
341.6745839226123
 30
0.0
 10
125.8856888253771
 20
341.7475483384859
 30
0.0
 10
125.8240799504323
 20
341.8021821481935
 30
0.0
 10
125.7581820940052
 20
341.8589179055417
 30
0.0
 10
125.6678778582589
 20
341.9341814682348
 30
0.0
 10
125.5554993227666
 20
342.0235235458645
 30
0.0
 10
125.4174211642377
 20
342.1270304426922
 30
0.0
 10
125.2740788261515
 20
342.2284297135067
 30
0.0
 10
125.1521679000243
 20
342.3098338006521
 30
0.0
 10
125.0557097102331
 20
342.3716664314723
 30
0.0
 10
124.9819439514224
 20
342.4177119350138
 30
0.0
 10
124.9038320625698
 20
342.4650526653653
 30
0.0
 10
124.7974759413401
 20
342.5274532641019
 30
0.0
 10
124.6657565385203
 20
342.6011230255181
 30
0.0
 10
124.5053802491464
 20
342.6854929619005
 30
0.0
 10
124.3405219659265
 20
342.7670209753294
 30
0.0
 10
124.2011832234614
 20
342.8317274886381
 30
0.0
 10
124.0909117365988
 20
342.880642064874
 30
0.0
 10
124.0070109498144
 20
342.9167427251591
 30
0.0
 10
123.919278940603
 20
342.9532469723137
 30
0.0
 10
123.8004917468822
 20
343.0008935530324
 30
0.0
 10
123.6534481758898
 20
343.0567091674695
 30
0.0
 10
123.4755214111283
 20
343.1194898861609
 30
0.0
 10
123.2941765675616
 20
343.1787973381595
 30
0.0
 10
123.1415791981129
 20
343.2248820949426
 30
0.0
 10
123.0204930925688
 20
343.2593047749273
 30
0.0
 10
122.928819245331
 20
343.2843113717285
 30
0.0
 10
122.8343097146362
 20
343.3089527434144
 30
0.0
 10
122.7070083657963
 20
343.3405503780234
 30
0.0
 10
122.5491022240532
 20
343.3768654187226
 30
0.0
 10
122.3588993777001
 20
343.416189090729
 30
0.0
 10
122.1665570580428
 20
343.4515820896734
 30
0.0
 10
122.0052733332286
 20
343.4776532244018
 30
0.0
 10
121.8767974596583
 20
343.4963343250424
 30
0.0
 10
121.7800028237237
 20
343.5093732596392
 30
0.0
 10
121.6817045649691
 20
343.5215364579205
 30
0.0
 10
121.5499570415465
 20
343.5363662887038
 30
0.0
 10
121.3859661651023
 20
343.5521195339754
 30
0.0
 10
121.1891498190613
 20
343.5667806501789
 30
0.0
 10
120.9916053850492
 20
343.5772719007979
 30
0.0
 10
120.8264810051139
 20
343.5825239255141
 30
0.0
 10
120.6943764889969
 20
343.5846279194013
 30
0.0
 10
120.5953300280437
 20
343.5851547813585
 30
0.0
 10
120.4962835670903
 20
343.5846279194014
 30
0.0
 10
120.3641790509733
 20
343.5825239255139
 30
0.0
 10
120.199054671038
 20
343.5772719007979
 30
0.0
 10
120.001510237026
 20
343.5667806501791
 30
0.0
 10
119.804693890985
 20
343.5521195339751
 30
0.0
 10
119.6407030145407
 20
343.536366288704
 30
0.0
 10
119.5089554911181
 20
343.5215364579204
 30
0.0
 10
119.4106572323635
 20
343.5093732596392
 30
0.0
 10
119.3138625964289
 20
343.4963343250424
 30
0.0
 10
119.1853867228587
 20
343.477653224402
 30
0.0
 10
119.0241029980449
 20
343.4515820896713
 30
0.0
 10
118.8317606783873
 20
343.4161890907275
 30
0.0
 10
118.6415578320323
 20
343.37686541873
 30
0.0
 10
118.4836516902896
 20
343.3405503780294
 30
0.0
 10
118.3563503414545
 20
343.3089527434016
 30
0.0
 10
118.2618408107578
 20
343.2843113717206
 30
0.0
 10
118.1701669635069
 20
343.259304774966
 30
0.0
 10
118.0490808579734
 20
343.2248820949655
 30
0.0
 10
117.8964834886574
 20
343.178797337746
 30
0.0
 10
117.7151386450704
 20
343.1194898858431
 30
0.0
 10
117.5372118796241
 20
343.0567091690669
 30
0.0
 10
117.3901683087243
 20
343.000893554182
 30
0.0
 10
117.2713811165048
 20
342.9532469697304
 30
0.0
 10
117.1836491070427
 20
342.9167427235819
 30
0.0
 10
117.0997483163369
 20
342.8806420724524
 30
0.0
 10
116.9894768291899
 20
342.8317274919292
 30
0.0
 10
116.8501381264162
 20
342.7670208929749
 30
0.0
 10
116.6852798476469
 20
342.6854929044138
 30
0.0
 10
116.5249033662313
 20
342.6011233360928
 30
0.0
 10
116.3931839772309
 20
342.527453473379
 30
0.0
 10
116.2868282599312
 20
342.46505216357
 30
0.0
 10
116.2087163464846
 20
342.4177116533464
 30
0.0
 10
116.1349495524522
 20
342.3716678635178
 30
0.0
 10
116.038490892658
 20
342.309833860647
 30
0.0
 10
115.9165899387298
 20
342.2284150898908
 30
0.0
 10
115.7893246866705
 20
342.1383882822838
 30
0.0
 10
115.682357271306
 20
342.0590597816936
 30
0.0
 10
115.5949236326839
 20
341.9916427169073
 30
0.0
 10
115.5087746758342
 20
341.9226851285974
 30
0.0
 10
115.4525068734074
 20
341.8753664695573
 30
0.0
 10
115.4243733542174
 20
341.8517074613016
 30
0.0
 11
114.3374639734802
 21
336.5817137284743
 31
0.0
 11
114.3548477066388
 21
336.5529344221316
 31
0.0
 11
114.3724607310945
 21
336.52429486076
 31
0.0
 11
114.3903281641438
 21
336.4957584350545
 31
0.0
 11
114.4084117612925
 21
336.4673574854512
 31
0.0
 11
114.4974877467841
 21
336.3334988280553
 31
0.0
 11
114.5909211655753
 21
336.2026374303517
 31
0.0
 11
114.6352098312852
 21
336.1436280317531
 31
0.0
 11
114.6803742360741
 21
336.0852905726321
 31
0.0
 11
114.73450965188
 21
336.0176771818424
 31
0.0
 11
114.7898470642091
 21
335.9510402875453
 31
0.0
 11
114.895619319713
 21
335.830096896166
 31
0.0
 11
115.005189457194
 21
335.7125660570319
 31
0.0
 11
115.1246263700487
 21
335.5921072186733
 31
0.0
 11
115.2476142979482
 21
335.4752886371661
 31
0.0
 11
115.3050864128529
 21
335.4229521484479
 31
0.0
 11
115.3632444611167
 21
335.3713821679606
 31
0.0
 11
115.4326353568666
 21
335.3116427601426
 31
0.0
 11
115.5029762159273
 21
335.2530213425345
 31
0.0
 11
115.6356481952418
 21
335.1474885804944
 31
0.0
 11
115.7712752111313
 21
335.045764173137
 31
0.0
 11
115.9170371502203
 21
334.9426030557015
 31
0.0
 11
116.0655183134269
 21
334.8434084694332
 31
0.0
 11
116.1350393271125
 21
334.7988464230368
 31
0.0
 11
116.2050889585472
 21
334.7551235898263
 31
0.0
 11
116.2869439671565
 21
334.7055168161373
 31
0.0
 11
116.369500385269
 21
334.6570824039893
 31
0.0
 11
116.5252644388968
 21
334.5699232785829
 31
0.0
 11
116.6832214266581
 21
334.4867859768053
 31
0.0
 11
116.8504695343941
 21
334.4040392181327
 31
0.0
 11
117.0196903009762
 21
334.3254200449587
 31
0.0
 11
117.0998142540999
 21
334.289880776166
 31
0.0
 11
117.1803287093053
 21
334.2552395432841
 31
0.0
 11
117.2714603686385
 21
334.2173223037775
 31
0.0
 11
117.3630728701827
 21
334.1805773294329
 31
0.0
 11
117.5374611222605
 21
334.1143537772703
 31
0.0
 11
117.7133691342773
 21
334.0522578302279
 31
0.0
 11
117.8967051341788
 21
333.9922744517361
 31
0.0
 11
118.0813548393643
 21
333.9364856673846
 31
0.0
 11
118.1702116366443
 21
333.9112269542701
 31
0.0
 11
118.2593315470591
 21
333.8869187521344
 31
0.0
 11
118.3563982240237
 21
333.8616114265529
 31
0.0
 11
118.4537572615699
 21
333.8374466095463
 31
0.0
 11
118.6417073835687
 21
333.7942050811955
 31
0.0
 11
118.8305764008943
 21
333.7551406567126
 31
0.0
 11
119.0242262901809
 21
333.7194933138331
 31
0.0
 11
119.2185991568449
 21
333.688060073743
 31
0.0
 11
119.3138865075228
 21
333.6742058924797
 31
0.0
 11
119.4093125165855
 21
333.6613524572371
 31
0.0
 11
119.5089765697711
 21
333.6490203425705
 31
0.0
 11
119.6087719706189
 21
333.6377872284439
 31
0.0
 11
119.8047513408681
 21
333.6189543748055
 31
0.0
 11
120.0010948422162
 21
333.6043221208156
 31
0.0
 11
120.1990865434499
 21
333.5938035780313
 31
0.0
 11
120.3972516327677
 21
333.5874974590425
 31
0.0
 11
120.4962859814017
 21
333.5859206871978
 31
0.0
 11
120.5953300280437
 21
333.5853943763208
 31
0.0
 11
120.6943740746855
 21
333.5859206871978
 31
0.0
 11
120.7934084233194
 21
333.5874974590424
 31
0.0
 11
120.9915735126373
 21
333.5938035780312
 31
0.0
 11
121.1895652138711
 21
333.6043221208156
 31
0.0
 11
121.3859087152192
 21
333.6189543748054
 31
0.0
 11
121.5818880854683
 21
333.6377872284439
 31
0.0
 11
121.6816834863162
 21
333.6490203425705
 31
0.0
 11
121.7813475395018
 21
333.6613524572371
 31
0.0
 11
121.8767735485644
 21
333.6742058924798
 31
0.0
 11
121.9720608992422
 21
333.688060073743
 31
0.0
 11
122.1664337659063
 21
333.719493313833
 31
0.0
 11
122.360083655193
 21
333.7551406567126
 31
0.0
 11
122.5489526725186
 21
333.7942050811955
 31
0.0
 11
122.7369027945174
 21
333.8374466095463
 31
0.0
 11
122.8342618320636
 21
333.861611426553
 31
0.0
 11
122.931328509028
 21
333.8869187521344
 31
0.0
 11
123.0204484194429
 21
333.9112269542701
 31
0.0
 11
123.109305216723
 21
333.9364856673846
 31
0.0
 11
123.2939549219085
 21
333.9922744517361
 31
0.0
 11
123.4772909218099
 21
334.0522578302279
 31
0.0
 11
123.6531989338267
 21
334.1143537772703
 31
0.0
 11
123.8275871859046
 21
334.1805773294329
 31
0.0
 11
123.9191996874489
 21
334.2173223037773
 31
0.0
 11
124.010331346782
 21
334.2552395432841
 31
0.0
 11
124.090845801987
 21
334.2898807761663
 31
0.0
 11
124.1709697551111
 21
334.3254200449587
 31
0.0
 11
124.340190521697
 21
334.4040392181289
 31
0.0
 11
124.5074386294292
 21
334.4867859768053
 31
0.0
 11
124.665395617176
 21
334.5699232785976
 31
0.0
 11
124.8211596708181
 21
334.6570824039893
 31
0.0
 11
124.9037160889548
 21
334.7055168161132
 31
0.0
 11
124.9855710975399
 21
334.7551235898263
 31
0.0
 11
125.0556207289061
 21
334.7988464231058
 31
0.0
 11
125.1251417426604
 21
334.8434084694332
 31
0.0
 11
125.2736229066367
 21
334.9426030549293
 31
0.0
 11
125.4193848449558
 21
335.045764173137
 31
0.0
 11
125.5550118579038
 21
335.1474885834448
 31
0.0
 11
125.6876838401598
 21
335.2530213425345
 31
0.0
 11
125.758024704152
 21
335.3116427551962
 31
0.0
 11
125.8274155949705
 21
335.3713821679606
 31
0.0
 11
125.8855736294676
 21
335.4229521622568
 31
0.0
 11
125.9430457581391
 21
335.4752886371661
 31
0.0
 11
126.0660338422121
 21
335.5921070620214
 31
0.0
 11
126.1854705988933
 21
335.7125660570319
 31
0.0
 11
126.2950401408626
 21
335.8300974935019
 31
0.0
 11
126.4008129918782
 21
335.9510402875453
 31
0.0
 11
126.4561514000591
 21
336.0176761829399
 31
0.0
 11
126.5102858200131
 21
336.0852905726321
 31
0.0
 11
126.5554474328914
 21
336.1436308322166
 31
0.0
 11
126.5997388905119
 21
336.2026374303518
 31
0.0
 11
126.6932039283597
 21
336.3334671121374
 31
0.0
 11
126.7822482947947
 21
336.4673574854512
 31
0.0
 11
126.862628700736
 21
336.5976808275177
 31
0.0
 11
126.9383549272389
 21
336.730745098304
 31
0.0
 11
126.9766010969682
 21
336.8025850377901
 31
0.0
 11
127.0134331064287
 21
336.8751570582201
 31
0.0
 11
127.0445784231846
 21
336.9393868646924
 31
0.0
 11
127.0746416959113
 21
337.0041331177985
 31
0.0
 11
127.1354778980391
 21
337.1447504912035
 31
0.0
 11
127.1911086008117
 21
337.2875215439351
 31
0.0
 11
127.2396623321218
 21
337.4273327843616
 31
0.0
 11
127.2828326805893
 21
337.568881180651
 31
0.0
 11
127.3029586358649
 21
337.642734919681
 31
0.0
 11
127.3215695785244
 21
337.7169819312515
 31
0.0
 11
127.3374918612186
 21
337.7862121369736
 31
0.0
 11
127.3521140102307
 21
337.8557314497836
 31
0.0
 11
127.3783918182435
 21
338.0014358897769
 31
0.0
 11
127.3989525897363
 21
338.1480723513332
 31
0.0
 11
127.4135696138588
 21
338.2935530906786
 31
0.0
 11
127.4224015459887
 21
338.4394819630733
 31
0.0
 11
127.4246010487883
 21
338.5123210546619
 31
0.0
 11
127.4253326655203
 21
338.5851867689434
 31
0.0
 11
127.4246010487883
 21
338.6580524832249
 31
0.0
 11
127.4224015459887
 21
338.7308915748135
 31
0.0
 11
127.4135696138587
 21
338.8768204472083
 31
0.0
 11
127.3989525897361
 21
339.0223011865537
 31
0.0
 11
127.3783918182433
 21
339.1689376481099
 31
0.0
 11
127.3521140102307
 21
339.3146420881032
 31
0.0
 11
127.3374918612186
 21
339.3841614009132
 31
0.0
 11
127.3215695785244
 21
339.4533916066353
 31
0.0
 11
127.3029586358649
 21
339.5276386182058
 31
0.0
 11
127.2828326805893
 21
339.6014923572358
 31
0.0
 11
127.2396623321217
 21
339.7430407535253
 31
0.0
 11
127.1911086008117
 21
339.8828519939518
 31
0.0
 11
127.1354778980392
 21
340.0256230466834
 31
0.0
 11
127.0746416959114
 21
340.1662404200883
 31
0.0
 11
127.0445784231847
 21
340.2309866731946
 31
0.0
 11
127.0134331064287
 21
340.2952164796668
 31
0.0
 11
126.9766010969682
 21
340.3677885000969
 31
0.0
 11
126.9383549272389
 21
340.4396284395829
 31
0.0
 11
126.862628700736
 21
340.5726927103691
 31
0.0
 11
126.7822482947947
 21
340.7030160524356
 31
0.0
 11
126.6932039283597
 21
340.8369064257494
 31
0.0
 11
126.5997388905119
 21
340.967736107535
 31
0.0
 11
126.5554474328914
 21
341.0267427056702
 31
0.0
 11
126.5102858200131
 21
341.0850829652547
 31
0.0
 11
126.4561514000591
 21
341.152697354947
 31
0.0
 11
126.4008129918781
 21
341.2193332503416
 31
0.0
 11
126.2950401408626
 21
341.3402760443849
 31
0.0
 11
126.1854705988933
 21
341.4578074808548
 31
0.0
 11
126.0660338422121
 21
341.5782664758654
 31
0.0
 11
125.9430457581391
 21
341.6950849007207
 31
0.0
 11
125.8855736294676
 21
341.7474213756301
 31
0.0
 11
125.8274155949705
 21
341.7989913699262
 31
0.0
 11
125.758024704152
 21
341.8587307826907
 31
0.0
 11
125.6876838401598
 21
341.9173521953523
 31
0.0
 11
125.5550118579038
 21
342.0228849544419
 31
0.0
 11
125.4193848449558
 21
342.1246093647498
 31
0.0
 11
125.2736229066367
 21
342.2277704829575
 31
0.0
 11
125.1251417426604
 21
342.3269650684536
 31
0.0
 11
125.0556207289061
 21
342.3715271147811
 31
0.0
 11
124.9855710975399
 21
342.4152499480605
 31
0.0
 11
124.9037160889548
 21
342.4648567217737
 31
0.0
 11
124.8211596708181
 21
342.5132911338976
 31
0.0
 11
124.665395617176
 21
342.6004502592895
 31
0.0
 11
124.5074386294292
 21
342.6835875610816
 31
0.0
 11
124.340190521697
 21
342.766334319758
 31
0.0
 11
124.1709697551111
 21
342.8449534929282
 31
0.0
 11
124.0908458019871
 21
342.8804927617206
 31
0.0
 11
124.010331346782
 21
342.9151339946028
 31
0.0
 11
123.9191996874489
 21
342.9530512341095
 31
0.0
 11
123.8275871859046
 21
342.9897962084539
 31
0.0
 11
123.6531989338267
 21
343.0560197606165
 31
0.0
 11
123.4772909218099
 21
343.1181157076589
 31
0.0
 11
123.2939549219085
 21
343.1780990861509
 31
0.0
 11
123.109305216723
 21
343.2338878705022
 31
0.0
 11
123.0204484194429
 21
343.2591465836167
 31
0.0
 11
122.931328509028
 21
343.2834547857523
 31
0.0
 11
122.8342618320635
 21
343.3087621113339
 31
0.0
 11
122.7369027945174
 21
343.3329269283406
 31
0.0
 11
122.5489526725187
 21
343.3761684566915
 31
0.0
 11
122.360083655193
 21
343.4152328811742
 31
0.0
 11
122.1664337659063
 21
343.4508802240537
 31
0.0
 11
121.9720608992422
 21
343.4823134641438
 31
0.0
 11
121.8767735485644
 21
343.496167645407
 31
0.0
 11
121.7813475395018
 21
343.5090210806497
 31
0.0
 11
121.6816834863162
 21
343.5213531953163
 31
0.0
 11
121.5818880854683
 21
343.5325863094428
 31
0.0
 11
121.3859087152192
 21
343.5514191630814
 31
0.0
 11
121.1895652138711
 21
343.5660514170713
 31
0.0
 11
120.9915735126374
 21
343.5765699598557
 31
0.0
 11
120.7934084233194
 21
343.5828760788444
 31
0.0
 11
120.6943740746855
 21
343.5844528506891
 31
0.0
 11
120.5953300280437
 21
343.5849791615661
 31
0.0
 11
120.4962859814018
 21
343.5844528506891
 31
0.0
 11
120.3972516327677
 21
343.5828760788444
 31
0.0
 11
120.1990865434499
 21
343.5765699598556
 31
0.0
 11
120.0010948422162
 21
343.5660514170713
 31
0.0
 11
119.8047513408681
 21
343.5514191630813
 31
0.0
 11
119.6087719706189
 21
343.5325863094428
 31
0.0
 11
119.5089765697711
 21
343.5213531953163
 31
0.0
 11
119.4093125165855
 21
343.5090210806497
 31
0.0
 11
119.3138865075229
 21
343.496167645407
 31
0.0
 11
119.218599156845
 21
343.4823134641438
 31
0.0
 11
119.0242262901815
 21
343.4508802240522
 31
0.0
 11
118.8305764008943
 21
343.4152328811742
 31
0.0
 11
118.6417073835666
 21
343.3761684566971
 31
0.0
 11
118.4537572615699
 21
343.3329269283406
 31
0.0
 11
118.3563982240271
 21
343.3087621113246
 31
0.0
 11
118.2593315470591
 21
343.2834547857523
 31
0.0
 11
118.1702116366338
 21
343.2591465836453
 31
0.0
 11
118.0813548393643
 21
343.2338878705022
 31
0.0
 11
117.8967051342919
 21
343.1780990858453
 31
0.0
 11
117.7133691342773
 21
343.1181157076589
 31
0.0
 11
117.5374611218187
 21
343.0560197618098
 31
0.0
 11
117.3630728701827
 21
342.9897962084539
 31
0.0
 11
117.2714603693622
 21
342.9530512321555
 31
0.0
 11
117.1803287093053
 21
342.9151339946028
 31
0.0
 11
117.0998142519598
 21
342.8804927674995
 31
0.0
 11
117.0196903009762
 21
342.8449534929282
 31
0.0
 11
116.8504695578931
 21
342.766334256302
 31
0.0
 11
116.6832214266581
 21
342.6835875610816
 31
0.0
 11
116.5252643483127
 21
342.6004505038991
 31
0.0
 11
116.369500385269
 21
342.5132911338976
 31
0.0
 11
116.2869441177902
 21
342.4648563150079
 31
0.0
 11
116.2050889585472
 21
342.4152499480605
 31
0.0
 11
116.1350388978265
 21
342.3715282740086
 31
0.0
 11
116.0655183134269
 21
342.3269650684536
 31
0.0
 11
115.9170419619785
 21
342.2277574894702
 31
0.0
 11
115.7712752111314
 21
342.1246093647498
 31
0.0
 11
115.6825647051029
 21
342.0587841861348
 31
0.0
 11
115.595080949641
 21
341.9913413400249
 31
0.0
 11
115.5090570262312
 21
341.9223412890192
 31
0.0
 11
115.4243733542174
 21
341.8517074613016
 31
0.0
  0
SPLINE
  5
1EE
330
48
100
AcDbEntity
  8
1
  6
Continuous
 62
     7
100
AcDbSpline
210
0.0
220
0.0
230
1.0
 70
     8
 71
     3
 72
   247
 73
   243
 74
   241
 42
0.0000000001
 43
0.0000000001
 44
0.00000001
 40
0.0
 40
0.0
 40
0.0
 40
0.0
 40
0.1102744844644442
 40
0.2205519637507262
 40
0.331014377997748
 40
0.4414793408578485
 40
0.620050002742337
 40
0.7986203548928781
 40
0.881197536635865
 40
0.9637723256993021
 40
1.05948574553387
 40
1.155201308432059
 40
1.33369267506397
 40
1.512192559871657
 40
1.698790933314495
 40
1.885383120335464
 40
1.973035202788083
 40
2.060685601856538
 40
2.159390699842064
 40
2.25809755669487
 40
2.444636617826075
 40
2.631182953459057
 40
2.824082135831652
 40
3.0169756351436
 40
3.109352758992679
 40
3.20172833543959
 40
3.30203985275065
 40
3.402352965416348
 40
3.595213220868717
 40
3.788079845679881
 40
3.984983407545033
 40
4.18188150270501
 40
4.278170741655678
 40
4.374458508288724
 40
4.474882631633314
 40
4.575308250293872
 40
4.772190423025227
 40
4.969078394670118
 40
5.167349304033432
 40
5.365614706363429
 40
5.464661606460306
 40
5.563707051475877
 40
5.662752496491461
 40
5.761799396588325
 40
5.960064798918295
 40
6.158335708281536
 40
6.355223679926486
 40
6.552105852657892
 40
6.652531471318459
 40
6.752955594663042
 40
6.849243361295955
 40
6.945532600246558
 40
7.142430695406827
 40
7.339334257271818
 40
7.532200882082152
 40
7.725061137535299
 40
7.825374250202006
 40
7.925685767511979
 40
8.018061343956322
 40
8.11043846780785
 40
8.303331967139712
 40
8.496231149499714
 40
8.682777485113135
 40
8.869316546233883
 40
8.968023403030985
 40
9.066728501098961
 40
9.154378900485197
 40
9.242030982551299
 40
9.428623164150316
 40
9.615221544667023
 40
9.793721463230899
 40
9.972212789479899
 40
10.06792827648878
 40
10.16364177829864
 40
10.24621681692715
 40
10.3287937345636
 40
10.5073608699707
 40
10.68593510935703
 40
10.85547136593269
 40
11.02499722861092
 40
11.11656309107946
 40
11.20812669283274
 40
11.28585584623259
 40
11.363587128095
 40
11.53321204728336
 40
11.70284550013237
 40
11.86352880071473
 40
12.02419944346862
 40
12.11081746685319
 40
12.19743294536145
 40
12.27121070058715
 40
12.34499085944878
 40
12.50577680079943
 40
12.66657335318761
 40
12.81969155310738
 40
12.97279466065337
 40
13.05418106249249
 40
13.13556469149848
 40
13.20694745409067
 40
13.27833287037679
 40
13.43154608518746
 40
13.58477254696569
 40
13.73277473537431
 40
13.88075996260633
 40
13.95730686877811
 40
14.03385088169763
 40
14.10488848068941
 40
14.17592890647158
 40
14.32398398753158
 40
14.47205490696589
 40
14.61826811743165
 40
14.76446400938333
 40
14.83733630230734
 40
14.91020568943807
 40
14.9830750765687
 40
15.05594736949282
 40
15.20214326144444
 40
15.34835647191014
 40
15.49642739134445
 40
15.64448247240458
 40
15.71552289818611
 40
15.78656049717719
 40
15.8631045100974
 40
15.93965141626983
 40
16.08763664350179
 40
16.23563883191036
 40
16.38886529368864
 40
16.54207850849936
 40
16.61346392478542
 40
16.68484668737757
 40
16.76623031638361
 40
16.84761671822269
 40
17.00071982576872
 40
17.15383802568855
 40
17.31463457807677
 40
17.47542051942738
 40
17.54920067828896
 40
17.6229784335147
 40
17.70959391202296
 40
17.79621193540745
 40
17.95688257816147
 40
18.11756587874386
 40
18.28719933159292
 40
18.45682425078116
 40
18.53455553264352
 40
18.61228468604342
 40
18.70384828779667
 40
18.79541415026516
 40
18.96494001294339
 40
19.13447626951905
 40
19.31305050890538
 40
19.49161764431256
 40
19.57419456194895
 40
19.65676960057752
 40
19.75248310238727
 40
19.84819858939612
 40
20.02668991564511
 40
20.20518983420908
 40
20.39178821472579
 40
20.57838039632481
 40
20.66603247839089
 40
20.75368287777715
 40
20.85238797584517
 40
20.95109483264227
 40
21.13763389376304
 40
21.32418022937644
 40
21.51707941173642
 40
21.7099729110683
 40
21.80235003491984
 40
21.89472561136419
 40
21.99503712867415
 40
22.09535024134082
 40
22.28821049679405
 40
22.48107712160433
 40
22.67798068346933
 40
22.87487877862959
 40
22.97116801758018
 40
23.0674557842131
 40
23.16787990755771
 40
23.26830552621826
 40
23.46518769894964
 40
23.6620756705946
 40
23.86034657995786
 40
24.05861198228781
 40
24.15765888238467
 40
24.25670432740026
 40
24.35574977241583
 40
24.4547966725127
 40
24.6530620748427
 40
24.85133298420602
 40
25.0482209558509
 40
25.24510312858225
 40
25.34552874724281
 40
25.4459528705874
 40
25.54224063722042
 40
25.63852987617111
 40
25.83542797133135
 40
26.03233153319628
 40
26.22519815800651
 40
26.4180584134597
 40
26.51837152612652
 40
26.61868304343653
 40
26.71105861988077
 40
26.80343574373221
 40
26.99632924306414
 40
27.18922842542417
 40
27.37577476103764
 40
27.56231382215836
 40
27.66102067895544
 40
27.75972577702346
 40
27.84737617640986
 40
27.93502825847576
 40
28.12162044007298
 40
28.30821882059141
 40
28.48671873916138
 40
28.6652100654048
 40
28.76092555240516
 40
28.85663905422309
 40
28.93921409287337
 40
29.0217910104891
 40
29.2003581456851
 40
29.37893238525373
 40
29.54846864241214
 40
29.71799450462508
 40
29.80956036647216
 40
29.90112396873534
 40
29.97885312327407
 40
30.05658440425529
 40
30.22620931809279
 40
30.39584276966102
 40
30.55652603940354
 40
30.71719673975906
 40
30.80381489539022
 40
30.89043021654451
 40
30.96420746640211
 40
31.03798818904183
 40
31.19878156314641
 40
31.35956922234676
 40
31.39323865097651
 40
31.4269072232045
 40
31.46052928599192
 40
31.49415134202876
 40
31.49415134202876
 40
31.49415134202876
 40
31.49415134202876
 10
110.7662867018719
 20
341.8517074612999
 30
0.0
 10
110.7381531826818
 20
341.8753664695558
 30
0.0
 10
110.6818853802547
 20
341.9226851285962
 30
0.0
 10
110.5957364234046
 20
341.9916427169064
 30
0.0
 10
110.508302784782
 20
342.0590597816932
 30
0.0
 10
110.401335369417
 20
342.1383882822836
 30
0.0
 10
110.2740701173578
 20
342.2284150898911
 30
0.0
 10
110.1521691634293
 20
342.3098338606469
 30
0.0
 10
110.0557105036352
 20
342.3716678635179
 30
0.0
 10
109.9819437096027
 20
342.4177116533463
 30
0.0
 10
109.9038317961561
 20
342.46505216357
 30
0.0
 10
109.7974760788564
 20
342.5274534733789
 30
0.0
 10
109.6657566898559
 20
342.6011233360927
 30
0.0
 10
109.5053802084405
 20
342.6854929044137
 30
0.0
 10
109.3405219296711
 20
342.7670208929749
 30
0.0
 10
109.2011832268974
 20
342.8317274919294
 30
0.0
 10
109.0909117397504
 20
342.8806420724523
 30
0.0
 10
109.0070109490446
 20
342.9167427235819
 30
0.0
 10
108.9192789395826
 20
342.9532469697305
 30
0.0
 10
108.8004917473631
 20
343.0008935541819
 30
0.0
 10
108.6534481764632
 20
343.0567091690667
 30
0.0
 10
108.4755214110169
 20
343.1194898858432
 30
0.0
 10
108.2941765674298
 20
343.178797337746
 30
0.0
 10
108.1415791981139
 20
343.2248820949653
 30
0.0
 10
108.0204930925804
 20
343.259304774966
 30
0.0
 10
107.9288192453295
 20
343.2843113717207
 30
0.0
 10
107.8343097146327
 20
343.3089527434017
 30
0.0
 10
107.7070083657976
 20
343.3405503780293
 30
0.0
 10
107.549102224055
 20
343.3768654187301
 30
0.0
 10
107.3588993777
 20
343.4161890907275
 30
0.0
 10
107.1665570580425
 20
343.4515820896714
 30
0.0
 10
107.0052733332286
 20
343.4776532244021
 30
0.0
 10
106.8767974596584
 20
343.4963343250425
 30
0.0
 10
106.7800028237237
 20
343.5093732596392
 30
0.0
 10
106.6817045649691
 20
343.5215364579204
 30
0.0
 10
106.5499570415466
 20
343.5363662887039
 30
0.0
 10
106.3859661651022
 20
343.5521195339752
 30
0.0
 10
106.1891498190613
 20
343.5667806501791
 30
0.0
 10
105.9916053850492
 20
343.577271900798
 30
0.0
 10
105.8264810051139
 20
343.5825239255139
 30
0.0
 10
105.6943764889968
 20
343.5846279194014
 30
0.0
 10
105.5953300280436
 20
343.5851547813584
 30
0.0
 10
105.4962835670903
 20
343.5846279194014
 30
0.0
 10
105.3641790509734
 20
343.582523925514
 30
0.0
 10
105.199054671038
 20
343.5772719007977
 30
0.0
 10
105.001510237026
 20
343.5667806501792
 30
0.0
 10
104.804693890985
 20
343.5521195339751
 30
0.0
 10
104.6407030145407
 20
343.5363662887039
 30
0.0
 10
104.5089554911181
 20
343.5215364579203
 30
0.0
 10
104.4106572323635
 20
343.5093732596392
 30
0.0
 10
104.3138625964289
 20
343.4963343250425
 30
0.0
 10
104.1853867228586
 20
343.4776532244017
 30
0.0
 10
104.0241029980445
 20
343.4515820896734
 30
0.0
 10
103.8317606783872
 20
343.4161890907291
 30
0.0
 10
103.6415578320342
 20
343.3768654187222
 30
0.0
 10
103.483651690291
 20
343.3405503780236
 30
0.0
 10
103.3563503414511
 20
343.3089527434141
 30
0.0
 10
103.2618408107562
 20
343.2843113717287
 30
0.0
 10
103.1701669635184
 20
343.2593047749272
 30
0.0
 10
103.0490808579744
 20
343.2248820949428
 30
0.0
 10
102.8964834885256
 20
343.1787973381594
 30
0.0
 10
102.7151386449589
 20
343.1194898861609
 30
0.0
 10
102.5372118801975
 20
343.0567091674695
 30
0.0
 10
102.390168309205
 20
343.0008935530323
 30
0.0
 10
102.2713811154843
 20
342.9532469723138
 30
0.0
 10
102.1836491062729
 20
342.916742725159
 30
0.0
 10
102.0997483194885
 20
342.8806420648741
 30
0.0
 10
101.9894768326258
 20
342.831727488638
 30
0.0
 10
101.8501380901608
 20
342.7670209753294
 30
0.0
 10
101.6852798069409
 20
342.6854929619005
 30
0.0
 10
101.5249035175671
 20
342.601123025518
 30
0.0
 10
101.3931841147471
 20
342.527453264102
 30
0.0
 10
101.2868279935174
 20
342.4650526653652
 30
0.0
 10
101.2087161046648
 20
342.4177119350138
 30
0.0
 10
101.1349503458541
 20
342.3716664314723
 30
0.0
 10
101.0384921560629
 20
342.3098338006521
 30
0.0
 10
100.9165812299357
 20
342.2284297135066
 30
0.0
 10
100.7732388918495
 20
342.1270304426923
 30
0.0
 10
100.6351607333206
 20
342.0235235458645
 30
0.0
 10
100.5227821978283
 20
341.9341814682348
 30
0.0
 10
100.432477962082
 20
341.8589179055417
 30
0.0
 10
100.3665801056549
 20
341.8021821481937
 30
0.0
 10
100.3049712307102
 20
341.7475483384859
 30
0.0
 10
100.2248526585926
 20
341.6745839226123
 30
0.0
 10
100.1240315061871
 20
341.5788704938001
 30
0.0
 10
100.0066474698748
 20
341.4605446072856
 30
0.0
 10
99.89499235683957
 20
341.3408503448389
 30
0.0
 10
99.80541693613193
 20
341.2384933197786
 30
0.0
 10
99.73430886913707
 20
341.1528615041369
 30
0.0
 10
99.68284802089463
 20
341.0885814329691
 30
0.0
 10
99.63506678604951
 20
341.026852705818
 30
0.0
 10
99.57336658533218
 20
340.9446476762215
 30
0.0
 10
99.49671647768571
 20
340.8374123992023
 30
0.0
 10
99.40904032105226
 20
340.7056533096238
 30
0.0
 10
99.32726037198626
 20
340.5731574113383
 30
0.0
 10
99.26330257632689
 20
340.4608597500862
 30
0.0
 10
99.21382396824754
 20
340.3679118502446
 30
0.0
 10
99.17850073440195
 20
340.2983056762475
 30
0.0
 10
99.14590065659159
 20
340.2310714194801
 30
0.0
 10
99.10435149077642
 20
340.1415825056296
 30
0.0
 10
99.05431203226476
 20
340.025975824854
 30
0.0
 10
98.99927691849101
 20
339.8848091238331
 30
0.0
 10
98.95010365818672
 20
339.7433398605812
 30
0.0
 10
98.91383410646594
 20
339.6245402240472
 30
0.0
 10
98.88744932415453
 20
339.527705696166
 30
0.0
 10
98.86928556666348
 20
339.4552323318991
 30
0.0
 10
98.85295116616547
 20
339.3842080554592
 30
0.0
 10
98.83304489373549
 20
339.2895631993517
 30
0.0
 10
98.81131405729742
 20
339.1690845525287
 30
0.0
 10
98.79083035083643
 20
339.0230304872349
 30
0.0
 10
98.77612708324031
 20
338.8769049987602
 30
0.0
 10
98.76875003571308
 20
338.7553322760886
 30
0.0
 10
98.76581439293824
 20
338.6580585237329
 30
0.0
 10
98.76508389423628
 20
338.5851867689434
 30
0.0
 10
98.76581439293825
 20
338.512315014154
 30
0.0
 10
98.7687500357131
 20
338.4150412617983
 30
0.0
 10
98.77612708324023
 20
338.2934685391266
 30
0.0
 10
98.79083035083629
 20
338.1473430506521
 30
0.0
 10
98.81131405729732
 20
338.0012889853582
 30
0.0
 10
98.83304489373548
 20
337.8808103385353
 30
0.0
 10
98.85295116616531
 20
337.7861654824283
 30
0.0
 10
98.86928556666332
 20
337.7151412059887
 30
0.0
 10
98.88744932415436
 20
337.6426678417215
 30
0.0
 10
98.91383410646587
 20
337.5458333138398
 30
0.0
 10
98.95010365818675
 20
337.4270336773058
 30
0.0
 10
98.99927691849099
 20
337.2855644140537
 30
0.0
 10
99.05431203226476
 20
337.1443977130328
 30
0.0
 10
99.10435149077642
 20
337.0287910322574
 30
0.0
 10
99.14590065659155
 20
336.9393021184065
 30
0.0
 10
99.17850073440197
 20
336.8720678616395
 30
0.0
 10
99.21382396824748
 20
336.8024616876422
 30
0.0
 10
99.26330257632694
 20
336.7095137878008
 30
0.0
 10
99.32726037198623
 20
336.5972161265484
 30
0.0
 10
99.40904032105227
 20
336.4647202282631
 30
0.0
 10
99.49671647768567
 20
336.3329611386845
 30
0.0
 10
99.57336658533214
 20
336.2257258616653
 30
0.0
 10
99.63506678604955
 20
336.143520832069
 30
0.0
 10
99.68284802089458
 20
336.0817921049176
 30
0.0
 10
99.73430886913707
 20
336.01751203375
 30
0.0
 10
99.80541693613199
 20
335.9318802181082
 30
0.0
 10
99.89499235683957
 20
335.8295231930476
 30
0.0
 10
100.0066474698748
 20
335.7098289306012
 30
0.0
 10
100.124031506187
 20
335.5915030440866
 30
0.0
 10
100.2248526585926
 20
335.4957896152745
 30
0.0
 10
100.3049712307102
 20
335.422825199401
 30
0.0
 10
100.3665801056549
 20
335.3681913896932
 30
0.0
 10
100.432477962082
 20
335.3114556323451
 30
0.0
 10
100.5227821978283
 20
335.2361920696521
 30
0.0
 10
100.6351607333205
 20
335.1468499920222
 30
0.0
 10
100.7732388918494
 20
335.0433430951946
 30
0.0
 10
100.9165812299356
 20
334.9419438243802
 30
0.0
 10
101.0384921560629
 20
334.8605397372347
 30
0.0
 10
101.1349503458542
 20
334.7987071064146
 30
0.0
 10
101.2087161046648
 20
334.752661602873
 30
0.0
 10
101.2868279935174
 20
334.7053208725217
 30
0.0
 10
101.393184114747
 20
334.642920273785
 30
0.0
 10
101.5249035175671
 20
334.5692505123691
 30
0.0
 10
101.6852798069408
 20
334.4848805759864
 30
0.0
 10
101.8501380901608
 20
334.4033525625575
 30
0.0
 10
101.9894768326259
 20
334.3386460492487
 30
0.0
 10
102.0997483194885
 20
334.2897314730129
 30
0.0
 10
102.1836491062729
 20
334.2536308127279
 30
0.0
 10
102.2713811154843
 20
334.2171265655732
 30
0.0
 10
102.390168309205
 20
334.1694799848543
 30
0.0
 10
102.5372118801974
 20
334.1136643704172
 30
0.0
 10
102.7151386449589
 20
334.0508836517259
 30
0.0
 10
102.8964834885256
 20
333.9915761997274
 30
0.0
 10
103.0490808579743
 20
333.9454914429442
 30
0.0
 10
103.1701669635184
 20
333.9110687629596
 30
0.0
 10
103.2618408107562
 20
333.8860621661581
 30
0.0
 10
103.3563503414511
 20
333.8614207944725
 30
0.0
 10
103.4836516902911
 20
333.8298231598635
 30
0.0
 10
103.6415578320342
 20
333.7935081191648
 30
0.0
 10
103.8317606783872
 20
333.7541844471577
 30
0.0
 10
104.0241029980444
 20
333.7187914482136
 30
0.0
 10
104.1853867228587
 20
333.6927203134849
 30
0.0
 10
104.3138625964289
 20
333.6740392128444
 30
0.0
 10
104.4106572323635
 20
333.6610002782476
 30
0.0
 10
104.5089554911181
 20
333.6488370799663
 30
0.0
 10
104.6407030145407
 20
333.6340072491828
 30
0.0
 10
104.8046938909851
 20
333.6182540039116
 30
0.0
 10
105.001510237026
 20
333.603592887708
 30
0.0
 10
105.1990546710381
 20
333.5931016370889
 30
0.0
 10
105.3641790509734
 20
333.5878496123728
 30
0.0
 10
105.4962835670904
 20
333.5857456184854
 30
0.0
 10
105.5953300280436
 20
333.5852187565284
 30
0.0
 10
105.6943764889968
 20
333.5857456184856
 30
0.0
 10
105.8264810051139
 20
333.5878496123729
 30
0.0
 10
105.9916053850492
 20
333.593101637089
 30
0.0
 10
106.1891498190613
 20
333.603592887708
 30
0.0
 10
106.3859661651022
 20
333.6182540039116
 30
0.0
 10
106.5499570415465
 20
333.6340072491828
 30
0.0
 10
106.6817045649691
 20
333.6488370799665
 30
0.0
 10
106.7800028237237
 20
333.6610002782475
 30
0.0
 10
106.8767974596584
 20
333.6740392128445
 30
0.0
 10
107.0052733332287
 20
333.6927203134849
 30
0.0
 10
107.1665570580429
 20
333.7187914482133
 30
0.0
 10
107.3588993777001
 20
333.7541844471578
 30
0.0
 10
107.549102224053
 20
333.7935081191647
 30
0.0
 10
107.7070083657962
 20
333.8298231598635
 30
0.0
 10
107.8343097146362
 20
333.8614207944726
 30
0.0
 10
107.9288192453312
 20
333.8860621661581
 30
0.0
 10
108.0204930925689
 20
333.9110687629595
 30
0.0
 10
108.1415791981129
 20
333.9454914429442
 30
0.0
 10
108.2941765675616
 20
333.9915761997276
 30
0.0
 10
108.4755214111284
 20
334.0508836517259
 30
0.0
 10
108.65344817589
 20
334.1136643704172
 30
0.0
 10
108.8004917468824
 20
334.1694799848542
 30
0.0
 10
108.9192789406029
 20
334.2171265655733
 30
0.0
 10
109.0070109498144
 20
334.253630812728
 30
0.0
 10
109.0909117365991
 20
334.2897314730124
 30
0.0
 10
109.2011832234611
 20
334.3386460492481
 30
0.0
 10
109.3405219659232
 20
334.4033525625631
 30
0.0
 10
109.5053802491453
 20
334.4848805759917
 30
0.0
 10
109.6657565385342
 20
334.5692505123469
 30
0.0
 10
109.7974759413492
 20
334.6429202737677
 30
0.0
 10
109.9038320625451
 20
334.7053208725582
 30
0.0
 10
109.9819439514114
 20
334.7526616028993
 30
0.0
 10
110.0557097103064
 20
334.7987071063111
 30
0.0
 10
110.1521679000094
 20
334.8605397371446
 30
0.0
 10
110.2740788253013
 20
334.9419438255272
 30
0.0
 10
110.417421163667
 20
335.0433430961683
 30
0.0
 10
110.5554993262313
 20
335.146849987742
 30
0.0
 10
110.6678778608215
 20
335.2361920665167
 30
0.0
 10
110.7581820878934
 20
335.3114556393294
 30
0.0
 10
110.8240799466383
 20
335.3681913942566
 30
0.0
 10
110.8856888428982
 20
335.4228251802484
 30
0.0
 10
110.9658074059693
 20
335.4957896044754
 30
0.0
 10
111.0666283454983
 20
335.5915032567904
 30
0.0
 10
111.1840124098875
 20
335.709829079742
 30
0.0
 10
111.2956685161758
 20
335.8295224199167
 30
0.0
 10
111.3852437684973
 20
335.9318797169756
 30
0.0
 10
111.4563497719707
 20
336.0175132590542
 30
0.0
 10
111.5078110205004
 20
336.0817927452706
 30
0.0
 10
111.5555973040516
 20
336.1435174792398
 30
0.0
 10
111.6172971024172
 20
336.2257262679903
 30
0.0
 10
111.6938969562015
 20
336.3329963431008
 30
0.0
 10
111.7595185501181
 20
336.4315968183147
 30
0.0
 10
111.8003683541773
 20
336.4957350361658
 30
0.0
 10
111.8182273957721
 20
336.524259143331
 30
0.0
 10
111.8358606207968
 20
336.5529051112393
 30
0.0
 10
111.8474175957247
 20
336.572110856707
 30
0.0
 10
111.8531960826085
 20
336.5817137284768
 30
0.0
 11
110.7662867018719
 21
341.8517074612999
 31
0.0
 11
110.6816030298577
 21
341.9223412890179
 31
0.0
 11
110.5955791064475
 21
341.991341340024
 31
0.0
 11
110.5080953509851
 21
342.0587841861344
 31
0.0
 11
110.419384844956
 21
342.1246093647498
 31
0.0
 11
110.273618094109
 21
342.2277574894703
 31
0.0
 11
110.1251417426605
 21
342.3269650684536
 31
0.0
 11
110.0556211582609
 21
342.3715282740087
 31
0.0
 11
109.9855710975401
 21
342.4152499480605
 31
0.0
 11
109.903715938297
 21
342.4648563150079
 31
0.0
 11
109.8211596708182
 21
342.5132911338976
 31
0.0
 11
109.6653957077745
 21
342.6004505038991
 31
0.0
 11
109.5074386294292
 21
342.6835875610816
 31
0.0
 11
109.3401904981942
 21
342.766334256302
 31
0.0
 11
109.1709697551111
 21
342.8449534929282
 31
0.0
 11
109.0908458041275
 21
342.8804927674995
 31
0.0
 11
109.010331346782
 21
342.9151339946028
 31
0.0
 11
108.9191996867252
 21
342.9530512321555
 31
0.0
 11
108.8275871859047
 21
342.9897962084539
 31
0.0
 11
108.6531989342687
 21
343.0560197618097
 31
0.0
 11
108.47729092181
 21
343.1181157076589
 31
0.0
 11
108.2939549217954
 21
343.1780990858453
 31
0.0
 11
108.109305216723
 21
343.2338878705022
 31
0.0
 11
108.0204484194535
 21
343.2591465836453
 31
0.0
 11
107.9313285090282
 21
343.2834547857523
 31
0.0
 11
107.8342618320601
 21
343.3087621113247
 31
0.0
 11
107.7369027945173
 21
343.3329269283406
 31
0.0
 11
107.5489526725207
 21
343.3761684566972
 31
0.0
 11
107.360083655193
 21
343.4152328811742
 31
0.0
 11
107.1664337659059
 21
343.4508802240522
 31
0.0
 11
106.9720608992424
 21
343.4823134641438
 31
0.0
 11
106.8767735485644
 21
343.4961676454071
 31
0.0
 11
106.7813475395017
 21
343.5090210806497
 31
0.0
 11
106.6816834863161
 21
343.5213531953162
 31
0.0
 11
106.5818880854683
 21
343.5325863094428
 31
0.0
 11
106.3859087152192
 21
343.5514191630814
 31
0.0
 11
106.1895652138711
 21
343.5660514170713
 31
0.0
 11
105.9915735126373
 21
343.5765699598557
 31
0.0
 11
105.7934084233194
 21
343.5828760788444
 31
0.0
 11
105.6943740746855
 21
343.5844528506891
 31
0.0
 11
105.5953300280436
 21
343.5849791615661
 31
0.0
 11
105.4962859814017
 21
343.5844528506891
 31
0.0
 11
105.3972516327678
 21
343.5828760788444
 31
0.0
 11
105.1990865434499
 21
343.5765699598556
 31
0.0
 11
105.0010948422162
 21
343.5660514170713
 31
0.0
 11
104.8047513408681
 21
343.5514191630813
 31
0.0
 11
104.6087719706189
 21
343.5325863094428
 31
0.0
 11
104.5089765697711
 21
343.5213531953163
 31
0.0
 11
104.4093125165855
 21
343.5090210806497
 31
0.0
 11
104.3138865075229
 21
343.496167645407
 31
0.0
 11
104.218599156845
 21
343.4823134641438
 31
0.0
 11
104.024226290181
 21
343.4508802240537
 31
0.0
 11
103.8305764008943
 21
343.4152328811742
 31
0.0
 11
103.6417073835686
 21
343.3761684566914
 31
0.0
 11
103.4537572615699
 21
343.3329269283406
 31
0.0
 11
103.3563982240238
 21
343.3087621113338
 31
0.0
 11
103.2593315470592
 21
343.2834547857523
 31
0.0
 11
103.1702116366443
 21
343.2591465836167
 31
0.0
 11
103.0813548393642
 21
343.2338878705022
 31
0.0
 11
102.8967051341787
 21
343.1780990861509
 31
0.0
 11
102.7133691342773
 21
343.1181157076589
 31
0.0
 11
102.5374611222605
 21
343.0560197606164
 31
0.0
 11
102.3630728701826
 21
342.9897962084539
 31
0.0
 11
102.2714603686383
 21
342.9530512341096
 31
0.0
 11
102.1803287093053
 21
342.9151339946028
 31
0.0
 11
102.0998142541002
 21
342.8804927617206
 31
0.0
 11
102.0196903009762
 21
342.8449534929282
 31
0.0
 11
101.8504695343903
 21
342.766334319758
 31
0.0
 11
101.6832214266581
 21
342.6835875610816
 31
0.0
 11
101.5252644389113
 21
342.6004502592895
 31
0.0
 11
101.3695003852691
 21
342.5132911338976
 31
0.0
 11
101.2869439671324
 21
342.4648567217737
 31
0.0
 11
101.2050889585473
 21
342.4152499480605
 31
0.0
 11
101.1350393271812
 21
342.3715271147811
 31
0.0
 11
101.0655183134268
 21
342.3269650684536
 31
0.0
 11
100.9170371494505
 21
342.2277704829575
 31
0.0
 11
100.7712752111314
 21
342.1246093647498
 31
0.0
 11
100.6356481981834
 21
342.0228849544419
 31
0.0
 11
100.5029762159274
 21
341.9173521953523
 31
0.0
 11
100.4326353519352
 21
341.8587307826907
 31
0.0
 11
100.3632444611167
 21
341.7989913699262
 31
0.0
 11
100.3050864266197
 21
341.7474213756301
 31
0.0
 11
100.2476142979482
 21
341.6950849007207
 31
0.0
 11
100.1246262138752
 21
341.5782664758653
 31
0.0
 11
100.0051894571939
 21
341.4578074808548
 31
0.0
 11
99.8956199152246
 21
341.3402760443849
 31
0.0
 11
99.78984706420908
 21
341.2193332503416
 31
0.0
 11
99.73450865602811
 21
341.152697354947
 31
0.0
 11
99.6803742360741
 21
341.0850829652547
 31
0.0
 11
99.6352126231958
 21
341.0267427056703
 31
0.0
 11
99.59092116557531
 21
340.967736107535
 31
0.0
 11
99.49745612772756
 21
340.8369064257494
 31
0.0
 11
99.40841176129248
 21
340.7030160524356
 31
0.0
 11
99.32803135535109
 21
340.5726927103692
 31
0.0
 11
99.25230512884821
 21
340.4396284395829
 31
0.0
 11
99.21405895911903
 21
340.3677885000968
 31
0.0
 11
99.17722694965863
 21
340.2952164796668
 31
0.0
 11
99.14608163290271
 21
340.2309866731945
 31
0.0
 11
99.11601836017593
 21
340.1662404200883
 31
0.0
 11
99.05518215804804
 21
340.0256230466835
 31
0.0
 11
98.99955145527542
 21
339.8828519939518
 31
0.0
 11
98.95099772396543
 21
339.7430407535252
 31
0.0
 11
98.9078273754979
 21
339.6014923572358
 31
0.0
 11
98.8877014202223
 21
339.5276386182058
 31
0.0
 11
98.86909047756279
 21
339.4533916066353
 31
0.0
 11
98.85316819486855
 21
339.3841614009132
 31
0.0
 11
98.83854604585639
 21
339.3146420881032
 31
0.0
 11
98.81226823784375
 21
339.16893764811
 31
0.0
 11
98.79170746635111
 21
339.0223011865537
 31
0.0
 11
98.77709044222863
 21
338.8768204472082
 31
0.0
 11
98.76825851009863
 21
338.7308915748135
 31
0.0
 11
98.76605900729904
 21
338.658052483225
 31
0.0
 11
98.765327390567
 21
338.5851867689434
 31
0.0
 11
98.76605900729902
 21
338.5123210546619
 31
0.0
 11
98.76825851009863
 21
338.4394819630733
 31
0.0
 11
98.77709044222857
 21
338.2935530906786
 31
0.0
 11
98.791707466351
 21
338.1480723513332
 31
0.0
 11
98.81226823784368
 21
338.0014358897769
 31
0.0
 11
98.83854604585639
 21
337.8557314497836
 31
0.0
 11
98.85316819486842
 21
337.7862121369742
 31
0.0
 11
98.86909047756251
 21
337.7169819312528
 31
0.0
 11
98.88770142022213
 21
337.6427349196816
 31
0.0
 11
98.9078273754979
 21
337.568881180651
 31
0.0
 11
98.95099772396542
 21
337.4273327843616
 31
0.0
 11
98.99955145527542
 21
337.2875215439351
 31
0.0
 11
99.05518215804804
 21
337.1447504912034
 31
0.0
 11
99.11601836017593
 21
337.0041331177985
 31
0.0
 11
99.14608163290268
 21
336.9393868646923
 31
0.0
 11
99.17722694965863
 21
336.8751570582201
 31
0.0
 11
99.21405895911902
 21
336.80258503779
 31
0.0
 11
99.25230512884821
 21
336.730745098304
 31
0.0
 11
99.32803135535107
 21
336.5976808275177
 31
0.0
 11
99.40841176129248
 21
336.4673574854512
 31
0.0
 11
99.49745612772756
 21
336.3334671121374
 31
0.0
 11
99.59092116557531
 21
336.2026374303518
 31
0.0
 11
99.6352126231958
 21
336.1436308322166
 31
0.0
 11
99.6803742360741
 21
336.0852905726321
 31
0.0
 11
99.73450865602813
 21
336.0176761829399
 31
0.0
 11
99.78984706420908
 21
335.9510402875453
 31
0.0
 11
99.89561991522461
 21
335.8300974935019
 31
0.0
 11
100.0051894571939
 21
335.7125660570319
 31
0.0
 11
100.1246262138752
 21
335.5921070620213
 31
0.0
 11
100.2476142979482
 21
335.4752886371661
 31
0.0
 11
100.3050864266197
 21
335.4229521622568
 31
0.0
 11
100.3632444611167
 21
335.3713821679606
 31
0.0
 11
100.4326353519352
 21
335.3116427551961
 31
0.0
 11
100.5029762159273
 21
335.2530213425345
 31
0.0
 11
100.6356481981833
 21
335.1474885834449
 31
0.0
 11
100.7712752111313
 21
335.045764173137
 31
0.0
 11
100.9170371494504
 21
334.9426030549294
 31
0.0
 11
101.0655183134268
 21
334.8434084694332
 31
0.0
 11
101.1350393271812
 21
334.7988464231057
 31
0.0
 11
101.2050889585473
 21
334.7551235898263
 31
0.0
 11
101.2869439671324
 21
334.7055168161132
 31
0.0
 11
101.369500385269
 21
334.6570824039893
 31
0.0
 11
101.5252644389113
 21
334.5699232785976
 31
0.0
 11
101.6832214266581
 21
334.4867859768053
 31
0.0
 11
101.8504695343903
 21
334.4040392181288
 31
0.0
 11
102.0196903009762
 21
334.3254200449587
 31
0.0
 11
102.0998142541002
 21
334.2898807761663
 31
0.0
 11
102.1803287093053
 21
334.2552395432841
 31
0.0
 11
102.2714603686384
 21
334.2173223037773
 31
0.0
 11
102.3630728701826
 21
334.1805773294329
 31
0.0
 11
102.5374611222605
 21
334.1143537772703
 31
0.0
 11
102.7133691342773
 21
334.0522578302279
 31
0.0
 11
102.8967051341787
 21
333.992274451736
 31
0.0
 11
103.0813548393642
 21
333.9364856673846
 31
0.0
 11
103.1702116366443
 21
333.9112269542701
 31
0.0
 11
103.2593315470592
 21
333.8869187521344
 31
0.0
 11
103.3563982240238
 21
333.8616114265529
 31
0.0
 11
103.4537572615699
 21
333.8374466095463
 31
0.0
 11
103.6417073835687
 21
333.7942050811955
 31
0.0
 11
103.8305764008943
 21
333.7551406567126
 31
0.0
 11
104.024226290181
 21
333.7194933138331
 31
0.0
 11
104.218599156845
 21
333.688060073743
 31
0.0
 11
104.3138865075229
 21
333.6742058924797
 31
0.0
 11
104.4093125165855
 21
333.6613524572371
 31
0.0
 11
104.5089765697711
 21
333.6490203425705
 31
0.0
 11
104.6087719706189
 21
333.6377872284439
 31
0.0
 11
104.8047513408681
 21
333.6189543748055
 31
0.0
 11
105.0010948422162
 21
333.6043221208156
 31
0.0
 11
105.1990865434499
 21
333.5938035780312
 31
0.0
 11
105.3972516327678
 21
333.5874974590424
 31
0.0
 11
105.4962859814017
 21
333.5859206871978
 31
0.0
 11
105.5953300280436
 21
333.5853943763208
 31
0.0
 11
105.6943740746855
 21
333.5859206871979
 31
0.0
 11
105.7934084233194
 21
333.5874974590425
 31
0.0
 11
105.9915735126373
 21
333.5938035780312
 31
0.0
 11
106.1895652138711
 21
333.6043221208156
 31
0.0
 11
106.3859087152192
 21
333.6189543748054
 31
0.0
 11
106.5818880854683
 21
333.6377872284439
 31
0.0
 11
106.6816834863161
 21
333.6490203425705
 31
0.0
 11
106.7813475395017
 21
333.6613524572371
 31
0.0
 11
106.8767735485644
 21
333.6742058924799
 31
0.0
 11
106.9720608992424
 21
333.688060073743
 31
0.0
 11
107.1664337659064
 21
333.719493313833
 31
0.0
 11
107.360083655193
 21
333.7551406567126
 31
0.0
 11
107.5489526725185
 21
333.7942050811955
 31
0.0
 11
107.7369027945173
 21
333.8374466095463
 31
0.0
 11
107.8342618320636
 21
333.861611426553
 31
0.0
 11
107.9313285090282
 21
333.8869187521344
 31
0.0
 11
108.020448419443
 21
333.9112269542701
 31
0.0
 11
108.109305216723
 21
333.9364856673846
 31
0.0
 11
108.2939549219085
 21
333.9922744517361
 31
0.0
 11
108.47729092181
 21
334.0522578302279
 31
0.0
 11
108.6531989338269
 21
334.1143537772703
 31
0.0
 11
108.8275871859047
 21
334.1805773294329
 31
0.0
 11
108.9191996874489
 21
334.2173223037775
 31
0.0
 11
109.010331346782
 21
334.2552395432841
 31
0.0
 11
109.0908458019874
 21
334.2898807761659
 31
0.0
 11
109.1709697551111
 21
334.3254200449586
 31
0.0
 11
109.3401905216933
 21
334.4040392181325
 31
0.0
 11
109.5074386294292
 21
334.4867859768053
 31
0.0
 11
109.6653956171905
 21
334.569923278583
 31
0.0
 11
109.8211596708182
 21
334.6570824039893
 31
0.0
 11
109.9037160889309
 21
334.7055168161373
 31
0.0
 11
109.9855710975401
 21
334.7551235898263
 31
0.0
 11
110.0556207289749
 21
334.7988464230368
 31
0.0
 11
110.1251417426605
 21
334.8434084694332
 31
0.0
 11
110.2736229058671
 21
334.9426030557015
 31
0.0
 11
110.419384844956
 21
335.045764173137
 31
0.0
 11
110.5550118608454
 21
335.1474885804944
 31
0.0
 11
110.6876838401599
 21
335.2530213425345
 31
0.0
 11
110.7580246992206
 21
335.3116427601427
 31
0.0
 11
110.8274155949706
 21
335.3713821679606
 31
0.0
 11
110.8855736432344
 21
335.4229521484479
 31
0.0
 11
110.9430457581391
 21
335.4752886371661
 31
0.0
 11
111.0660336860387
 21
335.5921072186733
 31
0.0
 11
111.1854705988933
 21
335.7125660570319
 31
0.0
 11
111.2950407363743
 21
335.8300968961659
 31
0.0
 11
111.4008129918782
 21
335.9510402875453
 31
0.0
 11
111.4561504042078
 21
336.0176771818428
 31
0.0
 11
111.5102858200139
 21
336.085290572633
 31
0.0
 11
111.5554502248025
 21
336.1436280317536
 31
0.0
 11
111.5997388905119
 21
336.2026374303518
 31
0.0
 11
111.6931723093031
 21
336.3334988280553
 31
0.0
 11
111.7822482947947
 21
336.4673574854512
 31
0.0
 11
111.8003318919438
 21
336.4957584350551
 31
0.0
 11
111.8181993249935
 21
336.5242948607613
 31
0.0
 11
111.8358123494496
 21
336.5529344221335
 31
0.0
 11
111.8531960826085
 21
336.5817137284768
 31
0.0
  0
SPLINE
  5
1EF
330
48
100
AcDbEntity
  8
1
  6
Continuous
 62
     7
100
AcDbSpline
210
0.0
220
0.0
230
1.0
 70
     8
 71
     3
 72
    13
 73
     9
 74
     7
 42
0.0000000001
 43
0.0000000001
 44
0.00000001
 40
0.0
 40
0.0
 40
0.0
 40
0.0
 40
2.617840806592801
 40
5.232054464946399
 40
6.267140639891061
 40
7.298495402043725
 40
8.325318977451303
 40
9.350021163256111
 40
9.350021163256111
 40
9.350021163256111
 40
9.350021163256111
 10
222.5795453754845
 20
183.2234208183126
 30
0.0
 10
222.6504574238193
 20
184.0978803929796
 30
0.0
 10
222.79218326833
 20
185.8455879352143
 30
0.0
 10
223.7294947055736
 20
187.7846543622746
 30
0.0
 10
224.7696815856254
 20
188.9565049178095
 30
0.0
 10
225.5990043617255
 20
189.5789041531922
 30
0.0
 10
226.5506686706406
 20
190.0114617273691
 30
0.0
 10
227.23654607559
 20
190.068696544262
 30
0.0
 10
227.5791301607298
 20
190.0972843607463
 30
0.0
 11
222.5795453754845
 21
183.2234208183126
 31
0.0
 11
222.9526983224398
 21
185.8145301110367
 31
0.0
 11
224.1017616034474
 21
188.1626712115165
 31
0.0
 11
224.7942959462513
 21
188.931956317052
 31
0.0
 11
225.6211951884392
 21
189.5483411714118
 31
0.0
 11
226.5644970603933
 21
189.9539866242157
 31
0.0
 11
227.5791301607298
 21
190.0972843607463
 31
0.0
  0
SPLINE
  5
1F0
330
48
100
AcDbEntity
  8
1
  6
Continuous
 62
     7
100
AcDbSpline
210
0.0
220
0.0
230
1.0
 70
     8
 71
     3
 72
    41
 73
    37
 74
    35
 42
0.0000000001
 43
0.0000000001
 44
0.00000001
 40
0.0
 40
0.0
 40
0.0
 40
0.0
 40
1.690472865765546
 40
3.381891470723732
 40
4.014087264027945
 40
4.644319888491352
 40
5.027984842806236
 40
5.411662019306517
 40
5.837212481273259
 40
6.262793874145149
 40
6.905315603223786
 40
7.550170198064278
 40
8.056292022519305
 40
8.561819600367645
 40
9.273264037054815
 40
9.986183561164244
 40
10.81328550749122
 40
11.63990760546958
 40
12.28898098527459
 40
12.93825890539965
 40
14.00774632875316
 40
15.07805042349641
 40
15.90668177145157
 40
16.73375728088767
 40
17.30002049221502
 40
17.86518675794238
 40
18.25227518340109
 40
18.63954017279561
 40
19.12087735047674
 40
19.60191569566719
 40
20.06464149711187
 40
20.52761839474519
 40
21.01111888890247
 40
21.49514367976703
 40
22.77851447765184
 40
24.06231141021127
 40
24.06231141021127
 40
24.06231141021127
 40
24.06231141021127
 10
227.1730358432738
 20
199.6394587923283
 30
0.0
 10
226.6114012629314
 20
199.5708206967109
 30
0.0
 10
225.4878178944025
 20
199.4335061057251
 30
0.0
 10
224.2523289798688
 20
198.8396335563481
 30
0.0
 10
223.4887635525622
 20
198.2146226432325
 30
0.0
 10
223.1252375728106
 20
197.7988551889874
 30
0.0
 10
222.878061970798
 20
197.4026146487964
 30
0.0
 10
222.7141047732521
 20
197.0388940211718
 30
0.0
 10
222.6051068660347
 20
196.6399167511235
 30
0.0
 10
222.5588435303011
 20
196.1414482752059
 30
0.0
 10
222.6428402396504
 20
195.5693415527444
 30
0.0
 10
222.8726341339736
 20
195.0114282467166
 30
0.0
 10
223.184283449509
 20
194.5524673580893
 30
0.0
 10
223.5777456573302
 20
194.1315583665403
 30
0.0
 10
224.0864605745072
 20
193.7326957480676
 30
0.0
 10
224.742583181112
 20
193.3636157316222
 30
0.0
 10
225.4796044468658
 20
193.0749054810269
 30
0.0
 10
226.2270695301348
 20
192.8916300332629
 30
0.0
 10
226.9298601670729
 20
192.795976610312
 30
0.0
 10
227.7192884698722
 20
192.7607442651365
 30
0.0
 10
228.6501439411168
 20
192.8281479195939
 30
0.0
 10
229.6185837813125
 20
193.0511592754633
 30
0.0
 10
230.4670632313963
 20
193.3839569056189
 30
0.0
 10
231.1102807928072
 20
193.7586738500046
 30
0.0
 10
231.6193065526396
 20
194.17027234425
 30
0.0
 10
231.9641711086233
 20
194.5439052980723
 30
0.0
 10
232.2172971325696
 20
194.9130646688826
 30
0.0
 10
232.40710067755
 20
195.287628457588
 30
0.0
 10
232.5423212554782
 20
195.7195137480005
 30
0.0
 10
232.5954830606618
 20
196.1949045982857
 30
0.0
 10
232.5502167443297
 20
196.6647132060847
 30
0.0
 10
232.4184462231007
 20
197.1182461076505
 30
0.0
 10
232.2031104649807
 20
197.5466936769577
 30
0.0
 10
231.7607512741519
 20
198.154985454489
 30
0.0
 10
230.9634752664152
 20
198.8253546851232
 30
0.0
 10
230.1660529428857
 20
199.1445346055498
 30
0.0
 10
229.7672755974239
 20
199.3041510567536
 30
0.0
 11
227.1730358432738
 21
199.6394587923283
 31
0.0
 11
225.5087897671623
 21
199.3428386513449
 31
0.0
 11
223.9869993507288
 21
198.604563075662
 31
0.0
 11
223.5001778801084
 21
198.2012314790637
 31
0.0
 11
223.0880147718725
 21
197.7244561303434
 31
0.0
 11
222.8856251498474
 21
197.3985155865843
 31
0.0
 11
222.7288053875094
 21
197.0483502857513
 31
0.0
 11
222.6173007046725
 21
196.6376680468055
 31
0.0
 11
222.5791301607297
 21
196.2138018750792
 31
0.0
 11
222.6680883293024
 21
195.577468144571
 31
0.0
 11
222.9120907436161
 21
194.980559214921
 31
0.0
 11
223.1945767014278
 21
194.5606056641218
 31
0.0
 11
223.5381278937503
 21
194.189754332428
 31
0.0
 11
224.0959585806156
 21
193.7481910738971
 31
0.0
 11
224.7159088278214
 21
193.3961741157177
 31
0.0
 11
225.4852017434861
 21
193.0923879416973
 31
0.0
 11
226.2875427222529
 21
192.8935084639782
 31
0.0
 11
226.9306579223987
 21
192.805763995703
 31
0.0
 11
227.5792793431911
 21
192.7765737567318
 31
0.0
 11
228.645860186999
 21
192.8553687586876
 31
0.0
 11
229.6883835016185
 21
193.0976413194514
 31
0.0
 11
230.4585183747359
 21
193.4034552956238
 31
0.0
 11
231.1712609707307
 21
193.8230406744964
 31
0.0
 11
231.6102961476584
 21
194.1806747583347
 31
0.0
 11
231.9918210147696
 21
194.5976300121592
 31
0.0
 11
232.2099469404258
 21
194.9174088883858
 31
0.0
 11
232.3840815914839
 21
195.2633153718631
 31
0.0
 11
232.5272117646499
 21
195.7228795481731
 31
0.0
 11
232.5791301607297
 21
196.201107913802
 31
0.0
 11
232.5360394250327
 21
196.6618229621993
 31
0.0
 11
232.4074510613625
 21
197.1065842919828
 31
0.0
 11
232.1920762962542
 21
197.5394658443789
 31
0.0
 11
231.9092571796519
 21
197.9322677606876
 31
0.0
 11
230.9319416490012
 21
198.7640699958447
 31
0.0
 11
229.7672755974239
 21
199.3041510567536
 31
0.0
  0
SPLINE
  5
1F1
330
48
100
AcDbEntity
  8
1
  6
Continuous
 62
     7
100
AcDbSpline
210
0.0
220
0.0
230
1.0
 70
     8
 71
     3
 72
    13
 73
     9
 74
     7
 42
0.0000000001
 43
0.0000000001
 44
0.00000001
 40
0.0
 40
0.0
 40
0.0
 40
0.0
 40
2.617840806592813
 40
5.232054464946375
 40
6.267140639891017
 40
7.298495402043704
 40
8.325318977451282
 40
9.350021163256033
 40
9.350021163256033
 40
9.350021163256033
 40
9.350021163256033
 10
232.5790133108974
 20
183.2234208183126
 30
0.0
 10
232.5081012625626
 20
184.0978803929797
 30
0.0
 10
232.3663754180519
 20
185.8455879352142
 30
0.0
 10
231.4290639808082
 20
187.7846543622746
 30
0.0
 10
230.3888771007566
 20
188.9565049178096
 30
0.0
 10
229.5595543246564
 20
189.5789041531922
 30
0.0
 10
228.6078900157413
 20
190.011461727369
 30
0.0
 10
227.9220126107919
 20
190.068696544262
 30
0.0
 10
227.5794285256522
 20
190.0972843607463
 30
0.0
 11
232.5790133108974
 21
183.2234208183126
 31
0.0
 11
232.205860363942
 21
185.8145301110367
 31
0.0
 11
231.0567970829345
 21
188.1626712115165
 31
0.0
 11
230.3642627401306
 21
188.931956317052
 31
0.0
 11
229.5373634979428
 21
189.5483411714118
 31
0.0
 11
228.5940616259886
 21
189.9539866242157
 31
0.0
 11
227.5794285256522
 21
190.0972843607463
 31
0.0
  0
SPLINE
  5
1F2
330
48
100
AcDbEntity
  8
1
  6
Continuous
 62
     7
100
AcDbSpline
210
0.0
220
0.0
230
1.0
 70
     8
 71
     3
 72
    13
 73
     9
 74
     7
 42
0.0000000001
 43
0.0000000001
 44
0.00000001
 40
0.0
 40
0.0
 40
0.0
 40
0.0
 40
2.617840806592998
 40
5.232054464946545
 40
6.267140639891249
 40
7.298495402043913
 40
8.325318977451481
 40
9.35002116325628
 40
9.35002116325628
 40
9.35002116325628
 40
9.35002116325628
 10
222.5795453754845
 20
183.2234208183126
 30
0.0
 10
222.6504574238194
 20
182.3489612436455
 30
0.0
 10
222.79218326833
 20
180.6012537014108
 30
0.0
 10
223.7294947055737
 20
178.6621872743504
 30
0.0
 10
224.7696815856254
 20
177.4903367188156
 30
0.0
 10
225.5990043617255
 20
176.8679374834328
 30
0.0
 10
226.5506686706406
 20
176.4353799092559
 30
0.0
 10
227.23654607559
 20
176.3781450923631
 30
0.0
 10
227.5791301607298
 20
176.3495572758788
 30
0.0
 11
222.5795453754845
 21
183.2234208183126
 31
0.0
 11
222.9526983224398
 21
180.6323115255883
 31
0.0
 11
224.1017616034474
 21
178.2841704251086
 31
0.0
 11
224.7942959462513
 21
177.514885319573
 31
0.0
 11
225.6211951884392
 21
176.8985004652132
 31
0.0
 11
226.5644970603933
 21
176.4928550124093
 31
0.0
 11
227.5791301607298
 21
176.3495572758788
 31
0.0
  0
SPLINE
  5
1F3
330
48
100
AcDbEntity
  8
1
  6
Continuous
 62
     7
100
AcDbSpline
210
0.0
220
0.0
230
1.0
 70
     8
 71
     3
 72
    41
 73
    37
 74
    35
 42
0.0000000001
 43
0.0000000001
 44
0.00000001
 40
0.0
 40
0.0
 40
0.0
 40
0.0
 40
1.690472865765565
 40
3.381891470723726
 40
4.014087264027886
 40
4.64431988849125
 40
5.027984842806255
 40
5.411662019306536
 40
5.837212481273277
 40
6.262793874145196
 40
6.905315603223777
 40
7.550170198064269
 40
8.056292022519319
 40
8.561819600367659
 40
9.273264037054847
 40
9.986183561164291
 40
10.81328550749124
 40
11.63990760546959
 40
12.2889809852746
 40
12.93825890539966
 40
14.00774632875317
 40
15.07805042349642
 40
15.90668177145156
 40
16.73375728088771
 40
17.30002049221507
 40
17.86518675794243
 40
18.25227518340118
 40
18.63954017279563
 40
19.12087735047676
 40
19.60191569566718
 40
20.06464149711183
 40
20.52761839474515
 40
21.0111188889024
 40
21.49514367976694
 40
22.77851447765186
 40
24.06231141021127
 40
24.06231141021127
 40
24.06231141021127
 40
24.06231141021127
 10
227.1730358432738
 20
166.8073828442967
 30
0.0
 10
226.6114012629315
 20
166.8760209399141
 30
0.0
 10
225.4878178944026
 20
167.0133355308999
 30
0.0
 10
224.2523289798687
 20
167.6072080802771
 30
0.0
 10
223.4887635525622
 20
168.2322189933925
 30
0.0
 10
223.1252375728106
 20
168.6479864476376
 30
0.0
 10
222.8780619707979
 20
169.0442269878286
 30
0.0
 10
222.7141047732521
 20
169.4079476154533
 30
0.0
 10
222.6051068660346
 20
169.8069248855015
 30
0.0
 10
222.5588435303011
 20
170.3053933614193
 30
0.0
 10
222.6428402396504
 20
170.8775000838806
 30
0.0
 10
222.8726341339736
 20
171.4354133899085
 30
0.0
 10
223.184283449509
 20
171.8943742785359
 30
0.0
 10
223.5777456573301
 20
172.3152832700848
 30
0.0
 10
224.0864605745073
 20
172.7141458885574
 30
0.0
 10
224.7425831811119
 20
173.083225905003
 30
0.0
 10
225.4796044468659
 20
173.3719361555982
 30
0.0
 10
226.2270695301348
 20
173.5552116033621
 30
0.0
 10
226.9298601670729
 20
173.6508650263131
 30
0.0
 10
227.7192884698722
 20
173.6860973714884
 30
0.0
 10
228.6501439411168
 20
173.6186937170313
 30
0.0
 10
229.6185837813125
 20
173.3956823611616
 30
0.0
 10
230.4670632313963
 20
173.0628847310063
 30
0.0
 10
231.1102807928072
 20
172.6881677866203
 30
0.0
 10
231.6193065526395
 20
172.276569292375
 30
0.0
 10
231.9641711086234
 20
171.9029363385527
 30
0.0
 10
232.2172971325694
 20
171.5337769677422
 30
0.0
 10
232.4071006775501
 20
171.1592131790371
 30
0.0
 10
232.5423212554782
 20
170.7273278886245
 30
0.0
 10
232.5954830606618
 20
170.2519370383394
 30
0.0
 10
232.5502167443297
 20
169.7821284305404
 30
0.0
 10
232.4184462231007
 20
169.3285955289745
 30
0.0
 10
232.2031104649807
 20
168.9001479596673
 30
0.0
 10
231.7607512741519
 20
168.2918561821361
 30
0.0
 10
230.9634752664154
 20
167.6214869515017
 30
0.0
 10
230.1660529428856
 20
167.3023070310751
 30
0.0
 10
229.7672755974239
 20
167.1426905798714
 30
0.0
 11
227.1730358432738
 21
166.8073828442967
 31
0.0
 11
225.5087897671623
 21
167.1040029852802
 31
0.0
 11
223.9869993507288
 21
167.8422785609631
 31
0.0
 11
223.5001778801084
 21
168.2456101575613
 31
0.0
 11
223.0880147718725
 21
168.7223855062815
 31
0.0
 11
222.8856251498474
 21
169.0483260500407
 31
0.0
 11
222.7288053875094
 21
169.3984913508738
 31
0.0
 11
222.6173007046725
 21
169.8091735898196
 31
0.0
 11
222.5791301607297
 21
170.2330397615459
 31
0.0
 11
222.6680883293024
 21
170.869373492054
 31
0.0
 11
222.9120907436161
 21
171.4662824217041
 31
0.0
 11
223.1945767014278
 21
171.8862359725033
 31
0.0
 11
223.5381278937503
 21
172.257087304197
 31
0.0
 11
224.0959585806156
 21
172.698650562728
 31
0.0
 11
224.7159088278214
 21
173.0506675209074
 31
0.0
 11
225.4852017434861
 21
173.3544536949278
 31
0.0
 11
226.2875427222529
 21
173.5533331726468
 31
0.0
 11
226.9306579223987
 21
173.6410776409221
 31
0.0
 11
227.5792793431911
 21
173.6702678798932
 31
0.0
 11
228.645860186999
 21
173.5914728779374
 31
0.0
 11
229.6883835016185
 21
173.3492003171736
 31
0.0
 11
230.4585183747359
 21
173.0433863410013
 31
0.0
 11
231.1712609707307
 21
172.6238009621287
 31
0.0
 11
231.6102961476584
 21
172.2661668782903
 31
0.0
 11
231.9918210147696
 21
171.8492116244657
 31
0.0
 11
232.2099469404258
 21
171.5294327482391
 31
0.0
 11
232.3840815914839
 21
171.1835262647619
 31
0.0
 11
232.5272117646499
 21
170.7239620884519
 31
0.0
 11
232.5791301607297
 21
170.2457337228231
 31
0.0
 11
232.5360394250327
 21
169.7850186744258
 31
0.0
 11
232.4074510613625
 21
169.3402573446423
 31
0.0
 11
232.1920762962542
 21
168.9073757922462
 31
0.0
 11
231.9092571796519
 21
168.5145738759375
 31
0.0
 11
230.9319416490012
 21
167.6827716407802
 31
0.0
 11
229.7672755974239
 21
167.1426905798714
 31
0.0
  0
SPLINE
  5
1F4
330
48
100
AcDbEntity
  8
1
  6
Continuous
 62
     7
100
AcDbSpline
210
0.0
220
0.0
230
1.0
 70
     8
 71
     3
 72
    13
 73
     9
 74
     7
 42
0.0000000001
 43
0.0000000001
 44
0.00000001
 40
0.0
 40
0.0
 40
0.0
 40
0.0
 40
2.61784080659301
 40
5.23205446494652
 40
6.267140639891204
 40
7.298495402043891
 40
8.325318977451458
 40
9.3500211632562
 40
9.3500211632562
 40
9.3500211632562
 40
9.3500211632562
 10
232.5790133108974
 20
183.2234208183126
 30
0.0
 10
232.5081012625626
 20
182.3489612436455
 30
0.0
 10
232.3663754180519
 20
180.6012537014108
 30
0.0
 10
231.4290639808083
 20
178.6621872743505
 30
0.0
 10
230.3888771007566
 20
177.4903367188155
 30
0.0
 10
229.5595543246565
 20
176.8679374834329
 30
0.0
 10
228.6078900157413
 20
176.4353799092559
 30
0.0
 10
227.922012610792
 20
176.3781450923631
 30
0.0
 10
227.5794285256522
 20
176.3495572758788
 30
0.0
 11
232.5790133108974
 21
183.2234208183126
 31
0.0
 11
232.205860363942
 21
180.6323115255883
 31
0.0
 11
231.0567970829345
 21
178.2841704251086
 31
0.0
 11
230.3642627401306
 21
177.514885319573
 31
0.0
 11
229.5373634979428
 21
176.8985004652132
 31
0.0
 11
228.5940616259886
 21
176.4928550124093
 31
0.0
 11
227.5794285256522
 21
176.3495572758788
 31
0.0
  0
ENDBLK
  5
4A
330
48
100
AcDbEntity
  8
0
100
AcDbBlockEnd
  0
BLOCK
  5
4C
330
4B
100
AcDbEntity
  8
0
100
AcDbBlockBegin
  2
34-10
 70
     0
 71
     0
 10
-349.143021501523
 20
240.9340176322575
 30
0.0
  3
34-10
  1

  0
LINE
  5
1F5
330
4B
100
AcDbEntity
  8
1
  6
Continuous
 62
     7
100
AcDbLine
 10
102.716299865748
 20
192.2421919591141
 30
0.0
 11
110.4743601903395
 21
196.7213101759064
 31
0.0
  0
LINE
  5
1F6
330
4B
100
AcDbEntity
  8
1
  6
Continuous
 62
     7
100
AcDbLine
 10
100.0953300280437
 20
178.7443026015203
 30
0.0
 11
100.0953300280437
 21
187.7025390351048
 31
0.0
  0
LINE
  5
1F7
330
4B
100
AcDbEntity
  8
1
  6
Continuous
 62
     7
100
AcDbLine
 10
110.4743601903395
 20
169.7255314607188
 30
0.0
 11
102.716299865748
 21
174.204649677511
 31
0.0
  0
LINE
  5
1F8
330
4B
100
AcDbEntity
  8
1
  6
Continuous
 62
     7
100
AcDbLine
 10
123.4743601903394
 20
174.204649677511
 30
0.0
 11
115.716299865748
 21
169.7255314607188
 31
0.0
  0
LINE
  5
1F9
330
4B
100
AcDbEntity
  8
1
  6
Continuous
 62
     7
100
AcDbLine
 10
126.0953300280437
 20
187.7025390351048
 30
0.0
 11
126.0953300280437
 21
178.7443026015203
 31
0.0
  0
LINE
  5
1FA
330
4B
100
AcDbEntity
  8
1
  6
Continuous
 62
     7
100
AcDbLine
 10
115.716299865748
 20
196.7213101759064
 30
0.0
 11
123.4743601903394
 21
192.2421919591141
 31
0.0
  0
LINE
  5
1FB
330
4B
100
AcDbEntity
  8
1
  6
Continuous
 62
     7
100
AcDbLine
 10
108.6162118112513
 20
304.3531748823325
 30
0.0
 11
108.6162118112513
 21
309.2234208183126
 31
0.0
  0
LINE
  5
1FC
330
4B
100
AcDbEntity
  8
1
  6
Continuous
 62
     7
100
AcDbLine
 10
104.0765588872421
 20
304.3042351785025
 30
0.0
 11
104.0765588872421
 21
309.2234208183126
 31
0.0
  0
LINE
  5
1FD
330
4B
100
AcDbEntity
  8
1
  6
Continuous
 62
     7
100
AcDbLine
 10
99.59744067044983
 20
304.3042351785025
 30
0.0
 11
99.59744067044983
 21
309.2234208183126
 31
0.0
  0
LINE
  5
1FE
330
4B
100
AcDbEntity
  8
1
  6
DOT_CENTER
 62
     2
100
AcDbLine
 10
113.0953300280436
 20
303.2551749817608
 30
0.0
 11
113.0953300280436
 21
303.2234208183126
 31
0.0
  0
LINE
  5
1FF
330
4B
100
AcDbEntity
  8
1
  6
Continuous
 62
     7
100
AcDbLine
 10
113.0953300280436
 20
303.2234208183126
 30
0.0
 11
101.0953300280435
 21
303.2234208183126
 31
0.0
  0
LINE
  5
200
330
4B
100
AcDbEntity
  8
1
  6
Continuous
 62
     7
100
AcDbLine
 10
113.0953300280436
 20
296.2234208183126
 30
0.0
 11
108.0953300280435
 21
296.2234208183126
 31
0.0
  0
LINE
  5
201
330
4B
100
AcDbEntity
  8
1
  6
Continuous
 62
     7
100
AcDbLine
 10
99.34533002804352
 20
309.2234208183126
 30
0.0
 11
99.34533002804352
 21
304.2234208183126
 31
0.0
  0
LINE
  5
202
330
4B
100
AcDbEntity
  8
1
  6
Continuous
 62
     7
100
AcDbLine
 10
101.0953300280435
 20
303.2234208183126
 30
0.0
 11
100.3453300280435
 21
303.2234208183126
 31
0.0
  0
LINE
  5
203
330
4B
100
AcDbEntity
  8
1
  6
Continuous
 62
     7
100
AcDbLine
 10
117.5744482448358
 20
309.2234208183126
 30
0.0
 11
117.5744482448358
 21
304.3531748823325
 31
0.0
  0
LINE
  5
204
330
4B
100
AcDbEntity
  8
1
  6
Continuous
 62
     7
100
AcDbLine
 10
122.1141011688451
 20
309.2234208183126
 30
0.0
 11
122.1141011688451
 21
304.3042351785025
 31
0.0
  0
LINE
  5
205
330
4B
100
AcDbEntity
  8
1
  6
Continuous
 62
     7
100
AcDbLine
 10
126.5932193856373
 20
309.2234208183126
 30
0.0
 11
126.5932193856373
 21
304.3042351785025
 31
0.0
  0
LINE
  5
206
330
4B
100
AcDbEntity
  8
1
  6
Continuous
 62
     7
100
AcDbLine
 10
125.0953300280436
 20
303.2234208183126
 30
0.0
 11
113.0953300280436
 21
303.2234208183126
 31
0.0
  0
LINE
  5
207
330
4B
100
AcDbEntity
  8
1
  6
Continuous
 62
     7
100
AcDbLine
 10
118.0953300280436
 20
296.2234208183126
 30
0.0
 11
113.0953300280436
 21
296.2234208183126
 31
0.0
  0
LINE
  5
208
330
4B
100
AcDbEntity
  8
1
  6
Continuous
 62
     7
100
AcDbLine
 10
126.8453300280436
 20
304.2234208183126
 30
0.0
 11
126.8453300280436
 21
309.2234208183126
 31
0.0
  0
LINE
  5
209
330
4B
100
AcDbEntity
  8
1
  6
Continuous
 62
     7
100
AcDbLine
 10
125.8453300280436
 20
303.2234208183126
 30
0.0
 11
125.0953300280436
 21
303.2234208183126
 31
0.0
  0
LINE
  5
20A
330
4B
100
AcDbEntity
  8
1
  6
Continuous
 62
     7
100
AcDbLine
 10
193.3473258814959
 20
187.7025390351046
 30
0.0
 11
198.2175718174761
 21
187.7025390351046
 31
0.0
  0
LINE
  5
20B
330
4B
100
AcDbEntity
  8
1
  6
Continuous
 62
     7
100
AcDbLine
 10
193.2983861776659
 20
192.2421919591141
 30
0.0
 11
198.2175718174761
 21
192.2421919591141
 31
0.0
  0
LINE
  5
20C
330
4B
100
AcDbEntity
  8
1
  6
Continuous
 62
     7
100
AcDbLine
 10
193.2983861776659
 20
196.7213101759065
 30
0.0
 11
198.2175718174761
 21
196.7213101759065
 31
0.0
  0
LINE
  5
20D
330
4B
100
AcDbEntity
  8
1
  6
DOT_CENTER
 62
     2
100
AcDbLine
 10
192.2493259809243
 20
183.2234208183125
 30
0.0
 11
192.2175718174761
 21
183.2234208183125
 31
0.0
  0
LINE
  5
20E
330
4B
100
AcDbEntity
  8
1
  6
Continuous
 62
     7
100
AcDbLine
 10
192.2175718174761
 20
183.2234208183125
 30
0.0
 11
192.2175718174761
 21
195.2234208183125
 31
0.0
  0
LINE
  5
20F
330
4B
100
AcDbEntity
  8
1
  6
Continuous
 62
     7
100
AcDbLine
 10
185.2175718174761
 20
183.2234208183125
 30
0.0
 11
185.2175718174761
 21
188.2234208183125
 31
0.0
  0
LINE
  5
210
330
4B
100
AcDbEntity
  8
1
  6
Continuous
 62
     7
100
AcDbLine
 10
198.2175718174761
 20
196.9734208183125
 30
0.0
 11
193.2175718174761
 21
196.9734208183125
 31
0.0
  0
LINE
  5
211
330
4B
100
AcDbEntity
  8
1
  6
Continuous
 62
     7
100
AcDbLine
 10
192.2175718174761
 20
195.2234208183125
 30
0.0
 11
192.2175718174761
 21
195.9734208183125
 31
0.0
  0
LINE
  5
212
330
4B
100
AcDbEntity
  8
1
  6
Continuous
 62
     7
100
AcDbLine
 10
198.2175718174761
 20
178.7443026015201
 30
0.0
 11
193.3473258814959
 21
178.7443026015201
 31
0.0
  0
LINE
  5
213
330
4B
100
AcDbEntity
  8
1
  6
Continuous
 62
     7
100
AcDbLine
 10
198.2175718174761
 20
174.2046496775109
 30
0.0
 11
193.2983861776659
 21
174.2046496775109
 31
0.0
  0
LINE
  5
214
330
4B
100
AcDbEntity
  8
1
  6
Continuous
 62
     7
100
AcDbLine
 10
198.2175718174761
 20
169.7255314607188
 30
0.0
 11
193.2983861776659
 21
169.7255314607188
 31
0.0
  0
LINE
  5
215
330
4B
100
AcDbEntity
  8
1
  6
Continuous
 62
     7
100
AcDbLine
 10
192.2175718174761
 20
171.2234208183125
 30
0.0
 11
192.2175718174761
 21
183.2234208183125
 31
0.0
  0
LINE
  5
216
330
4B
100
AcDbEntity
  8
1
  6
Continuous
 62
     7
100
AcDbLine
 10
185.2175718174761
 20
178.2234208183125
 30
0.0
 11
185.2175718174761
 21
183.2234208183125
 31
0.0
  0
LINE
  5
217
330
4B
100
AcDbEntity
  8
1
  6
Continuous
 62
     7
100
AcDbLine
 10
193.2175718174761
 20
169.4734208183125
 30
0.0
 11
198.2175718174761
 21
169.4734208183125
 31
0.0
  0
LINE
  5
218
330
4B
100
AcDbEntity
  8
1
  6
Continuous
 62
     7
100
AcDbLine
 10
192.2175718174761
 20
170.4734208183125
 30
0.0
 11
192.2175718174761
 21
171.2234208183125
 31
0.0
  0
ARC
  5
219
330
4B
100
AcDbEntity
  8
1
  6
Continuous
 62
     7
100
AcDbCircle
 10
113.0953300280437
 20
183.2234208183125
 30
0.0
 40
13.75000000000011
100
AcDbArc
 50
79.01126526013728
 51
90.0
  0
ARC
  5
21A
330
4B
100
AcDbEntity
  8
1
  6
Continuous
 62
     7
100
AcDbCircle
 10
113.0953300280437
 20
183.2234208183125
 30
0.0
 40
13.75000000000001
100
AcDbArc
 50
139.0112652601371
 51
160.9887347398625
  0
ARC
  5
21B
330
4B
100
AcDbEntity
  8
1
  6
Continuous
 62
     7
100
AcDbCircle
 10
113.0953300280437
 20
183.2234208183125
 30
0.0
 40
13.74999999999999
100
AcDbArc
 50
-160.9887347398629
 51
-139.0112652601375
  0
ARC
  5
21C
330
4B
100
AcDbEntity
  8
1
  6
Continuous
 62
     7
100
AcDbCircle
 10
113.0953300280437
 20
183.2234208183125
 30
0.0
 40
13.74999999999987
100
AcDbArc
 50
-100.9887347398626
 51
-90.0
  0
ARC
  5
21D
330
4B
100
AcDbEntity
  8
1
  6
Continuous
 62
     7
100
AcDbCircle
 10
113.0953300280437
 20
183.2234208183125
 30
0.0
 40
13.74999999999992
100
AcDbArc
 50
-40.98873473986257
 51
-19.0112652601371
  0
ARC
  5
21E
330
4B
100
AcDbEntity
  8
1
  6
Continuous
 62
     7
100
AcDbCircle
 10
113.0953300280437
 20
183.2234208183125
 30
0.0
 40
13.75000000000002
100
AcDbArc
 50
19.01126526013755
 51
40.98873473986293
  0
ARC
  5
21F
330
4B
100
AcDbEntity
  8
1
  6
Continuous
 62
     7
100
AcDbCircle
 10
113.0953300280437
 20
183.2234208183125
 30
0.0
 40
13.74999999999989
100
AcDbArc
 50
-90.0
 51
-79.01126526013708
  0
ARC
  5
220
330
4B
100
AcDbEntity
  8
1
  6
Continuous
 62
     7
100
AcDbCircle
 10
113.0953300280437
 20
183.2234208183125
 30
0.0
 40
13.75
100
AcDbArc
 50
90.0
 51
100.9887347398624
  0
ARC
  5
221
330
4B
100
AcDbEntity
  8
1
  6
Continuous
 62
     7
100
AcDbCircle
 10
108.0953300280435
 20
303.2234208183126
 30
0.0
 40
7.000000000000019
100
AcDbArc
 50
-98.21321070173816
 51
-90.0
  0
ARC
  5
222
330
4B
100
AcDbEntity
  8
1
  6
Continuous
 62
     7
100
AcDbCircle
 10
113.0953300280436
 20
314.0995283511415
 30
0.0
 40
10.84435336938077
100
AcDbArc
 50
-113.7037860912963
 51
-90.0
  0
ARC
  5
223
330
4B
100
AcDbEntity
  8
1
  6
Continuous
 62
     7
100
AcDbCircle
 10
101.8369997788458
 20
306.3293555128129
 30
0.0
 40
3.074180531051998
100
AcDbArc
 50
-135.2035283097818
 51
-44.79647169021528
  0
ARC
  5
224
330
4B
100
AcDbEntity
  8
1
  6
Continuous
 62
     7
100
AcDbCircle
 10
108.0953300280435
 20
303.2234208183126
 30
0.0
 40
7.0
100
AcDbArc
 50
180.0
 51
-98.21321070173816
  0
ARC
  5
225
330
4B
100
AcDbEntity
  8
1
  6
Continuous
 62
     7
100
AcDbCircle
 10
118.0953300280436
 20
303.2234208183126
 30
0.0
 40
7.0
100
AcDbArc
 50
-90.0
 51
-81.78678929826184
  0
ARC
  5
226
330
4B
100
AcDbEntity
  8
1
  6
Continuous
 62
     7
100
AcDbCircle
 10
113.0953300280436
 20
314.0995283511415
 30
0.0
 40
10.84435336938071
100
AcDbArc
 50
-90.0
 51
-66.29621390870422
  0
ARC
  5
227
330
4B
100
AcDbEntity
  8
1
  6
Continuous
 62
     7
100
AcDbCircle
 10
124.3536602772414
 20
306.3293555128129
 30
0.0
 40
3.074180531052229
100
AcDbArc
 50
-135.203528309786
 51
-44.79647169021528
  0
ARC
  5
228
330
4B
100
AcDbEntity
  8
1
  6
Continuous
 62
     7
100
AcDbCircle
 10
118.0953300280436
 20
303.2234208183126
 30
0.0
 40
7.000000000000019
100
AcDbArc
 50
-81.78678929826184
 51
0.0
  0
ARC
  5
229
330
4B
100
AcDbEntity
  8
1
  6
Continuous
 62
     7
100
AcDbCircle
 10
192.2175718174761
 20
188.2234208183125
 30
0.0
 40
6.999999999999991
100
AcDbArc
 50
171.7867892982618
 51
180.0
  0
ARC
  5
22A
330
4B
100
AcDbEntity
  8
1
  6
Continuous
 62
     7
100
AcDbCircle
 10
203.093679350305
 20
183.2234208183125
 30
0.0
 40
10.84435336938071
100
AcDbArc
 50
156.2962139087047
 51
180.0
  0
ARC
  5
22B
330
4B
100
AcDbEntity
  8
1
  6
Continuous
 62
     7
100
AcDbCircle
 10
195.3235065119764
 20
194.4817510675102
 30
0.0
 40
3.074180531052209
100
AcDbArc
 50
134.7964716902166
 51
-134.7964716902151
  0
ARC
  5
22C
330
4B
100
AcDbEntity
  8
1
  6
Continuous
 62
     7
100
AcDbCircle
 10
192.2175718174761
 20
188.2234208183125
 30
0.0
 40
7.0
100
AcDbArc
 50
90.0
 51
171.7867892982618
  0
ARC
  5
22D
330
4B
100
AcDbEntity
  8
1
  6
Continuous
 62
     7
100
AcDbCircle
 10
192.2175718174761
 20
178.2234208183125
 30
0.0
 40
7.0
100
AcDbArc
 50
180.0
 51
-171.7867892982618
  0
ARC
  5
22E
330
4B
100
AcDbEntity
  8
1
  6
Continuous
 62
     7
100
AcDbCircle
 10
203.093679350305
 20
183.2234208183125
 30
0.0
 40
10.84435336938068
100
AcDbArc
 50
180.0
 51
-156.2962139087048
  0
ARC
  5
22F
330
4B
100
AcDbEntity
  8
1
  6
Continuous
 62
     7
100
AcDbCircle
 10
195.3235065119764
 20
171.9650905691148
 30
0.0
 40
3.074180531052289
100
AcDbArc
 50
134.7964716902151
 51
-134.7964716902162
  0
ARC
  5
230
330
4B
100
AcDbEntity
  8
1
  6
Continuous
 62
     7
100
AcDbCircle
 10
192.2175718174761
 20
178.2234208183125
 30
0.0
 40
6.999999999999991
100
AcDbArc
 50
-171.7867892982618
 51
-90.0
  0
CIRCLE
  5
231
330
4B
100
AcDbEntity
  8
1
  6
Continuous
 62
     7
100
AcDbCircle
 10
113.0953300280437
 20
183.2234208183125
 30
0.0
 40
11.99999999999989
  0
ARC
  5
232
330
4B
100
AcDbEntity
  8
1
  6
Continuous
 62
     7
100
AcDbCircle
 10
99.79744067044993
 20
304.3042351785025
 30
0.0
 40
0.2000000000001023
100
AcDbArc
 50
180.0
 51
-135.2035283097728
  0
ARC
  5
233
330
4B
100
AcDbEntity
  8
1
  6
Continuous
 62
     7
100
AcDbCircle
 10
108.8162118112514
 20
304.3531748823325
 30
0.0
 40
0.2000000000001023
100
AcDbArc
 50
180.0
 51
-113.7037860913483
  0
ARC
  5
234
330
4B
100
AcDbEntity
  8
1
  6
Continuous
 62
     7
100
AcDbCircle
 10
103.876558887242
 20
304.3042351785025
 30
0.0
 40
0.1999999999999589
100
AcDbArc
 50
-44.79647169025021
 51
0.0
  0
ARC
  5
235
330
4B
100
AcDbEntity
  8
1
  6
Continuous
 62
     7
100
AcDbCircle
 10
100.3453300280435
 20
304.2234208183126
 30
0.0
 40
0.9999999999999858
100
AcDbArc
 50
180.0
 51
-90.0
  0
ARC
  5
236
330
4B
100
AcDbEntity
  8
1
  6
Continuous
 62
     7
100
AcDbCircle
 10
126.3932193856374
 20
304.3042351785025
 30
0.0
 40
0.2000000000001102
100
AcDbArc
 50
-44.79647169020718
 51
0.0
  0
ARC
  5
237
330
4B
100
AcDbEntity
  8
1
  6
Continuous
 62
     7
100
AcDbCircle
 10
117.3744482448358
 20
304.3531748823325
 30
0.0
 40
0.1999999999999426
100
AcDbArc
 50
-66.29621390868151
 51
0.0
  0
ARC
  5
238
330
4B
100
AcDbEntity
  8
1
  6
Continuous
 62
     7
100
AcDbCircle
 10
122.3141011688451
 20
304.3042351785025
 30
0.0
 40
0.2000000000000028
100
AcDbArc
 50
180.0
 51
-135.2035283097498
  0
ARC
  5
239
330
4B
100
AcDbEntity
  8
1
  6
Continuous
 62
     7
100
AcDbCircle
 10
125.8453300280436
 20
304.2234208183126
 30
0.0
 40
1.0
100
AcDbArc
 50
-90.0
 51
0.0
  0
ARC
  5
23A
330
4B
100
AcDbEntity
  8
1
  6
Continuous
 62
     7
100
AcDbCircle
 10
193.2983861776659
 20
196.5213101759063
 30
0.0
 40
0.2000000000001876
100
AcDbArc
 50
90.0
 51
134.796471690233
  0
ARC
  5
23B
330
4B
100
AcDbEntity
  8
1
  6
Continuous
 62
     7
100
AcDbCircle
 10
193.3473258814959
 20
187.5025390351047
 30
0.0
 40
0.1999999999999034
100
AcDbArc
 50
90.0
 51
156.2962139086941
  0
ARC
  5
23C
330
4B
100
AcDbEntity
  8
1
  6
Continuous
 62
     7
100
AcDbCircle
 10
193.2983861776659
 20
192.4421919591142
 30
0.0
 40
0.2000000000001808
100
AcDbArc
 50
-134.7964716901871
 51
-90.0
  0
ARC
  5
23D
330
4B
100
AcDbEntity
  8
1
  6
Continuous
 62
     7
100
AcDbCircle
 10
193.2175718174761
 20
195.9734208183125
 30
0.0
 40
1.0
100
AcDbArc
 50
90.0
 51
180.0
  0
ARC
  5
23E
330
4B
100
AcDbEntity
  8
1
  6
Continuous
 62
     7
100
AcDbCircle
 10
193.2983861776659
 20
169.9255314607186
 30
0.0
 40
0.1999999999999589
100
AcDbArc
 50
-134.7964716902502
 51
-90.0
  0
ARC
  5
23F
330
4B
100
AcDbEntity
  8
1
  6
Continuous
 62
     7
100
AcDbCircle
 10
193.3473258814959
 20
178.9443026015203
 30
0.0
 40
0.1999999999998188
100
AcDbArc
 50
-156.2962139087015
 51
-90.0
  0
ARC
  5
240
330
4B
100
AcDbEntity
  8
1
  6
Continuous
 62
     7
100
AcDbCircle
 10
193.2983861776659
 20
174.0046496775108
 30
0.0
 40
0.2000000000001023
100
AcDbArc
 50
90.0
 51
134.7964716901871
  0
ARC
  5
241
330
4B
100
AcDbEntity
  8
1
  6
Continuous
 62
     7
100
AcDbCircle
 10
193.2175718174761
 20
170.4734208183125
 30
0.0
 40
1.0
100
AcDbArc
 50
180.0
 51
-90.0
  0
ENDBLK
  5
4D
330
4B
100
AcDbEntity
  8
0
100
AcDbBlockEnd
  0
BLOCK
  5
25E
330
255
100
AcDbEntity
  8
0
100
AcDbBlockBegin
  2
*D09
 70
     1
 71
     0
 10
0.0
 20
0.0
 30
0.0
  3
*D09
  1

  0
LINE
  5
256
330
255
100
AcDbEntity
  8
0
  6
Continuous
 62
     2
100
AcDbLine
 10
160.0
 20
94.22342081831246
 30
0.0
 11
160.0
 21
83.72342081831246
 31
0.0
  0
LINE
  5
257
330
255
100
AcDbEntity
  8
0
  6
Continuous
 62
     2
100
AcDbLine
 10
160.0
 20
108.2234208183125
 30
0.0
 11
160.0
 21
94.22342081831246
 31
0.0
  0
LINE
  5
258
330
255
100
AcDbEntity
  8
0
  6
Continuous
 62
     2
100
AcDbLine
 10
160.0
 20
118.7234208183125
 30
0.0
 11
160.0
 21
108.2234208183125
 31
0.0
  0
LINE
  5
259
330
255
100
AcDbEntity
  8
0
  6
Continuous
 62
     2
100
AcDbLine
 10
136.0953300280437
 20
108.2234208183125
 30
0.0
 11
161.5
 21
108.2234208183125
 31
0.0
  0
LINE
  5
25A
330
255
100
AcDbEntity
  8
0
  6
Continuous
 62
     2
100
AcDbLine
 10
122.5953300280437
 20
94.22342081831248
 30
0.0
 11
161.5
 21
94.22342081831248
 31
0.0
  0
SOLID
  5
25B
330
255
100
AcDbEntity
  8
0
 62
     2
100
AcDbTrace
 10
159.3088243876662
 20
113.4734208183125
 30
0.0
 11
160.6911756123338
 21
113.4734208183125
 31
0.0
 12
160.0
 22
108.2234208183125
 32
0.0
 13
160.0
 23
108.2234208183125
 33
0.0
  0
SOLID
  5
25C
330
255
100
AcDbEntity
  8
0
 62
     2
100
AcDbTrace
 10
160.6911756123338
 20
88.97342081831246
 30
0.0
 11
159.3088243876662
 21
88.97342081831246
 31
0.0
 12
160.0
 22
94.22342081831246
 32
0.0
 13
160.0
 23
94.22342081831246
 33
0.0
  0
MTEXT
  5
25D
330
255
100
AcDbEntity
  8
0
 62
     7
100
AcDbMText
 10
158.5
 20
98.0734208183125
 30
0.0
 40
5.25
 41
0.0
 71
     7
 72
     1
  1
14
  7
CONVERTER_2
 11
0.0
 21
1.0
 31
0.0
 73
     1
 44
0.60024009603842
  0
ENDBLK
  5
25F
330
255
100
AcDbEntity
  8
0
100
AcDbBlockEnd
  0
BLOCK
  5
269
330
262
100
AcDbEntity
  8
0
100
AcDbBlockBegin
  2
*D110
 70
     1
 71
     0
 10
0.0
 20
0.0
 30
0.0
  3
*D110
  1

  0
LINE
  5
263
330
262
100
AcDbEntity
  8
1
  6
Continuous
 62
     2
100
AcDbLine
 10
185.2175718174761
 20
264.0555803845117
 30
0.0
 11
256.5791301607297
 21
264.0555803845117
 31
0.0
  0
LINE
  5
264
330
262
100
AcDbEntity
  8
1
  6
Continuous
 62
     2
100
AcDbLine
 10
185.2175718174761
 20
188.2234208183125
 30
0.0
 11
185.2175718174761
 21
265.5555803845117
 31
0.0
  0
LINE
  5
265
330
262
100
AcDbEntity
  8
1
  6
Continuous
 62
     2
100
AcDbLine
 10
256.5791301607297
 20
254.4231098316068
 30
0.0
 11
256.5791301607297
 21
265.5555803845117
 31
0.0
  0
SOLID
  5
266
330
262
100
AcDbEntity
  8
1
 62
     2
100
AcDbTrace
 10
190.4675718174761
 20
264.7467559968455
 30
0.0
 11
190.4675718174761
 21
263.3644047721779
 31
0.0
 12
185.2175718174761
 22
264.0555803845117
 32
0.0
 13
185.2175718174761
 23
264.0555803845117
 33
0.0
  0
SOLID
  5
267
330
262
100
AcDbEntity
  8
1
 62
     2
100
AcDbTrace
 10
251.3291301607297
 20
263.3644047721779
 30
0.0
 11
251.3291301607297
 21
264.7467559968455
 31
0.0
 12
256.5791301607297
 22
264.0555803845117
 32
0.0
 13
256.5791301607297
 23
264.0555803845117
 33
0.0
  0
MTEXT
  5
268
330
262
100
AcDbEntity
  8
1
 62
     7
100
AcDbMText
 10
215.224875370683
 20
265.5555803845117
 30
0.0
 40
5.25
 41
0.0
 71
     7
 72
     1
  1
72
  7
CONVERTER_2
 11
0.9999999999970621
 21
2.424068405545307E-6
 31
0.0
 73
     1
 44
0.60024009603842
  0
ENDBLK
  5
26A
330
262
100
AcDbEntity
  8
0
100
AcDbBlockEnd
  0
BLOCK
  5
274
330
26D
100
AcDbEntity
  8
0
100
AcDbBlockBegin
  2
*D211
 70
     1
 71
     0
 10
0.0
 20
0.0
 30
0.0
  3
*D211
  1

  0
LINE
  5
26E
330
26D
100
AcDbEntity
  8
1
  6
Continuous
 62
     2
100
AcDbLine
 10
90.09533002804372
 20
79.22342081831249
 30
0.0
 11
136.0953300280437
 21
79.22342081831249
 31
0.0
  0
LINE
  5
26F
330
26D
100
AcDbEntity
  8
1
  6
Continuous
 62
     2
100
AcDbLine
 10
90.09533002804372
 20
108.2234208183125
 30
0.0
 11
90.09533002804372
 21
77.72342081831249
 31
0.0
  0
LINE
  5
270
330
26D
100
AcDbEntity
  8
1
  6
Continuous
 62
     2
100
AcDbLine
 10
136.0953300280437
 20
108.2234208183125
 30
0.0
 11
136.0953300280437
 21
77.72342081831249
 31
0.0
  0
SOLID
  5
271
330
26D
100
AcDbEntity
  8
1
 62
     2
100
AcDbTrace
 10
95.34533002804372
 20
79.91459643064631
 30
0.0
 11
95.34533002804372
 21
78.53224520597867
 31
0.0
 12
90.09533002804372
 22
79.22342081831249
 32
0.0
 13
90.09533002804372
 23
79.22342081831249
 33
0.0
  0
SOLID
  5
272
330
26D
100
AcDbEntity
  8
1
 62
     2
100
AcDbTrace
 10
130.8453300280437
 20
78.53224520597867
 30
0.0
 11
130.8453300280437
 21
79.91459643064631
 31
0.0
 12
136.0953300280437
 22
79.22342081831249
 32
0.0
 13
136.0953300280437
 23
79.22342081831249
 33
0.0
  0
MTEXT
  5
273
330
26D
100
AcDbEntity
  8
1
 62
     7
100
AcDbMText
 10
103.697830028069
 20
80.72339994708352
 30
0.0
 40
5.25
 41
0.0
 71
     7
 72
     1
  1
\C7;{\Fgdt;n}\C7;46
  7
CONVERTER_2
 11
0.9999999999970621
 21
2.424068405545307E-6
 31
0.0
 73
     1
 44
0.60024009603842
  0
ENDBLK
  5
275
330
26D
100
AcDbEntity
  8
0
100
AcDbBlockEnd
  0
BLOCK
  5
27F
330
278
100
AcDbEntity
  8
0
100
AcDbBlockBegin
  2
*D312
 70
     1
 71
     0
 10
0.0
 20
0.0
 30
0.0
  3
*D312
  1

  0
LINE
  5
279
330
278
100
AcDbEntity
  8
1
  6
Continuous
 62
     2
100
AcDbLine
 10
160.0
 20
108.2234208183125
 30
0.0
 11
160.0
 21
249.0555803845117
 31
0.0
  0
LINE
  5
27A
330
278
100
AcDbEntity
  8
1
  6
Continuous
 62
     2
100
AcDbLine
 10
136.0953300280437
 20
108.2234208183125
 30
0.0
 11
161.5
 21
108.2234208183125
 31
0.0
  0
LINE
  5
27B
330
278
100
AcDbEntity
  8
1
  6
Continuous
 62
     2
100
AcDbLine
 10
115.0953300280437
 20
249.0555803845117
 30
0.0
 11
161.5
 21
249.0555803845117
 31
0.0
  0
SOLID
  5
27C
330
278
100
AcDbEntity
  8
1
 62
     2
100
AcDbTrace
 10
159.3088243876662
 20
113.4734208183125
 30
0.0
 11
160.6911756123338
 21
113.4734208183125
 31
0.0
 12
160.0
 22
108.2234208183125
 32
0.0
 13
160.0
 23
108.2234208183125
 33
0.0
  0
SOLID
  5
27D
330
278
100
AcDbEntity
  8
1
 62
     2
100
AcDbTrace
 10
160.6911756123338
 20
243.8055803845117
 30
0.0
 11
159.3088243876662
 21
243.8055803845117
 31
0.0
 12
160.0
 22
249.0555803845117
 32
0.0
 13
160.0
 23
249.0555803845117
 33
0.0
  0
MTEXT
  5
27E
330
278
100
AcDbEntity
  8
1
 62
     7
100
AcDbMText
 10
158.5
 20
172.30668207773
 30
0.0
 40
5.25
 41
0.0
 71
     7
 72
     1
  1
141
  7
CONVERTER_2
 11
0.0
 21
1.0
 31
0.0
 73
     1
 44
0.60024009603842
  0
ENDBLK
  5
280
330
278
100
AcDbEntity
  8
0
100
AcDbBlockEnd
  0
BLOCK
  5
28A
330
283
100
AcDbEntity
  8
0
100
AcDbBlockBegin
  2
*D413
 70
     1
 71
     0
 10
0.0
 20
0.0
 30
0.0
  3
*D413
  1

  0
LINE
  5
284
330
283
100
AcDbEntity
  8
1
  6
Continuous
 62
     2
100
AcDbLine
 10
170.2893685872006
 20
108.2234208183125
 30
0.0
 11
170.2893685872006
 21
183.2234208183125
 31
0.0
  0
LINE
  5
285
330
283
100
AcDbEntity
  8
1
  6
Continuous
 62
     2
100
AcDbLine
 10
233.5791301607297
 20
108.2234208183125
 30
0.0
 11
168.7893685872006
 21
108.2234208183125
 31
0.0
  0
LINE
  5
286
330
283
100
AcDbEntity
  8
1
  6
Continuous
 62
     2
100
AcDbLine
 10
179.8345896774699
 20
183.2234208183125
 30
0.0
 11
168.7893685872006
 21
183.2234208183125
 31
0.0
  0
SOLID
  5
287
330
283
100
AcDbEntity
  8
1
 62
     2
100
AcDbTrace
 10
169.5981929748668
 20
113.4734208183125
 30
0.0
 11
170.9805441995345
 21
113.4734208183125
 31
0.0
 12
170.2893685872006
 22
108.2234208183125
 32
0.0
 13
170.2893685872006
 23
108.2234208183125
 33
0.0
  0
SOLID
  5
288
330
283
100
AcDbEntity
  8
1
 62
     2
100
AcDbTrace
 10
170.9805441995345
 20
177.9734208183125
 30
0.0
 11
169.5981929748668
 21
177.9734208183125
 31
0.0
 12
170.2893685872006
 22
183.2234208183125
 32
0.0
 13
170.2893685872006
 23
183.2234208183125
 33
0.0
  0
MTEXT
  5
289
330
283
100
AcDbEntity
  8
1
 62
     7
100
AcDbMText
 10
168.7893685872006
 20
141.7859208183125
 30
0.0
 40
5.25
 41
0.0
 71
     7
 72
     1
  1
75
  7
CONVERTER_2
 11
0.0
 21
1.0
 31
0.0
 73
     1
 44
0.60024009603842
  0
ENDBLK
  5
28B
330
283
100
AcDbEntity
  8
0
100
AcDbBlockEnd
  0
ENDSEC
  0
SECTION
  2
ENTITIES
  0
INSERT
  5
4E
330
1F
100
AcDbEntity
  8
1
100
AcDbBlockReference
  2
_J__A4
 10
0.0
 20
0.0
 30
0.0
 41
1.5
 42
1.5
 43
1.5
  0
INSERT
  5
4F
330
1F
100
AcDbEntity
  8
1
100
AcDbBlockReference
  2
38-12A
 10
-11.32705633503019
 20
152.8652877428818
 30
0.0
  0
INSERT
  5
50
330
1F
100
AcDbEntity
  8
0
100
AcDbBlockReference
  2
Y26-0
 10
-173.7951035726832
 20
217.833548085552
 30
0.0
  0
INSERT
  5
51
330
1F
100
AcDbEntity
  8
0
100
AcDbBlockReference
  2
11-3
 10
-323.0774256832158
 20
217.9249590796755
 30
0.0
  0
INSERT
  5
52
330
1F
100
AcDbEntity
  8
1
100
AcDbBlockReference
  2
72-47
 10
-132.5828756158225
 20
193.5096352854419
 30
0.0
  0
INSERT
  5
53
330
1F
100
AcDbEntity
  8
1
100
AcDbBlockReference
  2
34-10-B
 10
-208.1944339590762
 20
177.2234208183126
 30
0.0
  0
INSERT
  5
54
330
1F
100
AcDbEntity
  8
0
100
AcDbBlockReference
  2
32-5
 10
-163.6367803283612
 20
204.5035931824577
 30
0.0
  0
INSERT
  5
55
330
1F
100
AcDbEntity
  8
1
100
AcDbBlockReference
  2
34-10
 10
-349.143021501523
 20
240.9340176322575
 30
0.0
  0
LINE
  5
242
330
1F
100
AcDbEntity
  8
1
  6
DASH_CENTER
 62
     2
100
AcDbLine
 10
119.3453300280437
 20
339.5849791615661
 30
0.0
 11
106.8453300280436
 21
339.5849791615661
 31
0.0
  0
LINE
  5
243
330
1F
100
AcDbEntity
  8
1
  6
DASH_CENTER
 62
     2
100
AcDbLine
 10
256.5791301607296
 20
206.9231098316068
 30
0.0
 11
256.5791301607297
 21
254.4231098316068
 31
0.0
  0
LINE
  5
244
330
1F
100
AcDbEntity
  8
1
  6
DASH_CENTER
 62
     2
100
AcDbLine
 10
99.03511420070561
 20
237.2234208183125
 30
0.0
 11
128.1906537690511
 21
237.2234208183125
 31
0.0
  0
LINE
  5
245
330
1F
100
AcDbEntity
  8
1
  6
DASH_CENTER
 62
     2
100
AcDbLine
 10
113.0953300280437
 20
91.1856142865594
 30
0.0
 11
113.0953300280437
 21
252.5555803845117
 31
0.0
  0
LINE
  5
246
330
1F
100
AcDbEntity
  8
1
  6
DASH_CENTER
 62
     2
100
AcDbLine
 10
79.28139067314891
 20
183.2234208183125
 30
0.0
 11
146.231515052028
 21
183.2234208183125
 31
0.0
  0
LINE
  5
247
330
1F
100
AcDbEntity
  8
1
  6
DASH_CENTER
 62
     2
100
AcDbLine
 10
256.5791301607297
 20
91.18561428655944
 30
0.0
 11
256.5791301607296
 21
206.9231098316068
 31
0.0
  0
LINE
  5
248
330
1F
100
AcDbEntity
  8
1
  6
DASH_CENTER
 62
     2
100
AcDbLine
 10
242.5189143333916
 20
237.2234208183125
 30
0.0
 11
271.674453901737
 21
237.2234208183125
 31
0.0
  0
LINE
  5
249
330
1F
100
AcDbEntity
  8
1
  6
DASH_CENTER
 62
     2
100
AcDbLine
 10
179.8345896774699
 20
183.2234208183125
 30
0.0
 11
261.4723131511618
 21
183.2234208183125
 31
0.0
  0
LINE
  5
24A
330
1F
100
AcDbEntity
  8
1
  6
DASH_CENTER
 62
     2
100
AcDbLine
 10
113.0953300280436
 20
291.524763334228
 30
0.0
 11
113.0953300280437
 21
393.6803029025735
 31
0.0
  0
LINE
  5
24B
330
1F
100
AcDbEntity
  8
1
  6
DASH_CENTER
 62
     2
100
AcDbLine
 10
139.2871982900854
 20
367.5849791615661
 30
0.0
 11
84.97522606572903
 21
367.5849791615661
 31
0.0
  0
SOLID
  5
24C
330
1F
100
AcDbEntity
  8
1
 62
     2
100
AcDbTrace
 10
244.0527057994869
 20
96.42126178122319
 30
0.0
 11
242.8555545219721
 21
97.11243739355702
 31
0.0
 12
246.0791301607295
 22
101.3134829572584
 32
0.0
 13
246.0791301607295
 23
101.3134829572584
 33
0.0
  0
LEADER
  5
24D
330
1F
100
AcDbEntity
  8
1
  6
Continuous
 62
     2
100
AcDbLeader
  3
Standard
 71
     0
 76
     3
 10
246.0791301607295
 20
101.3134829572584
 30
0.0
 10
233.5867326431921
 20
79.67601574853627
 30
0.0
 10
211.5586384040182
 20
79.67601574853627
 30
0.0
  0
MTEXT
  5
24E
330
1F
100
AcDbEntity
  8
0
 62
     7
100
AcDbMText
 10
84.95548335317322
 20
33.91601349752754
 30
0.0
 40
5.25
 41
0.0
 71
     5
 72
     1
  1
自閉立形水飲水栓
  7
CONVERTER_1
 73
     1
 44
1.32052821128451
  0
MTEXT
  5
250
330
1F
100
AcDbEntity
  8
0
 62
     7
100
AcDbMText
 10
84.70548335317318
 20
21.41601349752754
 30
0.0
 40
5.25
 41
0.0
 71
     5
 72
     1
  1
Y569A-13
  7
CONVERTER_2
 73
     1
 44
0.90036014405762
  0
MTEXT
  5
251
330
1F
100
AcDbEntity
  8
1
 62
     7
100
AcDbMText
 10
222.8013847900993
 20
84.17601574853637
 30
0.0
 40
5.25
 41
0.0
 71
     5
 72
     1
  1
PJ1/2
  7
CONVERTER_2
 73
     1
 44
1.32052821128451
  0
MTEXT
  5
252
330
1F
100
AcDbEntity
  8
1
 62
     7
100
AcDbMText
 10
127.875
 20
25.5
 30
0.0
 40
5.25
 41
0.0
 71
     5
 72
     1
  1
1
  7
CONVERTER_2
 73
     1
 44
0.7202881152461
  0
MTEXT
  5
253
330
1F
100
AcDbEntity
  8
1
 62
     7
100
AcDbMText
 10
140.625
 20
25.5
 30
0.0
 40
5.25
 41
0.0
 71
     5
 72
     1
  1
1,5
  7
CONVERTER_2
 73
     1
 44
0.7202881152461
  0
MTEXT
  5
254
330
1F
100
AcDbEntity
  8
1
 62
     7
100
AcDbMText
 10
52.73815454347709
 20
50.85469572647902
 30
0.0
 40
5.25
 41
0.0
 71
     4
 72
     1
  1
JIS
  7
CONVERTER_2
 73
     1
 44
0.7202881152461
  0
DIMENSION
  5
261
330
1F
100
AcDbEntity
  8
0
100
AcDbDimension
  2
*D09
 10
160.0
 20
108.2234208183125
 30
0.0
 11
155.875
 21
101.2234208183125
 31
0.0
  1
<>
 71
     5
 42
0.0
 53
90.0
  3
ME10_DIM_0
100
AcDbAlignedDimension
 13
122.5953300280437
 23
94.22342081831246
 33
0.0
 14
136.0953300280437
 24
108.2234208183125
 34
0.0
 50
90.0
100
AcDbRotatedDimension
  0
DIMENSION
  5
26C
330
1F
100
AcDbEntity
  8
1
100
AcDbDimension
  2
*D110
 10
185.2175718174761
 20
264.0555803845117
 30
0.0
 11
219.162375370683
 21
268.1805803845117
 31
0.0
  1
72
 71
     5
 42
0.0
 53
0.00013888888889
  3
ME10_DIM_1
100
AcDbAlignedDimension
 13
256.5791301607297
 23
254.4231098316068
 33
0.0
 14
185.2175718174761
 24
188.2234208183125
 34
0.0
100
AcDbRotatedDimension
  0
DIMENSION
  5
277
330
1F
100
AcDbEntity
  8
1
100
AcDbDimension
  2
*D211
 10
90.09533002804372
 20
79.22342081831249
 30
0.0
 11
113.0953300280437
 21
83.34842081831249
 31
0.0
  1
<>
 71
     5
 42
0.0
 53
0.00013888888889
  3
ME10_DIM_2
100
AcDbAlignedDimension
 13
136.0953300280437
 23
108.2234208183125
 33
0.0
 14
90.09533002804369
 24
108.2234208183125
 34
0.0
100
AcDbRotatedDimension
  0
DIMENSION
  5
282
330
1F
100
AcDbEntity
  8
1
100
AcDbDimension
  2
*D312
 10
160.0
 20
108.2234208183125
 30
0.0
 11
155.875
 21
177.03168207773
 31
0.0
  1
<>
 71
     5
 42
0.0
 53
90.0
  3
ME10_DIM_3
100
AcDbAlignedDimension
 13
115.0953300280437
 23
249.0555803845117
 33
0.0
 14
136.0953300280437
 24
108.2234208183125
 34
0.0
 50
90.0
100
AcDbRotatedDimension
  0
DIMENSION
  5
28D
330
1F
100
AcDbEntity
  8
1
100
AcDbDimension
  2
*D413
 10
170.2893685872006
 20
108.2234208183125
 30
0.0
 11
166.1643685872006
 21
145.7234208183125
 31
0.0
  1
<>
 71
     5
 42
0.0
 53
90.0
  3
ME10_DIM_4
100
AcDbAlignedDimension
 13
179.8345896774699
 23
183.2234208183125
 33
0.0
 14
233.5791301607297
 24
108.2234208183125
 34
0.0
 50
90.0
100
AcDbRotatedDimension
  0
ENDSEC
  0
SECTION
  2
OBJECTS
  0
DICTIONARY
  5
C
330
0
100
AcDbDictionary
281
     1
  3
ACAD_GROUP
350
D
  3
ACAD_LAYOUT
350
1A
  3
ACAD_MLINESTYLE
350
17
  3
ACAD_PLOTSETTINGS
350
19
  3
ACAD_PLOTSTYLENAME
350
E
  3
ACAD_TABLESTYLE
350
2A
  3
AcDbVariableDictionary
350
2C
  0
DICTIONARY
  5
D
102
{ACAD_REACTORS
330
C
102
}
330
C
100
AcDbDictionary
281
     1
  0
DICTIONARY
  5
1A
102
{ACAD_REACTORS
330
C
102
}
330
C
100
AcDbDictionary
281
     1
  3
Layout1
350
1E
  3
Layout2
350
26
  3
Model
350
22
  0
DICTIONARY
  5
17
102
{ACAD_REACTORS
330
C
102
}
330
C
100
AcDbDictionary
281
     1
  3
Standard
350
18
  0
DICTIONARY
  5
19
102
{ACAD_REACTORS
330
C
102
}
330
C
100
AcDbDictionary
281
     1
  0
ACDBDICTIONARYWDFLT
  5
E
102
{ACAD_REACTORS
330
C
102
}
330
C
100
AcDbDictionary
281
     1
  3
Normal
350
F
100
AcDbDictionaryWithDefault
340
F
  0
DICTIONARY
  5
2A
102
{ACAD_REACTORS
330
C
102
}
330
C
100
AcDbDictionary
281
     1
  3
Standard
350
2B
  0
DICTIONARY
  5
2C
102
{ACAD_REACTORS
330
C
102
}
330
C
100
AcDbDictionary
281
     1
  3
CTABLESTYLE
350
2D
  0
LAYOUT
  5
1E
102
{ACAD_REACTORS
330
1A
102
}
330
1A
100
AcDbPlotSettings
  1

  2

  4

  6

 40
0.0
 41
0.0
 42
0.0
 43
0.0
 44
0.0
 45
0.0
 46
0.0
 47
0.0
 48
0.0
 49
0.0
140
0.0
141
0.0
142
1.0
143
1.0
 70
   688
 72
     0
 73
     0
 74
     5
  7

 75
    16
147
1.0
148
0.0
149
0.0
100
AcDbLayout
  1
Layout1
 70
     1
 71
     1
 10
0.0
 20
0.0
 11
12.0
 21
9.0
 12
0.0
 22
0.0
 32
0.0
 14
1.00000000000000E+20
 24
1.00000000000000E+20
 34
1.00000000000000E+20
 15
-1.00000000000000E+20
 25
-1.00000000000000E+20
 35
-1.00000000000000E+20
146
0.0
 13
0.0
 23
0.0
 33
0.0
 16
1.0
 26
0.0
 36
0.0
 17
0.0
 27
1.0
 37
0.0
 76
     0
330
1B
  0
LAYOUT
  5
26
102
{ACAD_REACTORS
330
1A
102
}
330
1A
100
AcDbPlotSettings
  1

  2

  4

  6

 40
0.0
 41
0.0
 42
0.0
 43
0.0
 44
0.0
 45
0.0
 46
0.0
 47
0.0
 48
0.0
 49
0.0
140
0.0
141
0.0
142
1.0
143
1.0
 70
   688
 72
     0
 73
     0
 74
     5
  7

 75
    16
147
1.0
148
0.0
149
0.0
100
AcDbLayout
  1
Layout2
 70
     1
 71
     2
 10
0.0
 20
0.0
 11
0.0
 21
0.0
 12
0.0
 22
0.0
 32
0.0
 14
0.0
 24
0.0
 34
0.0
 15
0.0
 25
0.0
 35
0.0
146
0.0
 13
0.0
 23
0.0
 33
0.0
 16
1.0
 26
0.0
 36
0.0
 17
0.0
 27
1.0
 37
0.0
 76
     0
330
23
  0
LAYOUT
  5
22
102
{ACAD_REACTORS
330
1A
102
}
330
1A
100
AcDbPlotSettings
  1

  2

  4

  6

 40
0.0
 41
0.0
 42
0.0
 43
0.0
 44
0.0
 45
0.0
 46
0.0
 47
0.0
 48
0.0
 49
0.0
140
0.0
141
0.0
142
1.0
143
1.0
 70
  1712
 72
     0
 73
     0
 74
     0
  7

 75
     0
147
1.0
148
0.0
149
0.0
100
AcDbLayout
  1
Model
 70
     1
 71
     0
 10
0.0
 20
0.0
 11
0.0
 21
0.0
 12
0.0
 22
0.0
 32
0.0
 14
0.0
 24
0.0
 34
0.0
 15
315.0
 25
445.5
 35
0.0
146
0.0
 13
0.0
 23
0.0
 33
0.0
 16
1.0
 26
0.0
 36
0.0
 17
0.0
 27
1.0
 37
0.0
 76
     0
330
1F
  0
MLINESTYLE
  5
18
102
{ACAD_REACTORS
330
17
102
}
330
17
100
AcDbMlineStyle
  2
Standard
 70
     0
  3

 62
   256
 51
90.0
 52
90.0
 71
     2
 49
0.5
 62
   256
  6
BYLAYER
 49
-0.5
 62
   256
  6
BYLAYER
  0
ACDBPLACEHOLDER
  5
F
102
{ACAD_REACTORS
330
E
102
}
330
E
  0
TABLESTYLE
  5
2B
102
{ACAD_REACTORS
330
2A
102
}
330
2A
100
AcDbTableStyle
  3
Standard
 70
     0
 71
     0
 40
0.06
 41
0.06
280
     0
281
     0
  7
Standard
140
0.18
170
     2
 62
     0
 63
     7
283
     0
274
    -2
284
     1
 64
     0
275
    -2
285
     1
 65
     0
276
    -2
286
     1
 66
     0
277
    -2
287
     1
 67
     0
278
    -2
288
     1
 68
     0
279
    -2
289
     1
 69
     0
  7
Standard
140
0.25
170
     5
 62
     0
 63
     7
283
     0
274
    -2
284
     1
 64
     0
275
    -2
285
     1
 65
     0
276
    -2
286
     1
 66
     0
277
    -2
287
     1
 67
     0
278
    -2
288
     1
 68
     0
279
    -2
289
     1
 69
     0
  7
Standard
140
0.18
170
     5
 62
     0
 63
     7
283
     0
274
    -2
284
     1
 64
     0
275
    -2
285
     1
 65
     0
276
    -2
286
     1
 66
     0
277
    -2
287
     1
 67
     0
278
    -2
288
     1
 68
     0
279
    -2
289
     1
 69
     0
  0
DICTIONARYVAR
  5
2D
102
{ACAD_REACTORS
330
2C
102
}
330
2C
100
DictionaryVariables
280
     0
  1
Standard
  0
ENDSEC
  0
EOF
