  0
SECTION
  2
HEADER
  9
$ACADVER
  1
AC1015
  9
$ACADMAINTVER
 70
     6
  9
$DWGCODEPAGE
  3
DOS932
  9
$INSBASE
 10
0.0
 20
0.0
 30
0.0
  9
$EXTMIN
 10
0.0
 20
0.0
 30
0.0
  9
$EXTMAX
 10
315.0
 20
445.5
 30
0.0
  9
$LIMMIN
 10
0.0
 20
0.0
  9
$LIMMAX
 10
12.0
 20
9.0
  9
$ORTHOMODE
 70
     0
  9
$REGENMODE
 70
     1
  9
$FILLMODE
 70
     1
  9
$QTEXTMODE
 70
     0
  9
$MIRRTEXT
 70
     1
  9
$LTSCALE
 40
1.0
  9
$ATTMODE
 70
     1
  9
$TEXTSIZE
 40
0.2
  9
$TRACEWID
 40
0.05
  9
$TEXTSTYLE
  7
Standard
  9
$CLAYER
  8
0
  9
$CELTYPE
  6
ByLayer
  9
$CECOLOR
 62
   256
  9
$CELTSCALE
 40
1.0
  9
$DISPSILH
 70
     0
  9
$DIMSCALE
 40
1.0
  9
$DIMASZ
 40
0.18
  9
$DIMEXO
 40
0.0625
  9
$DIMDLI
 40
0.38
  9
$DIMRND
 40
0.0
  9
$DIMDLE
 40
0.0
  9
$DIMEXE
 40
0.18
  9
$DIMTP
 40
0.0
  9
$DIMTM
 40
0.0
  9
$DIMTXT
 40
0.18
  9
$DIMCEN
 40
0.09
  9
$DIMTSZ
 40
0.0
  9
$DIMTOL
 70
     0
  9
$DIMLIM
 70
     0
  9
$DIMTIH
 70
     1
  9
$DIMTOH
 70
     1
  9
$DIMSE1
 70
     0
  9
$DIMSE2
 70
     0
  9
$DIMTAD
 70
     0
  9
$DIMZIN
 70
     0
  9
$DIMBLK
  1

  9
$DIMASO
 70
     1
  9
$DIMSHO
 70
     1
  9
$DIMPOST
  1

  9
$DIMAPOST
  1

  9
$DIMALT
 70
     0
  9
$DIMALTD
 70
     2
  9
$DIMALTF
 40
25.4
  9
$DIMLFAC
 40
1.0
  9
$DIMTOFL
 70
     0
  9
$DIMTVP
 40
0.0
  9
$DIMTIX
 70
     0
  9
$DIMSOXD
 70
     0
  9
$DIMSAH
 70
     0
  9
$DIMBLK1
  1

  9
$DIMBLK2
  1

  9
$DIMSTYLE
  2
Standard
  9
$DIMCLRD
 70
     0
  9
$DIMCLRE
 70
     0
  9
$DIMCLRT
 70
     0
  9
$DIMTFAC
 40
1.0
  9
$DIMGAP
 40
0.09
  9
$DIMJUST
 70
     0
  9
$DIMSD1
 70
     0
  9
$DIMSD2
 70
     0
  9
$DIMTOLJ
 70
     1
  9
$DIMTZIN
 70
     0
  9
$DIMALTZ
 70
     0
  9
$DIMALTTZ
 70
     0
  9
$DIMUPT
 70
     0
  9
$DIMDEC
 70
     4
  9
$DIMTDEC
 70
     4
  9
$DIMALTU
 70
     2
  9
$DIMALTTD
 70
     2
  9
$DIMTXSTY
  7
Standard
  9
$DIMAUNIT
 70
     0
  9
$DIMADEC
 70
     0
  9
$DIMALTRND
 40
0.0
  9
$DIMAZIN
 70
     0
  9
$DIMDSEP
 70
    46
  9
$DIMATFIT
 70
     3
  9
$DIMFRAC
 70
     0
  9
$DIMLDRBLK
  1

  9
$DIMLUNIT
 70
     2
  9
$DIMLWD
 70
    -2
  9
$DIMLWE
 70
    -2
  9
$DIMTMOVE
 70
     0
  9
$LUNITS
 70
     2
  9
$LUPREC
 70
     4
  9
$SKETCHINC
 40
0.1
  9
$FILLETRAD
 40
0.5
  9
$AUNITS
 70
     0
  9
$AUPREC
 70
     0
  9
$MENU
  1
.
  9
$ELEVATION
 40
0.0
  9
$PELEVATION
 40
0.0
  9
$THICKNESS
 40
0.0
  9
$LIMCHECK
 70
     0
  9
$CHAMFERA
 40
0.5
  9
$CHAMFERB
 40
0.5
  9
$CHAMFERC
 40
1.0
  9
$CHAMFERD
 40
0.0
  9
$SKPOLY
 70
     0
  9
$TDCREATE
 40
2456143.680243414
  9
$TDUCREATE
 40
2456143.305243414
  9
$TDUPDATE
 40
2456143.680243426
  9
$TDUUPDATE
 40
2456143.305243426
  9
$TDINDWG
 40
0.0000000116
  9
$TDUSRTIMER
 40
0.0000000116
  9
$USRTIMER
 70
     1
  9
$ANGBASE
 50
0.0
  9
$ANGDIR
 70
     0
  9
$PDMODE
 70
     0
  9
$PDSIZE
 40
0.0
  9
$PLINEWID
 40
0.0
  9
$SPLFRAME
 70
     0
  9
$SPLINETYPE
 70
     6
  9
$SPLINESEGS
 70
     8
  9
$HANDSEED
  5
20F
  9
$SURFTAB1
 70
     6
  9
$SURFTAB2
 70
     6
  9
$SURFTYPE
 70
     6
  9
$SURFU
 70
     6
  9
$SURFV
 70
     6
  9
$UCSBASE
  2

  9
$UCSNAME
  2

  9
$UCSORG
 10
0.0
 20
0.0
 30
0.0
  9
$UCSXDIR
 10
1.0
 20
0.0
 30
0.0
  9
$UCSYDIR
 10
0.0
 20
1.0
 30
0.0
  9
$UCSORTHOREF
  2

  9
$UCSORTHOVIEW
 70
     0
  9
$UCSORGTOP
 10
0.0
 20
0.0
 30
0.0
  9
$UCSORGBOTTOM
 10
0.0
 20
0.0
 30
0.0
  9
$UCSORGLEFT
 10
0.0
 20
0.0
 30
0.0
  9
$UCSORGRIGHT
 10
0.0
 20
0.0
 30
0.0
  9
$UCSORGFRONT
 10
0.0
 20
0.0
 30
0.0
  9
$UCSORGBACK
 10
0.0
 20
0.0
 30
0.0
  9
$PUCSBASE
  2

  9
$PUCSNAME
  2

  9
$PUCSORG
 10
0.0
 20
0.0
 30
0.0
  9
$PUCSXDIR
 10
1.0
 20
0.0
 30
0.0
  9
$PUCSYDIR
 10
0.0
 20
1.0
 30
0.0
  9
$PUCSORTHOREF
  2

  9
$PUCSORTHOVIEW
 70
     0
  9
$PUCSORGTOP
 10
0.0
 20
0.0
 30
0.0
  9
$PUCSORGBOTTOM
 10
0.0
 20
0.0
 30
0.0
  9
$PUCSORGLEFT
 10
0.0
 20
0.0
 30
0.0
  9
$PUCSORGRIGHT
 10
0.0
 20
0.0
 30
0.0
  9
$PUCSORGFRONT
 10
0.0
 20
0.0
 30
0.0
  9
$PUCSORGBACK
 10
0.0
 20
0.0
 30
0.0
  9
$USERI1
 70
     0
  9
$USERI2
 70
     0
  9
$USERI3
 70
     0
  9
$USERI4
 70
     0
  9
$USERI5
 70
     0
  9
$USERR1
 40
13.2
  9
$USERR2
 40
0.0
  9
$USERR3
 40
0.0
  9
$USERR4
 40
0.0
  9
$USERR5
 40
0.0
  9
$WORLDVIEW
 70
     1
  9
$SHADEDGE
 70
     3
  9
$SHADEDIF
 70
    70
  9
$TILEMODE
 70
     1
  9
$MAXACTVP
 70
    64
  9
$PINSBASE
 10
0.0
 20
0.0
 30
0.0
  9
$PLIMCHECK
 70
     0
  9
$PEXTMIN
 10
1.00000000000000E+20
 20
1.00000000000000E+20
 30
1.00000000000000E+20
  9
$PEXTMAX
 10
-1.00000000000000E+20
 20
-1.00000000000000E+20
 30
-1.00000000000000E+20
  9
$PLIMMIN
 10
0.0
 20
0.0
  9
$PLIMMAX
 10
12.0
 20
9.0
  9
$UNITMODE
 70
     0
  9
$VISRETAIN
 70
     1
  9
$PLINEGEN
 70
     0
  9
$PSLTSCALE
 70
     1
  9
$TREEDEPTH
 70
  3020
  9
$CMLSTYLE
  2
Standard
  9
$CMLJUST
 70
     0
  9
$CMLSCALE
 40
1.0
  9
$PROXYGRAPHICS
 70
     1
  9
$MEASUREMENT
 70
     1
  9
$CELWEIGHT
370
    -1
  9
$ENDCAPS
280
     0
  9
$JOINSTYLE
280
     0
  9
$LWDISPLAY
290
     0
  9
$INSUNITS
 70
     1
  9
$HYPERLINKBASE
  1

  9
$STYLESHEET
  1

  9
$XEDIT
290
     1
  9
$CEPSNTYPE
380
     0
  9
$PSTYLEMODE
290
     0
  9
$FINGERPRINTGUID
  2
{FAEB1C30-E019-11D5-929B-00C0DF256EC4}
  9
$VERSIONGUID
  2
{FAEB1C32-E019-11D5-929B-00C0DF256EC4}
  9
$EXTNAMES
290
     1
  9
$PSVPSCALE
 40
0.0
  9
$OLESTARTUP
290
     0
  0
ENDSEC
  0
SECTION
  2
CLASSES
  0
CLASS
  1
ACDBDICTIONARYWDFLT
  2
AcDbDictionaryWithDefault
  3
ObjectDBX Classes
 90
        0
280
     0
281
     0
  0
CLASS
  1
TABLESTYLE
  2
AcDbTableStyle
  3
ObjectDBX Classes
 90
     2047
280
     0
281
     0
  0
CLASS
  1
DICTIONARYVAR
  2
AcDbDictionaryVar
  3
ObjectDBX Classes
 90
        0
280
     0
281
     0
  0
CLASS
  1

  2
exOdDbCircle
  3

 90
        0
280
     0
281
     1
  0
CLASS
  1

  2
exOdDbSpline
  3

 90
        0
280
     0
281
     1
  0
CLASS
  1
ACDBPLACEHOLDER
  2
AcDbPlaceHolder
  3
ObjectDBX Classes
 90
        0
280
     0
281
     0
  0
CLASS
  1
LAYOUT
  2
AcDbLayout
  3
ObjectDBX Classes
 90
        0
280
     0
281
     0
  0
ENDSEC
  0
SECTION
  2
TABLES
  0
TABLE
  2
VPORT
  5
8
330
0
100
AcDbSymbolTable
 70
     2
  0
VPORT
  5
29
330
8
100
AcDbSymbolTableRecord
100
AcDbViewportTableRecord
  2
*Active
 70
     0
 10
0.0
 20
0.0
 11
1.0
 21
1.0
 12
157.5
 22
222.75
 13
0.0
 23
0.0
 14
0.5
 24
0.5
 15
0.5
 25
0.5
 16
0.0
 26
0.0
 36
1.0
 17
0.0
 27
0.0
 37
0.0
 40
490.05
 41
1.60267857142857
 42
50.0
 43
0.0
 44
0.0
 50
0.0
 51
0.0
 71
     0
 72
   100
 73
     1
 74
     3
 75
     0
 76
     0
 77
     0
 78
     0
281
     0
 65
     1
110
0.0
120
0.0
130
0.0
111
1.0
121
0.0
131
0.0
112
0.0
122
1.0
132
0.0
 79
     0
146
0.0
  0
ENDTAB
  0
TABLE
  2
LTYPE
  5
5
330
0
100
AcDbSymbolTable
 70
     8
  0
LTYPE
  5
14
330
5
100
AcDbSymbolTableRecord
100
AcDbLinetypeTableRecord
  2
ByBlock
 70
     0
  3

 72
    65
 73
     0
 40
0.0
  0
LTYPE
  5
15
330
5
100
AcDbSymbolTableRecord
100
AcDbLinetypeTableRecord
  2
ByLayer
 70
     0
  3

 72
    65
 73
     0
 40
0.0
  0
LTYPE
  5
16
330
5
100
AcDbSymbolTableRecord
100
AcDbLinetypeTableRecord
  2
Continuous
 70
     0
  3
Solid line
 72
    65
 73
     0
 40
0.0
  0
LTYPE
  5
2E
330
5
100
AcDbSymbolTableRecord
100
AcDbLinetypeTableRecord
  2
DASHED
 70
     0
  3
Dashed
 72
    65
 73
     2
 40
15.0
 49
7.0
 74
     0
 49
-8.0
 74
     0
  0
LTYPE
  5
2F
330
5
100
AcDbSymbolTableRecord
100
AcDbLinetypeTableRecord
  2
DOTTED
 70
     0
  3
Dotted
 72
    65
 73
     2
 40
1.0
 49
0.0
 74
     0
 49
-1.0
 74
     0
  0
LTYPE
  5
30
330
5
100
AcDbSymbolTableRecord
100
AcDbLinetypeTableRecord
  2
DOT_CENTER
 70
     0
  3
Dot_Center
 72
    65
 73
     4
 40
14.0
 49
12.0
 74
     0
 49
-1.0
 74
     0
 49
0.0
 74
     0
 49
-1.0
 74
     0
  0
LTYPE
  5
31
330
5
100
AcDbSymbolTableRecord
100
AcDbLinetypeTableRecord
  2
LONG_DASHED
 70
     0
  3
Long_Dashed
 72
    65
 73
     2
 40
15.0
 49
10.0
 74
     0
 49
-5.0
 74
     0
  0
LTYPE
  5
32
330
5
100
AcDbSymbolTableRecord
100
AcDbLinetypeTableRecord
  2
DASH_CENTER
 70
     0
  3
Dash_Center
 72
    65
 73
     4
 40
14.0
 49
11.0
 74
     0
 49
-1.0
 74
     0
 49
1.0
 74
     0
 49
-1.0
 74
     0
  0
LTYPE
  5
33
330
5
100
AcDbSymbolTableRecord
100
AcDbLinetypeTableRecord
  2
PHANTOM
 70
     0
  3
Phantom
 72
    65
 73
     6
 40
13.0
 49
10.0
 74
     0
 49
-1.0
 74
     0
 49
0.0
 74
     0
 49
-1.0
 74
     0
 49
0.0
 74
     0
 49
-1.0
 74
     0
  0
LTYPE
  5
34
330
5
100
AcDbSymbolTableRecord
100
AcDbLinetypeTableRecord
  2
CENTER_DASH_DASH
 70
     0
  3
Center_Dash_Dash
 72
    65
 73
     6
 40
14.0
 49
9.0
 74
     0
 49
-1.0
 74
     0
 49
1.0
 74
     0
 49
-1.0
 74
     0
 49
1.0
 74
     0
 49
-1.0
 74
     0
  0
ENDTAB
  0
TABLE
  2
LAYER
  5
2
330
0
100
AcDbSymbolTable
 70
     2
  0
LAYER
  5
10
330
2
100
AcDbSymbolTableRecord
100
AcDbLayerTableRecord
  2
0
 70
     0
 62
     7
  6
Continuous
370
    -3
390
F
  0
LAYER
  5
35
330
2
100
AcDbSymbolTableRecord
100
AcDbLayerTableRecord
  2
1
 70
     0
 62
     7
  6
Continuous
370
    -3
390
F
  0
ENDTAB
  0
TABLE
  2
STYLE
  5
3
330
0
100
AcDbSymbolTable
 70
     3
  0
STYLE
  5
11
330
3
100
AcDbSymbolTableRecord
100
AcDbTextStyleTableRecord
  2
Standard
 70
     0
 40
0.0
 41
1.0
 50
0.0
 71
     0
 42
0.2
  3
txt
  4

  0
STYLE
  5
A9
330
3
100
AcDbSymbolTableRecord
100
AcDbTextStyleTableRecord
  2
CONVERTER_1
 70
     0
 40
0.0
 41
0.89
 50
0.0
 71
     0
 42
0.2
  3
msmincho.ttc
  4

1001
ACAD
1000
MS Mincho
1071
    32785
  0
STYLE
  5
1CF
330
3
100
AcDbSymbolTableRecord
100
AcDbTextStyleTableRecord
  2
CONVERTER_2
 70
     0
 40
0.0
 41
0.9
 50
0.0
 71
     0
 42
0.2
  3
txt.shx
  4

  0
ENDTAB
  0
TABLE
  2
VIEW
  5
6
330
0
100
AcDbSymbolTable
 70
     0
  0
ENDTAB
  0
TABLE
  2
UCS
  5
7
330
0
100
AcDbSymbolTable
 70
     0
  0
ENDTAB
  0
TABLE
  2
APPID
  5
9
330
0
100
AcDbSymbolTable
 70
     1
  0
APPID
  5
12
330
9
100
AcDbSymbolTableRecord
100
AcDbRegAppTableRecord
  2
ACAD
 70
     0
  0
ENDTAB
  0
TABLE
  2
DIMSTYLE
  5
A
330
0
100
AcDbSymbolTable
 70
     6
100
AcDbDimStyleTable
  0
DIMSTYLE
105
27
330
A
100
AcDbSymbolTableRecord
100
AcDbDimStyleTableRecord
  2
Standard
 70
     0
340
11
  0
DIMSTYLE
105
1DF
102
{ACAD_REACTORS
330
1E0
102
}
330
A
100
AcDbSymbolTableRecord
100
AcDbDimStyleTableRecord
  2
ME10_DIM_0
 70
     0
  3
{\Fgdt;n}<>
 41
5.25
 42
0.0
 44
1.5
 73
     0
 74
     0
 77
     1
 78
     8
140
5.25
147
0.625
172
     1
173
     1
176
     2
177
     2
178
     7
271
     2
340
1CF
  0
DIMSTYLE
105
1EA
102
{ACAD_REACTORS
330
1EB
102
}
330
A
100
AcDbSymbolTableRecord
100
AcDbDimStyleTableRecord
  2
ME10_DIM_1
 70
     0
 41
5.25
 42
0.0
 44
1.5
 73
     0
 74
     0
 77
     1
 78
     8
140
5.25
147
0.625
172
     1
173
     1
176
     2
177
     2
178
     7
271
     2
340
A9
  0
DIMSTYLE
105
1F5
102
{ACAD_REACTORS
330
1F6
102
}
330
A
100
AcDbSymbolTableRecord
100
AcDbDimStyleTableRecord
  2
ME10_DIM_2
 70
     0
 41
5.25
 42
0.0
 44
1.5
 73
     0
 74
     0
 77
     1
 78
     8
140
5.25
147
0.625
172
     1
173
     1
176
     2
177
     2
178
     7
271
     2
340
1CF
  0
DIMSTYLE
105
200
102
{ACAD_REACTORS
330
201
102
}
330
A
100
AcDbSymbolTableRecord
100
AcDbDimStyleTableRecord
  2
ME10_DIM_3
 70
     0
 41
5.25
 42
0.0
 44
1.5
 73
     0
 74
     0
 77
     1
 78
     8
140
5.25
147
0.625
172
     1
173
     1
176
     2
177
     2
178
     7
271
     2
340
1CF
  0
DIMSTYLE
105
20D
102
{ACAD_REACTORS
330
20E
102
}
330
A
100
AcDbSymbolTableRecord
100
AcDbDimStyleTableRecord
  2
ME10_DIM_4
 70
     0
 41
5.25
 42
0.0
 44
1.5
 73
     0
 74
     0
 77
     1
 78
     8
140
5.25
147
0.625
172
     1
173
     1
176
     2
177
     2
178
     7
271
     2
340
1CF
  0
ENDTAB
  0
TABLE
  2
BLOCK_RECORD
  5
1
330
0
100
AcDbSymbolTable
 70
    16
  0
BLOCK_RECORD
  5
1F
330
1
100
AcDbSymbolTableRecord
100
AcDbBlockTableRecord
  2
*Model_Space
340
22
  0
BLOCK_RECORD
  5
1B
330
1
100
AcDbSymbolTableRecord
100
AcDbBlockTableRecord
  2
*Paper_Space
340
1E
  0
BLOCK_RECORD
  5
23
330
1
100
AcDbSymbolTableRecord
100
AcDbBlockTableRecord
  2
*Paper_Space0
340
26
  0
BLOCK_RECORD
  5
36
330
1
100
AcDbSymbolTableRecord
100
AcDbBlockTableRecord
  2
_J__A4
340
0
102
{BLKREFS
331
59
102
}
  0
BLOCK_RECORD
  5
39
330
1
100
AcDbSymbolTableRecord
100
AcDbBlockTableRecord
  2
Y26-0
340
0
102
{BLKREFS
331
5A
102
}
  0
BLOCK_RECORD
  5
3C
330
1
100
AcDbSymbolTableRecord
100
AcDbBlockTableRecord
  2
38-12A
340
0
102
{BLKREFS
331
5B
102
}
  0
BLOCK_RECORD
  5
3F
330
1
100
AcDbSymbolTableRecord
100
AcDbBlockTableRecord
  2
V821F-1-13
340
0
102
{BLKREFS
331
5C
102
}
  0
BLOCK_RECORD
  5
42
330
1
100
AcDbSymbolTableRecord
100
AcDbBlockTableRecord
  2
42-1
340
0
102
{BLKREFS
331
52
102
}
  0
BLOCK_RECORD
  5
45
330
1
100
AcDbSymbolTableRecord
100
AcDbBlockTableRecord
  2
21-1A
340
0
102
{BLKREFS
331
53
102
}
  0
BLOCK_RECORD
  5
48
330
1
100
AcDbSymbolTableRecord
100
AcDbBlockTableRecord
  2
R20F
340
0
102
{BLKREFS
331
54
102
}
  0
BLOCK_RECORD
  5
4B
330
1
100
AcDbSymbolTableRecord
100
AcDbBlockTableRecord
  2
37-1-13
340
0
102
{BLKREFS
331
55
102
}
  0
BLOCK_RECORD
  5
4E
330
1
100
AcDbSymbolTableRecord
100
AcDbBlockTableRecord
  2
36-1A-13
340
0
102
{BLKREFS
331
56
102
}
  0
BLOCK_RECORD
  5
51
330
1
100
AcDbSymbolTableRecord
100
AcDbBlockTableRecord
  2
R10A-13
340
0
102
{BLKREFS
331
5D
102
}
  0
BLOCK_RECORD
  5
1D6
330
1
100
AcDbSymbolTableRecord
100
AcDbBlockTableRecord
  2
*D011
340
0
  0
BLOCK_RECORD
  5
1E1
330
1
100
AcDbSymbolTableRecord
100
AcDbBlockTableRecord
  2
*D112
340
0
  0
BLOCK_RECORD
  5
1EC
330
1
100
AcDbSymbolTableRecord
100
AcDbBlockTableRecord
  2
*D213
340
0
  0
BLOCK_RECORD
  5
1F7
330
1
100
AcDbSymbolTableRecord
100
AcDbBlockTableRecord
  2
*D314
340
0
  0
BLOCK_RECORD
  5
202
330
1
100
AcDbSymbolTableRecord
100
AcDbBlockTableRecord
  2
*D415
340
0
  0
ENDTAB
  0
ENDSEC
  0
SECTION
  2
BLOCKS
  0
BLOCK
  5
20
330
1F
100
AcDbEntity
  8
0
100
AcDbBlockBegin
  2
*Model_Space
 70
     0
 71
     0
 10
0.0
 20
0.0
 30
0.0
  3
*Model_Space
  1

  0
ENDBLK
  5
21
330
1F
100
AcDbEntity
  8
0
100
AcDbBlockEnd
  0
BLOCK
  5
1C
330
1B
100
AcDbEntity
 67
     1
  8
0
100
AcDbBlockBegin
  2
*Paper_Space
 70
     0
 71
     0
 10
0.0
 20
0.0
 30
0.0
  3
*Paper_Space
  1

  0
ENDBLK
  5
1D
330
1B
100
AcDbEntity
 67
     1
  8
0
100
AcDbBlockEnd
  0
BLOCK
  5
24
330
23
100
AcDbEntity
  8
0
100
AcDbBlockBegin
  2
*Paper_Space0
 70
     0
 71
     0
 10
0.0
 20
0.0
 30
0.0
  3
*Paper_Space0
  1

  0
ENDBLK
  5
25
330
23
100
AcDbEntity
  8
0
100
AcDbBlockEnd
  0
BLOCK
  5
37
330
36
100
AcDbEntity
  8
0
100
AcDbBlockBegin
  2
_J__A4
 70
     0
 71
     0
 10
0.0
 20
0.0
 30
0.0
  3
_J__A4
  1

  0
POINT
  5
5E
330
36
100
AcDbEntity
  8
1
 62
     4
100
AcDbPoint
 10
34.0
 20
34.00000000000001
 30
0.0
  0
POINT
  5
5F
330
36
100
AcDbEntity
  8
1
 62
     4
100
AcDbPoint
 10
57.0
 20
12.25
 30
0.0
  0
POINT
  5
60
330
36
100
AcDbEntity
  8
1
 62
     4
100
AcDbPoint
 10
57.0
 20
20.75000000000001
 30
0.0
  0
POINT
  5
61
330
36
100
AcDbEntity
  8
1
 62
     4
100
AcDbPoint
 10
57.0
 20
24.75000000000001
 30
0.0
  0
POINT
  5
62
330
36
100
AcDbEntity
  8
1
 62
     4
100
AcDbPoint
 10
57.0
 20
16.25
 30
0.0
  0
POINT
  5
63
330
36
100
AcDbEntity
  8
1
 62
     4
100
AcDbPoint
 10
157.5
 20
19.00000000000001
 30
0.0
  0
POINT
  5
64
330
36
100
AcDbEntity
  8
1
 62
     4
100
AcDbPoint
 10
47.5
 20
282.0000000000003
 30
0.0
  0
POINT
  5
65
330
36
100
AcDbEntity
  8
1
 62
     4
100
AcDbPoint
 10
57.0
 20
22.75000000000001
 30
0.0
  0
POINT
  5
66
330
36
100
AcDbEntity
  8
1
 62
     4
100
AcDbPoint
 10
57.0
 20
14.25
 30
0.0
  0
POINT
  5
67
330
36
100
AcDbEntity
  8
1
 62
     4
100
AcDbPoint
 10
157.5
 20
12.5
 30
0.0
  0
POINT
  5
68
330
36
100
AcDbEntity
  8
1
 62
     4
100
AcDbPoint
 10
163.25
 20
12.5
 30
0.0
  0
POINT
  5
69
330
36
100
AcDbEntity
  8
1
 62
     4
100
AcDbPoint
 10
151.75
 20
12.5
 30
0.0
  0
POINT
  5
6A
330
36
100
AcDbEntity
  8
1
 62
     4
100
AcDbPoint
 10
134.75
 20
12.5
 30
0.0
  0
POINT
  5
6B
330
36
100
AcDbEntity
  8
1
 62
     4
100
AcDbPoint
 10
146.25
 20
12.5
 30
0.0
  0
POINT
  5
6C
330
36
100
AcDbEntity
  8
1
 62
     4
100
AcDbPoint
 10
140.5
 20
12.5
 30
0.0
  0
POINT
  5
6D
330
36
100
AcDbEntity
  8
1
 62
     4
100
AcDbPoint
 10
140.5
 20
19.00000000000001
 30
0.0
  0
POINT
  5
6E
330
36
100
AcDbEntity
  8
1
 62
     4
100
AcDbPoint
 10
117.75
 20
12.5
 30
0.0
  0
POINT
  5
6F
330
36
100
AcDbEntity
  8
1
 62
     4
100
AcDbPoint
 10
129.25
 20
12.5
 30
0.0
  0
POINT
  5
70
330
36
100
AcDbEntity
  8
1
 62
     4
100
AcDbPoint
 10
123.5
 20
12.5
 30
0.0
  0
POINT
  5
71
330
36
100
AcDbEntity
  8
1
 62
     4
100
AcDbPoint
 10
123.5
 20
19.00000000000001
 30
0.0
  0
POINT
  5
72
330
36
100
AcDbEntity
  8
1
 62
     4
100
AcDbPoint
 10
100.75
 20
12.5
 30
0.0
  0
POINT
  5
73
330
36
100
AcDbEntity
  8
1
 62
     4
100
AcDbPoint
 10
112.25
 20
12.5
 30
0.0
  0
POINT
  5
74
330
36
100
AcDbEntity
  8
1
 62
     4
100
AcDbPoint
 10
106.5
 20
12.5
 30
0.0
  0
POINT
  5
75
330
36
100
AcDbEntity
  8
1
 62
     4
100
AcDbPoint
 10
106.5
 20
19.00000000000001
 30
0.0
  0
POINT
  5
76
330
36
100
AcDbEntity
  8
1
 62
     4
100
AcDbPoint
 10
85.25
 20
17.0
 30
0.0
  0
POINT
  5
77
330
36
100
AcDbEntity
  8
1
 62
     4
100
AcDbPoint
 10
93.75
 20
17.0
 30
0.0
  0
LINE
  5
78
330
36
100
AcDbEntity
  8
1
  6
Continuous
 62
     2
100
AcDbLine
 10
81.0
 20
27.00000000000001
 30
0.0
 11
81.0
 21
10.0
 31
0.0
  0
LINE
  5
79
330
36
100
AcDbEntity
  8
1
  6
DOT_CENTER
 62
     2
100
AcDbLine
 10
187.0
 20
26.50000000000001
 30
0.0
 11
187.0
 21
20.50000000000001
 31
0.0
  0
LINE
  5
7A
330
36
100
AcDbEntity
  8
1
  6
DOT_CENTER
 62
     2
100
AcDbLine
 10
184.0
 20
23.50000000000001
 30
0.0
 11
197.0
 21
23.50000000000001
 31
0.0
  0
LINE
  5
7B
330
36
100
AcDbEntity
  8
1
  6
Continuous
 62
     7
100
AcDbLine
 10
196.0
 20
21.50000000000001
 30
0.0
 11
191.0
 21
22.30000000000001
 31
0.0
  0
LINE
  5
7C
330
36
100
AcDbEntity
  8
1
  6
Continuous
 62
     7
100
AcDbLine
 10
196.0
 20
25.50000000000001
 30
0.0
 11
196.0
 21
21.50000000000001
 31
0.0
  0
LINE
  5
7D
330
36
100
AcDbEntity
  8
1
  6
Continuous
 62
     7
100
AcDbLine
 10
191.0
 20
24.70000000000001
 30
0.0
 11
196.0
 21
25.50000000000001
 31
0.0
  0
LINE
  5
7E
330
36
100
AcDbEntity
  8
1
  6
Continuous
 62
     7
100
AcDbLine
 10
191.0
 20
24.70000000000001
 30
0.0
 11
191.0
 21
22.30000000000001
 31
0.0
  0
LINE
  5
7F
330
36
100
AcDbEntity
  8
1
  6
Continuous
 62
     2
100
AcDbLine
 10
33.0
 20
27.0
 30
0.0
 11
33.0
 21
10.0
 31
0.0
  0
LINE
  5
80
330
36
100
AcDbEntity
  8
1
  6
Continuous
 62
     2
100
AcDbLine
 10
25.0
 20
18.50000000000001
 30
0.0
 11
81.0
 21
18.50000000000001
 31
0.0
  0
LINE
  5
81
330
36
100
AcDbEntity
  8
1
  6
Continuous
 62
     7
100
AcDbLine
 10
200.0
 20
287.0000000000003
 30
0.0
 11
105.0
 21
287.0000000000003
 31
0.0
  0
LINE
  5
82
330
36
100
AcDbEntity
  8
1
  6
Continuous
 62
     7
100
AcDbLine
 10
200.0
 20
10.0
 30
0.0
 11
200.0
 21
148.5
 31
0.0
  0
LINE
  5
83
330
36
100
AcDbEntity
  8
1
  6
Continuous
 62
     7
100
AcDbLine
 10
25.0
 20
10.0
 30
0.0
 11
105.0
 21
10.0
 31
0.0
  0
LINE
  5
84
330
36
100
AcDbEntity
  8
1
  6
PHANTOM
 62
     4
100
AcDbLine
 10
0.0
 20
297.0
 30
0.0
 11
0.0
 21
0.0
 31
0.0
  0
LINE
  5
85
330
36
100
AcDbEntity
  8
1
  6
PHANTOM
 62
     4
100
AcDbLine
 10
210.0
 20
297.0
 30
0.0
 11
0.0
 21
297.0
 31
0.0
  0
LINE
  5
86
330
36
100
AcDbEntity
  8
1
  6
PHANTOM
 62
     4
100
AcDbLine
 10
210.0
 20
0.0
 30
0.0
 11
210.0
 21
297.0
 31
0.0
  0
LINE
  5
87
330
36
100
AcDbEntity
  8
1
  6
PHANTOM
 62
     4
100
AcDbLine
 10
0.0
 20
0.0
 30
0.0
 11
210.0
 21
0.0
 31
0.0
  0
LINE
  5
88
330
36
100
AcDbEntity
  8
1
  6
Continuous
 62
     7
100
AcDbLine
 10
25.0
 20
41.0
 30
0.0
 11
200.0
 21
41.0
 31
0.0
  0
LINE
  5
89
330
36
100
AcDbEntity
  8
1
  6
Continuous
 62
     7
100
AcDbLine
 10
200.0
 20
27.00000000000001
 30
0.0
 11
25.0
 21
27.00000000000001
 31
0.0
  0
LINE
  5
8A
330
36
100
AcDbEntity
  8
1
  6
Continuous
 62
     2
100
AcDbLine
 10
33.0
 20
41.00000000000001
 30
0.0
 11
33.0
 21
27.0
 31
0.0
  0
LINE
  5
8B
330
36
100
AcDbEntity
  8
1
  6
Continuous
 62
     2
100
AcDbLine
 10
55.0
 20
287.0000000000003
 30
0.0
 11
55.0
 21
277.0000000000003
 31
0.0
  0
LINE
  5
8C
330
36
100
AcDbEntity
  8
1
  6
Continuous
 62
     2
100
AcDbLine
 10
40.0
 20
287.0000000000003
 30
0.0
 11
40.0
 21
277.0000000000003
 31
0.0
  0
LINE
  5
8D
330
36
100
AcDbEntity
  8
1
  6
Continuous
 62
     7
100
AcDbLine
 10
25.0
 20
10.0
 30
0.0
 11
25.0
 21
148.5
 31
0.0
  0
LINE
  5
8E
330
36
100
AcDbEntity
  8
1
  6
Continuous
 62
     2
100
AcDbLine
 10
55.0
 20
277.0000000000003
 30
0.0
 11
25.0
 21
277.0000000000003
 31
0.0
  0
LINE
  5
8F
330
36
100
AcDbEntity
  8
1
  6
Continuous
 62
     2
100
AcDbLine
 10
166.0
 20
27.00000000000001
 30
0.0
 11
166.0
 21
10.0
 31
0.0
  0
LINE
  5
90
330
36
100
AcDbEntity
  8
1
  6
Continuous
 62
     2
100
AcDbLine
 10
132.0
 20
27.00000000000001
 30
0.0
 11
132.0
 21
9.99999999999999
 31
0.0
  0
LINE
  5
91
330
36
100
AcDbEntity
  8
1
  6
Continuous
 62
     2
100
AcDbLine
 10
149.0
 20
27.00000000000001
 30
0.0
 11
149.0
 21
10.0
 31
0.0
  0
LINE
  5
92
330
36
100
AcDbEntity
  8
1
  6
Continuous
 62
     2
100
AcDbLine
 10
115.0
 20
27.00000000000001
 30
0.0
 11
115.0
 21
9.99999999999999
 31
0.0
  0
LINE
  5
93
330
36
100
AcDbEntity
  8
1
  6
Continuous
 62
     2
100
AcDbLine
 10
98.0
 20
27.00000000000001
 30
0.0
 11
98.0
 21
9.99999999999999
 31
0.0
  0
LINE
  5
94
330
36
100
AcDbEntity
  8
1
  6
Continuous
 62
     2
100
AcDbLine
 10
166.0
 20
20.00000000000001
 30
0.0
 11
200.0
 21
20.00000000000001
 31
0.0
  0
LINE
  5
95
330
36
100
AcDbEntity
  8
1
  6
Continuous
 62
     2
100
AcDbLine
 10
105.0
 20
287.0000000000003
 30
0.0
 11
105.0
 21
292.0000000000003
 31
0.0
  0
LINE
  5
96
330
36
100
AcDbEntity
  8
1
  6
Continuous
 62
     7
100
AcDbLine
 10
105.0
 20
287.0000000000003
 30
0.0
 11
25.0
 21
287.0000000000003
 31
0.0
  0
LINE
  5
97
330
36
100
AcDbEntity
  8
1
  6
Continuous
 62
     2
100
AcDbLine
 10
25.0
 20
148.5
 30
0.0
 11
20.0
 21
148.5
 31
0.0
  0
LINE
  5
98
330
36
100
AcDbEntity
  8
1
  6
Continuous
 62
     7
100
AcDbLine
 10
25.0
 20
148.5
 30
0.0
 11
25.0
 21
287.0000000000003
 31
0.0
  0
LINE
  5
99
330
36
100
AcDbEntity
  8
1
  6
Continuous
 62
     2
100
AcDbLine
 10
200.0
 20
148.5
 30
0.0
 11
205.0
 21
148.5
 31
0.0
  0
LINE
  5
9A
330
36
100
AcDbEntity
  8
1
  6
Continuous
 62
     7
100
AcDbLine
 10
200.0
 20
148.5
 30
0.0
 11
200.0
 21
287.0000000000003
 31
0.0
  0
LINE
  5
9B
330
36
100
AcDbEntity
  8
1
  6
Continuous
 62
     2
100
AcDbLine
 10
105.0
 20
10.0
 30
0.0
 11
105.0
 21
5.0
 31
0.0
  0
LINE
  5
9C
330
36
100
AcDbEntity
  8
1
  6
Continuous
 62
     7
100
AcDbLine
 10
105.0
 20
10.0
 30
0.0
 11
200.0
 21
10.0
 31
0.0
  0
CIRCLE
  5
9D
330
36
100
AcDbEntity
  8
1
  6
DOT_CENTER
 62
     7
100
AcDbCircle
 10
89.5
 20
18.0
 30
0.0
 40
0.1000000000000227
  0
CIRCLE
  5
9E
330
36
100
AcDbEntity
  8
1
  6
DOT_CENTER
 62
     7
100
AcDbCircle
 10
89.5
 20
16.0
 30
0.0
 40
0.1000000000000227
  0
CIRCLE
  5
9F
330
36
100
AcDbEntity
  8
1
  6
Continuous
 62
     7
100
AcDbCircle
 10
187.0
 20
23.50000000000001
 30
0.0
 40
2.0
  0
CIRCLE
  5
A0
330
36
100
AcDbEntity
  8
1
  6
Continuous
 62
     7
100
AcDbCircle
 10
187.0
 20
23.50000000000001
 30
0.0
 40
1.200000000000102
  0
CIRCLE
  5
A1
330
36
100
AcDbEntity
  8
1
  6
Continuous
 62
     7
100
AcDbCircle
 10
154.5
 20
12.5
 30
0.0
 40
0.3000000000000114
  0
CIRCLE
  5
A2
330
36
100
AcDbEntity
  8
1
  6
Continuous
 62
     7
100
AcDbCircle
 10
160.5
 20
12.5
 30
0.0
 40
0.3000000000000114
  0
CIRCLE
  5
A3
330
36
100
AcDbEntity
  8
1
  6
Continuous
 62
     7
100
AcDbCircle
 10
143.5
 20
12.5
 30
0.0
 40
0.3000000000000114
  0
CIRCLE
  5
A4
330
36
100
AcDbEntity
  8
1
  6
Continuous
 62
     7
100
AcDbCircle
 10
137.5
 20
12.5
 30
0.0
 40
0.3000000000000114
  0
CIRCLE
  5
A5
330
36
100
AcDbEntity
  8
1
  6
Continuous
 62
     7
100
AcDbCircle
 10
126.5
 20
12.5
 30
0.0
 40
0.2999999999999972
  0
CIRCLE
  5
A6
330
36
100
AcDbEntity
  8
1
  6
Continuous
 62
     7
100
AcDbCircle
 10
120.5
 20
12.5
 30
0.0
 40
0.2999999999999972
  0
CIRCLE
  5
A7
330
36
100
AcDbEntity
  8
1
  6
Continuous
 62
     7
100
AcDbCircle
 10
109.5
 20
12.5
 30
0.0
 40
0.2999999999999972
  0
CIRCLE
  5
A8
330
36
100
AcDbEntity
  8
1
  6
Continuous
 62
     7
100
AcDbCircle
 10
103.5
 20
12.5
 30
0.0
 40
0.2999999999999972
  0
MTEXT
  5
AA
330
36
100
AcDbEntity
  8
1
 62
   250
100
AcDbMText
 10
25.0
 20
5.0
 30
0.0
 40
3.5
 41
0.0
 71
     4
 72
     1
  1
備考欄の文字列 原点位置=4
  7
CONVERTER_1
 73
     1
 44
0.7202881152461
  0
MTEXT
  5
AB
330
36
100
AcDbEntity
  8
1
 62
     2
100
AcDbMText
 10
89.5
 20
24.00000000000001
 30
0.0
 40
3.5
 41
0.0
 71
     5
 72
     1
  1
尺度
  7
CONVERTER_1
 73
     1
 44
0.7202881152461
  0
MTEXT
  5
AC
330
36
100
AcDbEntity
  8
1
 62
     2
100
AcDbMText
 10
135.5
 20
25.00000000000001
 30
0.0
 40
3.0
 41
0.0
 71
     5
 72
     1
  1
製図
  7
CONVERTER_1
 73
     1
 44
0.78031212484994
  0
MTEXT
  5
AD
330
36
100
AcDbEntity
  8
1
 62
     2
100
AcDbMText
 10
152.5
 20
25.00000000000001
 30
0.0
 40
3.0
 41
0.0
 71
     5
 72
     1
  1
設計
  7
CONVERTER_1
 73
     1
 44
0.78031212484994
  0
MTEXT
  5
AE
330
36
100
AcDbEntity
  8
1
 62
     2
100
AcDbMText
 10
118.5
 20
25.00000000000001
 30
0.0
 40
3.0
 41
0.0
 71
     5
 72
     1
  1
検図
  7
CONVERTER_1
 73
     1
 44
0.78031212484994
  0
MTEXT
  5
AF
330
36
100
AcDbEntity
  8
1
 62
     2
100
AcDbMText
 10
175.0
 20
23.50000000000001
 30
0.0
 40
3.5
 41
0.0
 71
     5
 72
     1
  1
第三角法
  7
CONVERTER_1
 73
     1
 44
0.7202881152461
  0
MTEXT
  5
B0
330
36
100
AcDbEntity
  8
1
 62
     2
100
AcDbMText
 10
101.5
 20
25.00000000000001
 30
0.0
 40
3.0
 41
0.0
 71
     5
 72
     1
  1
承認
  7
CONVERTER_1
 73
     1
 44
0.78031212484994
  0
MTEXT
  5
B1
330
36
100
AcDbEntity
  8
1
 62
     2
100
AcDbMText
 10
29.0
 20
14.25
 30
0.0
 40
3.5
 41
0.0
 71
     5
 72
     1
  1
品番
  7
CONVERTER_1
 73
     1
 44
0.96038415366146
  0
MTEXT
  5
B2
330
36
100
AcDbEntity
  8
1
 62
     2
100
AcDbMText
 10
29.0
 20
22.75
 30
0.0
 40
3.5
 41
0.0
 71
     5
 72
     1
  1
品名
  7
CONVERTER_1
 73
     1
 44
0.96038415366146
  0
MTEXT
  5
B3
330
36
100
AcDbEntity
  8
1
 62
     2
100
AcDbMText
 10
29.0
 20
34.00000000000001
 30
0.0
 40
3.5
 41
0.0
 71
     5
 72
     1
  1
備考
  7
CONVERTER_1
 73
     1
 44
0.60024009603842
  0
MTEXT
  5
B4
330
36
100
AcDbEntity
  8
1
 62
     2
100
AcDbMText
 10
32.5
 20
282.0000000000003
 30
0.0
 40
5.0
 41
0.0
 71
     5
 72
     1
  1
図番
  7
CONVERTER_1
 73
     1
 44
0.60024009603842
  0
MTEXT
  5
B5
330
36
100
AcDbEntity
  8
1
 62
     7
100
AcDbMText
 10
171.5
 20
15.0
 30
0.0
 40
2.5
 41
0.0
 71
     5
 72
     1
  1
株式会社
  7
CONVERTER_1
 73
     1
 44
1.32052821128451
  0
MTEXT
  5
B6
330
36
100
AcDbEntity
  8
1
 62
     7
100
AcDbMText
 10
188.5
 20
15.0
 30
0.0
 40
3.0
 41
0.0
 71
     5
 72
     1
  1
三栄水栓製作所
  7
CONVERTER_1
 73
     1
 44
1.32052821128451
  0
ENDBLK
  5
38
330
36
100
AcDbEntity
  8
0
100
AcDbBlockEnd
  0
BLOCK
  5
3A
330
39
100
AcDbEntity
  8
0
100
AcDbBlockBegin
  2
Y26-0
 70
     0
 71
     0
 10
178.3314023969054
 20
161.3523160762942
 30
0.0
  3
Y26-0
  1

  0
LINE
  5
B7
330
39
100
AcDbEntity
  8
1
  6
Continuous
 62
     7
100
AcDbLine
 10
130.6392620324422
 20
220.4624433435337
 30
0.0
 11
137.2936303537662
 21
220.4624433435337
 31
0.0
  0
LINE
  5
B8
330
39
100
AcDbEntity
  8
1
  6
Continuous
 62
     7
100
AcDbLine
 10
114.7936303537662
 20
107.9624433435337
 30
0.0
 11
134.7936303537662
 21
107.9624433435337
 31
0.0
  0
LINE
  5
B9
330
39
100
AcDbEntity
  8
1
  6
Continuous
 62
     7
100
AcDbLine
 10
114.7936303537662
 20
119.2303925359648
 30
0.0
 11
134.7936303537662
 21
119.2303925359648
 31
0.0
  0
LINE
  5
BA
330
39
100
AcDbEntity
  8
1
  6
Continuous
 62
     7
100
AcDbLine
 10
147.2936303537662
 20
120.9624433435337
 30
0.0
 11
101.2936303537662
 21
120.9624433435337
 31
0.0
  0
LINE
  5
BB
330
39
100
AcDbEntity
  8
1
  6
Continuous
 62
     7
100
AcDbLine
 10
113.7936303537662
 20
119.2303925359648
 30
0.0
 11
113.7936303537662
 21
120.9624433435337
 31
0.0
  0
LINE
  5
BC
330
39
100
AcDbEntity
  8
1
  6
Continuous
 62
     7
100
AcDbLine
 10
114.7936303537662
 20
106.9624433435337
 30
0.0
 11
133.7936303537662
 21
106.9624433435337
 31
0.0
  0
LINE
  5
BD
330
39
100
AcDbEntity
  8
1
  6
Continuous
 62
     7
100
AcDbLine
 10
113.7936303537662
 20
107.9624433435337
 30
0.0
 11
114.7936303537662
 21
106.9624433435337
 31
0.0
  0
LINE
  5
BE
330
39
100
AcDbEntity
  8
1
  6
Continuous
 62
     7
100
AcDbLine
 10
113.7936303537662
 20
119.2303925359648
 30
0.0
 11
114.7936303537662
 21
119.2303925359648
 31
0.0
  0
LINE
  5
BF
330
39
100
AcDbEntity
  8
1
  6
Continuous
 62
     7
100
AcDbLine
 10
113.7936303537662
 20
107.9624433435337
 30
0.0
 11
113.7936303537662
 21
119.2303925359648
 31
0.0
  0
LINE
  5
C0
330
39
100
AcDbEntity
  8
1
  6
Continuous
 62
     7
100
AcDbLine
 10
114.7936303537662
 20
107.9624433435337
 30
0.0
 11
113.7936303537662
 21
107.9624433435337
 31
0.0
  0
LINE
  5
C1
330
39
100
AcDbEntity
  8
1
  6
Continuous
 62
     7
100
AcDbLine
 10
134.7936303537662
 20
119.2303925359648
 30
0.0
 11
134.7936303537662
 21
107.9624433435337
 31
0.0
  0
LINE
  5
C2
330
39
100
AcDbEntity
  8
1
  6
Continuous
 62
     7
100
AcDbLine
 10
133.7936303537662
 20
106.9624433435337
 30
0.0
 11
134.7936303537662
 21
107.9624433435337
 31
0.0
  0
LINE
  5
C3
330
39
100
AcDbEntity
  8
1
  6
Continuous
 62
     7
100
AcDbLine
 10
134.7936303537662
 20
120.9624433435337
 30
0.0
 11
134.7936303537662
 21
119.2303925359648
 31
0.0
  0
LINE
  5
C4
330
39
100
AcDbEntity
  8
1
  6
Continuous
 62
     7
100
AcDbLine
 10
133.0436303537662
 20
127.4501126784662
 30
0.0
 11
133.0436303537662
 21
171.9429200343587
 31
0.0
  0
LINE
  5
C5
330
39
100
AcDbEntity
  8
1
  6
Continuous
 62
     2
100
AcDbLine
 10
133.7936303537662
 20
119.2303925359648
 30
0.0
 11
133.7936303537662
 21
106.9624433435337
 31
0.0
  0
LINE
  5
C6
330
39
100
AcDbEntity
  8
1
  6
Continuous
 62
     2
100
AcDbLine
 10
134.7936303537662
 20
120.9624433435337
 30
0.0
 11
133.7936303537662
 21
119.2303925359648
 31
0.0
  0
LINE
  5
C7
330
39
100
AcDbEntity
  8
1
  6
Continuous
 62
     7
100
AcDbLine
 10
147.2936303537662
 20
120.9624433435337
 30
0.0
 11
147.2936303537662
 21
122.9639846766671
 31
0.0
  0
LINE
  5
C8
330
39
100
AcDbEntity
  8
1
  6
Continuous
 62
     7
100
AcDbLine
 10
115.5436303537662
 20
127.4501126784662
 30
0.0
 11
115.5436303537662
 21
171.9429200343587
 31
0.0
  0
LINE
  5
C9
330
39
100
AcDbEntity
  8
1
  6
Continuous
 62
     7
100
AcDbLine
 10
101.2936303537662
 20
122.9639846766671
 30
0.0
 11
101.2936303537662
 21
120.9624433435337
 31
0.0
  0
LINE
  5
CA
330
39
100
AcDbEntity
  8
1
  6
Continuous
 62
     2
100
AcDbLine
 10
114.7936303537662
 20
119.2303925359648
 30
0.0
 11
113.7936303537662
 21
120.9624433435337
 31
0.0
  0
LINE
  5
CB
330
39
100
AcDbEntity
  8
1
  6
Continuous
 62
     2
100
AcDbLine
 10
114.7936303537662
 20
107.9624433435337
 30
0.0
 11
114.7936303537662
 21
119.2303925359648
 31
0.0
  0
LINE
  5
CC
330
39
100
AcDbEntity
  8
1
  6
Continuous
 62
     2
100
AcDbLine
 10
114.7936303537662
 20
106.9624433435337
 30
0.0
 11
114.7936303537662
 21
107.9624433435337
 31
0.0
  0
LINE
  5
CD
330
39
100
AcDbEntity
  8
1
  6
Continuous
 62
     7
100
AcDbLine
 10
111.2936303537662
 20
220.4624433435337
 30
0.0
 11
111.2936303537662
 21
226.9624433435337
 31
0.0
  0
LINE
  5
CE
330
39
100
AcDbEntity
  8
1
  6
Continuous
 62
     7
100
AcDbLine
 10
137.2936303537662
 20
220.4624433435337
 30
0.0
 11
137.2936303537662
 21
226.9624433435337
 31
0.0
  0
LINE
  5
CF
330
39
100
AcDbEntity
  8
1
  6
Continuous
 62
     7
100
AcDbLine
 10
111.2936303537662
 20
220.4624433435337
 30
0.0
 11
117.9479986750901
 21
220.4624433435337
 31
0.0
  0
LINE
  5
D0
330
39
100
AcDbEntity
  8
1
  6
Continuous
 62
     7
100
AcDbLine
 10
112.2936303537662
 20
227.9624433435337
 30
0.0
 11
136.2936303537662
 21
227.9624433435337
 31
0.0
  0
LINE
  5
D1
330
39
100
AcDbEntity
  8
1
  6
Continuous
 62
     7
100
AcDbLine
 10
112.2936303537662
 20
227.9624433435337
 30
0.0
 11
111.2936303537662
 21
226.9624433435337
 31
0.0
  0
LINE
  5
D2
330
39
100
AcDbEntity
  8
1
  6
Continuous
 62
     7
100
AcDbLine
 10
136.2936303537662
 20
227.9624433435337
 30
0.0
 11
137.2936303537662
 21
226.9624433435337
 31
0.0
  0
LINE
  5
D3
330
39
100
AcDbEntity
  8
1
  6
Continuous
 62
     7
100
AcDbLine
 10
137.2936303537662
 20
226.9624433435337
 30
0.0
 11
111.2936303537662
 21
226.9624433435337
 31
0.0
  0
LINE
  5
D4
330
39
100
AcDbEntity
  8
1
  6
Continuous
 62
     7
100
AcDbLine
 10
101.7544008059023
 20
123.4624433435337
 30
0.0
 11
146.8328599016301
 21
123.4624433435337
 31
0.0
  0
LINE
  5
D5
330
39
100
AcDbEntity
  8
1
  6
Continuous
 62
     7
100
AcDbLine
 10
257.2936303537661
 20
123.4624433435337
 30
0.0
 11
234.7544008059022
 21
123.4624433435337
 31
0.0
  0
LINE
  5
D6
330
39
100
AcDbEntity
  8
1
  6
Continuous
 62
     7
100
AcDbLine
 10
234.2936303537661
 20
122.9639846766671
 30
0.0
 11
234.2936303537661
 21
120.9624433435337
 31
0.0
  0
LINE
  5
D7
330
39
100
AcDbEntity
  8
1
  6
Continuous
 62
     7
100
AcDbLine
 10
257.2936303537661
 20
120.9624433435337
 30
0.0
 11
234.2936303537661
 21
120.9624433435337
 31
0.0
  0
LINE
  5
D8
330
39
100
AcDbEntity
  8
1
  6
Continuous
 62
     7
100
AcDbLine
 10
280.2936303537663
 20
120.9624433435337
 30
0.0
 11
257.2936303537661
 21
120.9624433435337
 31
0.0
  0
LINE
  5
D9
330
39
100
AcDbEntity
  8
1
  6
Continuous
 62
     7
100
AcDbLine
 10
280.2936303537663
 20
120.9624433435337
 30
0.0
 11
280.2936303537661
 21
122.9639846766671
 31
0.0
  0
LINE
  5
DA
330
39
100
AcDbEntity
  8
1
  6
Continuous
 62
     7
100
AcDbLine
 10
279.8328599016299
 20
123.4624433435337
 30
0.0
 11
257.2936303537661
 21
123.4624433435337
 31
0.0
  0
LINE
  5
DB
330
39
100
AcDbEntity
  8
1
  6
Continuous
 62
     7
100
AcDbLine
 10
231.8639390655813
 20
183.9624433435337
 30
0.0
 11
241.9616093767327
 21
183.9624433435337
 31
0.0
  0
LINE
  5
DC
330
39
100
AcDbEntity
  8
1
  6
Continuous
 62
     7
100
AcDbLine
 10
248.5436303537661
 20
171.9429200343587
 30
0.0
 11
248.5436303537661
 21
127.4501126784662
 31
0.0
  0
LINE
  5
DD
330
39
100
AcDbEntity
  8
1
  6
Continuous
 62
     2
100
AcDbLine
 10
235.0256811613351
 20
183.9624433435337
 30
0.0
 11
233.2936303537662
 21
184.9624433435337
 31
0.0
  0
LINE
  5
DE
330
39
100
AcDbEntity
  8
1
  6
Continuous
 62
     2
100
AcDbLine
 10
233.2936303537662
 20
184.9624433435337
 30
0.0
 11
231.8639390655813
 21
184.9624433435337
 31
0.0
  0
LINE
  5
DF
330
39
100
AcDbEntity
  8
1
  6
Continuous
 62
     7
100
AcDbLine
 10
233.2936303537662
 20
183.9624433435337
 30
0.0
 11
233.2936303537662
 21
207.9624433435337
 31
0.0
  0
LINE
  5
E0
330
39
100
AcDbEntity
  8
1
  6
Continuous
 62
     7
100
AcDbLine
 10
241.7157876364976
 20
207.9624433435337
 30
0.0
 11
231.8639390655813
 21
207.9624433435337
 31
0.0
  0
LINE
  5
E1
330
39
100
AcDbEntity
  8
1
  6
Continuous
 62
     2
100
AcDbLine
 10
231.8639390655813
 20
206.9624433435337
 30
0.0
 11
233.2936303537662
 21
206.9624433435337
 31
0.0
  0
LINE
  5
E2
330
39
100
AcDbEntity
  8
1
  6
Continuous
 62
     2
100
AcDbLine
 10
233.2936303537662
 20
206.9624433435337
 30
0.0
 11
235.0256811613351
 21
207.9624433435337
 31
0.0
  0
LINE
  5
E3
330
39
100
AcDbEntity
  8
1
  6
Continuous
 62
     7
100
AcDbLine
 10
266.0436303537661
 20
127.4501126784662
 30
0.0
 11
266.0436303537661
 21
171.9429200343587
 31
0.0
  0
LINE
  5
E4
330
39
100
AcDbEntity
  8
1
  6
Continuous
 62
     7
100
AcDbLine
 10
247.7936303537663
 20
107.9624433435337
 30
0.0
 11
267.7936303537663
 21
107.9624433435337
 31
0.0
  0
LINE
  5
E5
330
39
100
AcDbEntity
  8
1
  6
Continuous
 62
     7
100
AcDbLine
 10
247.7936303537663
 20
119.2303925359648
 30
0.0
 11
267.7936303537663
 21
119.2303925359648
 31
0.0
  0
LINE
  5
E6
330
39
100
AcDbEntity
  8
1
  6
Continuous
 62
     7
100
AcDbLine
 10
246.7936303537663
 20
119.2303925359648
 30
0.0
 11
246.7936303537661
 21
120.9624433435337
 31
0.0
  0
LINE
  5
E7
330
39
100
AcDbEntity
  8
1
  6
Continuous
 62
     7
100
AcDbLine
 10
247.7936303537661
 20
106.9624433435337
 30
0.0
 11
266.7936303537663
 21
106.9624433435337
 31
0.0
  0
LINE
  5
E8
330
39
100
AcDbEntity
  8
1
  6
Continuous
 62
     7
100
AcDbLine
 10
246.7936303537662
 20
107.9624433435337
 30
0.0
 11
247.7936303537661
 21
106.9624433435337
 31
0.0
  0
LINE
  5
E9
330
39
100
AcDbEntity
  8
1
  6
Continuous
 62
     7
100
AcDbLine
 10
246.7936303537663
 20
119.2303925359648
 30
0.0
 11
247.7936303537663
 21
119.2303925359648
 31
0.0
  0
LINE
  5
EA
330
39
100
AcDbEntity
  8
1
  6
Continuous
 62
     7
100
AcDbLine
 10
246.7936303537662
 20
107.9624433435337
 30
0.0
 11
246.7936303537663
 21
119.2303925359648
 31
0.0
  0
LINE
  5
EB
330
39
100
AcDbEntity
  8
1
  6
Continuous
 62
     7
100
AcDbLine
 10
247.7936303537663
 20
107.9624433435337
 30
0.0
 11
246.7936303537662
 21
107.9624433435337
 31
0.0
  0
LINE
  5
EC
330
39
100
AcDbEntity
  8
1
  6
Continuous
 62
     7
100
AcDbLine
 10
267.7936303537663
 20
119.2303925359648
 30
0.0
 11
267.7936303537663
 21
107.9624433435337
 31
0.0
  0
LINE
  5
ED
330
39
100
AcDbEntity
  8
1
  6
Continuous
 62
     7
100
AcDbLine
 10
266.7936303537663
 20
106.9624433435337
 30
0.0
 11
267.7936303537663
 21
107.9624433435337
 31
0.0
  0
LINE
  5
EE
330
39
100
AcDbEntity
  8
1
  6
Continuous
 62
     7
100
AcDbLine
 10
267.7936303537663
 20
120.9624433435337
 30
0.0
 11
267.7936303537663
 21
119.2303925359648
 31
0.0
  0
LINE
  5
EF
330
39
100
AcDbEntity
  8
1
  6
Continuous
 62
     2
100
AcDbLine
 10
266.7936303537663
 20
119.2303925359648
 30
0.0
 11
266.7936303537663
 21
106.9624433435337
 31
0.0
  0
LINE
  5
F0
330
39
100
AcDbEntity
  8
1
  6
Continuous
 62
     2
100
AcDbLine
 10
267.7936303537663
 20
120.9624433435337
 30
0.0
 11
266.7936303537663
 21
119.2303925359648
 31
0.0
  0
LINE
  5
F1
330
39
100
AcDbEntity
  8
1
  6
Continuous
 62
     2
100
AcDbLine
 10
247.7936303537663
 20
119.2303925359648
 30
0.0
 11
246.7936303537661
 21
120.9624433435337
 31
0.0
  0
LINE
  5
F2
330
39
100
AcDbEntity
  8
1
  6
Continuous
 62
     2
100
AcDbLine
 10
247.7936303537663
 20
107.9624433435337
 30
0.0
 11
247.7936303537663
 21
119.2303925359648
 31
0.0
  0
LINE
  5
F3
330
39
100
AcDbEntity
  8
1
  6
Continuous
 62
     2
100
AcDbLine
 10
247.7936303537661
 20
106.9624433435337
 30
0.0
 11
247.7936303537663
 21
107.9624433435337
 31
0.0
  0
LINE
  5
F4
330
39
100
AcDbEntity
  8
1
  6
Continuous
 62
     7
100
AcDbLine
 10
257.2936303537662
 20
220.4624433435337
 30
0.0
 11
270.2936303537661
 21
220.4624433435337
 31
0.0
  0
LINE
  5
F5
330
39
100
AcDbEntity
  8
1
  6
Continuous
 62
     7
100
AcDbLine
 10
244.2936303537663
 20
220.4624433435337
 30
0.0
 11
244.2936303537662
 21
226.9624433435337
 31
0.0
  0
LINE
  5
F6
330
39
100
AcDbEntity
  8
1
  6
Continuous
 62
     7
100
AcDbLine
 10
270.2936303537661
 20
220.4624433435337
 30
0.0
 11
270.2936303537663
 21
226.9624433435337
 31
0.0
  0
LINE
  5
F7
330
39
100
AcDbEntity
  8
1
  6
Continuous
 62
     7
100
AcDbLine
 10
244.2936303537663
 20
220.4624433435337
 30
0.0
 11
257.2936303537662
 21
220.4624433435337
 31
0.0
  0
LINE
  5
F8
330
39
100
AcDbEntity
  8
1
  6
Continuous
 62
     7
100
AcDbLine
 10
245.2936303537661
 20
227.9624433435337
 30
0.0
 11
269.2936303537661
 21
227.9624433435337
 31
0.0
  0
LINE
  5
F9
330
39
100
AcDbEntity
  8
1
  6
Continuous
 62
     7
100
AcDbLine
 10
245.2936303537661
 20
227.9624433435337
 30
0.0
 11
244.2936303537662
 21
226.9624433435337
 31
0.0
  0
LINE
  5
FA
330
39
100
AcDbEntity
  8
1
  6
Continuous
 62
     7
100
AcDbLine
 10
269.2936303537661
 20
227.9624433435337
 30
0.0
 11
270.2936303537663
 21
226.9624433435337
 31
0.0
  0
LINE
  5
FB
330
39
100
AcDbEntity
  8
1
  6
Continuous
 62
     7
100
AcDbLine
 10
270.2936303537663
 20
226.9624433435337
 30
0.0
 11
244.2936303537662
 21
226.9624433435337
 31
0.0
  0
LINE
  5
FC
330
39
100
AcDbEntity
  8
1
  6
Continuous
 62
     7
100
AcDbLine
 10
136.2936303537659
 20
340.5327520553486
 30
0.0
 11
136.2936303537659
 21
359.8796808132354
 31
0.0
  0
LINE
  5
FD
330
39
100
AcDbEntity
  8
1
  6
Continuous
 62
     2
100
AcDbLine
 10
136.2936303537659
 20
343.6944941511025
 30
0.0
 11
135.2936303537659
 21
341.9624433435338
 31
0.0
  0
LINE
  5
FE
330
39
100
AcDbEntity
  8
1
  6
Continuous
 62
     2
100
AcDbLine
 10
135.2936303537659
 20
341.9624433435338
 30
0.0
 11
135.2936303537659
 21
340.5327520553486
 31
0.0
  0
LINE
  5
FF
330
39
100
AcDbEntity
  8
1
  6
Continuous
 62
     7
100
AcDbLine
 10
136.2936303537659
 20
341.9624433435338
 30
0.0
 11
112.2936303537659
 21
341.9624433435338
 31
0.0
  0
LINE
  5
100
330
39
100
AcDbEntity
  8
1
  6
Continuous
 62
     7
100
AcDbLine
 10
112.2936303537659
 20
359.8796808132354
 30
0.0
 11
112.2936303537659
 21
340.5327520553486
 31
0.0
  0
LINE
  5
101
330
39
100
AcDbEntity
  8
1
  6
Continuous
 62
     2
100
AcDbLine
 10
113.2936303537659
 20
340.5327520553486
 30
0.0
 11
113.2936303537659
 21
341.9624433435338
 31
0.0
  0
LINE
  5
102
330
39
100
AcDbEntity
  8
1
  6
Continuous
 62
     2
100
AcDbLine
 10
113.2936303537659
 20
341.9624433435338
 30
0.0
 11
112.2936303537659
 21
343.6944941511025
 31
0.0
  0
ARC
  5
103
330
39
100
AcDbEntity
  8
1
  6
Continuous
 62
     7
100
AcDbCircle
 10
97.2936303537662
 20
195.9624433435337
 30
0.0
 40
39.99999999999993
100
AcDbArc
 50
11.2154399726504
 51
17.14772915687
  0
ARC
  5
104
330
39
100
AcDbEntity
  8
1
  6
Continuous
 62
     7
100
AcDbCircle
 10
98.62832423131731
 20
212.2124433435337
 30
0.0
 40
15.11530612244897
100
AcDbArc
 50
-17.14772915687023
 51
33.07964800245803
  0
ARC
  5
105
330
39
100
AcDbEntity
  8
1
  6
Continuous
 62
     7
100
AcDbCircle
 10
149.9589364762151
 20
212.2124433435337
 30
0.0
 40
15.11530612244891
100
AcDbArc
 50
146.920351997542
 51
-162.8522708431298
  0
ARC
  5
106
330
39
100
AcDbEntity
  8
1
  6
Continuous
 62
     7
100
AcDbCircle
 10
230.2936303537662
 20
195.9624433435337
 30
0.0
 40
40.0000000000001
100
AcDbArc
 50
-20.06805462081905
 51
17.14772915686989
  0
ARC
  5
107
330
39
100
AcDbEntity
  8
1
  6
Continuous
 62
     7
100
AcDbCircle
 10
282.9589364762151
 20
212.2124433435337
 30
0.0
 40
15.115306122449
100
AcDbArc
 50
146.9203519975422
 51
-162.8522708431295
  0
ARC
  5
108
330
39
100
AcDbEntity
  8
1
  6
Continuous
 62
     7
100
AcDbCircle
 10
241.7157876364976
 20
212.9624433435337
 30
0.0
 40
5.0
100
AcDbArc
 50
-90.0
 51
4.25210119307763
  0
ARC
  5
109
330
39
100
AcDbEntity
  8
1
  6
Continuous
 62
     7
100
AcDbCircle
 10
231.6283242313172
 20
212.2124433435337
 30
0.0
 40
15.11530612244893
100
AcDbArc
 50
4.25210119307778
 51
33.07964800245761
  0
ARC
  5
10A
330
39
100
AcDbEntity
  8
1
  6
Continuous
 62
     7
100
AcDbCircle
 10
151.2936303537662
 20
195.9624433435337
 30
0.0
 40
39.99999999999992
100
AcDbArc
 50
162.85227084313
 51
168.78456002735
  0
ARC
  5
10B
330
39
100
AcDbEntity
  8
1
  6
Continuous
 62
     7
100
AcDbCircle
 10
124.2936303537659
 20
365.9624433435338
 30
0.0
 40
23.00000000000014
100
AcDbArc
 50
-58.55101861062066
 51
90.0
  0
ARC
  5
10C
330
39
100
AcDbEntity
  8
1
  6
Continuous
 62
     7
100
AcDbCircle
 10
124.2936303537659
 20
365.9624433435338
 30
0.0
 40
23.0
100
AcDbArc
 50
90.0
 51
-121.4489813893794
  0
CIRCLE
  5
10D
330
39
100
AcDbEntity
  8
1
  6
Continuous
 62
     7
100
AcDbCircle
 10
124.2936303537659
 20
365.9624433435338
 30
0.0
 40
13.0
  0
ARC
  5
10E
330
39
100
AcDbEntity
  8
1
  6
Continuous
 62
     7
100
AcDbCircle
 10
85.5436303537662
 20
171.9429200343587
 30
0.0
 40
30.0
100
AcDbArc
 50
0.0
 51
16.33962819070473
  0
ARC
  5
10F
330
39
100
AcDbEntity
  8
1
  6
Continuous
 62
     7
100
AcDbCircle
 10
163.0436303537662
 20
171.9429200343587
 30
0.0
 40
30.00000000000002
100
AcDbArc
 50
163.6603718092953
 51
180.0
  0
ARC
  5
110
330
39
100
AcDbEntity
  8
1
  6
Continuous
 62
     7
100
AcDbCircle
 10
146.7936303537662
 20
122.9639846766671
 30
0.0
 40
0.5
100
AcDbArc
 50
0.0
 51
85.50000000000333
  0
ARC
  5
111
330
39
100
AcDbEntity
  8
1
  6
Continuous
 62
     7
100
AcDbCircle
 10
137.0436303537662
 20
127.4501126784662
 30
0.0
 40
4.0
100
AcDbArc
 50
180.0
 51
-94.50000000000037
  0
ARC
  5
112
330
39
100
AcDbEntity
  8
1
  6
Continuous
 62
     7
100
AcDbCircle
 10
111.5436303537662
 20
127.4501126784662
 30
0.0
 40
3.99999999999998
100
AcDbArc
 50
-85.49999999999983
 51
0.0
  0
ARC
  5
113
330
39
100
AcDbEntity
  8
1
  6
Continuous
 62
     7
100
AcDbCircle
 10
101.7936303537662
 20
122.9639846766671
 30
0.0
 40
0.500000000000045
100
AcDbArc
 50
94.49999999999668
 51
180.0
  0
ARC
  5
114
330
39
100
AcDbEntity
  8
1
  6
Continuous
 62
     7
100
AcDbCircle
 10
241.9616093767327
 20
177.9624433435337
 30
0.0
 40
6.000000000000068
100
AcDbArc
 50
30.08819381594287
 51
90.0
  0
ARC
  5
115
330
39
100
AcDbEntity
  8
1
  6
Continuous
 62
     7
100
AcDbCircle
 10
218.5436303537662
 20
171.9429200343587
 30
0.0
 40
29.99999999999992
100
AcDbArc
 50
0.0
 51
17.51270470035182
  0
ARC
  5
116
330
39
100
AcDbEntity
  8
1
  6
Continuous
 62
     7
100
AcDbCircle
 10
296.0436303537661
 20
171.9429200343587
 30
0.0
 40
29.99999999999982
100
AcDbArc
 50
159.9319453791806
 51
180.0
  0
ARC
  5
117
330
39
100
AcDbEntity
  8
1
  6
Continuous
 62
     7
100
AcDbCircle
 10
234.7936303537661
 20
122.9639846766671
 30
0.0
 40
0.500000000000045
100
AcDbArc
 50
94.49999999999668
 51
180.0
  0
ARC
  5
118
330
39
100
AcDbEntity
  8
1
  6
Continuous
 62
     7
100
AcDbCircle
 10
244.5436303537661
 20
127.4501126784662
 30
0.0
 40
3.999999999999972
100
AcDbArc
 50
-85.50000000000127
 51
0.0
  0
ARC
  5
119
330
39
100
AcDbEntity
  8
1
  6
Continuous
 62
     7
100
AcDbCircle
 10
270.0436303537663
 20
127.4501126784662
 30
0.0
 40
4.000000000000171
100
AcDbArc
 50
180.0
 51
-94.50000000000443
  0
ARC
  5
11A
330
39
100
AcDbEntity
  8
1
  6
Continuous
 62
     7
100
AcDbCircle
 10
279.7936303537663
 20
122.9639846766671
 30
0.0
 40
0.4999999999998295
100
AcDbArc
 50
0.0
 51
85.5000000000358
  0
ARC
  5
11B
330
39
100
AcDbEntity
  8
1
  6
Continuous
 62
     7
100
AcDbCircle
 10
142.2936303537659
 20
359.8796808132354
 30
0.0
 40
5.999999999999836
100
AcDbArc
 50
161.3282819359914
 51
180.0
  0
ARC
  5
11C
330
39
100
AcDbEntity
  8
1
  6
Continuous
 62
     7
100
AcDbCircle
 10
106.2936303537659
 20
359.8796808132354
 30
0.0
 40
6.0
100
AcDbArc
 50
0.0
 51
18.67171806400771
  0
ENDBLK
  5
3B
330
39
100
AcDbEntity
  8
0
100
AcDbBlockEnd
  0
BLOCK
  5
3D
330
3C
100
AcDbEntity
  8
0
100
AcDbBlockBegin
  2
38-12A
 70
     0
 71
     0
 10
340.7994496345584
 20
165.604310268103
 30
0.0
  3
38-12A
  1

  0
LINE
  5
11D
330
3C
100
AcDbEntity
  8
1
  6
Continuous
 62
     7
100
AcDbLine
 10
114.2936303537663
 20
228.9624433435337
 30
0.0
 11
134.2936303537663
 21
228.9624433435337
 31
0.0
  0
LINE
  5
11E
330
3C
100
AcDbEntity
  8
1
  6
Continuous
 62
     7
100
AcDbLine
 10
114.2936303537662
 20
227.9624433435337
 30
0.0
 11
114.2936303537663
 21
228.9624433435337
 31
0.0
  0
LINE
  5
11F
330
3C
100
AcDbEntity
  8
1
  6
Continuous
 62
     7
100
AcDbLine
 10
134.2936303537663
 20
228.9624433435337
 30
0.0
 11
134.2936303537662
 21
227.9624433435337
 31
0.0
  0
LINE
  5
120
330
3C
100
AcDbEntity
  8
1
  6
Continuous
 62
     7
100
AcDbLine
 10
122.2936303537663
 20
261.7946029097329
 30
0.0
 11
126.2936303537662
 21
261.7946029097329
 31
0.0
  0
LINE
  5
121
330
3C
100
AcDbEntity
  8
1
  6
Continuous
 62
     7
100
AcDbLine
 10
247.2936303537663
 20
228.9624433435337
 30
0.0
 11
267.2936303537663
 21
228.9624433435337
 31
0.0
  0
LINE
  5
122
330
3C
100
AcDbEntity
  8
1
  6
Continuous
 62
     7
100
AcDbLine
 10
247.2936303537663
 20
227.9624433435337
 30
0.0
 11
247.2936303537663
 21
228.9624433435337
 31
0.0
  0
LINE
  5
123
330
3C
100
AcDbEntity
  8
1
  6
Continuous
 62
     7
100
AcDbLine
 10
267.2936303537663
 20
228.9624433435337
 30
0.0
 11
267.2936303537663
 21
227.9624433435337
 31
0.0
  0
LINE
  5
124
330
3C
100
AcDbEntity
  8
1
  6
Continuous
 62
     7
100
AcDbLine
 10
255.2936303537663
 20
261.7946029097329
 30
0.0
 11
259.2936303537661
 21
261.7946029097329
 31
0.0
  0
ARC
  5
125
330
3C
100
AcDbEntity
  8
1
  6
Continuous
 62
     7
100
AcDbCircle
 10
100.578005335545
 20
236.1085742941793
 30
0.0
 40
15.4656250182213
100
AcDbArc
 50
0.0
 51
30.29203313308228
  0
ARC
  5
126
330
3C
100
AcDbEntity
  8
1
  6
Continuous
 62
     7
100
AcDbCircle
 10
100.578005335545
 20
236.1085742941793
 30
0.0
 40
15.46562501822132
100
AcDbArc
 50
-27.52046759204291
 51
0.0
  0
ARC
  5
127
330
3C
100
AcDbEntity
  8
1
  6
Continuous
 62
     7
100
AcDbCircle
 10
124.2936303537662
 20
249.9624433435337
 30
0.0
 40
11.99999999999993
100
AcDbArc
 50
99.59406822686005
 51
-149.7079668669177
  0
ARC
  5
128
330
3C
100
AcDbEntity
  8
1
  6
Continuous
 62
     7
100
AcDbCircle
 10
148.0092553719874
 20
236.1085742941793
 30
0.0
 40
15.46562501822128
100
AcDbArc
 50
149.7079668669175
 51
180.0
  0
ARC
  5
129
330
3C
100
AcDbEntity
  8
1
  6
Continuous
 62
     7
100
AcDbCircle
 10
148.0092553719874
 20
236.1085742941793
 30
0.0
 40
15.46562501822109
100
AcDbArc
 50
180.0
 51
-152.4795324079567
  0
ARC
  5
12A
330
3C
100
AcDbEntity
  8
1
  6
Continuous
 62
     7
100
AcDbCircle
 10
124.2936303537662
 20
249.9624433435337
 30
0.0
 40
11.99999999999992
100
AcDbArc
 50
-30.29203313308204
 51
80.4059317731395
  0
ARC
  5
12B
330
3C
100
AcDbEntity
  8
1
  6
Continuous
 62
     7
100
AcDbCircle
 10
233.5780053355449
 20
236.1085742941793
 30
0.0
 40
15.4656250182214
100
AcDbArc
 50
0.0
 51
30.29203313308228
  0
ARC
  5
12C
330
3C
100
AcDbEntity
  8
1
  6
Continuous
 62
     7
100
AcDbCircle
 10
233.5780053355449
 20
236.1085742941793
 30
0.0
 40
15.46562501822141
100
AcDbArc
 50
-27.52046759204274
 51
0.0
  0
ARC
  5
12D
330
3C
100
AcDbEntity
  8
1
  6
Continuous
 62
     7
100
AcDbCircle
 10
257.2936303537662
 20
249.9624433435337
 30
0.0
 40
11.99999999999993
100
AcDbArc
 50
99.5940682268601
 51
-149.707966866918
  0
ARC
  5
12E
330
3C
100
AcDbEntity
  8
1
  6
Continuous
 62
     7
100
AcDbCircle
 10
281.0092553719874
 20
236.1085742941793
 30
0.0
 40
15.46562501822131
100
AcDbArc
 50
149.7079668669176
 51
180.0
  0
ARC
  5
12F
330
3C
100
AcDbEntity
  8
1
  6
Continuous
 62
     7
100
AcDbCircle
 10
281.0092553719874
 20
236.1085742941793
 30
0.0
 40
15.46562501822115
100
AcDbArc
 50
180.0
 51
-152.4795324079568
  0
ARC
  5
130
330
3C
100
AcDbEntity
  8
1
  6
Continuous
 62
     7
100
AcDbCircle
 10
257.2936303537662
 20
249.9624433435337
 30
0.0
 40
11.9999999999999
100
AcDbArc
 50
-30.29203313308208
 51
80.40593177314004
  0
CIRCLE
  5
131
330
3C
100
AcDbEntity
  8
1
  6
Continuous
 62
     7
100
AcDbCircle
 10
124.2936303537659
 20
365.9624433435338
 30
0.0
 40
2.0
  0
CIRCLE
  5
132
330
3C
100
AcDbEntity
  8
1
  6
Continuous
 62
     7
100
AcDbCircle
 10
124.2936303537659
 20
365.9624433435338
 30
0.0
 40
11.99999999999989
  0
ENDBLK
  5
3E
330
3C
100
AcDbEntity
  8
0
100
AcDbBlockEnd
  0
BLOCK
  5
40
330
3F
100
AcDbEntity
  8
0
100
AcDbBlockBegin
  2
V821F-1-13
 70
     0
 71
     0
 10
146.3663533043334
 20
207.22156786652
 30
0.0
  3
V821F-1-13
  1

  0
LINE
  5
133
330
3F
100
AcDbEntity
  8
1
  6
DASH_CENTER
 62
     2
100
AcDbLine
 10
257.2936303537661
 20
219.662132356828
 30
0.0
 11
257.2936303537662
 21
264.7946029097329
 31
0.0
  0
ENDBLK
  5
41
330
3F
100
AcDbEntity
  8
0
100
AcDbBlockEnd
  0
BLOCK
  5
43
330
42
100
AcDbEntity
  8
0
100
AcDbBlockBegin
  2
42-1
 70
     0
 71
     0
 10
239.3161993327445
 20
85.65700450626544
 30
0.0
  3
42-1
  1

  0
LINE
  5
134
330
42
100
AcDbEntity
  8
1
  6
Continuous
 62
     7
100
AcDbLine
 10
200.7936303537662
 20
202.9624433435337
 30
0.0
 11
203.7936303537662
 21
202.9624433435337
 31
0.0
  0
LINE
  5
135
330
42
100
AcDbEntity
  8
1
  6
Continuous
 62
     2
100
AcDbLine
 10
203.7936303537662
 20
201.9624433435338
 30
0.0
 11
200.7936303537662
 21
201.9624433435336
 31
0.0
  0
LINE
  5
136
330
42
100
AcDbEntity
  8
1
  6
Continuous
 62
     2
100
AcDbLine
 10
203.7936303537662
 20
200.9624433435338
 30
0.0
 11
200.7936303537662
 21
200.9624433435336
 31
0.0
  0
LINE
  5
137
330
42
100
AcDbEntity
  8
1
  6
Continuous
 62
     2
100
AcDbLine
 10
203.6275820413147
 20
199.9624433435337
 30
0.0
 11
200.9835567622185
 21
199.9624433435337
 31
0.0
  0
LINE
  5
138
330
42
100
AcDbEntity
  8
1
  6
Continuous
 62
     2
100
AcDbLine
 10
203.4329298735285
 20
198.9624433435337
 30
0.0
 11
201.0971038600938
 21
198.9624433435337
 31
0.0
  0
LINE
  5
139
330
42
100
AcDbEntity
  8
1
  6
Continuous
 62
     7
100
AcDbLine
 10
203.7936303537662
 20
202.9624433435337
 30
0.0
 11
203.7936303537662
 21
188.9624433435337
 31
0.0
  0
LINE
  5
13A
330
42
100
AcDbEntity
  8
1
  6
Continuous
 62
     2
100
AcDbLine
 10
200.7936303537662
 20
190.9624433435337
 30
0.0
 11
203.7936303537662
 21
190.9624433435337
 31
0.0
  0
LINE
  5
13B
330
42
100
AcDbEntity
  8
1
  6
Continuous
 62
     2
100
AcDbLine
 10
200.9835567622185
 20
191.9624433435337
 30
0.0
 11
203.6275820413147
 21
191.9624433435337
 31
0.0
  0
LINE
  5
13C
330
42
100
AcDbEntity
  8
1
  6
Continuous
 62
     2
100
AcDbLine
 10
201.0971038600938
 20
192.9624433435337
 30
0.0
 11
203.4329298735286
 21
192.9624433435337
 31
0.0
  0
LINE
  5
13D
330
42
100
AcDbEntity
  8
1
  6
Continuous
 62
     2
100
AcDbLine
 10
201.3079770418622
 20
193.9624433435338
 30
0.0
 11
203.0760675659204
 21
193.9624433435338
 31
0.0
  0
LINE
  5
13E
330
42
100
AcDbEntity
  8
1
  6
Continuous
 62
     2
100
AcDbLine
 10
201.551292251595
 20
194.9624433435338
 30
0.0
 11
202.8165313422055
 21
194.9624433435338
 31
0.0
  0
LINE
  5
13F
330
42
100
AcDbEntity
  8
1
  6
Continuous
 62
     7
100
AcDbLine
 10
200.7936303537662
 20
190.9624433435337
 30
0.0
 11
200.7936303537662
 21
200.9624433435336
 31
0.0
  0
LINE
  5
140
330
42
100
AcDbEntity
  8
1
  6
Continuous
 62
     7
100
AcDbLine
 10
200.7936303537662
 20
200.9624433435336
 30
0.0
 11
200.7936303537662
 21
201.4624433435337
 31
0.0
  0
LINE
  5
141
330
42
100
AcDbEntity
  8
1
  6
Continuous
 62
     7
100
AcDbLine
 10
200.7936303537662
 20
201.9624433435336
 30
0.0
 11
200.7936303537662
 21
202.4624433435337
 31
0.0
  0
LINE
  5
142
330
42
100
AcDbEntity
  8
1
  6
Continuous
 62
     7
100
AcDbLine
 10
200.524308154743
 20
201.9624433435338
 30
0.0
 11
200.7936303537662
 21
202.9624433435337
 31
0.0
  0
LINE
  5
143
330
42
100
AcDbEntity
  8
1
  6
Continuous
 62
     7
100
AcDbLine
 10
200.7936303537662
 20
202.4624433435337
 30
0.0
 11
200.7936303537662
 21
202.9624433435337
 31
0.0
  0
LINE
  5
144
330
42
100
AcDbEntity
  8
1
  6
Continuous
 62
     7
100
AcDbLine
 10
200.7936303537662
 20
201.4624433435337
 30
0.0
 11
200.7936303537662
 21
201.9624433435336
 31
0.0
  0
LINE
  5
145
330
42
100
AcDbEntity
  8
1
  6
Continuous
 62
     2
100
AcDbLine
 10
203.0760675659204
 20
197.9624433435336
 30
0.0
 11
201.3079770418622
 21
197.9624433435336
 31
0.0
  0
LINE
  5
146
330
42
100
AcDbEntity
  8
1
  6
Continuous
 62
     2
100
AcDbLine
 10
202.8165313422055
 20
196.9624433435336
 30
0.0
 11
201.551292251595
 21
196.9624433435336
 31
0.0
  0
LINE
  5
147
330
42
100
AcDbEntity
  8
1
  6
Continuous
 62
     7
100
AcDbLine
 10
200.4638646335625
 20
195.9624433435337
 30
0.0
 11
200.4638646335625
 21
201.7124433435336
 31
0.0
  0
LINE
  5
148
330
42
100
AcDbEntity
  8
1
  6
Continuous
 62
     7
100
AcDbLine
 10
200.7936303537662
 20
190.4624433435337
 30
0.0
 11
200.7936303537662
 21
190.9624433435337
 31
0.0
  0
LINE
  5
149
330
42
100
AcDbEntity
  8
1
  6
Continuous
 62
     7
100
AcDbLine
 10
200.7936303537662
 20
189.4624433435337
 30
0.0
 11
200.7936303537662
 21
189.9624433435337
 31
0.0
  0
LINE
  5
14A
330
42
100
AcDbEntity
  8
1
  6
Continuous
 62
     7
100
AcDbLine
 10
203.7936303537662
 20
188.9624433435337
 30
0.0
 11
200.7936303537662
 21
188.9624433435337
 31
0.0
  0
LINE
  5
14B
330
42
100
AcDbEntity
  8
1
  6
Continuous
 62
     7
100
AcDbLine
 10
200.7936303537662
 20
188.9624433435337
 30
0.0
 11
200.524308154743
 21
189.9624433435336
 31
0.0
  0
LINE
  5
14C
330
42
100
AcDbEntity
  8
1
  6
Continuous
 62
     7
100
AcDbLine
 10
200.7936303537662
 20
188.9624433435337
 30
0.0
 11
200.7936303537662
 21
189.4624433435337
 31
0.0
  0
LINE
  5
14D
330
42
100
AcDbEntity
  8
1
  6
Continuous
 62
     2
100
AcDbLine
 10
200.7936303537662
 20
189.9624433435337
 30
0.0
 11
203.7936303537662
 21
189.9624433435337
 31
0.0
  0
LINE
  5
14E
330
42
100
AcDbEntity
  8
1
  6
Continuous
 62
     7
100
AcDbLine
 10
200.7936303537662
 20
189.9624433435337
 30
0.0
 11
200.7936303537662
 21
190.4624433435337
 31
0.0
  0
LINE
  5
14F
330
42
100
AcDbEntity
  8
1
  6
Continuous
 62
     7
100
AcDbLine
 10
200.4638646335625
 20
190.2124433435337
 30
0.0
 11
200.4638646335625
 21
195.9624433435337
 31
0.0
  0
LINE
  5
150
330
42
100
AcDbEntity
  8
1
  6
Continuous
 62
     7
100
AcDbLine
 10
117.2936303537659
 20
309.4624433435338
 30
0.0
 11
117.2936303537659
 21
312.4624433435338
 31
0.0
  0
LINE
  5
151
330
42
100
AcDbEntity
  8
1
  6
Continuous
 62
     2
100
AcDbLine
 10
118.2936303537659
 20
312.4624433435338
 30
0.0
 11
118.293630353766
 21
309.4624433435338
 31
0.0
  0
LINE
  5
152
330
42
100
AcDbEntity
  8
1
  6
Continuous
 62
     2
100
AcDbLine
 10
119.2936303537659
 20
312.4624433435338
 30
0.0
 11
119.293630353766
 21
309.4624433435338
 31
0.0
  0
LINE
  5
153
330
42
100
AcDbEntity
  8
1
  6
Continuous
 62
     2
100
AcDbLine
 10
120.2936303537659
 20
312.2963950310823
 30
0.0
 11
120.2936303537659
 21
309.6523697519859
 31
0.0
  0
LINE
  5
154
330
42
100
AcDbEntity
  8
1
  6
Continuous
 62
     2
100
AcDbLine
 10
121.2936303537659
 20
312.101742863296
 30
0.0
 11
121.2936303537659
 21
309.7659168498612
 31
0.0
  0
LINE
  5
155
330
42
100
AcDbEntity
  8
1
  6
Continuous
 62
     7
100
AcDbLine
 10
117.2936303537659
 20
312.4624433435338
 30
0.0
 11
131.2936303537659
 21
312.4624433435338
 31
0.0
  0
LINE
  5
156
330
42
100
AcDbEntity
  8
1
  6
Continuous
 62
     2
100
AcDbLine
 10
129.2936303537659
 20
309.4624433435338
 30
0.0
 11
129.2936303537659
 21
312.4624433435338
 31
0.0
  0
LINE
  5
157
330
42
100
AcDbEntity
  8
1
  6
Continuous
 62
     2
100
AcDbLine
 10
128.2936303537659
 20
309.6523697519859
 30
0.0
 11
128.2936303537659
 21
312.2963950310823
 31
0.0
  0
LINE
  5
158
330
42
100
AcDbEntity
  8
1
  6
Continuous
 62
     2
100
AcDbLine
 10
127.2936303537659
 20
309.7659168498612
 30
0.0
 11
127.2936303537659
 21
312.101742863296
 31
0.0
  0
LINE
  5
159
330
42
100
AcDbEntity
  8
1
  6
Continuous
 62
     2
100
AcDbLine
 10
126.2936303537659
 20
309.9767900316298
 30
0.0
 11
126.2936303537659
 21
311.7448805556878
 31
0.0
  0
LINE
  5
15A
330
42
100
AcDbEntity
  8
1
  6
Continuous
 62
     2
100
AcDbLine
 10
125.2936303537659
 20
310.2201052413625
 30
0.0
 11
125.2936303537659
 21
311.4853443319729
 31
0.0
  0
LINE
  5
15B
330
42
100
AcDbEntity
  8
1
  6
Continuous
 62
     7
100
AcDbLine
 10
129.2936303537659
 20
309.4624433435338
 30
0.0
 11
119.293630353766
 21
309.4624433435338
 31
0.0
  0
LINE
  5
15C
330
42
100
AcDbEntity
  8
1
  6
Continuous
 62
     7
100
AcDbLine
 10
119.293630353766
 20
309.4624433435338
 30
0.0
 11
118.7936303537659
 21
309.4624433435338
 31
0.0
  0
LINE
  5
15D
330
42
100
AcDbEntity
  8
1
  6
Continuous
 62
     7
100
AcDbLine
 10
118.293630353766
 20
309.4624433435338
 30
0.0
 11
117.7936303537659
 21
309.4624433435338
 31
0.0
  0
LINE
  5
15E
330
42
100
AcDbEntity
  8
1
  6
Continuous
 62
     7
100
AcDbLine
 10
118.2936303537658
 20
309.1931211445105
 30
0.0
 11
117.2936303537659
 21
309.4624433435338
 31
0.0
  0
LINE
  5
15F
330
42
100
AcDbEntity
  8
1
  6
Continuous
 62
     7
100
AcDbLine
 10
117.7936303537659
 20
309.4624433435338
 30
0.0
 11
117.2936303537659
 21
309.4624433435338
 31
0.0
  0
LINE
  5
160
330
42
100
AcDbEntity
  8
1
  6
Continuous
 62
     7
100
AcDbLine
 10
118.7936303537659
 20
309.4624433435338
 30
0.0
 11
118.293630353766
 21
309.4624433435338
 31
0.0
  0
LINE
  5
161
330
42
100
AcDbEntity
  8
1
  6
Continuous
 62
     2
100
AcDbLine
 10
122.2936303537661
 20
311.744880555688
 30
0.0
 11
122.2936303537661
 21
309.9767900316298
 31
0.0
  0
LINE
  5
162
330
42
100
AcDbEntity
  8
1
  6
Continuous
 62
     2
100
AcDbLine
 10
123.2936303537661
 20
311.4853443319729
 30
0.0
 11
123.2936303537661
 21
310.2201052413625
 31
0.0
  0
LINE
  5
163
330
42
100
AcDbEntity
  8
1
  6
Continuous
 62
     7
100
AcDbLine
 10
124.2936303537659
 20
309.13267762333
 30
0.0
 11
118.543630353766
 21
309.13267762333
 31
0.0
  0
LINE
  5
164
330
42
100
AcDbEntity
  8
1
  6
Continuous
 62
     7
100
AcDbLine
 10
129.7936303537659
 20
309.4624433435338
 30
0.0
 11
129.2936303537659
 21
309.4624433435338
 31
0.0
  0
LINE
  5
165
330
42
100
AcDbEntity
  8
1
  6
Continuous
 62
     7
100
AcDbLine
 10
130.7936303537659
 20
309.4624433435338
 30
0.0
 11
130.2936303537659
 21
309.4624433435338
 31
0.0
  0
LINE
  5
166
330
42
100
AcDbEntity
  8
1
  6
Continuous
 62
     7
100
AcDbLine
 10
131.2936303537659
 20
312.4624433435338
 30
0.0
 11
131.2936303537659
 21
309.4624433435338
 31
0.0
  0
LINE
  5
167
330
42
100
AcDbEntity
  8
1
  6
Continuous
 62
     7
100
AcDbLine
 10
131.2936303537659
 20
309.4624433435338
 30
0.0
 11
130.293630353766
 21
309.1931211445105
 31
0.0
  0
LINE
  5
168
330
42
100
AcDbEntity
  8
1
  6
Continuous
 62
     7
100
AcDbLine
 10
131.2936303537659
 20
309.4624433435338
 30
0.0
 11
130.7936303537659
 21
309.4624433435338
 31
0.0
  0
LINE
  5
169
330
42
100
AcDbEntity
  8
1
  6
Continuous
 62
     2
100
AcDbLine
 10
130.2936303537659
 20
309.4624433435338
 30
0.0
 11
130.2936303537659
 21
312.4624433435338
 31
0.0
  0
LINE
  5
16A
330
42
100
AcDbEntity
  8
1
  6
Continuous
 62
     7
100
AcDbLine
 10
130.2936303537659
 20
309.4624433435338
 30
0.0
 11
129.7936303537659
 21
309.4624433435338
 31
0.0
  0
LINE
  5
16B
330
42
100
AcDbEntity
  8
1
  6
Continuous
 62
     7
100
AcDbLine
 10
130.0436303537659
 20
309.13267762333
 30
0.0
 11
124.2936303537659
 21
309.13267762333
 31
0.0
  0
ARC
  5
16C
330
42
100
AcDbEntity
  8
1
  6
Continuous
 62
     7
100
AcDbCircle
 10
224.7936303537662
 20
195.9624433435337
 30
0.0
 40
25.00000000000001
100
AcDbArc
 50
166.1134596373708
 51
166.7029282527911
  0
ARC
  5
16D
330
42
100
AcDbEntity
  8
1
  6
Continuous
 62
     7
100
AcDbCircle
 10
224.7936303537662
 20
195.9624433435337
 30
0.0
 40
24.99999999999996
100
AcDbArc
 50
-166.7029282527909
 51
-166.1134596373708
  0
ARC
  5
16E
330
42
100
AcDbEntity
  8
1
  6
Continuous
 62
     7
100
AcDbCircle
 10
224.7936303537662
 20
195.9624433435337
 30
0.0
 40
24.99999999999994
100
AcDbArc
 50
166.7029282527911
 51
180.0
  0
ARC
  5
16F
330
42
100
AcDbEntity
  8
1
  6
Continuous
 62
     7
100
AcDbCircle
 10
224.7936303537662
 20
195.9624433435337
 30
0.0
 40
25.0
100
AcDbArc
 50
180.0
 51
-166.7029282527909
  0
ARC
  5
170
330
42
100
AcDbEntity
  8
1
  6
Continuous
 62
     7
100
AcDbCircle
 10
124.2936303537659
 20
333.4624433435338
 30
0.0
 40
25.00000000000012
100
AcDbArc
 50
-103.8865403626292
 51
-103.2970717472088
  0
ARC
  5
171
330
42
100
AcDbEntity
  8
1
  6
Continuous
 62
     7
100
AcDbCircle
 10
124.2936303537659
 20
333.4624433435338
 30
0.0
 40
25.00000000000008
100
AcDbArc
 50
-76.70292825279098
 51
-76.11345963737088
  0
ARC
  5
172
330
42
100
AcDbEntity
  8
1
  6
Continuous
 62
     7
100
AcDbCircle
 10
124.2936303537659
 20
333.4624433435338
 30
0.0
 40
25.00000000000005
100
AcDbArc
 50
-103.2970717472088
 51
-90.0
  0
ARC
  5
173
330
42
100
AcDbEntity
  8
1
  6
Continuous
 62
     7
100
AcDbCircle
 10
124.2936303537659
 20
333.4624433435338
 30
0.0
 40
25.0
100
AcDbArc
 50
-90.0
 51
-76.70292825279098
  0
CIRCLE
  5
174
330
42
100
AcDbEntity
  8
1
  6
Continuous
 62
     7
100
AcDbCircle
 10
124.2936303537663
 20
195.9624433435337
 30
0.0
 40
6.999999999999886
  0
CIRCLE
  5
175
330
42
100
AcDbEntity
  8
1
  6
Continuous
 62
     7
100
AcDbCircle
 10
124.2936303537663
 20
195.9624433435337
 30
0.0
 40
5.749999999999886
  0
ENDBLK
  5
44
330
42
100
AcDbEntity
  8
0
100
AcDbBlockEnd
  0
BLOCK
  5
46
330
45
100
AcDbEntity
  8
0
100
AcDbBlockBegin
  2
21-1A
 70
     0
 71
     0
 10
255.3537260787576
 20
80.52002242339843
 30
0.0
  3
21-1A
  1

  0
LINE
  5
176
330
45
100
AcDbEntity
  8
1
  6
Continuous
 62
     7
100
AcDbLine
 10
133.740594522971
 20
208.888112917716
 30
0.0
 11
130.0891853115006
 21
222.5153576141488
 31
0.0
  0
LINE
  5
177
330
45
100
AcDbEntity
  8
1
  6
Continuous
 62
     7
100
AcDbLine
 10
140.2110706505341
 20
197.6809195156153
 30
0.0
 11
150.1869061354964
 21
187.705084030653
 31
0.0
  0
LINE
  5
178
330
45
100
AcDbEntity
  8
1
  6
Continuous
 62
     7
100
AcDbLine
 10
130.7641064813292
 20
181.3182975972698
 30
0.0
 11
145.1518560803825
 21
177.4631117113022
 31
0.0
  0
LINE
  5
179
330
45
100
AcDbEntity
  8
1
  6
Continuous
 62
     7
100
AcDbLine
 10
117.8231542262031
 20
181.3182975972698
 30
0.0
 11
104.1959095297703
 21
177.6668883857993
 31
0.0
  0
LINE
  5
17A
330
45
100
AcDbEntity
  8
1
  6
Continuous
 62
     7
100
AcDbLine
 10
108.3761900569983
 20
197.6809195156153
 30
0.0
 11
98.40035457203588
 21
187.705084030653
 31
0.0
  0
LINE
  5
17B
330
45
100
AcDbEntity
  8
1
  6
Continuous
 62
     7
100
AcDbLine
 10
114.8466661845613
 20
208.888112917716
 30
0.0
 11
118.4980753960317
 21
222.5153576141488
 31
0.0
  0
LINE
  5
17C
330
45
100
AcDbEntity
  8
1
  6
Continuous
 62
     7
100
AcDbLine
 10
130.7641064813291
 20
321.6075519722401
 30
0.0
 11
130.7641064813291
 21
319.677363588183
 31
0.0
  0
LINE
  5
17D
330
45
100
AcDbEntity
  8
1
  6
Continuous
 62
     7
100
AcDbLine
 10
117.8231542262033
 20
319.677363588183
 30
0.0
 11
117.8231542262033
 21
321.4547128108948
 31
0.0
  0
LINE
  5
17E
330
45
100
AcDbEntity
  8
1
  6
Continuous
 62
     7
100
AcDbLine
 10
96.64786122478436
 20
322.8928567930535
 30
0.0
 11
97.09976932377667
 21
319.677363588183
 31
0.0
  0
LINE
  5
17F
330
45
100
AcDbEntity
  8
1
  6
Continuous
 62
     7
100
AcDbLine
 10
151.4874913837555
 20
319.6773635881827
 30
0.0
 11
151.9393994827479
 21
322.8928567930536
 31
0.0
  0
LINE
  5
180
330
45
100
AcDbEntity
  8
1
  6
Continuous
 62
     7
100
AcDbLine
 10
151.444265448377
 20
323.4624433435337
 30
0.0
 11
97.14299525915497
 21
323.4624433435337
 31
0.0
  0
LINE
  5
181
330
45
100
AcDbEntity
  8
1
  6
Continuous
 62
     7
100
AcDbLine
 10
214.7936303537661
 20
195.9624433435337
 30
0.0
 11
214.7936303537662
 21
226.3872591399232
 31
0.0
  0
LINE
  5
182
330
45
100
AcDbEntity
  8
1
  6
Continuous
 62
     7
100
AcDbLine
 10
214.2240084210536
 20
177.5425399951749
 30
0.0
 11
209.8345537480226
 21
178.1597574891825
 31
0.0
  0
LINE
  5
183
330
45
100
AcDbEntity
  8
1
  6
Continuous
 62
     7
100
AcDbLine
 10
214.2240438032862
 20
226.882393174294
 30
0.0
 11
211.0085505984155
 21
226.4304850753016
 31
0.0
  0
LINE
  5
184
330
45
100
AcDbEntity
  8
1
  6
Continuous
 62
     7
100
AcDbLine
 10
214.7936303537661
 20
195.9624433435337
 30
0.0
 11
214.7936303537662
 21
178.037669055608
 31
0.0
  0
ARC
  5
185
330
45
100
AcDbEntity
  8
1
  6
Continuous
 62
     7
100
AcDbCircle
 10
124.2936303537662
 20
220.9624433435337
 30
0.0
 40
5.999999999999967
100
AcDbArc
 50
14.99999999999989
 51
90.0
  0
ARC
  5
186
330
45
100
AcDbEntity
  8
1
  6
Continuous
 62
     7
100
AcDbCircle
 10
145.9442654483771
 20
183.4624433435337
 30
0.0
 40
5.999999999999957
100
AcDbArc
 50
-97.52424107894143
 51
45.00000000000019
  0
ARC
  5
187
330
45
100
AcDbEntity
  8
1
  6
Continuous
 62
     7
100
AcDbCircle
 10
102.6429952591552
 20
183.4624433435337
 30
0.0
 40
6.000000000000049
100
AcDbArc
 50
135.0
 51
-75.00000000000014
  0
ARC
  5
188
330
45
100
AcDbEntity
  8
1
  6
Continuous
 62
     7
100
AcDbCircle
 10
124.2936303537662
 20
220.9624433435337
 30
0.0
 40
6.0
100
AcDbArc
 50
90.0
 51
165.0000000000004
  0
ARC
  5
189
330
45
100
AcDbEntity
  8
1
  6
Continuous
 62
     7
100
AcDbCircle
 10
125.9307207046554
 20
439.8325958838581
 30
0.0
 40
127.4948334081411
100
AcDbArc
 50
-100.8094932463522
 51
-92.53411689479748
  0
ARC
  5
18A
330
45
100
AcDbEntity
  8
1
  6
Continuous
 62
     7
100
AcDbCircle
 10
122.6565400028767
 20
439.8325958838581
 30
0.0
 40
127.4948334081409
100
AcDbArc
 50
-87.46588310520266
 51
-79.19050675364777
  0
ARC
  5
18B
330
45
100
AcDbEntity
  8
1
  6
Continuous
 62
     7
100
AcDbCircle
 10
278.7054513624655
 20
195.5982476782869
 30
0.0
 40
75.0000000000001
100
AcDbArc
 50
-177.2213610340375
 51
-170.4085075173349
  0
ARC
  5
18C
330
45
100
AcDbEntity
  8
1
  6
Continuous
 62
     7
100
AcDbCircle
 10
353.7936303537663
 20
195.9624433435337
 30
0.0
 40
150.0533238552215
100
AcDbArc
 50
170.1970982062322
 51
178.4724745577871
  0
SPLINE
  5
18D
330
45
100
AcDbEntity
  8
0
  6
Continuous
 62
     7
100
AcDbSpline
210
0.0
220
0.0
230
1.0
 70
     8
 71
     3
 72
    35
 73
    31
 74
    29
 42
0.0000000001
 43
0.0000000001
 44
0.00000001
 40
0.0
 40
0.0
 40
0.0
 40
0.0
 40
0.6095664701736261
 40
1.217631710174761
 40
1.818364858744463
 40
2.42025144887079
 40
3.012574584768645
 40
3.604379366438646
 40
4.187127320374324
 40
4.770042709358961
 40
5.34463566252145
 40
5.91915567024943
 40
6.487495311598187
 40
7.055844637159897
 40
7.62086056860618
 40
8.185865086527224
 40
8.750867887076925
 40
9.315885831846229
 40
9.884245147472091
 40
10.45257411423282
 40
11.02705120930338
 40
11.60168882067768
 40
12.26274694007696
 40
12.92355591635739
 40
13.43733587887805
 40
13.95144934917282
 40
14.55327005497655
 40
15.15406389004656
 40
15.76214773013171
 40
16.37169678613084
 40
16.37169678613084
 40
16.37169678613084
 40
16.37169678613084
 10
118.2133716837234
 20
317.2526145296575
 30
0.0
 10
118.2863346080222
 20
317.0629805682364
 30
0.0
 10
118.4320807647424
 20
316.6841796727629
 30
0.0
 10
118.6794717864118
 20
316.1300348574257
 30
0.0
 10
118.9824354582142
 20
315.606746609883
 30
0.0
 10
119.3287011518428
 20
315.1179856775504
 30
0.0
 10
119.7109956698561
 20
314.6607666384346
 30
0.0
 10
120.126297909422
 20
314.2420696688487
 30
0.0
 10
120.5751163178678
 20
313.864349711475
 30
0.0
 10
121.0513491133089
 20
313.53174350897
 30
0.0
 10
121.553448866219
 20
313.245141822051
 30
0.0
 10
122.0753648752088
 20
313.0078721709077
 30
0.0
 10
122.6152567655234
 20
312.8212464005125
 30
0.0
 10
123.1672388813578
 20
312.6869250866162
 30
0.0
 10
123.728411446028
 20
312.6059910588875
 30
0.0
 10
124.293629725907
 20
312.5788130927654
 30
0.0
 10
124.8588490082765
 20
312.6059867253022
 30
0.0
 10
125.4200248776034
 20
312.6869239672286
 30
0.0
 10
125.9720047816695
 20
312.8212573912322
 30
0.0
 10
126.5118828223747
 20
313.0078721577468
 30
0.0
 10
127.033813456601
 20
313.245112416363
 30
0.0
 10
127.5585469395619
 20
313.5446521080334
 30
0.0
 10
128.0754689100475
 20
313.9105119715339
 30
0.0
 10
128.537363267343
 20
314.3134623157456
 30
0.0
 10
128.927222950655
 20
314.7202280876564
 30
0.0
 10
129.273594418927
 20
315.1392830988464
 30
0.0
 10
129.6047492416197
 20
315.6067721194246
 30
0.0
 10
129.9077933833755
 20
316.1300142926174
 30
0.0
 10
130.1552109979632
 20
316.6841738391622
 30
0.0
 10
130.3009378959419
 20
317.0629823554298
 30
0.0
 10
130.3738890238084
 20
317.2526145296574
 30
0.0
 11
118.2133716837234
 21
317.2526145296575
 31
0.0
 11
118.4372513154306
 21
316.6856496347419
 31
0.0
 11
118.6900336527154
 21
316.1326176048789
 31
0.0
 11
118.9899220416644
 21
315.6120916497488
 31
0.0
 11
119.3369580719121
 21
315.120325993075
 31
0.0
 11
119.7173287272906
 21
314.6662721836573
 31
0.0
 11
120.1344884701958
 21
314.2464976626263
 31
0.0
 11
120.5803987786718
 21
313.871318805798
 31
0.0
 11
121.0583922899843
 21
313.5376834451746
 31
0.0
 11
121.557491966839
 21
313.2529790820406
 31
0.0
 11
122.0805971812314
 21
313.0154203020403
 31
0.0
 11
122.6177733848116
 21
312.8298086800024
 31
0.0
 11
123.1700439655772
 21
312.6955769345495
 31
0.0
 11
123.7292738164596
 21
312.6149234989737
 31
0.0
 11
124.2936303537659
 21
312.5878716215748
 31
0.0
 11
124.8579853284298
 21
312.6149202296924
 31
0.0
 11
125.4172167419546
 21
312.6955769345494
 31
0.0
 11
125.9694952008743
 21
312.8298185654691
 31
0.0
 11
126.5066635263004
 21
313.0154203020403
 31
0.0
 11
127.0297383298142
 21
313.2529422645822
 31
0.0
 11
127.5288684175476
 21
313.5376834451746
 31
0.0
 11
128.0686139716928
 21
313.9193542116792
 31
0.0
 11
128.5666411155
 21
314.3536783615535
 31
0.0
 11
128.922439112875
 21
314.7243232521856
 31
0.0
 11
129.2503026356197
 21
315.120325993075
 31
0.0
 11
129.5972568054607
 21
315.6120687774288
 31
0.0
 11
129.8972270548164
 21
316.1326176048789
 31
0.0
 11
130.1500371596883
 21
316.6856573931829
 31
0.0
 11
130.3738890238084
 21
317.2526145296574
 31
0.0
  0
ARC
  5
18E
330
45
100
AcDbEntity
  8
1
  6
Continuous
 62
     7
100
AcDbCircle
 10
157.8887401801977
 20
215.3585890452791
 30
0.0
 40
24.99999999999999
100
AcDbArc
 50
-164.9999999999998
 51
-134.9999999999996
  0
ARC
  5
18F
330
45
100
AcDbEntity
  8
1
  6
Continuous
 62
     7
100
AcDbCircle
 10
124.2936303537662
 20
157.1701519400431
 30
0.0
 40
25.0
100
AcDbArc
 50
75.00000000000004
 51
105.0000000000002
  0
ARC
  5
190
330
45
100
AcDbEntity
  8
1
  6
Continuous
 62
     7
100
AcDbCircle
 10
90.69852052733459
 20
215.358589045279
 30
0.0
 40
25.00000000000001
100
AcDbArc
 50
-44.99999999999998
 51
-14.99999999999994
  0
ARC
  5
191
330
45
100
AcDbEntity
  8
1
  6
Continuous
 62
     7
100
AcDbCircle
 10
103.0413777362261
 20
320.5124021939433
 30
0.0
 40
5.999999999999984
100
AcDbArc
 50
-172.0000000000014
 51
-99.80290179376685
  0
ARC
  5
192
330
45
100
AcDbEntity
  8
1
  6
Continuous
 62
     7
100
AcDbCircle
 10
97.14299525915497
 20
322.9624433435337
 30
0.0
 40
0.5
100
AcDbArc
 50
90.0
 51
-171.9999999999771
  0
ARC
  5
193
330
45
100
AcDbEntity
  8
1
  6
Continuous
 62
     7
100
AcDbCircle
 10
151.444265448377
 20
322.9624433435337
 30
0.0
 40
0.5000000000001147
100
AcDbArc
 50
-8.00000000000551
 51
90.0
  0
ARC
  5
194
330
45
100
AcDbEntity
  8
1
  6
Continuous
 62
     7
100
AcDbCircle
 10
145.5458829713061
 20
320.5124021939433
 30
0.0
 40
6.000000000000004
100
AcDbArc
 50
-80.19709820623302
 51
-8.00000000000187
  0
ARC
  5
195
330
45
100
AcDbEntity
  8
1
  6
Continuous
 62
     7
100
AcDbCircle
 10
214.2936303537662
 20
178.037669055608
 30
0.0
 40
0.4999999999999999
100
AcDbArc
 50
-98.00409437169662
 51
0.0
  0
ARC
  5
196
330
45
100
AcDbEntity
  8
1
  6
Continuous
 62
     7
100
AcDbCircle
 10
214.2936303537662
 20
226.3872591399232
 30
0.0
 40
0.5
100
AcDbArc
 50
0.0
 51
97.99999999999398
  0
ARC
  5
197
330
45
100
AcDbEntity
  8
1
  6
Continuous
 62
     7
100
AcDbCircle
 10
210.670016940574
 20
184.1013062143797
 30
0.0
 40
6.000000000000011
100
AcDbArc
 50
-170.4085075173338
 51
-98.00409437170069
  0
ARC
  5
198
330
45
100
AcDbEntity
  8
1
  6
Continuous
 62
     7
100
AcDbCircle
 10
211.843589204176
 20
220.4888766628522
 30
0.0
 40
5.999999999999992
100
AcDbArc
 50
98.00000000000107
 51
170.1970982062318
  0
ENDBLK
  5
47
330
45
100
AcDbEntity
  8
0
100
AcDbBlockEnd
  0
BLOCK
  5
49
330
48
100
AcDbEntity
  8
0
100
AcDbBlockBegin
  2
R20F
 70
     0
 71
     0
 10
202.7936303537663
 20
202.9624433435337
 30
0.0
  3
R20F
  1

  0
LINE
  5
199
330
48
100
AcDbEntity
  8
1
  6
DASH_CENTER
 62
     2
100
AcDbLine
 10
196.7936643353044
 20
195.9624433435337
 30
0.0
 11
202.7936303537662
 21
195.9624433435337
 31
0.0
  0
ENDBLK
  5
4A
330
48
100
AcDbEntity
  8
0
100
AcDbBlockEnd
  0
BLOCK
  5
4C
330
4B
100
AcDbEntity
  8
0
100
AcDbBlockBegin
  2
37-1-13
 70
     0
 71
     0
 10
246.2075894606165
 20
2.59393059809045
 30
0.0
  3
37-1-13
  1

  0
LINE
  5
19A
330
4B
100
AcDbEntity
  8
1
  6
Continuous
 62
     7
100
AcDbLine
 10
111.2936303537662
 20
201.1867348533527
 30
0.0
 11
111.2936303537662
 21
202.3850596328663
 31
0.0
  0
LINE
  5
19B
330
4B
100
AcDbEntity
  8
1
  6
Continuous
 62
     7
100
AcDbLine
 10
126.2692611894877
 20
182.0919673394265
 30
0.0
 11
125.2314814884445
 21
181.4928049496697
 31
0.0
  0
LINE
  5
19C
330
4B
100
AcDbEntity
  8
1
  6
Continuous
 62
     7
100
AcDbLine
 10
135.3179995180449
 20
204.6086278378219
 30
0.0
 11
136.355779219088
 21
204.0094654480651
 31
0.0
  0
LINE
  5
19D
330
4B
100
AcDbEntity
  8
1
  6
Continuous
 62
     7
100
AcDbLine
 10
123.355779219088
 20
181.4928049496697
 30
0.0
 11
122.3179995180448
 21
182.0919673394265
 31
0.0
  0
LINE
  5
19E
330
4B
100
AcDbEntity
  8
1
  6
Continuous
 62
     7
100
AcDbLine
 10
137.2936303537662
 20
202.3850596328663
 30
0.0
 11
137.2936303537662
 21
201.1867348533527
 31
0.0
  0
LINE
  5
19F
330
4B
100
AcDbEntity
  8
1
  6
Continuous
 62
     7
100
AcDbLine
 10
112.2314814884446
 20
204.0094654480651
 30
0.0
 11
113.2692611894876
 21
204.6086278378219
 31
0.0
  0
LINE
  5
1A0
330
4B
100
AcDbEntity
  8
1
  6
Continuous
 62
     7
100
AcDbLine
 10
111.2936303537659
 20
333.4620378410773
 30
0.0
 11
111.2936303537659
 21
340.5327520553486
 31
0.0
  0
LINE
  5
1A1
330
4B
100
AcDbEntity
  8
1
  6
Continuous
 62
     7
100
AcDbLine
 10
137.2936303537659
 20
340.5327520553486
 30
0.0
 11
137.2936303537659
 21
333.4620378410773
 31
0.0
  0
LINE
  5
1A2
330
4B
100
AcDbEntity
  8
1
  6
Continuous
 62
     7
100
AcDbLine
 10
111.2936303537659
 20
340.5327520553486
 30
0.0
 11
124.2936303537659
 21
340.5327520553486
 31
0.0
  0
LINE
  5
1A3
330
4B
100
AcDbEntity
  8
1
  6
Continuous
 62
     7
100
AcDbLine
 10
137.2936303537659
 20
340.5327520553486
 30
0.0
 11
124.2936303537659
 21
340.5327520553486
 31
0.0
  0
LINE
  5
1A4
330
4B
100
AcDbEntity
  8
1
  6
Continuous
 62
     7
100
AcDbLine
 10
118.2936303537659
 20
326.5327520553487
 30
0.0
 11
119.2936303537659
 21
326.5327520553486
 31
0.0
  0
LINE
  5
1A5
330
4B
100
AcDbEntity
  8
1
  6
Continuous
 62
     7
100
AcDbLine
 10
130.2936303537659
 20
326.5327520553486
 30
0.0
 11
124.2936303537659
 21
326.5327520553486
 31
0.0
  0
LINE
  5
1A6
330
4B
100
AcDbEntity
  8
1
  6
Continuous
 62
     7
100
AcDbLine
 10
119.2936303537659
 20
326.5327520553486
 30
0.0
 11
124.2936303537659
 21
326.5327520553486
 31
0.0
  0
LINE
  5
1A7
330
4B
100
AcDbEntity
  8
1
  6
Continuous
 62
     7
100
AcDbLine
 10
224.3639390655811
 20
183.4624433435339
 30
0.0
 11
224.3639390655811
 21
195.9624433435337
 31
0.0
  0
LINE
  5
1A8
330
4B
100
AcDbEntity
  8
1
  6
Continuous
 62
     7
100
AcDbLine
 10
224.3639390655811
 20
195.9624433435337
 30
0.0
 11
224.3639390655811
 21
208.4624433435336
 31
0.0
  0
LINE
  5
1A9
330
4B
100
AcDbEntity
  8
1
  6
Continuous
 62
     7
100
AcDbLine
 10
231.8639390655814
 20
209.0331575578051
 30
0.0
 11
231.8639390655813
 21
182.8917291292623
 31
0.0
  0
LINE
  5
1AA
330
4B
100
AcDbEntity
  8
1
  6
Continuous
 62
     7
100
AcDbLine
 10
217.8639390655813
 20
201.9624433435337
 30
0.0
 11
217.8639390655813
 21
189.9624433435338
 31
0.0
  0
LINE
  5
1AB
330
4B
100
AcDbEntity
  8
1
  6
Continuous
 62
     7
100
AcDbLine
 10
134.2936303537659
 20
333.0327520553486
 30
0.0
 11
113.7936303537663
 21
333.0327520553486
 31
0.0
  0
ARC
  5
1AC
330
4B
100
AcDbEntity
  8
1
  6
Continuous
 62
     7
100
AcDbCircle
 10
124.2936303537662
 20
195.9624433435337
 30
0.0
 40
14.49999999999987
100
AcDbArc
 50
146.2915552747291
 51
153.7084447252705
  0
ARC
  5
1AD
330
4B
100
AcDbEntity
  8
1
  6
Continuous
 62
     7
100
AcDbCircle
 10
124.2936303537662
 20
195.9624433435337
 30
0.0
 40
14.5
100
AcDbArc
 50
-93.70844472527043
 51
-90.0
  0
ARC
  5
1AE
330
4B
100
AcDbEntity
  8
1
  6
Continuous
 62
     7
100
AcDbCircle
 10
124.2936303537662
 20
195.9624433435337
 30
0.0
 40
14.50000000000001
100
AcDbArc
 50
26.29155527472955
 51
33.7084447252705
  0
ARC
  5
1AF
330
4B
100
AcDbEntity
  8
1
  6
Continuous
 62
     7
100
AcDbCircle
 10
124.2936303537662
 20
195.9624433435337
 30
0.0
 40
14.5
100
AcDbArc
 50
-90.0
 51
-86.29155527472919
  0
ARC
  5
1B0
330
4B
100
AcDbEntity
  8
1
  6
Continuous
 62
     7
100
AcDbCircle
 10
114.7936303537659
 20
337.0327520553486
 30
0.0
 40
4.999999999999934
100
AcDbArc
 50
-134.4270040008064
 51
-126.8698976458404
  0
ARC
  5
1B1
330
4B
100
AcDbEntity
  8
1
  6
Continuous
 62
     7
100
AcDbCircle
 10
98.38717514865117
 20
313.1262968502336
 30
0.0
 40
23.99999999999994
100
AcDbArc
 50
33.95919250009808
 51
56.04080749990224
  0
ARC
  5
1B2
330
4B
100
AcDbEntity
  8
1
  6
Continuous
 62
     7
100
AcDbCircle
 10
133.7936303537659
 20
337.0327520553486
 30
0.0
 40
5.0
100
AcDbArc
 50
-53.13010235415598
 51
-45.57299599919357
  0
ARC
  5
1B3
330
4B
100
AcDbEntity
  8
1
  6
Continuous
 62
     7
100
AcDbCircle
 10
150.2000855588809
 20
313.1262968502335
 30
0.0
 40
24.00000000000022
100
AcDbArc
 50
123.9591925000973
 51
146.0408074999021
  0
ARC
  5
1B4
330
4B
100
AcDbEntity
  8
1
  6
Continuous
 62
     7
100
AcDbCircle
 10
204.4574838604663
 20
170.0559881384189
 30
0.0
 40
23.99999999999992
100
AcDbArc
 50
33.9591925000978
 51
56.04080749990236
  0
ARC
  5
1B5
330
4B
100
AcDbEntity
  8
1
  6
Continuous
 62
     7
100
AcDbCircle
 10
228.3639390655813
 20
186.4624433435338
 30
0.0
 40
5.000000000000108
100
AcDbArc
 50
-143.1301023541581
 51
-45.57299599919494
  0
ARC
  5
1B6
330
4B
100
AcDbEntity
  8
1
  6
Continuous
 62
     7
100
AcDbCircle
 10
204.4574838604663
 20
221.8688985486486
 30
0.0
 40
24.00000000000001
100
AcDbArc
 50
-56.04080749990236
 51
-33.9591925000978
  0
ARC
  5
1B7
330
4B
100
AcDbEntity
  8
1
  6
Continuous
 62
     7
100
AcDbCircle
 10
228.3639390655813
 20
205.4624433435337
 30
0.0
 40
5.000000000000076
100
AcDbArc
 50
45.57299599919332
 51
143.1301023541581
  0
SPLINE
  5
1B8
330
4B
100
AcDbEntity
  8
1
  6
Continuous
 62
     7
100
AcDbSpline
210
0.0
220
0.0
230
1.0
 70
     8
 71
     3
 72
    29
 73
    25
 74
    23
 42
0.0000000001
 43
0.0000000001
 44
0.00000001
 40
0.0
 40
0.0
 40
0.0
 40
0.0
 40
0.6069077131759291
 40
1.212222625822729
 40
1.842666707826801
 40
2.474631900595426
 40
3.102420172365428
 40
3.72933389145647
 40
4.271042939833299
 40
4.81298532822137
 40
5.340107980728483
 40
5.866248927280158
 40
6.263874837343334
 40
6.661485236222496
 40
7.280966497569091
 40
7.902596738528184
 40
8.549168915178859
 40
9.195896772489267
 40
9.722415974179366
 40
10.24911841725718
 40
11.07897537274036
 40
11.90732207846658
 40
12.67331709995053
 40
13.44191271185849
 40
13.44191271185849
 40
13.44191271185849
 40
13.44191271185849
 10
224.8639390655811
 20
195.9624433435337
 30
0.0
 10
224.8738144390434
 20
196.1645031730911
 30
0.0
 10
224.8935392685183
 20
196.56809253576
 30
0.0
 10
224.9573296225713
 20
197.1797980860985
 30
0.0
 10
225.0915129198888
 20
197.7892151479884
 30
0.0
 10
225.2919685405732
 20
198.3876213234939
 30
0.0
 10
225.5505296573912
 20
198.9621838553894
 30
0.0
 10
225.8594590471625
 20
199.4770816530611
 30
0.0
 10
226.2132759717374
 20
199.9261005270593
 30
0.0
 10
226.6013006399004
 20
200.3000421295504
 30
0.0
 10
227.0382310436631
 20
200.6070080310105
 30
0.0
 10
227.478445010763
 20
200.8143166885444
 30
0.0
 10
227.9051541314479
 20
200.9302192768151
 30
0.0
 10
228.37606957395
 20
200.9809224817095
 30
0.0
 10
228.9250441669941
 20
200.9204661584316
 30
0.0
 10
229.5227902332141
 20
200.7075189266851
 30
0.0
 10
230.0643924792127
 20
200.3602819893388
 30
0.0
 10
230.5050004473503
 20
199.9389242635063
 30
0.0
 10
230.8548743709873
 20
199.4915107732493
 30
0.0
 10
231.1837847539763
 20
198.9556743873266
 30
0.0
 10
231.4875233756034
 20
198.2907833374131
 30
0.0
 10
231.7122932409462
 20
197.5111222759391
 30
0.0
 10
231.8166800463556
 20
196.7287166576296
 30
0.0
 10
231.8481025251047
 20
196.218156188267
 30
0.0
 10
231.8638403894941
 20
195.9624433435337
 30
0.0
 11
224.8639390655811
 21
195.9624433435337
 31
0.0
 11
224.8991399313433
 21
196.5683293652919
 31
0.0
 11
224.9674969234275
 21
197.1697721847734
 31
0.0
 11
225.1021734092519
 21
197.7856633965145
 31
0.0
 11
225.302238301197
 21
198.3851248580632
 31
0.0
 11
225.5616195394473
 21
198.9568236313833
 31
0.0
 11
225.8858394942253
 21
199.4933888483964
 31
0.0
 11
226.2224486342064
 21
199.9178213871755
 31
0.0
 11
226.6139390655811
 21
200.2925703624561
 31
0.0
 11
227.0462842267996
 21
200.5941262484161
 31
0.0
 11
227.5232866124157
 21
200.8161465622498
 31
0.0
 11
227.9071356425454
 21
200.9199072793928
 31
0.0
 11
228.3025471883597
 21
200.9616653772135
 31
0.0
 11
228.9186516425696
 21
200.8970717655922
 31
0.0
 11
229.5045858128464
 21
200.689453595441
 31
0.0
 11
230.0511874467604
 21
200.344080994586
 31
0.0
 11
230.5211634268408
 21
199.8998068679831
 31
0.0
 11
230.846638074412
 21
199.4859364492084
 31
0.0
 11
231.1235435725916
 21
199.0378976019841
 31
0.0
 11
231.468505660769
 21
198.2831368953465
 31
0.0
 11
231.6971831505153
 21
197.4869805849584
 31
0.0
 11
231.8075032795299
 21
196.7289714543588
 31
0.0
 11
231.8638403894941
 21
195.9624433435337
 31
0.0
  0
SPLINE
  5
1B9
330
4B
100
AcDbEntity
  8
1
  6
Continuous
 62
     7
100
AcDbSpline
210
0.0
220
0.0
230
1.0
 70
    11
 71
     3
 72
    79
 73
    75
 74
    73
 42
0.0000000001
 43
0.0000000001
 44
0.00000001
 40
0.0
 40
0.0
 40
0.0
 40
0.0
 40
0.2803981145479015
 40
0.5607977859032877
 40
0.8427454841468702
 40
1.124697473048668
 40
1.409536451638175
 40
1.694381500885892
 40
1.983071310125313
 40
2.271767843423058
 40
2.564776142201022
 40
2.857790854546536
 40
3.155055698552893
 40
3.452325978931022
 40
3.753284827389777
 40
4.054247742882711
 40
4.3579198069756
 40
4.661594368328832
 40
4.966700748943493
 40
5.2718079698395
 40
5.576915190735422
 40
5.882021571349971
 40
6.185696132703202
 40
6.489368196796118
 40
6.790331112289064
 40
7.091289960747972
 40
7.388560241125989
 40
7.685825085132315
 40
7.978839797477894
 40
8.271848096255919
 40
8.560544629553613
 40
8.849234438792914
 40
9.134079488040591
 40
9.418918466630135
 40
9.700870455531943
 40
9.982818153775538
 40
10.26321782513094
 40
10.54361593967885
 40
10.82401405422664
 40
11.10441372558187
 40
11.38636142382547
 40
11.66831341272725
 40
11.95315239131679
 40
12.23799744056457
 40
12.52668724980389
 40
12.81538378310159
 40
13.10839208187957
 40
13.40140679422517
 40
13.69867163823141
 40
13.99594191860947
 40
14.29690076706836
 40
14.59786368256138
 40
14.9015357466543
 40
15.20521030800753
 40
15.51031668862205
 40
15.81542390951799
 40
16.120531130414
 40
16.42563751102866
 40
16.72931207238188
 40
17.03298413647478
 40
17.33394705196773
 40
17.63490590042654
 40
17.9321761808046
 40
18.22944102481097
 40
18.52245573715645
 40
18.81546403593444
 40
19.10416056923222
 40
19.39285037847162
 40
19.67769542771934
 40
19.96253440630895
 40
20.2444863952107
 40
20.5264340934543
 40
20.80683376480952
 40
21.08723187935731
 40
21.08723187935731
 40
21.08723187935731
 40
21.08723187935731
 10
224.8639390655811
 20
207.2207735927314
 30
0.0
 10
224.8665204514703
 20
207.314274135785
 30
0.0
 10
224.871683237581
 20
207.5012757410194
 30
0.0
 10
224.9131555876298
 20
207.7797601542594
 30
0.0
 10
224.9790557480224
 20
208.0537023506618
 30
0.0
 10
225.0712878572564
 20
208.3216305159972
 30
0.0
 10
225.1883700466155
 20
208.5806763035577
 30
0.0
 10
225.3298463281947
 20
208.8298355977104
 30
0.0
 10
225.4941286741878
 20
209.0661456178883
 30
0.0
 10
225.6805888224043
 20
209.2889206118062
 30
0.0
 10
225.8870132973414
 20
209.4953766441043
 30
0.0
 10
226.1127309917779
 20
209.6849893877448
 30
0.0
 10
226.3550217901267
 20
209.8553885636703
 30
0.0
 10
226.6130792829667
 20
210.0061013712783
 30
0.0
 10
226.8839064864486
 20
210.1353245078036
 30
0.0
 10
227.1664233399451
 20
210.2426041809881
 30
0.0
 10
227.4576113105383
 20
210.3267586845433
 30
0.0
 10
227.7559900834531
 20
210.3874019583744
 30
0.0
 10
228.0587510553334
 20
210.4239357206458
 30
0.0
 10
228.3639390655813
 20
210.4361547513824
 30
0.0
 10
228.6691270758278
 20
210.4239357206458
 30
0.0
 10
228.9718880477124
 20
210.3874019583744
 30
0.0
 10
229.2702668206105
 20
210.3267586845433
 30
0.0
 10
229.5614547912662
 20
210.2426041809881
 30
0.0
 10
229.8439716445311
 20
210.1353245078038
 30
0.0
 10
230.1147988488728
 20
210.0061013712783
 30
0.0
 10
230.3728563385419
 20
209.8553885636704
 30
0.0
 10
230.6151471486374
 20
209.6849893877447
 30
0.0
 10
230.8408647998353
 20
209.4953766441043
 30
0.0
 10
231.0472894348619
 20
209.2889206118062
 30
0.0
 10
231.233748994039
 20
209.0661456178882
 30
0.0
 10
231.3980335217501
 20
208.8298355977103
 30
0.0
 10
231.5395017648198
 20
208.5806763035576
 30
0.0
 10
231.6566137684215
 20
208.3216305159973
 30
0.0
 10
231.7487356868944
 20
208.0537023506618
 30
0.0
 10
231.8150454524621
 20
207.7797601542594
 30
0.0
 10
231.8549971175579
 20
207.5012757410193
 30
0.0
 10
231.868410027181
 20
207.2207735927314
 30
0.0
 10
231.854997117558
 20
206.9402714444436
 30
0.0
 10
231.815045452462
 20
206.6617870312036
 30
0.0
 10
231.7487356868944
 20
206.3878448348013
 30
0.0
 10
231.6566137684214
 20
206.1199166694658
 30
0.0
 10
231.5395017648198
 20
205.8608708819055
 30
0.0
 10
231.39803352175
 20
205.6117115877527
 30
0.0
 10
231.2337489940391
 20
205.3754015675748
 30
0.0
 10
231.0472894348619
 20
205.1526265736567
 30
0.0
 10
230.8408647998353
 20
204.9461705413587
 30
0.0
 10
230.6151471486375
 20
204.7565577977183
 30
0.0
 10
230.3728563385419
 20
204.5861586217927
 30
0.0
 10
230.1147988488728
 20
204.4354458141849
 30
0.0
 10
229.8439716445311
 20
204.3062226776592
 30
0.0
 10
229.5614547912662
 20
204.1989430044748
 30
0.0
 10
229.2702668206104
 20
204.1147885009197
 30
0.0
 10
228.9718880477125
 20
204.0541452270885
 30
0.0
 10
228.6691270758277
 20
204.0176114648173
 30
0.0
 10
228.3639390655813
 20
204.0053924340806
 30
0.0
 10
228.0587510553334
 20
204.0176114648172
 30
0.0
 10
227.7559900834531
 20
204.0541452270885
 30
0.0
 10
227.4576113105383
 20
204.1147885009196
 30
0.0
 10
227.1664233399452
 20
204.1989430044748
 30
0.0
 10
226.8839064864487
 20
204.3062226776594
 30
0.0
 10
226.6130792829667
 20
204.4354458141848
 30
0.0
 10
226.3550217901268
 20
204.5861586217927
 30
0.0
 10
226.1127309917779
 20
204.7565577977182
 30
0.0
 10
225.8870132973414
 20
204.9461705413586
 30
0.0
 10
225.6805888224043
 20
205.1526265736568
 30
0.0
 10
225.4941286741879
 20
205.3754015675748
 30
0.0
 10
225.3298463281946
 20
205.6117115877526
 30
0.0
 10
225.1883700466154
 20
205.8608708819055
 30
0.0
 10
225.0712878572564
 20
206.1199166694658
 30
0.0
 10
224.9790557480225
 20
206.3878448348013
 30
0.0
 10
224.9131555876299
 20
206.6617870312037
 30
0.0
 10
224.8716832375809
 20
206.9402714444436
 30
0.0
 10
224.8665204514703
 20
207.1272730496779
 30
0.0
 10
224.8639390655811
 20
207.2207735927314
 30
0.0
 11
224.8639390655811
 21
207.2207735927314
 31
0.0
 11
224.8772918508792
 21
207.500853591601
 31
0.0
 11
224.9171119300383
 21
207.7784113999797
 31
0.0
 11
224.9833715127622
 21
208.0524628043587
 31
0.0
 11
225.0750148928303
 21
208.3191056646332
 31
0.0
 11
225.1922628931154
 21
208.5786940891692
 31
0.0
 11
225.3328501523354
 21
208.8264276650646
 31
0.0
 11
225.4975473476875
 21
209.0635281496736
 31
0.0
 11
225.6827835146647
 21
209.2849626790085
 31
0.0
 11
225.8898763915799
 21
209.4922460683183
 31
0.0
 11
226.1141824316781
 21
209.6807783520958
 31
0.0
 11
226.3572772623789
 21
209.8518668986694
 31
0.0
 11
226.6139390655811
 21
210.0018480253924
 31
0.0
 11
226.8855272855522
 21
210.1315248052667
 31
0.0
 11
227.1668685639411
 21
210.238416159344
 31
0.0
 11
227.4585860474865
 21
210.3227822206742
 31
0.0
 11
227.7561704437467
 21
210.38329475091
 31
0.0
 11
228.0590761782811
 21
210.419873699473
 31
0.0
 11
228.3639390655811
 21
210.4320817373978
 31
0.0
 11
228.668801952881
 21
210.419873699473
 31
0.0
 11
228.9717076874153
 21
210.38329475091
 31
0.0
 11
229.2692920836755
 21
210.3227822206742
 31
0.0
 11
229.5610095672209
 21
210.238416159344
 31
0.0
 11
229.8423508456099
 21
210.1315248052668
 31
0.0
 11
230.1139390655811
 21
210.0018480253924
 31
0.0
 11
230.3706008687832
 21
209.8518668986694
 31
0.0
 11
230.6136956994839
 21
209.6807783520958
 31
0.0
 11
230.8380017395822
 21
209.4922460683183
 31
0.0
 11
231.0450946164975
 21
209.2849626790085
 31
0.0
 11
231.2303307834745
 21
209.0635281496736
 31
0.0
 11
231.3950279788265
 21
208.8264276650646
 31
0.0
 11
231.5356152380464
 21
208.5786940891692
 31
0.0
 11
231.6528632383316
 21
208.3191056646332
 31
0.0
 11
231.7445066183997
 21
208.0524628043587
 31
0.0
 11
231.8107662011237
 21
207.7784113999797
 31
0.0
 11
231.8505862802829
 21
207.500853591601
 31
0.0
 11
231.8639390655811
 21
207.2207735927314
 31
0.0
 11
231.8505862802829
 21
206.9406935938619
 31
0.0
 11
231.8107662011237
 21
206.6631357854834
 31
0.0
 11
231.7445066183997
 21
206.3890843811044
 31
0.0
 11
231.6528632383316
 21
206.1224415208299
 31
0.0
 11
231.5356152380464
 21
205.862853096294
 31
0.0
 11
231.3950279788265
 21
205.6151195203984
 31
0.0
 11
231.2303307834745
 21
205.3780190357894
 31
0.0
 11
231.0450946164975
 21
205.1565845064545
 31
0.0
 11
230.8380017395822
 21
204.9493011171448
 31
0.0
 11
230.6136956994839
 21
204.7607688333672
 31
0.0
 11
230.3706008687832
 21
204.5896802867937
 31
0.0
 11
230.1139390655811
 21
204.4396991600707
 31
0.0
 11
229.8423508456099
 21
204.3100223801963
 31
0.0
 11
229.5610095672209
 21
204.2031310261189
 31
0.0
 11
229.2692920836755
 21
204.1187649647887
 31
0.0
 11
228.9717076874153
 21
204.0582524345529
 31
0.0
 11
228.6688019528811
 21
204.0216734859899
 31
0.0
 11
228.3639390655811
 21
204.0094654480652
 31
0.0
 11
228.0590761782811
 21
204.0216734859899
 31
0.0
 11
227.7561704437467
 21
204.0582524345529
 31
0.0
 11
227.4585860474865
 21
204.1187649647887
 31
0.0
 11
227.1668685639411
 21
204.2031310261189
 31
0.0
 11
226.8855272855522
 21
204.3100223801963
 31
0.0
 11
226.6139390655811
 21
204.4396991600707
 31
0.0
 11
226.357277262379
 21
204.5896802867937
 31
0.0
 11
226.1141824316781
 21
204.7607688333672
 31
0.0
 11
225.8898763915799
 21
204.9493011171447
 31
0.0
 11
225.6827835146647
 21
205.1565845064545
 31
0.0
 11
225.4975473476875
 21
205.3780190357894
 31
0.0
 11
225.3328501523354
 21
205.6151195203984
 31
0.0
 11
225.1922628931154
 21
205.8628530962939
 31
0.0
 11
225.0750148928303
 21
206.1224415208299
 31
0.0
 11
224.9833715127623
 21
206.3890843811044
 31
0.0
 11
224.9171119300383
 21
206.6631357854834
 31
0.0
 11
224.8772918508792
 21
206.9406935938619
 31
0.0
 11
224.8639390655811
 21
207.2207735927314
 31
0.0
  0
SPLINE
  5
1BA
330
4B
100
AcDbEntity
  8
1
  6
Continuous
 62
     7
100
AcDbSpline
210
0.0
220
0.0
230
1.0
 70
     8
 71
     3
 72
    29
 73
    25
 74
    23
 42
0.0000000001
 43
0.0000000001
 44
0.00000001
 40
0.0
 40
0.0
 40
0.0
 40
0.0
 40
0.6069077131757872
 40
1.212222625822418
 40
1.842666707826462
 40
2.474631900595114
 40
3.102420172365102
 40
3.729333891456153
 40
4.271042939832982
 40
4.812985328221052
 40
5.340107980728166
 40
5.866248927279841
 40
6.263874837343046
 40
6.661485236222217
 40
7.280966497568818
 40
7.902596738527958
 40
8.549168915178617
 40
9.195896772489046
 40
9.722415974179079
 40
10.24911841725679
 40
11.07897537274006
 40
11.90732207846638
 40
12.67331709995018
 40
13.44191271185798
 40
13.44191271185798
 40
13.44191271185798
 40
13.44191271185798
 10
224.8639390655811
 20
195.9624433435337
 30
0.0
 10
224.8738144390434
 20
195.7603835139763
 30
0.0
 10
224.8935392685184
 20
195.3567941513076
 30
0.0
 10
224.9573296225713
 20
194.745088600969
 30
0.0
 10
225.0915129198888
 20
194.1356715390793
 30
0.0
 10
225.2919685405732
 20
193.5372653635739
 30
0.0
 10
225.5505296573912
 20
192.9627028316783
 30
0.0
 10
225.8594590471626
 20
192.4478050340067
 30
0.0
 10
226.2132759717373
 20
191.9987861600083
 30
0.0
 10
226.6013006399004
 20
191.6248445575173
 30
0.0
 10
227.0382310436631
 20
191.3178786560572
 30
0.0
 10
227.4784450107631
 20
191.1105699985233
 30
0.0
 10
227.9051541314479
 20
190.9946674102525
 30
0.0
 10
228.3760695739501
 20
190.943964205358
 30
0.0
 10
228.925044166994
 20
191.0044205286359
 30
0.0
 10
229.5227902332141
 20
191.2173677603826
 30
0.0
 10
230.0643924792127
 20
191.5646046977288
 30
0.0
 10
230.5050004473502
 20
191.9859624235614
 30
0.0
 10
230.8548743709873
 20
192.4333759138184
 30
0.0
 10
231.1837847539762
 20
192.9692122997409
 30
0.0
 10
231.4875233756035
 20
193.6341033496545
 30
0.0
 10
231.7122932409462
 20
194.4137644111286
 30
0.0
 10
231.8166800463555
 20
195.196170029438
 30
0.0
 10
231.8481025251046
 20
195.7067304988004
 30
0.0
 10
231.8638403894941
 20
195.9624433435337
 30
0.0
 11
224.8639390655811
 21
195.9624433435337
 31
0.0
 11
224.8991399313433
 21
195.3565573217756
 31
0.0
 11
224.9674969234275
 21
194.7551145022943
 31
0.0
 11
225.1021734092519
 21
194.1392232905532
 31
0.0
 11
225.302238301197
 21
193.5397618290045
 31
0.0
 11
225.5616195394474
 21
192.9680630556844
 31
0.0
 11
225.8858394942253
 21
192.4314978386713
 31
0.0
 11
226.2224486342064
 21
192.0070652998922
 31
0.0
 11
226.6139390655811
 21
191.6323163246116
 31
0.0
 11
227.0462842267996
 21
191.3307604386516
 31
0.0
 11
227.5232866124157
 21
191.1087401248179
 31
0.0
 11
227.9071356425454
 21
191.0049794076748
 31
0.0
 11
228.3025471883597
 21
190.963221309854
 31
0.0
 11
228.9186516425696
 21
191.0278149214754
 31
0.0
 11
229.5045858128464
 21
191.2354330916267
 31
0.0
 11
230.0511874467604
 21
191.5808056924817
 31
0.0
 11
230.5211634268408
 21
192.0250798190846
 31
0.0
 11
230.846638074412
 21
192.4389502378593
 31
0.0
 11
231.1235435725916
 21
192.8869890850834
 31
0.0
 11
231.468505660769
 21
193.6417497917211
 31
0.0
 11
231.6971831505153
 21
194.4379061021093
 31
0.0
 11
231.8075032795299
 21
195.1959152327088
 31
0.0
 11
231.8638403894941
 21
195.9624433435337
 31
0.0
  0
SPLINE
  5
1BB
330
4B
100
AcDbEntity
  8
1
  6
Continuous
 62
     7
100
AcDbSpline
210
0.0
220
0.0
230
1.0
 70
    11
 71
     3
 72
    79
 73
    75
 74
    73
 42
0.0000000001
 43
0.0000000001
 44
0.00000001
 40
0.0
 40
0.0
 40
0.0
 40
0.0
 40
0.2803981145479015
 40
0.5607977859032033
 40
0.8427454841467992
 40
1.124697473048552
 40
1.409536451638085
 40
1.694381500885777
 40
1.983071310125198
 40
2.271767843422965
 40
2.564776142200929
 40
2.857790854546556
 40
3.15505569855292
 40
3.452325978930996
 40
3.753284827389775
 40
4.054247742882729
 40
4.357919806975633
 40
4.661594368328853
 40
4.966700748943501
 40
5.271807969839505
 40
5.576915190735423
 40
5.882021571349958
 40
6.185696132703178
 40
6.48936819679611
 40
6.790331112289107
 40
7.091289960748002
 40
7.388560241126005
 40
7.685825085132298
 40
7.978839797477969
 40
8.271848096256013
 40
8.560544629553688
 40
8.849234438793028
 40
9.134079488040705
 40
9.418918466630249
 40
9.700870455532057
 40
9.982818153775625
 40
10.26321782513094
 40
10.54361593967885
 40
10.82401405422669
 40
11.10441372558196
 40
11.38636142382553
 40
11.66831341272734
 40
11.95315239131688
 40
12.23799744056466
 40
12.52668724980398
 40
12.81538378310168
 40
13.10839208187968
 40
13.40140679422526
 40
13.69867163823152
 40
13.99594191860956
 40
14.29690076706844
 40
14.59786368256147
 40
14.90153574665436
 40
15.20521030800757
 40
15.51031668862215
 40
15.81542390951805
 40
16.12053113041406
 40
16.42563751102873
 40
16.72931207238194
 40
17.0329841364748
 40
17.33394705196777
 40
17.63490590042656
 40
17.93217618080461
 40
18.22944102481099
 40
18.52245573715647
 40
18.81546403593445
 40
19.10416056923222
 40
19.39285037847164
 40
19.67769542771939
 40
19.96253440630897
 40
20.24448639521072
 40
20.52643409345432
 40
20.80683376480956
 40
21.08723187935741
 40
21.08723187935741
 40
21.08723187935741
 40
21.08723187935741
 10
224.8639390655811
 20
184.7041130943362
 30
0.0
 10
224.8665204514703
 20
184.6106125512827
 30
0.0
 10
224.871683237581
 20
184.4236109460484
 30
0.0
 10
224.9131555876298
 20
184.1451265328082
 30
0.0
 10
224.9790557480226
 20
183.871184336406
 30
0.0
 10
225.0712878572564
 20
183.6032561710704
 30
0.0
 10
225.1883700466154
 20
183.3442103835101
 30
0.0
 10
225.3298463281947
 20
183.0950510893574
 30
0.0
 10
225.4941286741878
 20
182.8587410691795
 30
0.0
 10
225.6805888224043
 20
182.6359660752615
 30
0.0
 10
225.8870132973415
 20
182.4295100429634
 30
0.0
 10
226.1127309917778
 20
182.2398972993227
 30
0.0
 10
226.3550217901268
 20
182.0694981233972
 30
0.0
 10
226.6130792829667
 20
181.9187853157895
 30
0.0
 10
226.8839064864486
 20
181.7895621792638
 30
0.0
 10
227.1664233399452
 20
181.6822825060794
 30
0.0
 10
227.4576113105383
 20
181.5981280025242
 30
0.0
 10
227.7559900834531
 20
181.537484728693
 30
0.0
 10
228.0587510553334
 20
181.5009509664219
 30
0.0
 10
228.3639390655813
 20
181.4887319356852
 30
0.0
 10
228.6691270758277
 20
181.5009509664219
 30
0.0
 10
228.9718880477124
 20
181.537484728693
 30
0.0
 10
229.2702668206104
 20
181.5981280025242
 30
0.0
 10
229.5614547912662
 20
181.6822825060794
 30
0.0
 10
229.8439716445311
 20
181.7895621792639
 30
0.0
 10
230.1147988488728
 20
181.9187853157893
 30
0.0
 10
230.3728563385419
 20
182.0694981233972
 30
0.0
 10
230.6151471486376
 20
182.2398972993228
 30
0.0
 10
230.8408647998353
 20
182.4295100429634
 30
0.0
 10
231.0472894348619
 20
182.6359660752614
 30
0.0
 10
231.2337489940391
 20
182.8587410691796
 30
0.0
 10
231.39803352175
 20
183.0950510893573
 30
0.0
 10
231.5395017648199
 20
183.3442103835102
 30
0.0
 10
231.6566137684214
 20
183.6032561710704
 30
0.0
 10
231.7487356868944
 20
183.8711843364059
 30
0.0
 10
231.8150454524621
 20
184.1451265328083
 30
0.0
 10
231.8549971175579
 20
184.4236109460483
 30
0.0
 10
231.868410027181
 20
184.7041130943362
 30
0.0
 10
231.854997117558
 20
184.9846152426241
 30
0.0
 10
231.815045452462
 20
185.263099655864
 30
0.0
 10
231.7487356868944
 20
185.5370418522663
 30
0.0
 10
231.6566137684214
 20
185.8049700176019
 30
0.0
 10
231.5395017648198
 20
186.0640158051621
 30
0.0
 10
231.3980335217501
 20
186.313175099315
 30
0.0
 10
231.233748994039
 20
186.5494851194929
 30
0.0
 10
231.047289434862
 20
186.772260113411
 30
0.0
 10
230.8408647998353
 20
186.978716145709
 30
0.0
 10
230.6151471486374
 20
187.1683288893494
 30
0.0
 10
230.3728563385419
 20
187.3387280652749
 30
0.0
 10
230.1147988488727
 20
187.4894408728829
 30
0.0
 10
229.8439716445312
 20
187.6186640094084
 30
0.0
 10
229.5614547912662
 20
187.7259436825928
 30
0.0
 10
229.2702668206104
 20
187.8100981861479
 30
0.0
 10
228.9718880477125
 20
187.870741459979
 30
0.0
 10
228.6691270758277
 20
187.9072752222503
 30
0.0
 10
228.3639390655813
 20
187.9194942529873
 30
0.0
 10
228.0587510553334
 20
187.9072752222504
 30
0.0
 10
227.7559900834532
 20
187.8707414599791
 30
0.0
 10
227.4576113105383
 20
187.8100981861479
 30
0.0
 10
227.1664233399451
 20
187.7259436825929
 30
0.0
 10
226.8839064864487
 20
187.6186640094083
 30
0.0
 10
226.6130792829667
 20
187.4894408728829
 30
0.0
 10
226.3550217901267
 20
187.338728065275
 30
0.0
 10
226.1127309917779
 20
187.1683288893495
 30
0.0
 10
225.8870132973414
 20
186.978716145709
 30
0.0
 10
225.6805888224043
 20
186.7722601134109
 30
0.0
 10
225.4941286741878
 20
186.5494851194929
 30
0.0
 10
225.3298463281947
 20
186.3131750993151
 30
0.0
 10
225.1883700466154
 20
186.0640158051622
 30
0.0
 10
225.0712878572564
 20
185.8049700176019
 30
0.0
 10
224.9790557480226
 20
185.5370418522664
 30
0.0
 10
224.9131555876298
 20
185.263099655864
 30
0.0
 10
224.871683237581
 20
184.9846152426241
 30
0.0
 10
224.8665204514703
 20
184.7976136373897
 30
0.0
 10
224.8639390655811
 20
184.7041130943362
 30
0.0
 11
224.8639390655811
 21
184.7041130943362
 31
0.0
 11
224.8772918508792
 21
184.4240330954666
 31
0.0
 11
224.9171119300383
 21
184.146475287088
 31
0.0
 11
224.9833715127623
 21
183.872423882709
 31
0.0
 11
225.0750148928303
 21
183.6057810224345
 31
0.0
 11
225.1922628931154
 21
183.3461925978986
 31
0.0
 11
225.3328501523354
 21
183.0984590220031
 31
0.0
 11
225.4975473476875
 21
182.8613585373941
 31
0.0
 11
225.6827835146647
 21
182.6399240080592
 31
0.0
 11
225.8898763915799
 21
182.4326406187494
 31
0.0
 11
226.1141824316781
 21
182.2441083349717
 31
0.0
 11
226.3572772623789
 21
182.0730197883981
 31
0.0
 11
226.6139390655811
 21
181.9230386616752
 31
0.0
 11
226.8855272855522
 21
181.7933618818009
 31
0.0
 11
227.1668685639411
 21
181.6864705277235
 31
0.0
 11
227.4585860474865
 21
181.6021044663932
 31
0.0
 11
227.7561704437467
 21
181.5415919361575
 31
0.0
 11
228.0590761782811
 21
181.5050129875946
 31
0.0
 11
228.3639390655811
 21
181.4928049496699
 31
0.0
 11
228.668801952881
 21
181.5050129875946
 31
0.0
 11
228.9717076874153
 21
181.5415919361575
 31
0.0
 11
229.2692920836755
 21
181.6021044663932
 31
0.0
 11
229.5610095672209
 21
181.6864705277235
 31
0.0
 11
229.8423508456099
 21
181.7933618818009
 31
0.0
 11
230.1139390655811
 21
181.9230386616752
 31
0.0
 11
230.3706008687832
 21
182.0730197883981
 31
0.0
 11
230.6136956994839
 21
182.2441083349717
 31
0.0
 11
230.8380017395822
 21
182.4326406187494
 31
0.0
 11
231.0450946164975
 21
182.6399240080592
 31
0.0
 11
231.2303307834745
 21
182.8613585373941
 31
0.0
 11
231.3950279788265
 21
183.0984590220031
 31
0.0
 11
231.5356152380464
 21
183.3461925978986
 31
0.0
 11
231.6528632383316
 21
183.6057810224345
 31
0.0
 11
231.7445066183997
 21
183.872423882709
 31
0.0
 11
231.8107662011237
 21
184.146475287088
 31
0.0
 11
231.8505862802829
 21
184.4240330954666
 31
0.0
 11
231.8639390655811
 21
184.7041130943362
 31
0.0
 11
231.8505862802829
 21
184.9841930932058
 31
0.0
 11
231.8107662011237
 21
185.2617509015843
 31
0.0
 11
231.7445066183997
 21
185.5358023059633
 31
0.0
 11
231.6528632383316
 21
185.8024451662378
 31
0.0
 11
231.5356152380464
 21
186.0620335907738
 31
0.0
 11
231.3950279788265
 21
186.3097671666693
 31
0.0
 11
231.2303307834745
 21
186.5468676512783
 31
0.0
 11
231.0450946164975
 21
186.7683021806132
 31
0.0
 11
230.8380017395822
 21
186.975585569923
 31
0.0
 11
230.6136956994839
 21
187.1641178537005
 31
0.0
 11
230.3706008687832
 21
187.335206400274
 31
0.0
 11
230.1139390655811
 21
187.485187526997
 31
0.0
 11
229.8423508456099
 21
187.6148643068714
 31
0.0
 11
229.5610095672209
 21
187.7217556609488
 31
0.0
 11
229.2692920836755
 21
187.8061217222789
 31
0.0
 11
228.9717076874153
 21
187.8666342525146
 31
0.0
 11
228.668801952881
 21
187.9032132010777
 31
0.0
 11
228.3639390655811
 21
187.9154212390025
 31
0.0
 11
228.0590761782811
 21
187.9032132010777
 31
0.0
 11
227.7561704437467
 21
187.8666342525146
 31
0.0
 11
227.4585860474865
 21
187.8061217222789
 31
0.0
 11
227.1668685639411
 21
187.7217556609488
 31
0.0
 11
226.8855272855522
 21
187.6148643068714
 31
0.0
 11
226.6139390655811
 21
187.485187526997
 31
0.0
 11
226.357277262379
 21
187.3352064002741
 31
0.0
 11
226.1141824316781
 21
187.1641178537005
 31
0.0
 11
225.8898763915799
 21
186.975585569923
 31
0.0
 11
225.6827835146647
 21
186.7683021806132
 31
0.0
 11
225.4975473476875
 21
186.5468676512783
 31
0.0
 11
225.3328501523354
 21
186.3097671666693
 31
0.0
 11
225.1922628931154
 21
186.0620335907738
 31
0.0
 11
225.0750148928303
 21
185.8024451662378
 31
0.0
 11
224.9833715127623
 21
185.5358023059633
 31
0.0
 11
224.9171119300383
 21
185.2617509015843
 31
0.0
 11
224.8772918508792
 21
184.9841930932058
 31
0.0
 11
224.8639390655811
 21
184.7041130943362
 31
0.0
  0
SPLINE
  5
1BC
330
4B
100
AcDbEntity
  8
1
  6
Continuous
 62
     7
100
AcDbSpline
210
0.0
220
0.0
230
1.0
 70
    11
 71
     3
 72
    79
 73
    75
 74
    73
 42
0.0000000001
 43
0.0000000001
 44
0.00000001
 40
0.0
 40
0.0
 40
0.0
 40
0.0
 40
0.3102615659794367
 40
0.6205595479395918
 40
0.9422163027419679
 40
1.263944877610487
 40
1.606039025452214
 40
1.948193473341429
 40
2.316051889495181
 40
2.683951052454459
 40
3.079084668228931
 40
3.474244784278604
 40
3.894897963282736
 40
4.315568211551482
 40
4.75745213078339
 40
5.199346678283906
 40
5.65635416602837
 40
6.11336748270118
 40
6.578223041780281
 40
7.043080459895729
 40
7.507937878011062
 40
7.972793437089998
 40
8.429806753762744
 40
8.886814241507164
 40
9.328708789007512
 40
9.770592708239287
 40
10.19126295650807
 40
10.61191613551228
 40
11.00707625156209
 40
11.40220986733671
 40
11.77010903029595
 40
12.13796744644959
 40
12.48012189433876
 40
12.82221604218043
 40
13.14394461704898
 40
13.46560137185127
 40
13.77589935381139
 40
14.08616091979089
 40
14.39642248577039
 40
14.70672046773052
 40
15.02837722253276
 40
15.35010579740114
 40
15.69219994524276
 40
16.03435439313198
 40
16.40221280928576
 40
16.7701119722451
 40
17.16524558801965
 40
17.5604057040694
 40
17.98105888307356
 40
18.4017291313423
 40
18.84361305057411
 40
19.28550759807446
 40
19.74251508581885
 40
20.19952840249164
 40
20.6643839615706
 40
21.1292413796859
 40
21.59409879780138
 40
22.05895435688045
 40
22.51596767355326
 40
22.97297516129775
 40
23.41486970879824
 40
23.85675362803018
 40
24.27742387629886
 40
24.69807705530299
 40
25.09323717135261
 40
25.48837078712711
 40
25.85626995008643
 40
26.22412836624014
 40
26.56628281412939
 40
26.90837696197122
 40
27.23010553683967
 40
27.55176229164195
 40
27.86206027360199
 40
28.17232183958132
 40
28.17232183958132
 40
28.17232183958132
 40
28.17232183958132
 10
125.2314814884443
 20
336.9973949482131
 30
0.0
 10
125.2355146802611
 20
336.8939047637044
 30
0.0
 10
125.243581537278
 20
336.6869122478505
 30
0.0
 10
125.3075655152338
 20
336.3780633785583
 30
0.0
 10
125.4089863121828
 20
336.0760964659067
 30
0.0
 10
125.5514088123467
 20
335.7791868103552
 30
0.0
 10
125.7305113852669
 20
335.4948687023838
 30
0.0
 10
125.9484816532137
 20
335.2193676564006
 30
0.0
 10
126.198763807321
 20
334.960761635984
 30
0.0
 10
126.4852259691458
 20
334.7150037465821
 30
0.0
 10
126.7990567214732
 20
334.4893584865589
 30
0.0
 10
127.1449708865354
 20
334.280586818814
 30
0.0
 10
127.5130896787094
 20
334.0943660506578
 30
0.0
 10
127.9077836136447
 20
333.9286815204064
 30
0.0
 10
128.3193368136309
 20
333.7873737476333
 30
0.0
 10
128.7507625132369
 20
333.6695942591222
 30
0.0
 10
129.1935365419569
 20
333.5774759575362
 30
0.0
 10
129.6485945405589
 20
333.5109900301889
 30
0.0
 10
130.1093616426474
 20
333.4709324733195
 30
0.0
 10
130.5742838180853
 20
333.4575905160635
 30
0.0
 10
131.0392059935193
 20
333.4709324733193
 30
0.0
 10
131.4999730956193
 20
333.510990030189
 30
0.0
 10
131.9550310941793
 20
333.5774759575361
 30
0.0
 10
132.3978051230528
 20
333.6695942591222
 30
0.0
 10
132.8292308221039
 20
333.7873737476331
 30
0.0
 10
133.2407840241128
 20
333.9286815204063
 30
0.0
 10
133.6354779518459
 20
334.0943660506578
 30
0.0
 10
134.0035967700793
 20
334.2805868188138
 30
0.0
 10
134.349510843514
 20
334.489358486559
 30
0.0
 10
134.6633419254634
 20
334.715003746582
 30
0.0
 10
134.9498029379475
 20
334.9607616359839
 30
0.0
 10
135.200089217031
 20
335.2193676564004
 30
0.0
 10
135.418045115047
 20
335.4948687023836
 30
0.0
 10
135.5971994287937
 20
335.7791868103553
 30
0.0
 10
135.7394397801872
 20
336.0760964659067
 30
0.0
 10
135.8415234322313
 20
336.3780633785582
 30
0.0
 10
135.9031166721617
 20
336.6869122478503
 30
0.0
 10
135.9240704756242
 20
336.997394948213
 30
0.0
 10
135.9031166721617
 20
337.3078776485756
 30
0.0
 10
135.8415234322314
 20
337.6167265178678
 30
0.0
 10
135.7394397801871
 20
337.9186934305191
 30
0.0
 10
135.5971994287937
 20
338.2156030860706
 30
0.0
 10
135.418045115047
 20
338.4999211940421
 30
0.0
 10
135.2000892170309
 20
338.7754222400255
 30
0.0
 10
134.9498029379477
 20
339.0340282604423
 30
0.0
 10
134.6633419254634
 20
339.279786149844
 30
0.0
 10
134.349510843514
 20
339.5054314098672
 30
0.0
 10
134.0035967700793
 20
339.7142030776121
 30
0.0
 10
133.6354779518459
 20
339.9004238457679
 30
0.0
 10
133.2407840241127
 20
340.0661083760194
 30
0.0
 10
132.8292308221039
 20
340.2074161487927
 30
0.0
 10
132.3978051230528
 20
340.3251956373036
 30
0.0
 10
131.9550310941793
 20
340.4173139388897
 30
0.0
 10
131.4999730956192
 20
340.4837998662371
 30
0.0
 10
131.0392059935193
 20
340.5238574231065
 30
0.0
 10
130.5742838180853
 20
340.5371993803625
 30
0.0
 10
130.1093616426474
 20
340.5238574231063
 30
0.0
 10
129.6485945405589
 20
340.4837998662371
 30
0.0
 10
129.1935365419569
 20
340.4173139388897
 30
0.0
 10
128.7507625132369
 20
340.3251956373035
 30
0.0
 10
128.3193368136309
 20
340.2074161487928
 30
0.0
 10
127.9077836136448
 20
340.0661083760193
 30
0.0
 10
127.5130896787094
 20
339.9004238457683
 30
0.0
 10
127.1449708865354
 20
339.7142030776121
 30
0.0
 10
126.7990567214731
 20
339.5054314098673
 30
0.0
 10
126.4852259691457
 20
339.2797861498439
 30
0.0
 10
126.1987638073211
 20
339.034028260442
 30
0.0
 10
125.9484816532136
 20
338.7754222400255
 30
0.0
 10
125.7305113852669
 20
338.4999211940422
 30
0.0
 10
125.5514088123467
 20
338.2156030860705
 30
0.0
 10
125.408986312183
 20
337.9186934305192
 30
0.0
 10
125.3075655152337
 20
337.6167265178676
 30
0.0
 10
125.2435815372781
 20
337.3078776485756
 30
0.0
 10
125.2355146802611
 20
337.1008851327218
 30
0.0
 10
125.2314814884443
 20
336.9973949482131
 30
0.0
 11
125.2314814884443
 21
336.9973949482131
 31
0.0
 11
125.2520985816451
 21
336.6878191500765
 31
0.0
 11
125.3126506610432
 21
336.3834866291571
 31
0.0
 11
125.415117549675
 21
336.0785872938936
 31
0.0
 11
125.5536918946038
 21
335.788231603723
 31
0.0
 11
125.7354839389612
 21
335.4984384730316
 31
0.0
 11
125.9472812732175
 21
335.2297163946452
 31
0.0
 11
126.2026377834914
 21
334.9649280508763
 31
0.0
 11
126.4814597827806
 21
334.724911203929
 31
0.0
 11
126.8019517104055
 21
334.4937932716038
 31
0.0
 11
127.1399966795873
 21
334.2891542818505
 31
0.0
 11
127.5151604034315
 21
334.0988879492594
 31
0.0
 11
127.9028826532643
 21
333.9356858819837
 31
0.0
 11
128.3207189777257
 21
333.7919006114017
 31
0.0
 11
128.7469377995403
 21
333.6752459627945
 31
0.0
 11
129.1943277656303
 21
333.5819825610952
 31
0.0
 11
129.6465159299079
 21
333.515747859439
 31
0.0
 11
130.1096191431204
 21
333.4754228706723
 31
0.0
 11
130.5742838180847
 21
333.4620378410773
 31
0.0
 11
131.0389484930489
 21
333.4754228706722
 31
0.0
 11
131.5020517062612
 21
333.515747859439
 31
0.0
 11
131.9542398705388
 21
333.5819825610951
 31
0.0
 11
132.4016298366287
 21
333.6752459627945
 31
0.0
 11
132.8278486584431
 21
333.7919006114016
 31
0.0
 11
133.2456849829044
 21
333.9356858819836
 31
0.0
 11
133.6334072327373
 21
334.0988879492593
 31
0.0
 11
134.0085709565815
 21
334.2891542818504
 31
0.0
 11
134.3466159257635
 21
334.4937932716037
 31
0.0
 11
134.6671078533885
 21
334.724911203929
 31
0.0
 11
134.9459298526777
 21
334.9649280508762
 31
0.0
 11
135.2012863629516
 21
335.229716394645
 31
0.0
 11
135.4130836972077
 21
335.4984384730315
 31
0.0
 11
135.5948757415649
 21
335.7882316037229
 31
0.0
 11
135.7334500864937
 21
336.0785872938936
 31
0.0
 11
135.8359169751255
 21
336.383486629157
 31
0.0
 11
135.8964690545237
 21
336.6878191500763
 31
0.0
 11
135.9170861477246
 21
336.997394948213
 31
0.0
 11
135.8964690545237
 21
337.3069707463498
 31
0.0
 11
135.8359169751255
 21
337.611303267269
 31
0.0
 11
135.7334500864936
 21
337.9162026025323
 31
0.0
 11
135.5948757415649
 21
338.2065582927029
 31
0.0
 11
135.4130836972077
 21
338.4963514233943
 31
0.0
 11
135.2012863629516
 21
338.7650735017808
 31
0.0
 11
134.9459298526778
 21
339.0298618455498
 31
0.0
 11
134.6671078533885
 21
339.2698786924971
 31
0.0
 11
134.3466159257635
 21
339.5009966248223
 31
0.0
 11
134.0085709565815
 21
339.7056356145755
 31
0.0
 11
133.6334072327373
 21
339.8959019471665
 31
0.0
 11
133.2456849829044
 21
340.0591040144421
 31
0.0
 11
132.8278486584431
 21
340.2028892850242
 31
0.0
 11
132.4016298366287
 21
340.3195439336313
 31
0.0
 11
131.9542398705388
 21
340.4128073353307
 31
0.0
 11
131.5020517062612
 21
340.4790420369869
 31
0.0
 11
131.0389484930489
 21
340.5193670257537
 31
0.0
 11
130.5742838180847
 21
340.5327520553486
 31
0.0
 11
130.1096191431203
 21
340.5193670257536
 31
0.0
 11
129.6465159299079
 21
340.4790420369869
 31
0.0
 11
129.1943277656303
 21
340.4128073353307
 31
0.0
 11
128.7469377995403
 21
340.3195439336313
 31
0.0
 11
128.3207189777257
 21
340.2028892850242
 31
0.0
 11
127.9028826532643
 21
340.0591040144421
 31
0.0
 11
127.5151604034315
 21
339.8959019471666
 31
0.0
 11
127.1399966795873
 21
339.7056356145755
 31
0.0
 11
126.8019517104055
 21
339.5009966248223
 31
0.0
 11
126.4814597827806
 21
339.269878692497
 31
0.0
 11
126.2026377834914
 21
339.0298618455497
 31
0.0
 11
125.9472812732175
 21
338.7650735017808
 31
0.0
 11
125.7354839389612
 21
338.4963514233944
 31
0.0
 11
125.5536918946038
 21
338.2065582927029
 31
0.0
 11
125.415117549675
 21
337.9162026025323
 31
0.0
 11
125.3126506610432
 21
337.6113032672689
 31
0.0
 11
125.2520985816451
 21
337.3069707463497
 31
0.0
 11
125.2314814884443
 21
336.9973949482131
 31
0.0
  0
SPLINE
  5
1BD
330
4B
100
AcDbEntity
  8
1
  6
Continuous
 62
     7
100
AcDbSpline
210
0.0
220
0.0
230
1.0
 70
    11
 71
     3
 72
    79
 73
    75
 74
    73
 42
0.0000000001
 43
0.0000000001
 44
0.00000001
 40
0.0
 40
0.0
 40
0.0
 40
0.0
 40
0.3102615659794906
 40
0.6205595479397097
 40
0.9422163027420097
 40
1.263944877610571
 40
1.606039025452245
 40
1.948193473341338
 40
2.316051889495031
 40
2.683951052454363
 40
3.079084668228846
 40
3.474244784278548
 40
3.894897963282667
 40
4.3155682115514
 40
4.75745213078326
 40
5.199346678283733
 40
5.656354166028222
 40
6.113367482701099
 40
6.578223041780044
 40
7.043080459895364
 40
7.507937878010868
 40
7.972793437089931
 40
8.429806753762726
 40
8.886814241507191
 40
9.328708789007498
 40
9.770592708239205
 40
10.19126295650799
 40
10.6119161355122
 40
11.00707625156197
 40
11.40220986733664
 40
11.7701090302959
 40
12.13796744644951
 40
12.48012189433863
 40
12.8222160421803
 40
13.14394461704893
 40
13.46560137185128
 40
13.77589935381136
 40
14.08616091979084
 40
14.39642248577033
 40
14.70672046773041
 40
15.0283772225327
 40
15.35010579740118
 40
15.69219994524288
 40
16.03435439313197
 40
16.40221280928575
 40
16.77011197224508
 40
17.16524558801966
 40
17.56040570406939
 40
17.98105888307355
 40
18.40172913134229
 40
18.84361305057401
 40
19.28550759807434
 40
19.74251508581882
 40
20.19952840249162
 40
20.66438396157068
 40
21.12924137968619
 40
21.59409879780154
 40
22.05895435688045
 40
22.51596767355334
 40
22.97297516129784
 40
23.41486970879829
 40
23.85675362803017
 40
24.27742387629884
 40
24.69807705530298
 40
25.0932371713526
 40
25.48837078712711
 40
25.8562699500864
 40
26.22412836624014
 40
26.56628281412933
 40
26.90837696197104
 40
27.2301055368396
 40
27.55176229164185
 40
27.86206027360178
 40
28.17232183958122
 40
28.17232183958122
 40
28.17232183958122
 40
28.17232183958122
 10
123.3557792190878
 20
336.9973949482131
 30
0.0
 10
123.351746027271
 20
336.8939047637044
 30
0.0
 10
123.3436791702542
 20
336.6869122478506
 30
0.0
 10
123.2796951922984
 20
336.3780633785582
 30
0.0
 10
123.1782743953491
 20
336.0760964659069
 30
0.0
 10
123.0358518951852
 20
335.7791868103552
 30
0.0
 10
122.8567493222651
 20
335.4948687023837
 30
0.0
 10
122.6387790543186
 20
335.2193676564007
 30
0.0
 10
122.3884969002112
 20
334.9607616359839
 30
0.0
 10
122.1020347383865
 20
334.7150037465821
 30
0.0
 10
121.788203986059
 20
334.4893584865589
 30
0.0
 10
121.4422898209969
 20
334.2805868188138
 30
0.0
 10
121.0741710288227
 20
334.0943660506579
 30
0.0
 10
120.6794770938875
 20
333.9286815204064
 30
0.0
 10
120.2679238939014
 20
333.7873737476332
 30
0.0
 10
119.8364981942953
 20
333.6695942591223
 30
0.0
 10
119.3937241655754
 20
333.577475957536
 30
0.0
 10
118.9386661669734
 20
333.5109900301889
 30
0.0
 10
118.477899064885
 20
333.4709324733196
 30
0.0
 10
118.0129768894471
 20
333.4575905160634
 30
0.0
 10
117.5480547140131
 20
333.4709324733195
 30
0.0
 10
117.087287611913
 20
333.5109900301888
 30
0.0
 10
116.6322296133528
 20
333.5774759575362
 30
0.0
 10
116.1894555844793
 20
333.6695942591222
 30
0.0
 10
115.7580298854283
 20
333.7873737476331
 30
0.0
 10
115.3464766834194
 20
333.9286815204064
 30
0.0
 10
114.9517827556863
 20
334.0943660506577
 30
0.0
 10
114.583663937453
 20
334.280586818814
 30
0.0
 10
114.2377498640182
 20
334.4893584865587
 30
0.0
 10
113.9239187820688
 20
334.7150037465821
 30
0.0
 10
113.6374577695846
 20
334.9607616359839
 30
0.0
 10
113.3871714905012
 20
335.2193676564002
 30
0.0
 10
113.1692155924853
 20
335.4948687023837
 30
0.0
 10
112.9900612787386
 20
335.7791868103553
 30
0.0
 10
112.8478209273449
 20
336.0760964659067
 30
0.0
 10
112.7457372753005
 20
336.3780633785581
 30
0.0
 10
112.6841440353705
 20
336.6869122478506
 30
0.0
 10
112.6631902319081
 20
336.9973949482129
 30
0.0
 10
112.6841440353705
 20
337.3078776485758
 30
0.0
 10
112.7457372753005
 20
337.6167265178679
 30
0.0
 10
112.8478209273449
 20
337.9186934305192
 30
0.0
 10
112.9900612787386
 20
338.2156030860705
 30
0.0
 10
113.1692155924853
 20
338.4999211940421
 30
0.0
 10
113.3871714905013
 20
338.7754222400254
 30
0.0
 10
113.6374577695846
 20
339.0340282604423
 30
0.0
 10
113.9239187820688
 20
339.279786149844
 30
0.0
 10
114.2377498640182
 20
339.5054314098672
 30
0.0
 10
114.583663937453
 20
339.7142030776121
 30
0.0
 10
114.9517827556863
 20
339.9004238457681
 30
0.0
 10
115.3464766834195
 20
340.0661083760193
 30
0.0
 10
115.7580298854283
 20
340.2074161487926
 30
0.0
 10
116.1894555844794
 20
340.3251956373036
 30
0.0
 10
116.6322296133528
 20
340.4173139388897
 30
0.0
 10
117.087287611913
 20
340.4837998662371
 30
0.0
 10
117.5480547140131
 20
340.5238574231065
 30
0.0
 10
118.0129768894471
 20
340.5371993803624
 30
0.0
 10
118.477899064885
 20
340.5238574231065
 30
0.0
 10
118.9386661669734
 20
340.4837998662371
 30
0.0
 10
119.3937241655754
 20
340.4173139388898
 30
0.0
 10
119.8364981942954
 20
340.3251956373036
 30
0.0
 10
120.2679238939014
 20
340.2074161487927
 30
0.0
 10
120.6794770938875
 20
340.0661083760194
 30
0.0
 10
121.0741710288228
 20
339.9004238457682
 30
0.0
 10
121.4422898209968
 20
339.7142030776121
 30
0.0
 10
121.7882039860591
 20
339.5054314098673
 30
0.0
 10
122.1020347383864
 20
339.2797861498439
 30
0.0
 10
122.3884969002113
 20
339.0340282604421
 30
0.0
 10
122.6387790543185
 20
338.7754222400254
 30
0.0
 10
122.8567493222652
 20
338.4999211940422
 30
0.0
 10
123.0358518951852
 20
338.2156030860705
 30
0.0
 10
123.1782743953491
 20
337.9186934305191
 30
0.0
 10
123.2796951922983
 20
337.6167265178677
 30
0.0
 10
123.3436791702541
 20
337.3078776485757
 30
0.0
 10
123.351746027271
 20
337.1008851327218
 30
0.0
 10
123.3557792190878
 20
336.9973949482131
 30
0.0
 11
123.3557792190878
 21
336.9973949482131
 31
0.0
 11
123.335162125887
 21
336.6878191500764
 31
0.0
 11
123.2746100464889
 21
336.383486629157
 31
0.0
 11
123.172143157857
 21
336.0785872938936
 31
0.0
 11
123.0335688129281
 21
335.788231603723
 31
0.0
 11
122.8517767685708
 21
335.4984384730316
 31
0.0
 11
122.6399794343147
 21
335.2297163946452
 31
0.0
 11
122.3846229240409
 21
334.9649280508763
 31
0.0
 11
122.1058009247516
 21
334.724911203929
 31
0.0
 11
121.7853089971267
 21
334.4937932716038
 31
0.0
 11
121.4472640279449
 21
334.2891542818504
 31
0.0
 11
121.0721003041007
 21
334.0988879492594
 31
0.0
 11
120.6843780542679
 21
333.9356858819837
 31
0.0
 11
120.2665417298066
 21
333.7919006114017
 31
0.0
 11
119.840322907992
 21
333.6752459627945
 31
0.0
 11
119.3929329419021
 21
333.5819825610951
 31
0.0
 11
118.9407447776243
 21
333.515747859439
 31
0.0
 11
118.477641564412
 21
333.4754228706723
 31
0.0
 11
118.0129768894478
 21
333.4620378410773
 31
0.0
 11
117.5483122144834
 21
333.4754228706722
 31
0.0
 11
117.085209001271
 21
333.515747859439
 31
0.0
 11
116.6330208369934
 21
333.5819825610952
 31
0.0
 11
116.1856308709034
 21
333.6752459627945
 31
0.0
 11
115.759412049089
 21
333.7919006114016
 31
0.0
 11
115.3415757246278
 21
333.9356858819836
 31
0.0
 11
114.9538534747949
 21
334.0988879492593
 31
0.0
 11
114.5786897509507
 21
334.2891542818504
 31
0.0
 11
114.2406447817688
 21
334.4937932716037
 31
0.0
 11
113.9201528541437
 21
334.724911203929
 31
0.0
 11
113.6413308548544
 21
334.9649280508762
 31
0.0
 11
113.3859743445806
 21
335.229716394645
 31
0.0
 11
113.1741770103246
 21
335.4984384730315
 31
0.0
 11
112.9923849659674
 21
335.7882316037229
 31
0.0
 11
112.8538106210384
 21
336.0785872938936
 31
0.0
 11
112.7513437324064
 21
336.383486629157
 31
0.0
 11
112.6907916530084
 21
336.6878191500763
 31
0.0
 11
112.6701745598077
 21
336.997394948213
 31
0.0
 11
112.6907916530084
 21
337.3069707463498
 31
0.0
 11
112.7513437324064
 21
337.611303267269
 31
0.0
 11
112.8538106210384
 21
337.9162026025323
 31
0.0
 11
112.9923849659674
 21
338.2065582927029
 31
0.0
 11
113.1741770103246
 21
338.4963514233943
 31
0.0
 11
113.3859743445806
 21
338.7650735017808
 31
0.0
 11
113.6413308548544
 21
339.0298618455498
 31
0.0
 11
113.9201528541437
 21
339.2698786924971
 31
0.0
 11
114.2406447817687
 21
339.5009966248223
 31
0.0
 11
114.5786897509507
 21
339.7056356145755
 31
0.0
 11
114.9538534747949
 21
339.8959019471665
 31
0.0
 11
115.3415757246278
 21
340.0591040144421
 31
0.0
 11
115.759412049089
 21
340.2028892850241
 31
0.0
 11
116.1856308709034
 21
340.3195439336313
 31
0.0
 11
116.6330208369934
 21
340.4128073353307
 31
0.0
 11
117.085209001271
 21
340.4790420369869
 31
0.0
 11
117.5483122144834
 21
340.5193670257537
 31
0.0
 11
118.0129768894478
 21
340.5327520553486
 31
0.0
 11
118.477641564412
 21
340.5193670257536
 31
0.0
 11
118.9407447776243
 21
340.4790420369869
 31
0.0
 11
119.3929329419021
 21
340.4128073353308
 31
0.0
 11
119.840322907992
 21
340.3195439336313
 31
0.0
 11
120.2665417298066
 21
340.2028892850242
 31
0.0
 11
120.6843780542679
 21
340.0591040144421
 31
0.0
 11
121.0721003041007
 21
339.8959019471666
 31
0.0
 11
121.4472640279449
 21
339.7056356145755
 31
0.0
 11
121.7853089971267
 21
339.5009966248223
 31
0.0
 11
122.1058009247516
 21
339.269878692497
 31
0.0
 11
122.3846229240409
 21
339.0298618455498
 31
0.0
 11
122.6399794343147
 21
338.7650735017808
 31
0.0
 11
122.8517767685708
 21
338.4963514233943
 31
0.0
 11
123.0335688129281
 21
338.2065582927029
 31
0.0
 11
123.172143157857
 21
337.9162026025322
 31
0.0
 11
123.2746100464889
 21
337.6113032672689
 31
0.0
 11
123.335162125887
 21
337.3069707463498
 31
0.0
 11
123.3557792190878
 21
336.9973949482131
 31
0.0
  0
ENDBLK
  5
4D
330
4B
100
AcDbEntity
  8
0
100
AcDbBlockEnd
  0
BLOCK
  5
4F
330
4E
100
AcDbEntity
  8
0
100
AcDbBlockBegin
  2
36-1A-13
 70
     0
 71
     0
 10
294.7132706415362
 20
258.8408606097216
 30
0.0
  3
36-1A-13
  1

  0
LINE
  5
1BE
330
4E
100
AcDbEntity
  8
1
  6
Continuous
 62
     7
100
AcDbLine
 10
217.8639390655813
 20
191.2124433435337
 30
0.0
 11
214.7936303537662
 21
191.2124433435337
 31
0.0
  0
LINE
  5
1BF
330
4E
100
AcDbEntity
  8
1
  6
Continuous
 62
     7
100
AcDbLine
 10
214.7936303537662
 20
200.7124433435337
 30
0.0
 11
217.8639390655813
 21
200.7124433435337
 31
0.0
  0
LINE
  5
1C0
330
4E
100
AcDbEntity
  8
1
  6
Continuous
 62
     7
100
AcDbLine
 10
129.0436303537659
 20
326.5327520553486
 30
0.0
 11
129.0436303537659
 21
323.4624433435338
 31
0.0
  0
LINE
  5
1C1
330
4E
100
AcDbEntity
  8
1
  6
Continuous
 62
     7
100
AcDbLine
 10
119.5436303537659
 20
323.4624433435338
 30
0.0
 11
119.5436303537659
 21
326.5327520553486
 31
0.0
  0
ENDBLK
  5
50
330
4E
100
AcDbEntity
  8
0
100
AcDbBlockEnd
  0
BLOCK
  5
57
330
51
100
AcDbEntity
  8
0
100
AcDbBlockBegin
  2
R10A-13
 70
     0
 71
     0
 10
236.2936303537663
 20
210.4624433435336
 30
0.0
  3
R10A-13
  1

  0
INSERT
  5
52
330
51
100
AcDbEntity
  8
1
100
AcDbBlockReference
  2
42-1
 10
239.3161993327445
 20
85.65700450626544
 30
0.0
  0
INSERT
  5
53
330
51
100
AcDbEntity
  8
0
100
AcDbBlockReference
  2
21-1A
 10
255.3537260787576
 20
80.52002242339843
 30
0.0
  0
INSERT
  5
54
330
51
100
AcDbEntity
  8
1
100
AcDbBlockReference
  2
R20F
 10
202.7936303537663
 20
202.9624433435337
 30
0.0
  0
INSERT
  5
55
330
51
100
AcDbEntity
  8
1
100
AcDbBlockReference
  2
37-1-13
 10
246.2075894606165
 20
2.59393059809045
 30
0.0
  0
INSERT
  5
56
330
51
100
AcDbEntity
  8
1
100
AcDbBlockReference
  2
36-1A-13
 10
294.7132706415362
 20
258.8408606097216
 30
0.0
  0
LINE
  5
1C2
330
51
100
AcDbEntity
  8
1
  6
DASH_CENTER
 62
     2
100
AcDbLine
 10
202.7936303537662
 20
195.9624433435337
 30
0.0
 11
218.1192999062345
 21
195.9624433435337
 31
0.0
  0
ENDBLK
  5
58
330
51
100
AcDbEntity
  8
0
100
AcDbBlockEnd
  0
BLOCK
  5
1DD
330
1D6
100
AcDbEntity
  8
0
100
AcDbBlockBegin
  2
*D011
 70
     1
 71
     0
 10
0.0
 20
0.0
 30
0.0
  3
*D011
  1

  0
LINE
  5
1D7
330
1D6
100
AcDbEntity
  8
1
  6
Continuous
 62
     2
100
AcDbLine
 10
101.2936303537662
 20
91.96244334353365
 30
0.0
 11
147.2936303537662
 21
91.96244334353365
 31
0.0
  0
LINE
  5
1D8
330
1D6
100
AcDbEntity
  8
1
  6
Continuous
 62
     2
100
AcDbLine
 10
101.2936303537662
 20
120.9624433435337
 30
0.0
 11
101.2936303537662
 21
90.46244334353365
 31
0.0
  0
LINE
  5
1D9
330
1D6
100
AcDbEntity
  8
1
  6
Continuous
 62
     2
100
AcDbLine
 10
147.2936303537662
 20
120.9624433435337
 30
0.0
 11
147.2936303537662
 21
90.46244334353365
 31
0.0
  0
SOLID
  5
1DA
330
1D6
100
AcDbEntity
  8
1
 62
     2
100
AcDbTrace
 10
106.5436303537662
 20
92.65361895586747
 30
0.0
 11
106.5436303537662
 21
91.27126773119983
 31
0.0
 12
101.2936303537662
 22
91.96244334353365
 32
0.0
 13
101.2936303537662
 23
91.96244334353365
 33
0.0
  0
SOLID
  5
1DB
330
1D6
100
AcDbEntity
  8
1
 62
     2
100
AcDbTrace
 10
142.0436303537662
 20
91.27126773119983
 30
0.0
 11
142.0436303537662
 21
92.65361895586747
 31
0.0
 12
147.2936303537662
 22
91.96244334353365
 32
0.0
 13
147.2936303537662
 23
91.96244334353365
 33
0.0
  0
MTEXT
  5
1DC
330
1D6
100
AcDbEntity
  8
1
 62
     7
100
AcDbMText
 10
114.8961303537915
 20
93.46242247230468
 30
0.0
 40
5.25
 41
0.0
 71
     7
 72
     1
  1
\C7;{\Fgdt;n}\C7;46
  7
CONVERTER_2
 11
0.9999999999970621
 21
2.424068405545307E-6
 31
0.0
 73
     1
 44
0.60024009603842
  0
ENDBLK
  5
1DE
330
1D6
100
AcDbEntity
  8
0
100
AcDbBlockEnd
  0
BLOCK
  5
1E8
330
1E1
100
AcDbEntity
  8
0
100
AcDbBlockBegin
  2
*D112
 70
     1
 71
     0
 10
0.0
 20
0.0
 30
0.0
  3
*D112
  1

  0
LINE
  5
1E2
330
1E1
100
AcDbEntity
  8
1
  6
Continuous
 62
     2
100
AcDbLine
 10
257.2936303537662
 20
276.7946029097329
 30
0.0
 11
199.7936303537663
 21
276.7946029097329
 31
0.0
  0
LINE
  5
1E3
330
1E1
100
AcDbEntity
  8
1
  6
Continuous
 62
     2
100
AcDbLine
 10
257.2936303537662
 20
264.7946029097329
 30
0.0
 11
257.2936303537662
 21
278.2946029097329
 31
0.0
  0
LINE
  5
1E4
330
1E1
100
AcDbEntity
  8
1
  6
Continuous
 62
     2
100
AcDbLine
 10
199.7936303537663
 20
195.9624433435337
 30
0.0
 11
199.7936303537663
 21
278.2946029097329
 31
0.0
  0
SOLID
  5
1E5
330
1E1
100
AcDbEntity
  8
1
 62
     2
100
AcDbTrace
 10
252.0436303537662
 20
276.103427297399
 30
0.0
 11
252.0436303537662
 21
277.4857785220667
 31
0.0
 12
257.2936303537662
 22
276.7946029097329
 32
0.0
 13
257.2936303537662
 23
276.7946029097329
 33
0.0
  0
SOLID
  5
1E6
330
1E1
100
AcDbEntity
  8
1
 62
     2
100
AcDbTrace
 10
205.0436303537663
 20
277.4857785220667
 30
0.0
 11
205.0436303537663
 21
276.103427297399
 31
0.0
 12
199.7936303537663
 22
276.7946029097329
 32
0.0
 13
199.7936303537663
 23
276.7946029097329
 33
0.0
  0
MTEXT
  5
1E7
330
1E1
100
AcDbEntity
  8
1
 62
     7
100
AcDbMText
 10
214.3686303537662
 20
278.2946029097329
 30
0.0
 40
5.25
 41
0.0
 71
     7
 72
     1
  1
58リフト5
  7
CONVERTER_1
 11
0.9999999999970621
 21
2.424068405545307E-6
 31
0.0
 73
     1
 44
0.60024009603842
  0
ENDBLK
  5
1E9
330
1E1
100
AcDbEntity
  8
0
100
AcDbBlockEnd
  0
BLOCK
  5
1F3
330
1EC
100
AcDbEntity
  8
0
100
AcDbBlockBegin
  2
*D213
 70
     1
 71
     0
 10
0.0
 20
0.0
 30
0.0
  3
*D213
  1

  0
LINE
  5
1ED
330
1EC
100
AcDbEntity
  8
1
  6
Continuous
 62
     2
100
AcDbLine
 10
181.7936643353044
 20
120.9624433435337
 30
0.0
 11
181.7936643353044
 21
195.9624433435337
 31
0.0
  0
LINE
  5
1EE
330
1EC
100
AcDbEntity
  8
1
  6
Continuous
 62
     2
100
AcDbLine
 10
234.2936303537661
 20
120.9624433435337
 30
0.0
 11
180.2936643353044
 21
120.9624433435337
 31
0.0
  0
LINE
  5
1EF
330
1EC
100
AcDbEntity
  8
1
  6
Continuous
 62
     2
100
AcDbLine
 10
196.7936643353044
 20
195.9624433435337
 30
0.0
 11
180.2936643353044
 21
195.9624433435337
 31
0.0
  0
SOLID
  5
1F0
330
1EC
100
AcDbEntity
  8
1
 62
     2
100
AcDbTrace
 10
181.1024887229706
 20
126.2124433435337
 30
0.0
 11
182.4848399476383
 21
126.2124433435337
 31
0.0
 12
181.7936643353044
 22
120.9624433435337
 32
0.0
 13
181.7936643353044
 23
120.9624433435337
 33
0.0
  0
SOLID
  5
1F1
330
1EC
100
AcDbEntity
  8
1
 62
     2
100
AcDbTrace
 10
182.4848399476383
 20
190.7124433435337
 30
0.0
 11
181.1024887229706
 21
190.7124433435337
 31
0.0
 12
181.7936643353044
 22
195.9624433435337
 32
0.0
 13
181.7936643353044
 23
195.9624433435337
 33
0.0
  0
MTEXT
  5
1F2
330
1EC
100
AcDbEntity
  8
1
 62
     7
100
AcDbMText
 10
180.2936643353044
 20
154.5249433435336
 30
0.0
 40
5.25
 41
0.0
 71
     7
 72
     1
  1
75
  7
CONVERTER_2
 11
0.0
 21
1.0
 31
0.0
 73
     1
 44
0.60024009603842
  0
ENDBLK
  5
1F4
330
1EC
100
AcDbEntity
  8
0
100
AcDbBlockEnd
  0
BLOCK
  5
1FE
330
1F7
100
AcDbEntity
  8
0
100
AcDbBlockBegin
  2
*D314
 70
     1
 71
     0
 10
0.0
 20
0.0
 30
0.0
  3
*D314
  1

  0
LINE
  5
1F8
330
1F7
100
AcDbEntity
  8
1
  6
Continuous
 62
     2
100
AcDbLine
 10
166.9318565986582
 20
261.7946029097329
 30
0.0
 11
166.9318565986582
 21
120.9624433435337
 31
0.0
  0
LINE
  5
1F9
330
1F7
100
AcDbEntity
  8
1
  6
Continuous
 62
     2
100
AcDbLine
 10
147.2936303537662
 20
120.9624433435337
 30
0.0
 11
168.4318565986582
 21
120.9624433435337
 31
0.0
  0
LINE
  5
1FA
330
1F7
100
AcDbEntity
  8
1
  6
Continuous
 62
     2
100
AcDbLine
 10
126.2936303537662
 20
261.7946029097329
 30
0.0
 11
168.4318565986582
 21
261.7946029097329
 31
0.0
  0
SOLID
  5
1FB
330
1F7
100
AcDbEntity
  8
1
 62
     2
100
AcDbTrace
 10
167.623032210992
 20
256.5446029097329
 30
0.0
 11
166.2406809863244
 21
256.5446029097329
 31
0.0
 12
166.9318565986582
 22
261.7946029097329
 32
0.0
 13
166.9318565986582
 23
261.7946029097329
 33
0.0
  0
SOLID
  5
1FC
330
1F7
100
AcDbEntity
  8
1
 62
     2
100
AcDbTrace
 10
166.2406809863244
 20
126.2124433435337
 30
0.0
 11
167.623032210992
 21
126.2124433435337
 31
0.0
 12
166.9318565986582
 22
120.9624433435337
 32
0.0
 13
166.9318565986582
 23
120.9624433435337
 33
0.0
  0
MTEXT
  5
1FD
330
1F7
100
AcDbEntity
  8
1
 62
     7
100
AcDbMText
 10
165.4318565986582
 20
186.6535226688209
 30
0.0
 40
5.25
 41
0.0
 71
     7
 72
     1
  1
141
  7
CONVERTER_2
 11
0.0
 21
1.0
 31
0.0
 73
     1
 44
0.60024009603842
  0
ENDBLK
  5
1FF
330
1F7
100
AcDbEntity
  8
0
100
AcDbBlockEnd
  0
BLOCK
  5
20B
330
202
100
AcDbEntity
  8
0
100
AcDbBlockBegin
  2
*D415
 70
     1
 71
     0
 10
0.0
 20
0.0
 30
0.0
  3
*D415
  1

  0
LINE
  5
203
330
202
100
AcDbEntity
  8
1
  6
Continuous
 62
     2
100
AcDbLine
 10
166.9432121873626
 20
131.4624433435337
 30
0.0
 11
166.9432121873626
 21
120.9624433435337
 31
0.0
  0
LINE
  5
204
330
202
100
AcDbEntity
  8
1
  6
Continuous
 62
     2
100
AcDbLine
 10
166.9432121873626
 20
120.9624433435337
 30
0.0
 11
166.9432121873626
 21
106.9624433435337
 31
0.0
  0
LINE
  5
205
330
202
100
AcDbEntity
  8
1
  6
Continuous
 62
     2
100
AcDbLine
 10
166.9432121873626
 20
106.9624433435337
 30
0.0
 11
166.9432121873626
 21
96.46244334353366
 31
0.0
  0
LINE
  5
206
330
202
100
AcDbEntity
  8
1
  6
Continuous
 62
     2
100
AcDbLine
 10
133.7936303537662
 20
106.9624433435337
 30
0.0
 11
168.4432121873626
 21
106.9624433435337
 31
0.0
  0
LINE
  5
207
330
202
100
AcDbEntity
  8
1
  6
Continuous
 62
     2
100
AcDbLine
 10
147.2936303537662
 20
120.9624433435337
 30
0.0
 11
168.4432121873626
 21
120.9624433435337
 31
0.0
  0
SOLID
  5
208
330
202
100
AcDbEntity
  8
1
 62
     2
100
AcDbTrace
 10
166.2520365750288
 20
126.2124433435337
 30
0.0
 11
167.6343877996964
 21
126.2124433435337
 31
0.0
 12
166.9432121873626
 22
120.9624433435337
 32
0.0
 13
166.9432121873626
 23
120.9624433435337
 33
0.0
  0
SOLID
  5
209
330
202
100
AcDbEntity
  8
1
 62
     2
100
AcDbTrace
 10
167.6343877996964
 20
101.7124433435337
 30
0.0
 11
166.2520365750288
 21
101.7124433435337
 31
0.0
 12
166.9432121873626
 22
106.9624433435337
 32
0.0
 13
166.9432121873626
 23
106.9624433435337
 33
0.0
  0
MTEXT
  5
20A
330
202
100
AcDbEntity
  8
1
 62
     7
100
AcDbMText
 10
165.4432121873626
 20
110.8124479488691
 30
0.0
 40
5.25
 41
0.0
 71
     7
 72
     1
  1
14
  7
CONVERTER_2
 11
0.0
 21
1.0
 31
0.0
 73
     1
 44
0.60024009603842
  0
ENDBLK
  5
20C
330
202
100
AcDbEntity
  8
0
100
AcDbBlockEnd
  0
ENDSEC
  0
SECTION
  2
ENTITIES
  0
INSERT
  5
59
330
1F
100
AcDbEntity
  8
1
100
AcDbBlockReference
  2
_J__A4
 10
0.0
 20
0.0
 30
0.0
 41
1.5
 42
1.5
 43
1.5
  0
INSERT
  5
5A
330
1F
100
AcDbEntity
  8
0
100
AcDbBlockReference
  2
Y26-0
 10
178.3314023969054
 20
161.3523160762942
 30
0.0
  0
INSERT
  5
5B
330
1F
100
AcDbEntity
  8
1
100
AcDbBlockReference
  2
38-12A
 10
340.7994496345584
 20
165.604310268103
 30
0.0
  0
INSERT
  5
5C
330
1F
100
AcDbEntity
  8
0
100
AcDbBlockReference
  2
V821F-1-13
 10
146.3663533043334
 20
207.22156786652
 30
0.0
  0
INSERT
  5
5D
330
1F
100
AcDbEntity
  8
1
100
AcDbBlockReference
  2
R10A-13
 10
236.2936303537663
 20
210.4624433435336
 30
0.0
  0
LINE
  5
1C3
330
1F
100
AcDbEntity
  8
1
  6
DASH_CENTER
 62
     2
100
AcDbLine
 10
124.2936303537662
 20
103.9246368117806
 30
0.0
 11
124.2936303537662
 21
265.2946029097329
 31
0.0
  0
LINE
  5
1C4
330
1F
100
AcDbEntity
  8
1
  6
DASH_CENTER
 62
     2
100
AcDbLine
 10
257.2936303537662
 20
103.9246368117806
 30
0.0
 11
257.2936303537662
 21
220.162132356828
 31
0.0
  0
LINE
  5
1C5
330
1F
100
AcDbEntity
  8
1
  6
DASH_CENTER
 62
     2
100
AcDbLine
 10
139.9649347565568
 20
205.0102751590374
 30
0.0
 11
94.81991898633457
 21
178.9457881515298
 31
0.0
  0
LINE
  5
1C6
330
1F
100
AcDbEntity
  8
1
  6
DASH_CENTER
 62
     2
100
AcDbLine
 10
153.7591316670282
 20
178.9505282285146
 30
0.0
 11
110.5475338425251
 21
203.8987558646054
 31
0.0
  0
LINE
  5
1C7
330
1F
100
AcDbEntity
  8
1
  6
DASH_CENTER
 62
     2
100
AcDbLine
 10
134.2936303537661
 20
195.9624433435337
 30
0.0
 11
114.2936303537661
 21
195.9624433435337
 31
0.0
  0
LINE
  5
1C8
330
1F
100
AcDbEntity
  8
1
  6
DASH_CENTER
 62
     2
100
AcDbLine
 10
243.233414526428
 20
249.9624433435337
 30
0.0
 11
272.3889540947735
 21
249.9624433435337
 31
0.0
  0
LINE
  5
1C9
330
1F
100
AcDbEntity
  8
1
  6
DASH_CENTER
 62
     2
100
AcDbLine
 10
110.2334145264281
 20
249.9624433435337
 30
0.0
 11
139.3889540947735
 21
249.9624433435337
 31
0.0
  0
LINE
  5
1CA
330
1F
100
AcDbEntity
  8
1
  6
DASH_CENTER
 62
     2
100
AcDbLine
 10
218.5490898705065
 20
195.9624433435337
 30
0.0
 11
262.1868133441983
 21
195.9624433435337
 31
0.0
  0
LINE
  5
1CB
330
1F
100
AcDbEntity
  8
1
  6
DASH_CENTER
 62
     2
100
AcDbLine
 10
124.2936303537661
 20
305.9022275161957
 30
0.0
 11
124.2936303537662
 21
392.0577670845412
 31
0.0
  0
LINE
  5
1CC
330
1F
100
AcDbEntity
  8
1
  6
DASH_CENTER
 62
     2
100
AcDbLine
 10
150.4854986158078
 20
365.9624433435338
 30
0.0
 11
96.1735263914516
 21
365.9624433435338
 31
0.0
  0
SOLID
  5
1CD
330
1F
100
AcDbEntity
  8
1
 62
     2
100
AcDbTrace
 10
244.7672059925235
 20
109.5702221674984
 30
0.0
 11
243.5700547150088
 21
110.2613977798322
 31
0.0
 12
246.7936303537662
 22
114.4624433435336
 32
0.0
 13
246.7936303537662
 23
114.4624433435336
 33
0.0
  0
LEADER
  5
1CE
330
1F
100
AcDbEntity
  8
1
  6
Continuous
 62
     2
100
AcDbLeader
  3
Standard
 71
     0
 76
     3
 10
246.7936303537662
 20
114.4624433435336
 30
0.0
 10
230.6004534866604
 20
86.41503827375743
 30
0.0
 10
208.416158561045
 20
86.41503827375743
 30
0.0
  0
MTEXT
  5
1D0
330
1F
100
AcDbEntity
  8
1
 62
     7
100
AcDbMText
 10
140.625
 20
25.5
 30
0.0
 40
5.25
 41
0.0
 71
     5
 72
     1
  1
1,5
  7
CONVERTER_2
 73
     1
 44
0.7202881152461
  0
MTEXT
  5
1D1
330
1F
100
AcDbEntity
  8
1
 62
     7
100
AcDbMText
 10
127.875
 20
25.5
 30
0.0
 40
5.25
 41
0.0
 71
     5
 72
     1
  1
1
  7
CONVERTER_2
 73
     1
 44
0.7202881152461
  0
MTEXT
  5
1D2
330
1F
100
AcDbEntity
  8
1
 62
     7
100
AcDbMText
 10
51.0
 20
51.00000000000001
 30
0.0
 40
5.25
 41
0.0
 71
     4
 72
     1
  1
JIS
  7
CONVERTER_2
 73
     1
 44
0.7202881152461
  0
MTEXT
  5
1D3
330
1F
100
AcDbEntity
  8
0
 62
     7
100
AcDbMText
 10
85.5
 20
34.12500000000001
 30
0.0
 40
5.25
 41
0.0
 71
     5
 72
     1
  1
立形水飲水栓
  7
CONVERTER_1
 73
     1
 44
1.32052821128451
  0
MTEXT
  5
1D4
330
1F
100
AcDbEntity
  8
0
 62
     7
100
AcDbMText
 10
85.5
 20
21.375
 30
0.0
 40
5.25
 41
0.0
 71
     5
 72
     1
  1
Y56A-13
  7
CONVERTER_2
 73
     1
 44
0.90036014405762
  0
MTEXT
  5
1D5
330
1F
100
AcDbEntity
  8
1
 62
     7
100
AcDbMText
 10
219.5083060238527
 20
90.91503827375755
 30
0.0
 40
5.25
 41
0.0
 71
     5
 72
     1
  1
PJ1/2
  7
CONVERTER_2
 73
     1
 44
1.32052821128451
  0
DIMENSION
  5
1E0
330
1F
100
AcDbEntity
  8
1
100
AcDbDimension
  2
*D011
 10
101.2936303537662
 20
91.96244334353365
 30
0.0
 11
124.2936303537662
 21
96.08744334353365
 31
0.0
  1
<>
 71
     5
 42
0.0
 53
0.00013888888889
  3
ME10_DIM_0
100
AcDbAlignedDimension
 13
147.2936303537662
 23
120.9624433435337
 33
0.0
 14
101.2936303537662
 24
120.9624433435337
 34
0.0
100
AcDbRotatedDimension
  0
DIMENSION
  5
1EB
330
1F
100
AcDbEntity
  8
1
100
AcDbDimension
  2
*D112
 10
257.2936303537662
 20
276.7946029097329
 30
0.0
 11
228.5436303537662
 21
280.9196029097329
 31
0.0
  1
58リフト5
 71
     5
 42
0.0
 53
0.00013888888889
  3
ME10_DIM_1
100
AcDbAlignedDimension
 13
199.7936303537662
 23
195.9624433435337
 33
0.0
 14
257.2936303537662
 24
264.7946029097329
 34
0.0
100
AcDbRotatedDimension
  0
DIMENSION
  5
1F6
330
1F
100
AcDbEntity
  8
1
100
AcDbDimension
  2
*D213
 10
181.7936643353044
 20
120.9624433435337
 30
0.0
 11
177.6686643353044
 21
158.4624433435336
 31
0.0
  1
<>
 71
     5
 42
0.0
 53
90.0
  3
ME10_DIM_2
100
AcDbAlignedDimension
 13
196.7936643353044
 23
195.9624433435337
 33
0.0
 14
234.2936303537661
 24
120.9624433435337
 34
0.0
 50
90.0
100
AcDbRotatedDimension
  0
DIMENSION
  5
201
330
1F
100
AcDbEntity
  8
1
100
AcDbDimension
  2
*D314
 10
166.9318565986582
 20
261.7946029097329
 30
0.0
 11
162.8068565986582
 21
191.3785226688209
 31
0.0
  1
141
 71
     5
 42
0.0
 53
90.0
  3
ME10_DIM_3
100
AcDbAlignedDimension
 13
147.2936303537662
 23
120.9624433435337
 33
0.0
 14
126.2936303537662
 24
261.7946029097329
 34
0.0
 50
90.0
100
AcDbRotatedDimension
  0
DIMENSION
  5
20E
330
1F
100
AcDbEntity
  8
1
100
AcDbDimension
  2
*D415
 10
166.9432121873626
 20
120.9624433435337
 30
0.0
 11
162.8182121873626
 21
113.9624479488691
 31
0.0
  1
<>
 71
     5
 42
0.0
 53
90.0
  3
ME10_DIM_4
100
AcDbAlignedDimension
 13
133.7936303537662
 23
106.9624433435337
 33
0.0
 14
147.2936303537662
 24
120.9624433435337
 34
0.0
 50
90.0
100
AcDbRotatedDimension
  0
ENDSEC
  0
SECTION
  2
OBJECTS
  0
DICTIONARY
  5
C
330
0
100
AcDbDictionary
281
     1
  3
ACAD_GROUP
350
D
  3
ACAD_LAYOUT
350
1A
  3
ACAD_MLINESTYLE
350
17
  3
ACAD_PLOTSETTINGS
350
19
  3
ACAD_PLOTSTYLENAME
350
E
  3
ACAD_TABLESTYLE
350
2A
  3
AcDbVariableDictionary
350
2C
  0
DICTIONARY
  5
D
102
{ACAD_REACTORS
330
C
102
}
330
C
100
AcDbDictionary
281
     1
  0
DICTIONARY
  5
1A
102
{ACAD_REACTORS
330
C
102
}
330
C
100
AcDbDictionary
281
     1
  3
Layout1
350
1E
  3
Layout2
350
26
  3
Model
350
22
  0
DICTIONARY
  5
17
102
{ACAD_REACTORS
330
C
102
}
330
C
100
AcDbDictionary
281
     1
  3
Standard
350
18
  0
DICTIONARY
  5
19
102
{ACAD_REACTORS
330
C
102
}
330
C
100
AcDbDictionary
281
     1
  0
ACDBDICTIONARYWDFLT
  5
E
102
{ACAD_REACTORS
330
C
102
}
330
C
100
AcDbDictionary
281
     1
  3
Normal
350
F
100
AcDbDictionaryWithDefault
340
F
  0
DICTIONARY
  5
2A
102
{ACAD_REACTORS
330
C
102
}
330
C
100
AcDbDictionary
281
     1
  3
Standard
350
2B
  0
DICTIONARY
  5
2C
102
{ACAD_REACTORS
330
C
102
}
330
C
100
AcDbDictionary
281
     1
  3
CTABLESTYLE
350
2D
  0
LAYOUT
  5
1E
102
{ACAD_REACTORS
330
1A
102
}
330
1A
100
AcDbPlotSettings
  1

  2

  4

  6

 40
0.0
 41
0.0
 42
0.0
 43
0.0
 44
0.0
 45
0.0
 46
0.0
 47
0.0
 48
0.0
 49
0.0
140
0.0
141
0.0
142
1.0
143
1.0
 70
   688
 72
     0
 73
     0
 74
     5
  7

 75
    16
147
1.0
148
0.0
149
0.0
100
AcDbLayout
  1
Layout1
 70
     1
 71
     1
 10
0.0
 20
0.0
 11
12.0
 21
9.0
 12
0.0
 22
0.0
 32
0.0
 14
1.00000000000000E+20
 24
1.00000000000000E+20
 34
1.00000000000000E+20
 15
-1.00000000000000E+20
 25
-1.00000000000000E+20
 35
-1.00000000000000E+20
146
0.0
 13
0.0
 23
0.0
 33
0.0
 16
1.0
 26
0.0
 36
0.0
 17
0.0
 27
1.0
 37
0.0
 76
     0
330
1B
  0
LAYOUT
  5
26
102
{ACAD_REACTORS
330
1A
102
}
330
1A
100
AcDbPlotSettings
  1

  2

  4

  6

 40
0.0
 41
0.0
 42
0.0
 43
0.0
 44
0.0
 45
0.0
 46
0.0
 47
0.0
 48
0.0
 49
0.0
140
0.0
141
0.0
142
1.0
143
1.0
 70
   688
 72
     0
 73
     0
 74
     5
  7

 75
    16
147
1.0
148
0.0
149
0.0
100
AcDbLayout
  1
Layout2
 70
     1
 71
     2
 10
0.0
 20
0.0
 11
0.0
 21
0.0
 12
0.0
 22
0.0
 32
0.0
 14
0.0
 24
0.0
 34
0.0
 15
0.0
 25
0.0
 35
0.0
146
0.0
 13
0.0
 23
0.0
 33
0.0
 16
1.0
 26
0.0
 36
0.0
 17
0.0
 27
1.0
 37
0.0
 76
     0
330
23
  0
LAYOUT
  5
22
102
{ACAD_REACTORS
330
1A
102
}
330
1A
100
AcDbPlotSettings
  1

  2

  4

  6

 40
0.0
 41
0.0
 42
0.0
 43
0.0
 44
0.0
 45
0.0
 46
0.0
 47
0.0
 48
0.0
 49
0.0
140
0.0
141
0.0
142
1.0
143
1.0
 70
  1712
 72
     0
 73
     0
 74
     0
  7

 75
     0
147
1.0
148
0.0
149
0.0
100
AcDbLayout
  1
Model
 70
     1
 71
     0
 10
0.0
 20
0.0
 11
0.0
 21
0.0
 12
0.0
 22
0.0
 32
0.0
 14
0.0
 24
0.0
 34
0.0
 15
315.0
 25
445.5
 35
0.0
146
0.0
 13
0.0
 23
0.0
 33
0.0
 16
1.0
 26
0.0
 36
0.0
 17
0.0
 27
1.0
 37
0.0
 76
     0
330
1F
  0
MLINESTYLE
  5
18
102
{ACAD_REACTORS
330
17
102
}
330
17
100
AcDbMlineStyle
  2
Standard
 70
     0
  3

 62
   256
 51
90.0
 52
90.0
 71
     2
 49
0.5
 62
   256
  6
BYLAYER
 49
-0.5
 62
   256
  6
BYLAYER
  0
ACDBPLACEHOLDER
  5
F
102
{ACAD_REACTORS
330
E
102
}
330
E
  0
TABLESTYLE
  5
2B
102
{ACAD_REACTORS
330
2A
102
}
330
2A
100
AcDbTableStyle
  3
Standard
 70
     0
 71
     0
 40
0.06
 41
0.06
280
     0
281
     0
  7
Standard
140
0.18
170
     2
 62
     0
 63
     7
283
     0
274
    -2
284
     1
 64
     0
275
    -2
285
     1
 65
     0
276
    -2
286
     1
 66
     0
277
    -2
287
     1
 67
     0
278
    -2
288
     1
 68
     0
279
    -2
289
     1
 69
     0
  7
Standard
140
0.25
170
     5
 62
     0
 63
     7
283
     0
274
    -2
284
     1
 64
     0
275
    -2
285
     1
 65
     0
276
    -2
286
     1
 66
     0
277
    -2
287
     1
 67
     0
278
    -2
288
     1
 68
     0
279
    -2
289
     1
 69
     0
  7
Standard
140
0.18
170
     5
 62
     0
 63
     7
283
     0
274
    -2
284
     1
 64
     0
275
    -2
285
     1
 65
     0
276
    -2
286
     1
 66
     0
277
    -2
287
     1
 67
     0
278
    -2
288
     1
 68
     0
279
    -2
289
     1
 69
     0
  0
DICTIONARYVAR
  5
2D
102
{ACAD_REACTORS
330
2C
102
}
330
2C
100
DictionaryVariables
280
     0
  1
Standard
  0
ENDSEC
  0
EOF
